<?xml version="1.0" standalone="no"?>
<!DOCTYPE svg PUBLIC "-//W3C//DTD SVG 1.1//EN" "http://www.w3.org/Graphics/SVG/1.1/DTD/svg11.dtd">
<svg xmlns="http://www.w3.org/2000/svg"><metadata>This SVG WebFont was generated by YouWorkForThem.
</metadata><defs><font horiz-adv-x="1290" id="ywftsvg"><font-face ascent="1536" bbox="0 -514 1286 2212" cap-height="1434" descent="-512" font-family="" font-stretch="normal" font-weight="400" panose-1="0 0 0 0 0 0 0 0 0 0" underline-position="0" underline-thickness="0" unicode-range="U+0020-1F6AB" units-per-em="2048" x-height="1024"/><missing-glyph horiz-adv-x="1024"/><glyph glyph-name=".notdef" horiz-adv-x="1024"/><glyph glyph-name="uni0000" horiz-adv-x="0"/><glyph glyph-name="glyph2" horiz-adv-x="681"/><glyph glyph-name="space" unicode=" "/><glyph d="M522 1434h246q0 -395 -41 -861h-164q-41 466 -41 861zM461 0v328h368v-328h-368z" glyph-name="exclam" unicode="!"/><glyph d="M778 922q-41 410 -41 614h287q0 -205 -41 -614h-205zM266 1536h287q0 -205 -41 -614h-205q-41 409 -41 614z" glyph-name="quotedbl" unicode="&quot;"/><glyph d="M133 451v163h205l61 246h-163v164h204l103 410h194l-102 -410h184l103 410h194l-102 -410h143v-164h-184l-62 -246h144v-163h-185l-112 -451h-195l113 451h-184l-113 -451h-195l113 451h-164zM532 614h185l61 246h-184z" glyph-name="numbersign" unicode="#"/><glyph d="M559 557q-190 20 -272 127t-82 248q0 147 86 248.5t268 117.5v238h174v-246q150 -23 291 -112v-215q-147 106 -291 133v-355q174 -23 263 -124t89 -238q0 -141 -87 -253t-265 -132v-250h-174v252q-162 16 -354 106v226q199 -115 354 -133v362zM733 199q152 31 152 180 q0 139 -152 166v-346zM559 1098q-154 -31 -153 -166q0 -139 153 -176v342z" glyph-name="dollar" unicode="$"/><glyph d="M379 809q-127 0 -212 87t-85 230.5t85 230.5t212 87t212 -87t85 -230.5t-85 -230.5t-212 -87zM911 -10q-127 0 -212 87t-85 230.5t85 230.5t212 87t212 -87t85 -230.5t-85 -230.5t-212 -87zM199 154l-117 116l1010 1010l116 -117zM784 307q0 -70 38 -108.5t89.5 -38.5 t89 39t37.5 108q0 72 -36.5 113t-90 41t-90.5 -41t-37 -113zM252 1126q0 -70 38 -108.5t89 -38.5t89 39t38 108q0 72 -37 113t-90 41t-90 -41t-37 -113z" glyph-name="percent" unicode="%"/><glyph d="M563 -10q-174 0 -291.5 109.5t-117.5 289.5q0 199 221 389q-88 176 -88 307q0 174 88 266.5t219 92.5q125 0 211 -74t86 -244q0 -78 -45 -153.5t-92 -118.5t-136 -115q72 -113 197 -268q35 127 35 266h194q0 -254 -79 -448q47 -53 138 -156.5t116 -132.5h-256 q-16 16 -34 35.5t-38.5 44t-32.5 37.5q-113 -127 -295 -127zM721 276q-150 180 -250 336q-117 -113 -117 -223q0 -80 59.5 -139.5t149.5 -59.5q92 0 158 86zM528 899q84 68 126 119t42 108q0 53 -28.5 88t-73.5 35q-47 0 -80 -47t-33 -117q0 -80 47 -186z" glyph-name="ampersand" unicode="&amp;"/><glyph d="M502 1536h286q0 -205 -40 -614h-205q-41 409 -41 614z" glyph-name="quotesingle" unicode="'"/><glyph d="M477 645q0 444 297 891h205q-301 -451 -301 -891q0 -244 69.5 -448.5t227.5 -452.5h-205q-156 246 -224.5 450.5t-68.5 450.5z" glyph-name="parenleft" unicode="("/><glyph d="M313 1536h205q297 -446 297 -891q0 -246 -68.5 -450.5t-224.5 -450.5h-205q158 248 227.5 452.5t69.5 448.5q0 440 -301 891z" glyph-name="parenright" unicode=")"/><glyph d="M526 1147q-152 61 -260 125l82 141q125 -72 238 -164q-25 143 -25 287h164q0 -135 -23 -287q109 88 240 164l82 -141q-104 -59 -262 -125q150 -57 262 -123l-82 -141q-127 74 -240 161q23 -152 23 -286h-164q0 143 25 286q-119 -92 -238 -161l-82 141q117 68 260 123z " glyph-name="asterisk" unicode="*"/><glyph d="M256 707h317v317h164v-317h318v-164h-318v-318h-164v318h-317v164z" glyph-name="plus" unicode="+"/><glyph d="M522 -256h-205q137 291 205 584h369q-146 -291 -369 -584z" glyph-name="comma" unicode=","/><glyph d="M256 563v174h778v-174h-778z" glyph-name="hyphen" unicode="-"/><glyph d="M461 0v328h368v-328h-368z" glyph-name="period" unicode="."/><glyph d="M256 -256l594 1792h184l-594 -1792h-184z" glyph-name="slash" unicode="/"/><glyph d="M143 716.5q0 147.5 25 270.5t79 229.5t156.5 167t241.5 60.5t241.5 -60.5t157 -167t79 -229.5t24.5 -270.5t-24.5 -270t-79 -229t-157 -167t-241.5 -60.5t-241.5 60.5t-156.5 167t-79 229t-25 270zM344 716.5q0 -102.5 13.5 -187.5t44 -165.5t93 -127t150.5 -46.5 t150.5 46.5t93.5 127t44 165.5t13 187.5t-13 188.5t-44 168t-93.5 129t-150.5 47t-150.5 -47t-93 -129t-44 -168t-13.5 -188.5z" glyph-name="zero" unicode="0"/><glyph d="M1075 0h-860v184h328v1008q-154 -123 -318 -168v205q139 41 318 205h194v-1250h338v-184z" glyph-name="one" unicode="1"/><glyph d="M215 174q0 119 35 216t91 162.5t125 119t137.5 96.5t124.5 84t91 92t35 111q0 90 -63.5 142t-165.5 52q-199 0 -389 -143v215q184 123 389 123q223 0 326.5 -112.5t103.5 -276.5q0 -84 -35 -155t-89 -120t-122 -95t-134.5 -93t-120.5 -101.5t-89 -132t-35 -174.5h645 v-184h-860v174z" glyph-name="two" unicode="2"/><glyph d="M215 338q82 -68 193.5 -108t205.5 -40q113 0 186.5 57.5t73.5 162.5q0 106 -70.5 175.5t-178.5 69.5h-133v195h133q94 0 161.5 57.5t67.5 147.5q0 88 -70.5 141t-169.5 53q-174 0 -358 -143v215q172 123 358 123q209 0 325 -107.5t116 -281.5q0 -106 -61.5 -182 t-162.5 -115q123 -45 183.5 -140.5t60.5 -207.5q0 -160 -117.5 -290t-343.5 -130q-96 0 -206.5 35.5t-192.5 97.5v215z" glyph-name="three" unicode="3"/><glyph d="M774 410h-604v174l594 850h205v-840h153v-184h-153v-410h-195v410zM774 1157l-379 -563h379v563z" glyph-name="four" unicode="4"/><glyph d="M604 -10q-190 0 -389 133v215q197 -147 389 -148q121 0 195.5 75t74.5 185.5t-75.5 188.5t-194.5 78q-102 0 -348 -41v758h737v-185h-542v-350q74 12 153 12q117 0 211 -43t148.5 -111.5t83 -147.5t28.5 -158.5t-28.5 -158.5t-83 -147.5t-148.5 -111.5t-211 -43z" glyph-name="five" unicode="5"/><glyph d="M174 471q0 147 38 281.5t114.5 257.5t151.5 215t188 209h266q-297 -281 -459 -572q102 49 193 49q117 0 208 -38.5t141 -104.5t75.5 -141.5t25.5 -155.5q0 -84 -28.5 -167t-83 -154.5t-148.5 -115.5t-211 -44t-211 44t-148.5 115.5t-83 154.5t-28.5 167zM375 471 q0 -119 74.5 -200t195.5 -81t195.5 81t74.5 200q0 111 -75.5 188.5t-194.5 77.5t-194.5 -77.5t-75.5 -188.5z" glyph-name="six" unicode="6"/><glyph d="M184 1249v185h922v-123q0 -98 -27.5 -185.5t-71.5 -154t-97.5 -130t-107.5 -131t-98.5 -141t-72 -175t-27.5 -220.5v-174h-194v174q0 152 36.5 284t93 219t121 169t121 141.5t93 128t36.5 133.5h-727z" glyph-name="seven" unicode="7"/><glyph d="M645 -10q-211 0 -341 121.5t-130 308.5q0 219 207 325q-166 106 -166 310q0 158 122 273.5t308 115.5t308 -116t122 -273q0 -201 -166 -307q207 -111 207 -328q0 -186 -130 -308t-341 -122zM375 420q0 -96 72.5 -163t197.5 -67t197.5 67t72.5 163q0 102 -71.5 168.5 t-198.5 66.5t-198.5 -66.5t-71.5 -168.5zM416 1055q0 -94 62.5 -154.5t167 -60.5t166.5 60.5t62 154.5q0 90 -67.5 147.5t-161.5 57.5t-161.5 -57.5t-67.5 -147.5z" glyph-name="eight" unicode="8"/><glyph d="M625 522q-154 0 -260.5 72t-148.5 170t-42 209q0 182 122 326.5t349 144.5t349 -144.5t122 -326.5q0 -147 -39 -283.5t-113.5 -260.5t-151.5 -219t-187 -210h-287q319 291 479 571q-102 -49 -192 -49zM645 1249q-121 0 -195.5 -79.5t-74.5 -196.5q0 -111 75.5 -191 t194.5 -80q121 0 195.5 79t74.5 192q0 117 -74.5 196.5t-195.5 79.5z" glyph-name="nine" unicode="9"/><glyph d="M461 0v328h368v-328h-368zM829 696h-368v328h368v-328z" glyph-name="colon" unicode=":"/><glyph d="M461 -256h-205q137 291 205 584h389q-86 -174 -170 -300t-219 -284zM461 696v328h368v-328h-368z" glyph-name="semicolon" unicode=";"/><glyph d="M1075 184l-860 369v205l860 368v-204l-665 -267l665 -266v-205z" glyph-name="less" unicode="&lt;"/><glyph d="M215 737v164h860v-164h-860zM1075 348h-860v164h860v-164z" glyph-name="equal" unicode="="/><glyph d="M881 655l-666 267v204l860 -368v-205l-860 -369v205z" glyph-name="greater" unicode=">"/><glyph d="M236 1106v205q201 133 409 133q227 0 339 -98.5t112 -260.5q0 -137 -101.5 -247.5t-267.5 -110.5v-154h-164v328q332 0 332 184q0 78 -64.5 121t-185.5 43q-194 0 -409 -143zM829 0h-368v328h368v-328z" glyph-name="question" unicode="?"/><glyph d="M133 522q0 473 138.5 697.5t383.5 224.5q260 0 360.5 -210t100.5 -712v-522h-164v211q-82 -119 -225 -119q-141 0 -229 115t-88 315q0 195 93 302.5t224 107.5q129 0 213 -98q-20 244 -89 345t-196 101q-160 0 -259 -178t-99 -580q0 -287 98.5 -450.5t259.5 -163.5 q72 0 133 20v-164q-61 -20 -133 -20q-66 0 -133 23.5t-139 81t-126 142.5t-89 223t-35 308zM778 768q-76 0 -125 -69.5t-49 -176.5q0 -115 44 -185.5t130 -70.5t130 70t44 186q0 111 -49 178.5t-125 67.5z" glyph-name="at" unicode="@"/><glyph d="M338 0h-205q125 786 373 1434h276q248 -643 375 -1434h-205q-43 283 -94 512h-426q-51 -229 -94 -512zM477 696h336q-70 279 -168 576q-90 -265 -168 -576z" glyph-name="A" unicode="A"/><glyph d="M215 1434h410q205 0 338 -99.5t133 -290.5q0 -209 -211 -303q231 -92 231 -311q0 -207 -137 -318.5t-354 -111.5h-410v1434zM410 195h215q125 0 207.5 64.5t82.5 170.5q0 104 -81.5 164.5t-208.5 60.5h-215v-460zM410 840h215q270 0 270 204.5t-270 204.5h-215v-409z" glyph-name="B" unicode="B"/><glyph d="M686 -10q-150 0 -258.5 65.5t-165.5 177t-82.5 231.5t-25.5 253t25.5 253t82.5 231.5t166 177t258 65.5q166 0 348 -123v-215q-188 143 -348 143q-94 0 -162.5 -51t-103.5 -136t-50.5 -170t-15.5 -175t15.5 -175t50.5 -168t103.5 -133.5t162.5 -50.5q158 0 369 127v-225 q-205 -102 -369 -102z" glyph-name="C" unicode="C"/><glyph d="M246 1434h358q246 0 384 -171t138 -528q0 -143 -23.5 -263t-77.5 -231.5t-161.5 -176t-259.5 -64.5h-358v1434zM440 195h164q322 0 322 540q0 285 -86 399.5t-236 114.5h-164v-1054z" glyph-name="D" unicode="D"/><glyph d="M236 1434h808v-185h-614v-409h563v-185h-563v-460h625v-195h-819v1434z" glyph-name="E" unicode="E"/><glyph d="M471 0h-195v1434h820v-185h-625v-409h584v-185h-584v-655z" glyph-name="F" unicode="F"/><glyph d="M154 717q0 109 11 203t45 193t87 170t145.5 116t212.5 45q199 0 389 -123v-215q-201 143 -389 143q-301 0 -301 -532q0 -526 301 -527q123 0 189.5 121t66.5 344h-297v185h482v-840h-164l-6 197q-96 -207 -312 -207q-131 0 -226 65.5t-143 177t-69.5 230.5t-21.5 254z " glyph-name="G" unicode="G"/><glyph d="M215 1434h195v-594h471v594h194v-1434h-194v655h-471v-655h-195v1434z" glyph-name="H" unicode="H"/><glyph d="M551 1249h-315v185h819v-185h-310v-1065h310v-184h-819v184h315v1065z" glyph-name="I" unicode="I"/><glyph d="M543 -10q-213 0 -359 102v225q74 -59 175.5 -93t183.5 -34q133 0 209.5 80t76.5 232v747h-532v185h727v-932q0 -512 -481 -512z" glyph-name="J" unicode="J"/><glyph d="M246 1434h194v-580q274 311 441 580h225q-111 -190 -219.5 -334t-302.5 -363q186 -211 305 -370.5t237 -366.5h-235q-166 291 -451 621v-621h-194v1434z" glyph-name="K" unicode="K"/><glyph d="M256 0v1434h195v-1250h665v-184h-860z" glyph-name="L" unicode="L"/><glyph d="M184 1434h246q145 -416 215 -672q70 256 215 672h246v-1434h-195v1067q-102 -303 -184 -657h-164q-82 354 -184 657v-1067h-195v1434z" glyph-name="M" unicode="M"/><glyph d="M215 1434h246q266 -514 420 -990v990h194v-1434h-246q-199 662 -419 1126v-1126h-195v1434z" glyph-name="N" unicode="N"/><glyph d="M133 716.5q0 112.5 13.5 211t49 196t92 166t147.5 111.5t210 43t210 -43t147.5 -111.5t92 -167t49 -196t13.5 -210t-13.5 -209.5t-49 -195.5t-92 -167t-147.5 -111.5t-210 -43t-210 43t-147.5 111.5t-92 167t-49 195.5t-13.5 209.5zM334 717q0 -526 311 -526.5t311 526.5 q0 532 -311 532t-311 -532z" glyph-name="O" unicode="O"/><glyph d="M451 0h-195v1434h430q201 0 336 -108.5t135 -301.5q0 -180 -137 -295t-334 -115h-235v-614zM451 1249v-450h235q125 0 197.5 59.5t72.5 165.5t-72.5 165.5t-193.5 59.5h-239z" glyph-name="P" unicode="P"/><glyph d="M133 717q0 139 26.5 262t83 230.5t160 171t242.5 63.5t242.5 -63.5t160 -171t83 -230.5t26.5 -262q0 -170 -37 -314.5t-132 -260t-243 -144.5q16 -162 164 -162q61 0 131 41t117 103v-226q-45 -45 -114.5 -73.5t-133.5 -28.5q-340 0 -358 346q-150 27 -247 142.5 t-134 260t-37 316.5zM334 717q0 -92 15.5 -178t48 -168t96 -131.5t151.5 -49.5t151.5 49.5t96.5 131.5t48 168t15 178t-15 179t-48 170t-96.5 133t-151.5 50t-151.5 -50t-96 -133t-48 -170t-15.5 -179z" glyph-name="Q" unicode="Q"/><glyph d="M225 1434h430q195 0 323 -114t128 -296q0 -150 -93 -259.5t-235 -139.5q113 -72 201 -236l209 -389h-225l-158 307q-109 211 -161 259t-163 48h-61v-614h-195v1434zM420 799h235q123 0 186.5 58t63.5 167t-63.5 167t-186.5 58h-235v-450z" glyph-name="R" unicode="R"/><glyph d="M645 -10q-199 0 -440 112v226q135 -78 232.5 -108t207.5 -30q127 0 183.5 62.5t56.5 157.5q0 96 -66.5 155.5t-173.5 59.5q-123 0 -214 38.5t-138 102t-67.5 130.5t-20.5 138q0 70 23.5 138.5t72.5 131t138 101.5t206 39q186 0 379 -123v-215q-201 143 -379 143 q-98 0 -168.5 -56t-70.5 -159q0 -90 56 -152.5t183 -62.5q109 0 197 -40t139 -102.5t77.5 -132t26.5 -134.5q0 -72 -23.5 -142.5t-72.5 -134t-138 -103.5t-206 -40z" glyph-name="S" unicode="S"/><glyph d="M143 1249v185h1004v-185h-410v-1249h-194v1249h-400z" glyph-name="T" unicode="T"/><glyph d="M645.5 -10q-196.5 0 -323.5 131t-127 381v932h194v-932q0 -150 68.5 -231t187.5 -81t187.5 81t68.5 231v932h195v-932q0 -250 -127 -381t-323.5 -131z" glyph-name="U" unicode="U"/><glyph d="M133 1434h215q63 -350 121.5 -596t175.5 -633q117 387 175.5 632.5t121.5 596.5h215q-80 -399 -149.5 -670.5t-219.5 -763.5h-286q-152 500 -221.5 771.5t-147.5 662.5z" glyph-name="V" unicode="V"/><glyph d="M154 1434h194q0 -694 33 -1110q80 297 151 700h205q72 -356 172 -709q33 422 33 1119h195q0 -406 -13.5 -700t-58.5 -734h-236q-125 412 -190 676q-59 -289 -178 -676h-236q-45 440 -58 734t-13 700z" glyph-name="W" unicode="W"/><glyph d="M174 0l358 715l-348 719h215l248 -512l244 512h215l-348 -709l358 -725h-225l-248 522l-244 -522h-225z" glyph-name="X" unicode="X"/><glyph d="M549 614q-276 471 -416 820h215q119 -319 297 -615q178 295 297 615h215q-137 -342 -414 -820v-614h-194v614z" glyph-name="Y" unicode="Y"/><glyph d="M236 1249v185h829v-174l-625 -1076h635v-184h-860v174l637 1075h-616z" glyph-name="Z" unicode="Z"/><glyph d="M963 -256h-512v1792h512v-164h-328v-1464h328v-164z" glyph-name="bracketleft" unicode="["/><glyph d="M440 1536l594 -1792h-184l-594 1792h184z" glyph-name="backslash" unicode="\"/><glyph d="M328 -102h327v1484h-327v154h512v-1792h-512v154z" glyph-name="bracketright" unicode="]"/><glyph d="M256 922q125 291 287 512h205q162 -221 286 -512h-205q-82 211 -184 358q-102 -147 -184 -358h-205z" glyph-name="asciicircum" unicode="^"/><glyph d="M184 -256v174h922v-174h-922z" glyph-name="underscore" unicode="_"/><glyph d="M440 1536h287q86 -184 123 -348h-205q-72 158 -205 348z" glyph-name="grave" unicode="`"/><glyph d="M594 -10q-178 0 -283.5 94t-105.5 233q0 141 105.5 239.5t283.5 98.5q186 0 301 -110v110q0 82 -64.5 138.5t-185.5 56.5q-172 0 -389 -102v184q217 102 389 102q207 0 323.5 -109.5t116.5 -269.5v-655h-190v96q-113 -106 -301 -106zM399 317.5q0 -71.5 62.5 -112.5 t183.5 -41t185.5 41t64.5 112.5t-65.5 117.5t-184.5 46t-182.5 -46t-63.5 -117.5z" glyph-name="a" unicode="a"/><glyph d="M205 0v1434h190v-570q115 170 312 170q180 0 299.5 -141t119.5 -381t-119.5 -381t-299.5 -141q-197 0 -312 170v-160h-190zM395 512q0 -160 78 -244t192.5 -84t190.5 84t76 244q0 162 -76 250t-190.5 88t-192.5 -88t-78 -250z" glyph-name="b" unicode="b"/><glyph d="M666 -10q-195 0 -333 140t-138 382t138 382t333 140q186 0 368 -112v-185q-182 113 -368 113q-117 0 -197 -86t-80 -252t79 -247t198 -81q199 0 389 103v-195q-190 -102 -389 -102z" glyph-name="c" unicode="c"/><glyph d="M164 512q0 240 119.5 381t300.5 141q197 0 311 -170v570h190v-1434h-190v160q-115 -170 -311 -170q-180 0 -300 141t-120 381zM624.5 850q-114.5 0 -190.5 -88t-76 -250q0 -160 76 -244t190.5 -84t192.5 84t78 244q0 162 -78 250t-192.5 88z" glyph-name="d" unicode="d"/><glyph d="M184 512q0 242 136.5 382t325 140t324.5 -140t136 -382v-86h-721q16 -123 97 -182.5t184 -59.5q176 0 389 103v-195q-213 -102 -389 -102q-190 0 -336 141t-146 381zM645 850q-106 0 -178 -61.5t-82 -190.5h520q-35 252 -260 252z" glyph-name="e" unicode="e"/><glyph d="M492 850h-318v174h318q0 188 99 304t279 116q51 0 127 -30t119 -73v-184q-43 43 -118.5 73t-127.5 30q-102 0 -145 -60.5t-43 -175.5h434v-174h-434v-676h352v-174h-860v174h318v676z" glyph-name="f" unicode="f"/><glyph d="M573 -10q-168 0 -288.5 142t-120.5 380t121 380t288 142q211 0 322 -157v147h190v-1157q0 -158 -122.5 -268.5t-329.5 -110.5q-190 0 -408 102v185q217 -102 391 -103q129 0 204 57.5t75 137.5v280q-111 -157 -322 -157zM358 512q0 -160 76 -244t190.5 -84t192.5 84 t78 244q0 162 -78 250t-192.5 88t-190.5 -88t-76 -250z" glyph-name="g" unicode="g"/><glyph d="M225 1434h191v-555q109 156 311 155q184 0 261 -129t77 -393v-512h-191v512q0 172 -46 255t-152 83q-113 0 -186.5 -88t-73.5 -250v-512h-191v1434z" glyph-name="h" unicode="h"/><glyph d="M174 0v174h379v676h-328v174h518v-850h373v-174h-942zM502 1188v246h286v-246h-286z" glyph-name="i" unicode="i"/><glyph d="M123 -225q197 -102 358 -103q135 0 211 54.5t76 140.5v983h-410v174h600v-1157q0 -141 -124.5 -260t-321.5 -119q-193 0 -389 102v185zM717 1434h287v-246h-287v246z" glyph-name="j" unicode="j"/><glyph d="M276 0v1434h191v-807q221 201 393 397h256q-217 -246 -491 -481q180 -158 282.5 -267.5t229.5 -275.5h-246q-106 137 -197.5 236.5t-226.5 222.5v-459h-191z" glyph-name="k" unicode="k"/><glyph d="M174 0v174h379v1086h-369v174h559v-1260h373v-174h-942z" glyph-name="l" unicode="l"/><glyph d="M133 1024h191v-113q86 123 219 123q139 0 176 -135q80 135 233 135q51 0 87 -13t57.5 -50t35 -69t18.5 -106.5t6 -124.5t1 -159v-512h-190v512q0 178 -18.5 258t-88.5 80q-63 0 -91 -75t-28 -263v-512h-192v512q0 174 -17.5 256t-81 82t-95 -77t-31.5 -261v-512h-191 v1024z" glyph-name="m" unicode="m"/><glyph d="M225 1024h191v-154q113 164 311 164q184 0 261 -129t77 -393v-512h-191v512q0 172 -46 255t-152 83q-113 0 -186.5 -88t-73.5 -250v-512h-191v1024z" glyph-name="n" unicode="n"/><glyph d="M164 512q0 231 133 376.5t348 145.5t348 -145.5t133 -376.5t-133 -376.5t-348 -145.5t-348 145.5t-133 376.5zM358 512q0 -164 84 -246t203 -82t203 82t84 246q0 166 -84 252t-203 86t-203 -86t-84 -252z" glyph-name="o" unicode="o"/><glyph d="M205 -512v1536h190v-154q115 164 312 164q180 0 299.5 -137t119.5 -375q0 -240 -120.5 -386t-298.5 -146q-197 0 -312 176v-678h-190zM665.5 850q-114.5 0 -192.5 -84t-78 -244q0 -162 78 -250t192.5 -88t190.5 88t76 250q0 160 -76 244t-190.5 84z" glyph-name="p" unicode="p"/><glyph d="M164 522q0 238 119.5 375t300.5 137q197 0 311 -164v154h190v-1536h-190v678q-115 -176 -311 -176q-178 0 -299 146t-121 386zM358 522q0 -162 76 -250t190.5 -88t192.5 88t78 250q0 160 -78 244t-192.5 84t-190.5 -84t-76 -244z" glyph-name="q" unicode="q"/><glyph d="M174 1024h395v-162q100 172 301 172q74 0 143.5 -30.5t102.5 -71.5v-184q-102 102 -246 102q-135 0 -218 -104.5t-83 -335.5v-236h414v-174h-809v174h205v676h-205v174z" glyph-name="r" unicode="r"/><glyph d="M645 -10q-201 0 -420 102v195q256 -102 410 -103q240 0 239 133q0 55 -45 84t-184 29q-399 0 -399 297q0 139 93 223t296 84q184 0 389 -102v-184q-205 102 -379 102q-215 0 -215 -123q0 -113 234 -113q76 0 142 -13t126.5 -45t96.5 -93.5t36 -145.5q0 -119 -71.5 -196.5 t-161 -104t-187.5 -26.5z" glyph-name="s" unicode="s"/><glyph d="M133 850v174h297v410h191v-410h454v-174h-454v-440q0 -236 206 -236q51 0 128 29.5t120 72.5v-184q-43 -43 -119.5 -72.5t-128.5 -29.5q-184 0 -290.5 118.5t-106.5 301.5v440h-297z" glyph-name="t" unicode="t"/><glyph d="M225 512v512h191v-512q0 -166 58 -252t161 -86q111 0 175 87t64 251v512h191v-1024h-191v139q-104 -150 -290 -149q-359 0 -359 522z" glyph-name="u" unicode="u"/><glyph d="M164 1024h205q106 -416 276 -815q174 414 277 815h204q-74 -270 -150.5 -482t-227.5 -542h-205q-152 326 -227.5 537t-151.5 487z" glyph-name="v" unicode="v"/><glyph d="M133 1024h195q41 -475 112 -768q59 213 121 522h170q55 -295 121 -526q84 332 111 772h194q-45 -502 -209 -1024h-190q-63 209 -109 393q-37 -156 -117 -393h-190q-164 522 -209 1024z" glyph-name="w" unicode="w"/><glyph d="M174 0l338 522l-317 502h225l225 -369l225 369h226l-318 -502l338 -522h-225l-246 389l-246 -389h-225z" glyph-name="x" unicode="x"/><glyph d="M154 -410v185q41 -43 115.5 -73t133.5 -30q117 0 158 129l62 203q-242 457 -387 1020h204q92 -401 256 -782l240 782h201l-400 -1278q-37 -119 -128 -188.5t-222 -69.5q-47 0 -119.5 29.5t-113.5 72.5z" glyph-name="y" unicode="y"/><glyph d="M461 174h614v-174h-860v174l625 676h-604v174h829v-174z" glyph-name="z" unicode="z"/><glyph d="M451 553h-103v164h103q61 0 102 41t41 102v307q0 190 73.5 279.5t254.5 89.5h102v-164h-102q-86 0 -115 -50t-29 -155v-307q0 -78 -44 -140.5t-120 -84.5q76 -23 120 -85.5t44 -139.5v-308q0 -100 30 -147t116 -47h100v-164h-102q-180 0 -254 85t-74 273v308 q0 61 -41 102t-102 41z" glyph-name="braceleft" unicode="{"/><glyph d="M559 -256v1792h174v-1792h-174z" glyph-name="bar" unicode="|"/><glyph d="M369 1372h-103v164h103q180 0 253.5 -89t73.5 -280v-307q0 -61 41 -102t103 -41h102v-164h-102q-61 0 -102.5 -41t-41.5 -102v-308q0 -188 -73.5 -273t-253.5 -85h-103v164h101q86 0 115.5 47t29.5 147v308q0 78 44 140t120 85q-76 23 -120 85t-44 140v307 q0 104 -28.5 154.5t-114.5 50.5z" glyph-name="braceright" unicode="}"/><glyph d="M256 717q41 41 104.5 71.5t120.5 30.5q74 0 186.5 -71.5t172.5 -71.5q78 0 235 123v-195q-43 -43 -110.5 -77.5t-124.5 -34.5q-74 0 -186.5 71.5t-172.5 71.5q-94 0 -225 -103v185z" glyph-name="asciitilde" unicode="~"/><glyph d="M461 1085v349h368v-349h-368zM768 0h-246q0 426 51 860h144q51 -434 51 -860z" glyph-name="exclamdown" unicode="¡"/><glyph d="M184 676q0 221 116 357t290 161v342h174v-348q100 -18 240 -103v-184q-139 84 -240 103v-648q127 23 260 95v-195q-133 -72 -260 -94v-418h-174v414q-174 25 -290 161t-116 357zM590 1006q-94 -20 -152.5 -104.5t-58.5 -225.5t58.5 -220t152.5 -102v652z" glyph-name="cent" unicode="¢"/><glyph d="M215 635v174h195v215q0 188 99 304t279 116q53 0 138.5 -30t128.5 -73v-184q-43 43 -128 73t-139 30q-102 0 -145 -60.5t-43 -175.5v-215h393v-174h-393q0 -307 -143 -461h598v-174h-840v174q195 135 195 461h-195z" glyph-name="sterling" unicode="£"/><glyph d="M455 778q-209 373 -322 656h215q119 -319 297 -615q178 295 297 615h215q-113 -283 -321 -656h239v-164h-332v-143h332v-164h-332v-307h-194v307h-334v164h334v143h-334v164h240z" glyph-name="yen" unicode="¥"/><glyph d="M563 -256v727h164v-727h-164zM727 819h-164v717h164v-717z" glyph-name="brokenbar" unicode="¦"/><glyph d="M645 -10q-201 0 -420 102v195q256 -102 410 -103q240 0 239 133q0 55 -45 84t-184 29q-399 0 -399 297q0 115 102 184q-102 74 -102 226q0 139 93 223t296 84q184 0 389 -103v-184q-205 102 -379 103q-215 0 -215 -123q0 -113 236 -113q104 0 188 -22.5t147.5 -93 t63.5 -181.5q0 -123 -107 -188q106 -76 107 -222q0 -119 -71.5 -196.5t-161 -104t-187.5 -26.5zM645 840q-215 0 -215 -113q0 -55 47 -84t182 -29q43 0 74 3.5t67 13.5t55 34.5t19 61.5q0 57 -52 85t-177 28z" glyph-name="section" unicode="§"/><glyph d="M1004 1188h-267v246h267v-246zM553 1188h-266v246h266v-246z" glyph-name="dieresis" unicode="¨"/><glyph d="M133 706.5q0 239.5 141.5 391t370.5 151.5t370.5 -151.5t141.5 -391t-141.5 -391t-370.5 -151.5t-370.5 151.5t-141.5 391zM256 706.5q0 -192.5 106.5 -306t282.5 -113.5t282.5 113.5t106.5 306t-106.5 306t-282.5 113.5t-282.5 -113.5t-106.5 -306zM399 706.5 q0 118.5 66.5 197.5t179.5 79q94 0 184 -72v-133q-82 82 -184 82q-59 0 -91 -44t-32 -109.5t32 -109.5t91 -44q94 0 184 72v-133q-76 -61 -184 -62q-113 0 -179.5 79t-66.5 197.5z" glyph-name="copyright" unicode="©"/><glyph d="M604 819q-94 0 -156.5 57.5t-62.5 147.5t62.5 142.5t156.5 52.5q76 0 117 -33q-2 57 -25.5 80.5t-81.5 23.5q-100 0 -198 -61v164q109 51 219 51q129 0 190.5 -60.5t61.5 -205.5v-349h-164v25q-47 -35 -119 -35zM549 1024q0 -41 86 -41q88 0 88 41t-88 41q-86 0 -86 -41z " glyph-name="ordfeminine" unicode="ª"/><glyph d="M567 1024l117 -117l-262 -258l262 -262l-117 -115l-377 377zM983 1024l117 -117l-262 -258l262 -262l-117 -115l-377 377z" glyph-name="guillemotleft" unicode="«"/><glyph d="M184 563v174h922v-481h-184v307h-738z" glyph-name="logicalnot" unicode="¬"/><glyph d="M645 358q-229 0 -370.5 152t-141.5 391.5t141.5 391t370.5 151.5t370.5 -151.5t141.5 -391t-141.5 -391.5t-370.5 -152zM645 1321q-176 0 -282.5 -113.5t-106.5 -306t106.5 -306.5t282.5 -114t282.5 114t106.5 306.5t-106.5 306t-282.5 113.5zM451 625v553h211 q76 0 126 -46.5t50 -119.5q0 -125 -121 -150q41 -37 71 -94l82 -143h-143l-51 110q-35 78 -55.5 99.5t-45.5 21.5v-231h-124zM575 958h72q68 0 68 54q0 55 -68 55h-72v-109z" glyph-name="registered" unicode="®"/><glyph d="M297 1188v184h696v-184h-696z" glyph-name="macron" unicode="¯"/><glyph d="M266 1044q0 166 104.5 283t274.5 117t274.5 -117t104.5 -283q0 -164 -104.5 -281.5t-274.5 -117.5t-274.5 117.5t-104.5 281.5zM451 1044q0 -92 53 -158.5t141 -66.5t141.5 66.5t53.5 158.5q0 94 -53.5 160t-141.5 66t-141 -66t-53 -160z" glyph-name="degree" unicode="°"/><glyph d="M438 932q0 80 25.5 134t61.5 77.5t72 38t61.5 27t25.5 30.5q0 35 -41 35q-92 0 -194 -49v164q98 55 215 55q88 0 139 -50.5t51 -154.5q0 -70 -38 -111t-83 -53t-83 -36.5t-38 -65.5h242v-154h-416v113z" glyph-name="uni00B2" unicode="²"/><glyph d="M430 1014q82 -41 184 -41q76 0 76 51t-86 51h-51v123h51q76 0 76 51q0 41 -66 41q-61 0 -163 -51v154q68 51 184 51q94 0 154.5 -46t60.5 -128q0 -41 -22.5 -80t-59.5 -57q41 -12 66.5 -46t25.5 -83q0 -84 -60.5 -139.5t-164.5 -55.5q-129 0 -205 45v160z" glyph-name="uni00B3" unicode="³"/><glyph d="M645 1188h-205q37 164 123 348h287q-133 -190 -205 -348z" glyph-name="acute" unicode="´"/><glyph d="M225 1024h191v-512q0 -166 58 -252t161 -86q111 0 175 87t64 251v512h191v-1024h-191v137q-100 -147 -270 -147q-119 0 -188 80v-582h-191v1536z" glyph-name="uni00B5" unicode="µ"/><glyph d="M676 717q-197 0 -334 114.5t-137 294.5q0 193 135 301.5t336 108.5h491v-1792h-163v1628h-164v-1628h-164v973z" glyph-name="paragraph" unicode="¶"/><glyph d="M461 614v328h368v-328h-368z" glyph-name="periodcentered" unicode="·"/><glyph d="M471 -471v184q82 -41 174 -41q113 0 113 61.5t-113 61.5h-82v236h164v-113q98 0 156.5 -56.5t58.5 -148.5q0 -104 -79 -164.5t-197 -60.5q-113 0 -195 41z" glyph-name="cedilla" unicode="¸"/><glyph d="M594 1249q-82 -41 -143 -41v164q82 20 143 62h164v-615h-164v430z" glyph-name="uni00B9" unicode="¹"/><glyph d="M358 1126q0 152 82 235t205 83t205 -83t82 -235q0 -150 -83 -233.5t-204 -83.5t-204 83.5t-83 233.5zM522 1126.5q0 -79.5 36 -121.5t87 -42t87 42t36 121.5t-36 121.5t-87 42t-87 -42t-36 -121.5z" glyph-name="ordmasculine" unicode="º"/><glyph d="M723 1024l377 -375l-377 -377l-117 115l262 262l-262 258zM307 1024l377 -375l-377 -377l-117 115l263 262l-263 258z" glyph-name="guillemotright" unicode="»"/><glyph d="M82 270l1010 1010l116 -117l-1009 -1009zM573 154v122l267 338h153v-338h72v-122h-72v-154h-164v154h-256zM205 1372q82 20 143 62h164v-615h-164v430q-82 -41 -143 -41v164zM829 416l-112 -140h112v140z" glyph-name="onequarter" unicode="¼"/><glyph d="M199 154l-117 116l1010 1010l116 -117zM1133 0h-416v113q0 80 25.5 134t61.5 77.5t71.5 38t61.5 26.5t26 31q0 35 -41 35q-92 0 -195 -49v163q98 55 215 56q88 0 139.5 -50.5t51.5 -154.5q0 -70 -38 -111t-83 -53t-83 -36.5t-38 -65.5h242v-154zM348 1249 q-82 -41 -143 -41v164q82 20 143 62h164v-615h-164v430z" glyph-name="onehalf" unicode="½"/><glyph d="M82 270l1010 1010l116 -117l-1009 -1009zM164 1014q82 -41 184 -41q76 0 76 51t-86 51h-51v123h51q76 0 76 51q0 41 -66 41q-61 0 -164 -51v154q68 51 185 51q94 0 154.5 -46t60.5 -128q0 -41 -22.5 -80t-59.5 -57q41 -12 66.5 -46t25.5 -83q0 -84 -60.5 -139.5 t-164.5 -55.5q-129 0 -205 45v160zM573 276l267 338h153v-338h72v-122h-72v-154h-164v154h-256v122zM829 416l-112 -140h112v140z" glyph-name="threequarters" unicode="¾"/><glyph d="M215 348q0 135 100.5 238.5t268.5 103.5v170h164v-348q-332 0 -332 -164q0 -78 64.5 -121t185.5 -43q195 0 409 144v-205q-199 -133 -409 -133q-227 0 -339 98t-112 260zM481 1434h369v-328h-369v328z" glyph-name="questiondown" unicode="¿"/><glyph d="M338 0h-205q125 786 373 1434h276q248 -643 375 -1434h-205q-43 283 -94 512h-426q-51 -229 -94 -512zM477 696h336q-70 279 -168 576q-90 -265 -168 -576zM338 1946h287q86 -184 123 -349h-205q-72 159 -205 349z" glyph-name="Agrave" unicode="À"/><glyph d="M338 0h-205q125 786 373 1434h276q248 -643 375 -1434h-205q-43 283 -94 512h-426q-51 -229 -94 -512zM477 696h336q-70 279 -168 576q-90 -265 -168 -576zM748 1597h-205q37 164 123 349h286q-132 -191 -204 -349z" glyph-name="Aacute" unicode="Á"/><glyph d="M133 0q125 786 373 1434h276q248 -643 375 -1434h-205q-43 283 -94 512h-426q-51 -229 -94 -512h-205zM297 1597q102 190 246 349h205q143 -158 245 -349h-225q-61 123 -123 205q-61 -82 -123 -205h-225zM477 696h336q-70 279 -168 576q-90 -265 -168 -576z" glyph-name="Acircumflex" unicode="Â"/><glyph d="M338 0h-205q125 786 373 1434h276q248 -643 375 -1434h-205q-43 283 -94 512h-426q-51 -229 -94 -512zM451 1608h-164q0 170 58 254t157 84q53 0 108.5 -43t99.5 -87t68 -44q61 0 62 163h164q0 -166 -56.5 -252t-159.5 -86q-53 0 -108 43t-99 87.5t-69 44.5 q-61 0 -61 -164zM477 696h336q-70 279 -168 576q-90 -265 -168 -576z" glyph-name="Atilde" unicode="Ã"/><glyph d="M338 0h-205q125 786 373 1434h276q248 -643 375 -1434h-205q-43 283 -94 512h-426q-51 -229 -94 -512zM477 696h336q-70 279 -168 576q-90 -265 -168 -576zM1004 1597h-267v246h267v-246zM553 1597h-266v246h266v-246z" glyph-name="Adieresis" unicode="Ä"/><glyph d="M338 0h-205q127 786 369 1425q-154 78 -154 275q0 137 83 222t214 85t214 -85t83 -222q0 -197 -156 -277q244 -631 371 -1423h-205q-43 283 -94 512h-426q-51 -229 -94 -512zM477 696h336q-70 279 -168 576q-90 -265 -168 -576zM532 1699.5q0 -59.5 32 -91t81 -31.5 t81 31.5t32 91t-32 91.5t-81 32t-81 -32t-32 -91.5z" glyph-name="Aring" unicode="Å"/><glyph d="M328 0h-205q125 786 373 1434h651v-185h-318v-409h308v-185h-308v-460h318v-195h-512v512h-213q-51 -229 -94 -512zM467 696h168v578q-100 -306 -168 -578z" glyph-name="AE" unicode="Æ"/><glyph d="M543 8q-109 29 -188 102.5t-120.5 176t-61 209t-19.5 221.5q0 133 25.5 253t82.5 231.5t166 177t258 65.5q166 0 348 -123v-215q-188 143 -348 143q-94 0 -162.5 -51t-103.5 -136t-50.5 -170t-15.5 -175t15.5 -175t50.5 -168t103.5 -133.5t162.5 -50.5q158 0 369 127 v-225q-197 -98 -348 -102v-72q98 0 156.5 -56.5t58.5 -148.5q0 -104 -79 -164.5t-198 -60.5q-113 0 -194 41v184q82 -41 174 -41q113 0 112.5 61.5t-112.5 61.5h-82v213z" glyph-name="Ccedilla" unicode="Ç"/><glyph d="M236 1434h808v-185h-614v-409h563v-185h-563v-460h625v-195h-819v1434zM338 1946h287q86 -184 123 -349h-205q-72 159 -205 349z" glyph-name="Egrave" unicode="È"/><glyph d="M236 0v1434h808v-185h-614v-409h563v-185h-563v-460h625v-195h-819zM543 1597q37 164 123 349h286q-133 -190 -204 -349h-205z" glyph-name="Eacute" unicode="É"/><glyph d="M236 1434h808v-185h-614v-409h563v-185h-563v-460h625v-195h-819v1434zM522 1597h-225q102 190 246 349h205q143 -158 245 -349h-225q-61 123 -123 205q-62 -82 -123 -205z" glyph-name="Ecircumflex" unicode="Ê"/><glyph d="M1055 0h-819v1434h808v-185h-614v-409h563v-185h-563v-460h625v-195zM1004 1597h-267v246h267v-246zM287 1597v246h266v-246h-266z" glyph-name="Edieresis" unicode="Ë"/><glyph d="M236 1434h819v-185h-310v-1065h310v-184h-819v184h315v1065h-315v185zM338 1946h287q86 -184 123 -349h-205q-72 159 -205 349z" glyph-name="Igrave" unicode="Ì"/><glyph d="M236 1434h819v-185h-310v-1065h310v-184h-819v184h315v1065h-315v185zM748 1597h-205q37 164 123 349h286q-132 -191 -204 -349z" glyph-name="Iacute" unicode="Í"/><glyph d="M236 1434h819v-185h-310v-1065h310v-184h-819v184h315v1065h-315v185zM297 1597q102 190 246 349h205q143 -158 245 -349h-225q-61 123 -123 205q-61 -82 -123 -205h-225z" glyph-name="Icircumflex" unicode="Î"/><glyph d="M236 1249v185h819v-185h-310v-1065h310v-184h-819v184h315v1065h-315zM1004 1597h-267v246h267v-246zM287 1843h266v-246h-266v246z" glyph-name="Idieresis" unicode="Ï"/><glyph d="M68 819h194v615h359q246 0 384 -171t138 -528q0 -143 -23.5 -263t-78 -231.5t-162 -176t-258.5 -64.5h-359v645h-194v174zM457 819h194v-174h-194v-450h164q322 0 321 540q0 285 -86 399.5t-235 114.5h-164v-430z" glyph-name="Eth" unicode="Ð"/><glyph d="M410 0h-195v1434h246q266 -514 420 -990v990h194v-1434h-246q-199 662 -419 1126v-1126zM287 1608q0 170 58 254t157 84q53 0 108.5 -43t99.5 -87t68 -44q61 0 62 163h164q0 -166 -56.5 -252t-159.5 -86q-53 0 -108 43t-99 87.5t-69 44.5q-61 0 -61 -164h-164z" glyph-name="Ntilde" unicode="Ñ"/><glyph d="M133 716.5q0 112.5 13.5 211t49 196t92 166t147.5 111.5t210 43t210 -43t147.5 -111.5t92 -167t49 -196t13.5 -210t-13.5 -209.5t-49 -195.5t-92 -167t-147.5 -111.5t-210 -43t-210 43t-147.5 111.5t-92 167t-49 195.5t-13.5 209.5zM334 717q0 -526 311 -526.5t311 526.5 q0 532 -311 532t-311 -532zM543 1597q-72 158 -205 349h287q86 -184 123 -349h-205z" glyph-name="Ograve" unicode="Ò"/><glyph d="M133 716.5q0 112.5 13.5 211t49 196t92 166t147.5 111.5t210 43t210 -43t147.5 -111.5t92 -167t49 -196t13.5 -210t-13.5 -209.5t-49 -195.5t-92 -167t-147.5 -111.5t-210 -43t-210 43t-147.5 111.5t-92 167t-49 195.5t-13.5 209.5zM334 717q0 -526 311 -526.5t311 526.5 q0 532 -311 532t-311 -532zM543 1597q37 164 123 349h286q-133 -190 -204 -349h-205z" glyph-name="Oacute" unicode="Ó"/><glyph d="M133 716.5q0 112.5 13.5 211t49 196t92 166t147.5 111.5t210 43t210 -43t147.5 -111.5t92 -167t49 -196t13.5 -210t-13.5 -209.5t-49 -195.5t-92 -167t-147.5 -111.5t-210 -43t-210 43t-147.5 111.5t-92 167t-49 195.5t-13.5 209.5zM334 717q0 -526 311 -526.5t311 526.5 q0 532 -311 532t-311 -532zM522 1597h-225q102 190 246 349h205q143 -158 245 -349h-225q-61 123 -123 205q-62 -82 -123 -205z" glyph-name="Ocircumflex" unicode="Ô"/><glyph d="M645 -10q-119 0 -210 43t-147.5 111.5t-92 167t-49 195.5t-13.5 209.5t13.5 211t49 196t92 166t147.5 111.5t210 43t210 -43t147.5 -111.5t92 -167t49 -196t13.5 -210t-13.5 -209.5t-49 -195.5t-92 -167t-147.5 -111.5t-210 -43zM334 717q0 -526 311 -526.5t311 526.5 q0 532 -311 532t-311 -532zM451 1608h-164q0 170 58 254t157 84q53 0 108.5 -43t99.5 -87t68 -44q61 0 62 163h164q0 -166 -56.5 -252t-159.5 -86q-53 0 -108 43t-99 87.5t-69 44.5q-61 0 -61 -164z" glyph-name="Otilde" unicode="Õ"/><glyph d="M645 -10q-119 0 -210 43t-147.5 111.5t-92 167t-49 195.5t-13.5 209.5t13.5 211t49 196t92 166t147.5 111.5t210 43t210 -43t147.5 -111.5t92 -167t49 -196t13.5 -210t-13.5 -209.5t-49 -195.5t-92 -167t-147.5 -111.5t-210 -43zM334 717q0 -526 311 -526.5t311 526.5 q0 532 -311 532t-311 -532zM737 1843h267v-246h-267v246zM287 1597v246h266v-246h-266z" glyph-name="Odieresis" unicode="Ö"/><glyph d="M907 1024l117 -117l-262 -258l262 -262l-117 -115l-260 263l-262 -263l-117 115l262 262l-262 258l117 117l262 -258z" glyph-name="multiply" unicode="×"/><glyph d="M348 86q-215 172 -215 631q0 113 13.5 211t49 195.5t92 166t147.5 111.5t210 43q80 0 148 -19l36 111h185l-64 -195q207 -174 207 -624q0 -113 -13.5 -210t-49 -195.5t-92 -167t-147.5 -111.5t-210 -43q-70 0 -139 16l-86 -262h-184zM422 307l309 930q-39 12 -86 12 q-311 0 -311 -532q0 -277 88 -410zM571 199q45 -8 74 -9q311 0 311 527q0 264 -82 401z" glyph-name="Oslash" unicode="Ø"/><glyph d="M645.5 -10q-196.5 0 -323.5 131t-127 381v932h194v-932q0 -150 68.5 -231t187.5 -81t187.5 81t68.5 231v932h195v-932q0 -250 -127 -381t-323.5 -131zM543 1597q-72 158 -205 349h287q86 -184 123 -349h-205z" glyph-name="Ugrave" unicode="Ù"/><glyph d="M195 502v932h194v-932q0 -150 68.5 -231t187.5 -81t187.5 81t68.5 231v932h195v-932q0 -250 -127 -381t-323.5 -131t-323.5 131t-127 381zM748 1597h-205q37 164 123 349h286q-132 -191 -204 -349z" glyph-name="Uacute" unicode="Ú"/><glyph d="M195 502v932h194v-932q0 -150 68.5 -231t187.5 -81t187.5 81t68.5 231v932h195v-932q0 -250 -127 -381t-323.5 -131t-323.5 131t-127 381zM522 1597h-225q102 190 246 349h205q143 -158 245 -349h-225q-61 123 -123 205q-62 -82 -123 -205z" glyph-name="Ucircumflex" unicode="Û"/><glyph d="M645.5 -10q-196.5 0 -323.5 131t-127 381v932h194v-932q0 -150 68.5 -231t187.5 -81t187.5 81t68.5 231v932h195v-932q0 -250 -127 -381t-323.5 -131zM1004 1597h-267v246h267v-246zM553 1597h-266v246h266v-246z" glyph-name="Udieresis" unicode="Ü"/><glyph d="M549 614q-276 471 -416 820h215q119 -319 297 -615q178 295 297 615h215q-137 -342 -414 -820v-614h-194v614zM748 1597h-205q37 164 123 349h286q-132 -191 -204 -349z" glyph-name="Yacute" unicode="Ý"/><glyph d="M377 -256h-193v1690h193v-410h225q229 0 366.5 -110.5t137.5 -319.5q0 -211 -137.5 -325.5t-366.5 -114.5h-225v-410zM602 840h-225v-492h225q303 0 303 246t-303 246z" glyph-name="Thorn" unicode="Þ"/><glyph d="M174 0v850q0 297 129 445.5t352 148.5q203 0 311.5 -108.5t108.5 -260.5q0 -92 -56 -182t-157 -131q119 -41 186.5 -139.5t67.5 -223.5q0 -100 -38 -189t-132 -154.5t-229 -65.5q-100 0 -205 51v215q115 -66 205 -66q92 0 145 61.5t53 168t-77.5 171t-202.5 64.5h-62v195 q156 0 228.5 67.5t72.5 157.5q0 80 -57 132.5t-162 52.5q-287 0 -286 -410v-850h-195z" glyph-name="germandbls" unicode="ß"/><glyph d="M594 -10q-178 0 -283.5 94t-105.5 233q0 141 105.5 239.5t283.5 98.5q186 0 301 -110v110q0 82 -64.5 138.5t-185.5 56.5q-172 0 -389 -102v184q217 102 389 102q207 0 323.5 -109.5t116.5 -269.5v-655h-190v96q-113 -106 -301 -106zM399 317.5q0 -71.5 62.5 -112.5 t183.5 -41t185.5 41t64.5 112.5t-65.5 117.5t-184.5 46t-182.5 -46t-63.5 -117.5zM543 1188q-72 158 -205 348h287q86 -184 123 -348h-205z" glyph-name="agrave" unicode="à"/><glyph d="M594 -10q-178 0 -283.5 94t-105.5 233q0 141 105.5 239.5t283.5 98.5q186 0 301 -110v110q0 82 -64.5 138.5t-185.5 56.5q-172 0 -389 -102v184q217 102 389 102q207 0 323.5 -109.5t116.5 -269.5v-655h-190v96q-113 -106 -301 -106zM645 481q-119 0 -182.5 -46 t-63.5 -117.5t62.5 -112.5t183.5 -41t185.5 41t64.5 112.5t-65.5 117.5t-184.5 46zM543 1188q37 164 123 348h286q-133 -190 -204 -348h-205z" glyph-name="aacute" unicode="á"/><glyph d="M594 -10q-178 0 -283.5 94t-105.5 233q0 141 105.5 239.5t283.5 98.5q186 0 301 -110v110q0 82 -64.5 138.5t-185.5 56.5q-172 0 -389 -102v184q217 102 389 102q207 0 323.5 -109.5t116.5 -269.5v-655h-190v96q-113 -106 -301 -106zM645 481q-119 0 -182.5 -46 t-63.5 -117.5t62.5 -112.5t183.5 -41t185.5 41t64.5 112.5t-65.5 117.5t-184.5 46zM297 1188q102 190 246 348h205q143 -158 245 -348h-225q-61 123 -123 205q-61 -82 -123 -205h-225z" glyph-name="acircumflex" unicode="â"/><glyph d="M594 -10q-178 0 -283.5 94t-105.5 233q0 141 105.5 239.5t283.5 98.5q186 0 301 -110v110q0 82 -64.5 138.5t-185.5 56.5q-172 0 -389 -102v184q217 102 389 102q207 0 323.5 -109.5t116.5 -269.5v-655h-190v96q-113 -106 -301 -106zM287 1198q0 170 58 254t157 84 q53 0 108.5 -43t99.5 -87t68 -44q61 0 62 164h164q0 -166 -56.5 -252t-159.5 -86q-53 0 -108 43t-99 87t-69 44q-61 0 -61 -164h-164zM645 481q-119 0 -182.5 -46t-63.5 -117.5t62.5 -112.5t183.5 -41t185.5 41t64.5 112.5t-65.5 117.5t-184.5 46z" glyph-name="atilde" unicode="ã"/><glyph d="M594 -10q-178 0 -283.5 94t-105.5 233q0 141 105.5 239.5t283.5 98.5q186 0 301 -110v110q0 82 -64.5 138.5t-185.5 56.5q-172 0 -389 -102v184q217 102 389 102q207 0 323.5 -109.5t116.5 -269.5v-655h-190v96q-113 -106 -301 -106zM399 317.5q0 -71.5 62.5 -112.5 t183.5 -41t185.5 41t64.5 112.5t-65.5 117.5t-184.5 46t-182.5 -46t-63.5 -117.5zM1004 1188h-267v246h267v-246zM553 1188h-266v246h266v-246z" glyph-name="adieresis" unicode="ä"/><glyph d="M594 -10q-178 0 -283.5 94t-105.5 233q0 141 105.5 239.5t283.5 98.5q186 0 301 -110v110q0 82 -64.5 138.5t-185.5 56.5q-172 0 -389 -102v184q133 63 242 86q-150 80 -150 272q0 137 83 222t214 85t214 -85t83 -222q0 -197 -151 -272q141 -37 217.5 -136.5t76.5 -226.5 v-655h-190v96q-113 -106 -301 -106zM645 481q-119 0 -182.5 -46t-63.5 -117.5t62.5 -112.5t183.5 -41t185.5 41t64.5 112.5t-65.5 117.5t-184.5 46zM645 1413q-49 0 -81 -31.5t-32 -91t32 -91.5t81 -32t81 32t32 91.5t-32 91t-81 31.5z" glyph-name="aring" unicode="å"/><glyph d="M399 -10q-125 0 -211 92t-86 235q0 145 86 241.5t211 96.5q96 0 164 -55v57q0 96 -31.5 144.5t-111.5 48.5q-158 0 -277 -102v184q123 104 287 102q152 -2 223 -108q74 109 217 108q172 0 250 -131t78 -391v-82h-450q0 -123 38.5 -184.5t104.5 -61.5q100 0 256 103v-195 q-152 -102 -256 -102q-166 0 -250 147q-78 -147 -242 -147zM430 481q-59 0 -96 -46t-37 -118q0 -70 36 -111.5t97.5 -41.5t97 42t35.5 111q0 72 -37 118t-96 46zM748 594h266q0 135 -32 195.5t-101.5 60.5t-101 -60.5t-31.5 -195.5z" glyph-name="ae" unicode="æ"/><glyph d="M563 0q-162 35 -265 169t-103 343q0 242 138 382t333 140q186 0 368 -112v-185q-182 113 -368 113q-117 0 -197 -86t-80 -252t79 -247t198 -81q199 0 389 103v-195q-162 -88 -328 -100v-74q98 0 156.5 -56.5t58.5 -148.5q0 -104 -79 -164.5t-197 -60.5q-113 0 -195 41 v184q82 -41 174 -41q113 0 113 61.5t-113 61.5h-82v205z" glyph-name="ccedilla" unicode="ç"/><glyph d="M666 -10q-190 0 -336 141t-146 381q0 242 136.5 382t325 140t324.5 -140t136 -382v-86h-721q16 -123 97 -182.5t184 -59.5q176 0 389 103v-195q-213 -102 -389 -102zM385 598h520q-35 252 -260 252q-106 0 -178 -61.5t-82 -190.5zM543 1188q-72 158 -205 348h287 q86 -184 123 -348h-205z" glyph-name="egrave" unicode="è"/><glyph d="M184 512q0 242 136.5 382t325 140t324.5 -140t136 -382v-86h-721q16 -123 97 -182.5t184 -59.5q176 0 389 103v-195q-213 -102 -389 -102q-190 0 -336 141t-146 381zM645 850q-106 0 -178 -61.5t-82 -190.5h520q-35 252 -260 252zM748 1188h-205q37 164 123 348h286 q-132 -190 -204 -348z" glyph-name="eacute" unicode="é"/><glyph d="M666 -10q-190 0 -336 141t-146 381q0 242 136.5 382t325 140t324.5 -140t136 -382v-86h-721q16 -123 97 -182.5t184 -59.5q176 0 389 103v-195q-213 -102 -389 -102zM297 1188q102 190 246 348h205q143 -158 245 -348h-225q-61 123 -123 205q-61 -82 -123 -205h-225z M645 850q-106 0 -178 -61.5t-82 -190.5h520q-35 252 -260 252z" glyph-name="ecircumflex" unicode="ê"/><glyph d="M666 -10q-190 0 -336 141t-146 381q0 242 136.5 382t325 140t324.5 -140t136 -382v-86h-721q16 -123 97 -182.5t184 -59.5q176 0 389 103v-195q-213 -102 -389 -102zM385 598h520q-35 252 -260 252q-106 0 -178 -61.5t-82 -190.5zM1004 1188h-267v246h267v-246zM553 1188 h-266v246h266v-246z" glyph-name="edieresis" unicode="ë"/><glyph d="M184 174h389v676h-348v174h539v-850h383v-174h-963v174zM338 1536h287q86 -184 123 -348h-205q-72 158 -205 348z" glyph-name="igrave" unicode="ì"/><glyph d="M184 174h389v676h-348v174h539v-850h383v-174h-963v174zM748 1188h-205q37 164 123 348h286q-132 -190 -204 -348z" glyph-name="iacute" unicode="í"/><glyph d="M184 0v174h389v676h-348v174h539v-850h383v-174h-963zM522 1188h-225q102 190 246 348h205q143 -158 245 -348h-225q-61 123 -123 205q-62 -82 -123 -205z" glyph-name="icircumflex" unicode="î"/><glyph d="M184 0v174h389v676h-348v174h539v-850h383v-174h-963zM1004 1188h-267v246h267v-246zM287 1188v246h266v-246h-266z" glyph-name="idieresis" unicode="ï"/><glyph d="M174 471q0 80 25.5 155.5t76 141.5t141.5 104.5t208 38.5q90 0 192 -49q-74 131 -155 240l-252 -119l-74 158l211 98q-74 86 -189 195h267q86 -90 102 -111l236 111l71 -158l-190 -90q272 -346 272 -715q0 -84 -28.5 -167t-83 -154.5t-148.5 -115.5t-211 -44t-211 44 t-148.5 115.5t-83 154.5t-28.5 167zM375 471q0 -119 74.5 -200t195.5 -81t195.5 81t74.5 200q0 111 -75.5 188.5t-194.5 77.5t-194.5 -77.5t-75.5 -188.5z" glyph-name="eth" unicode="ð"/><glyph d="M225 0v1024h191v-154q113 164 311 164q184 0 261 -129t77 -393v-512h-191v512q0 172 -46 255t-152 83q-113 0 -186.5 -88t-73.5 -250v-512h-191zM287 1198q0 170 58 254t157 84q53 0 108.5 -43t99.5 -87t68 -44q61 0 62 164h164q0 -166 -56.5 -252t-159.5 -86 q-53 0 -108 43t-99 87t-69 44q-61 0 -61 -164h-164z" glyph-name="ntilde" unicode="ñ"/><glyph d="M645 -10q-215 0 -348 145.5t-133 376.5t133 376.5t348 145.5t348 -145.5t133 -376.5t-133 -376.5t-348 -145.5zM645 850q-119 0 -203 -86t-84 -252q0 -164 84 -246t203 -82t203 82t84 246q0 166 -84 252t-203 86zM543 1188q-72 158 -205 348h287q86 -184 123 -348h-205z " glyph-name="ograve" unicode="ò"/><glyph d="M645 -10q-215 0 -348 145.5t-133 376.5t133 376.5t348 145.5t348 -145.5t133 -376.5t-133 -376.5t-348 -145.5zM358 512q0 -164 84 -246t203 -82t203 82t84 246q0 166 -84 252t-203 86t-203 -86t-84 -252zM543 1188q37 164 123 348h286q-133 -190 -204 -348h-205z" glyph-name="oacute" unicode="ó"/><glyph d="M164 512q0 231 133 376.5t348 145.5t348 -145.5t133 -376.5t-133 -376.5t-348 -145.5t-348 145.5t-133 376.5zM645 850q-119 0 -203 -86t-84 -252q0 -164 84 -246t203 -82t203 82t84 246q0 166 -84 252t-203 86zM522 1188h-225q102 190 246 348h205q143 -158 245 -348 h-225q-61 123 -123 205q-62 -82 -123 -205z" glyph-name="ocircumflex" unicode="ô"/><glyph d="M645 -10q-215 0 -348 145.5t-133 376.5t133 376.5t348 145.5t348 -145.5t133 -376.5t-133 -376.5t-348 -145.5zM645 850q-119 0 -203 -86t-84 -252q0 -164 84 -246t203 -82t203 82t84 246q0 166 -84 252t-203 86zM287 1198q0 170 58 254t157 84q53 0 108.5 -43t99.5 -87 t68 -44q61 0 62 164h164q0 -166 -56.5 -252t-159.5 -86q-53 0 -108 43t-99 87t-69 44q-61 0 -61 -164h-164z" glyph-name="otilde" unicode="õ"/><glyph d="M164 512q0 231 133 376.5t348 145.5t348 -145.5t133 -376.5t-133 -376.5t-348 -145.5t-348 145.5t-133 376.5zM358 512q0 -164 84 -246t203 -82t203 82t84 246q0 166 -84 252t-203 86t-203 -86t-84 -252zM737 1434h267v-246h-267v246zM553 1188h-266v246h266v-246z" glyph-name="odieresis" unicode="ö"/><glyph d="M276 563v174h779v-174h-779zM850 0h-369v328h369v-328zM481 1300h369v-327h-369v327z" glyph-name="divide" unicode="÷"/><glyph d="M401 76q-197 147 -196 440q0 240 133 379t328 139q45 0 96 -10l108 287h185l-133 -355q205 -139 204 -440q0 -240 -134 -383t-326 -143q-53 0 -107 12l-98 -258h-185zM629 186q12 -2 37 -2q117 0 191.5 81t74.5 251q0 172 -80 258zM475 266l219 582q-8 2 -28 2 q-117 0 -192 -82t-75 -252q0 -164 76 -250z" glyph-name="oslash" unicode="ø"/><glyph d="M584 -10q-358 0 -359 522v512h191v-512q0 -166 58 -252t161 -86q111 0 175 87t64 251v512h191v-1024h-191v139q-104 -149 -290 -149zM338 1536h287q86 -184 123 -348h-205q-72 158 -205 348z" glyph-name="ugrave" unicode="ù"/><glyph d="M225 512v512h191v-512q0 -166 58 -252t161 -86q111 0 175 87t64 251v512h191v-1024h-191v139q-104 -150 -290 -149q-359 0 -359 522zM543 1188q37 164 123 348h286q-133 -190 -204 -348h-205z" glyph-name="uacute" unicode="ú"/><glyph d="M584 -10q-358 0 -359 522v512h191v-512q0 -166 58 -252t161 -86q111 0 175 87t64 251v512h191v-1024h-191v139q-104 -149 -290 -149zM297 1188q102 190 246 348h205q143 -158 245 -348h-225q-61 123 -123 205q-61 -82 -123 -205h-225z" glyph-name="ucircumflex" unicode="û"/><glyph d="M584 -10q-358 0 -359 522v512h191v-512q0 -166 58 -252t161 -86q111 0 175 87t64 251v512h191v-1024h-191v139q-104 -149 -290 -149zM737 1434h267v-246h-267v246zM287 1434h266v-246h-266v246z" glyph-name="udieresis" unicode="ü"/><glyph d="M154 -410v185q41 -43 115.5 -73t133.5 -30q117 0 158 129l62 203q-242 457 -387 1020h204q92 -401 256 -782l240 782h201l-400 -1278q-37 -119 -128 -188.5t-222 -69.5q-47 0 -119.5 29.5t-113.5 72.5zM748 1188h-205q37 164 123 348h286q-132 -190 -204 -348z" glyph-name="yacute" unicode="ý"/><glyph d="M184 -256v1690h191v-570q115 170 311 170q180 0 300 -141t120 -381t-120 -381t-300 -141q-197 0 -311 170v-416h-191zM375 512q0 -160 77.5 -244t192.5 -84t190.5 84t75.5 244q0 162 -75.5 250t-190.5 88t-192.5 -88t-77.5 -250z" glyph-name="thorn" unicode="þ"/><glyph d="M154 -225q41 -43 115.5 -73t133.5 -30q117 0 158 129l62 203q-242 457 -387 1020h204q92 -401 256 -782l240 782h201l-400 -1278q-37 -119 -128 -188.5t-222 -69.5q-47 0 -119.5 29.5t-113.5 72.5v185zM1004 1188h-267v246h267v-246zM287 1188v246h266v-246h-266z" glyph-name="ydieresis" unicode="ÿ"/><glyph d="M338 0h-205q125 786 373 1434h276q248 -643 375 -1434h-205q-43 283 -94 512h-426q-51 -229 -94 -512zM993 1597h-696v185h696v-185zM477 696h336q-70 279 -168 576q-90 -265 -168 -576z" glyph-name="Amacron" unicode="Ā"/><glyph d="M594 -10q-178 0 -283.5 94t-105.5 233q0 141 105.5 239.5t283.5 98.5q186 0 301 -110v110q0 82 -64.5 138.5t-185.5 56.5q-172 0 -389 -102v184q217 102 389 102q207 0 323.5 -109.5t116.5 -269.5v-655h-190v96q-113 -106 -301 -106zM399 317.5q0 -71.5 62.5 -112.5 t183.5 -41t185.5 41t64.5 112.5t-65.5 117.5t-184.5 46t-182.5 -46t-63.5 -117.5zM993 1188h-696v184h696v-184z" glyph-name="amacron" unicode="ā"/><glyph d="M133 0q125 786 373 1434h276q248 -643 375 -1434h-205q-43 283 -94 512h-426q-51 -229 -94 -512h-205zM645.5 1597q-145.5 0 -231.5 93.5t-86 255.5h184q0 -78 35 -121t98 -43q61 0 97 44t36 120h185q0 -162 -86 -255.5t-231.5 -93.5zM477 696h336q-70 279 -168 576 q-90 -265 -168 -576z" glyph-name="Abreve" unicode="Ă"/><glyph d="M594 -10q-178 0 -283.5 94t-105.5 233q0 141 105.5 239.5t283.5 98.5q186 0 301 -110v110q0 82 -64.5 138.5t-185.5 56.5q-172 0 -389 -102v184q217 102 389 102q207 0 323.5 -109.5t116.5 -269.5v-655h-190v96q-113 -106 -301 -106zM645.5 1188q-145.5 0 -231.5 93 t-86 255h184q0 -78 35 -121t98 -43q61 0 97 44t36 120h185q0 -162 -86 -255t-231.5 -93zM399 317.5q0 -71.5 62.5 -112.5t183.5 -41t185.5 41t64.5 112.5t-65.5 117.5t-184.5 46t-182.5 -46t-63.5 -117.5z" glyph-name="abreve" unicode="ă"/><glyph d="M133 0q125 786 373 1434h276q248 -643 375 -1434h-72q-113 -84 -164 -137t-51 -109q0 -82 113 -82q92 0 174 41v-184q-82 -41 -194 -41q-119 0 -198 60.5t-79 164.5q0 88 50 150.5t165 136.5h51q-43 283 -94 512h-426q-51 -229 -94 -512h-205zM477 696h336 q-70 279 -168 576q-90 -265 -168 -576z" glyph-name="Aogonek" unicode="Ą"/><glyph d="M594 -10q-178 0 -283.5 94t-105.5 233q0 141 105.5 239.5t283.5 98.5q186 0 301 -110v110q0 82 -64.5 138.5t-185.5 56.5q-172 0 -389 -102v184q217 102 389 102q207 0 323.5 -109.5t116.5 -269.5v-655h-71q-113 -84 -164 -137t-51 -109q0 -82 112 -82q92 0 174 41v-184 q-82 -41 -194 -41q-119 0 -198 60.5t-79 164.5q0 88 50.5 150.5t164.5 136.5h66v96q-113 -106 -301 -106zM399 317.5q0 -71.5 62.5 -112.5t183.5 -41t185.5 41t64.5 112.5t-65.5 117.5t-184.5 46t-182.5 -46t-63.5 -117.5z" glyph-name="aogonek" unicode="ą"/><glyph d="M154 717q0 133 25.5 253t82.5 231.5t166 177t258 65.5q166 0 348 -123v-215q-188 143 -348 143q-94 0 -162.5 -51t-103.5 -136t-50.5 -170t-15.5 -175t15.5 -175t50.5 -168t103.5 -133.5t162.5 -50.5q158 0 369 127v-225q-205 -102 -369 -102q-150 0 -258.5 65.5 t-165.5 177t-82.5 231.5t-25.5 253zM543 1597q37 164 123 349h286q-133 -190 -204 -349h-205z" glyph-name="Cacute" unicode="Ć"/><glyph d="M195 512q0 242 138 382t333 140q186 0 368 -112v-185q-182 113 -368 113q-117 0 -197 -86t-80 -252t79 -247t198 -81q199 0 389 103v-195q-190 -102 -389 -102q-195 0 -333 140t-138 382zM543 1188q37 164 123 348h286q-133 -190 -204 -348h-205z" glyph-name="cacute" unicode="ć"/><glyph d="M154 717q0 133 25.5 253t82.5 231.5t166 177t258 65.5q166 0 348 -123v-215q-188 143 -348 143q-94 0 -162.5 -51t-103.5 -136t-50.5 -170t-15.5 -175t15.5 -175t50.5 -168t103.5 -133.5t162.5 -50.5q158 0 369 127v-225q-205 -102 -369 -102q-150 0 -258.5 65.5 t-165.5 177t-82.5 231.5t-25.5 253zM297 1597q102 190 246 349h205q143 -158 245 -349h-225q-61 123 -123 205q-61 -82 -123 -205h-225z" glyph-name="Ccircumflex" unicode="Ĉ"/><glyph d="M195 512q0 242 138 382t333 140q186 0 368 -112v-185q-182 113 -368 113q-117 0 -197 -86t-80 -252t79 -247t198 -81q199 0 389 103v-195q-190 -102 -389 -102q-195 0 -333 140t-138 382zM297 1188q102 190 246 348h205q143 -158 245 -348h-225q-61 123 -123 205 q-61 -82 -123 -205h-225z" glyph-name="ccircumflex" unicode="ĉ"/><glyph d="M154 717q0 133 25.5 253t82.5 231.5t166 177t258 65.5q166 0 348 -123v-215q-188 143 -348 143q-94 0 -162.5 -51t-103.5 -136t-50.5 -170t-15.5 -175t15.5 -175t50.5 -168t103.5 -133.5t162.5 -50.5q158 0 369 127v-225q-205 -102 -369 -102q-150 0 -258.5 65.5 t-165.5 177t-82.5 231.5t-25.5 253zM512 1843h266v-246h-266v246z" glyph-name="Cdotaccent" unicode="Ċ"/><glyph d="M195 512q0 242 138 382t333 140q186 0 368 -112v-185q-182 113 -368 113q-117 0 -197 -86t-80 -252t79 -247t198 -81q199 0 389 103v-195q-190 -102 -389 -102q-195 0 -333 140t-138 382zM512 1434h266v-246h-266v246z" glyph-name="cdotaccent" unicode="ċ"/><glyph d="M686 -10q-150 0 -258.5 65.5t-165.5 177t-82.5 231.5t-25.5 253t25.5 253t82.5 231.5t166 177t258 65.5q166 0 348 -123v-215q-188 143 -348 143q-94 0 -162.5 -51t-103.5 -136t-50.5 -170t-15.5 -175t15.5 -175t50.5 -168t103.5 -133.5t162.5 -50.5q158 0 369 127v-225 q-205 -102 -369 -102zM543 1597q-127 139 -246 349h225q61 -123 123 -205q61 82 123 205h225q-119 -209 -245 -349h-205z" glyph-name="Ccaron" unicode="Č"/><glyph d="M666 -10q-195 0 -333 140t-138 382t138 382t333 140q186 0 368 -112v-185q-182 113 -368 113q-117 0 -197 -86t-80 -252t79 -247t198 -81q199 0 389 103v-195q-190 -102 -389 -102zM543 1188q-127 139 -246 348h225q61 -123 123 -205q61 82 123 205h225 q-119 -209 -245 -348h-205z" glyph-name="ccaron" unicode="č"/><glyph d="M246 0v1434h358q246 0 384 -171t138 -528q0 -143 -23.5 -263t-77.5 -231.5t-161.5 -176t-259.5 -64.5h-358zM440 195h164q322 0 322 540q0 285 -86 399.5t-236 114.5h-164v-1054zM543 1597q-127 139 -246 349h225q61 -123 123 -205q61 82 123 205h225 q-119 -209 -245 -349h-205z" glyph-name="Dcaron" unicode="Ď"/><glyph d="M68 819h194v615h359q246 0 384 -171t138 -528q0 -143 -23.5 -263t-78 -231.5t-162 -176t-258.5 -64.5h-359v645h-194v174zM457 819h194v-174h-194v-450h164q322 0 321 540q0 285 -86 399.5t-235 114.5h-164v-430z" glyph-name="Dcroat" unicode="Đ"/><glyph d="M164 512q0 240 119.5 381t300.5 141q197 0 311 -170v283h-403v184h403v103h190v-103h103v-184h-103v-1147h-190v160q-115 -170 -311 -170q-180 0 -300 141t-120 381zM358 512q0 -160 76 -244t190.5 -84t192.5 84t78 244q0 162 -78 250t-192.5 88t-190.5 -88t-76 -250z " glyph-name="dcroat" unicode="đ"/><glyph d="M236 1434h808v-185h-614v-409h563v-185h-563v-460h625v-195h-819v1434zM297 1597v185h696v-185h-696z" glyph-name="Emacron" unicode="Ē"/><glyph d="M184 512q0 242 136.5 382t325 140t324.5 -140t136 -382v-86h-721q16 -123 97 -182.5t184 -59.5q176 0 389 103v-195q-213 -102 -389 -102q-190 0 -336 141t-146 381zM297 1188v184h696v-184h-696zM385 598h520q-35 252 -260 252q-106 0 -178 -61.5t-82 -190.5z" glyph-name="emacron" unicode="ē"/><glyph d="M236 0v1434h808v-185h-614v-409h563v-185h-563v-460h625v-195h-819zM328 1946h184q0 -78 35 -121t98 -43q61 0 97 44t36 120h185q0 -162 -86 -255.5t-231.5 -93.5t-231.5 93.5t-86 255.5z" glyph-name="Ebreve" unicode="Ĕ"/><glyph d="M666 -10q-190 0 -336 141t-146 381q0 242 136.5 382t325 140t324.5 -140t136 -382v-86h-721q16 -123 97 -182.5t184 -59.5q176 0 389 103v-195q-213 -102 -389 -102zM645.5 1188q-145.5 0 -231.5 93t-86 255h184q0 -78 35 -121t98 -43q61 0 97 44t36 120h185 q0 -162 -86 -255t-231.5 -93zM385 598h520q-35 252 -260 252q-106 0 -178 -61.5t-82 -190.5z" glyph-name="ebreve" unicode="ĕ"/><glyph d="M236 0v1434h808v-185h-614v-409h563v-185h-563v-460h625v-195h-819zM512 1843h266v-246h-266v246z" glyph-name="Edotaccent" unicode="Ė"/><glyph d="M184 512q0 242 136.5 382t325 140t324.5 -140t136 -382v-86h-721q16 -123 97 -182.5t184 -59.5q176 0 389 103v-195q-213 -102 -389 -102q-190 0 -336 141t-146 381zM385 598h520q-35 252 -260 252q-106 0 -178 -61.5t-82 -190.5zM512 1434h266v-246h-266v246z" glyph-name="edotaccent" unicode="ė"/><glyph d="M236 1434h808v-185h-614v-409h563v-185h-563v-460h625v-195h-246q-113 -84 -164 -137t-51 -109q0 -82 113 -82q92 0 174 41v-184q-82 -41 -195 -41q-119 0 -197.5 60.5t-78.5 164.5q0 88 50 150.5t165 136.5h-389v1434z" glyph-name="Eogonek" unicode="Ę"/><glyph d="M580 -2q-166 31 -281 167t-115 347q0 242 136.5 382t325 140t324.5 -140t136 -382v-86h-721q16 -123 97 -182.5t184 -59.5q176 0 389 103v-195q-164 -80 -291 -96q-109 -82 -160 -134t-51 -108q0 -82 113 -82q92 0 174 41v-184q-82 -41 -195 -41q-119 0 -197.5 60.5 t-78.5 164.5q0 88 49 149.5t162 135.5zM645 850q-106 0 -178 -61.5t-82 -190.5h520q-35 252 -260 252z" glyph-name="eogonek" unicode="ę"/><glyph d="M236 0v1434h808v-185h-614v-409h563v-185h-563v-460h625v-195h-819zM297 1946h225q61 -123 123 -205q61 82 123 205h225q-119 -209 -245 -349h-205q-127 140 -246 349z" glyph-name="Ecaron" unicode="Ě"/><glyph d="M184 512q0 242 136.5 382t325 140t324.5 -140t136 -382v-86h-721q16 -123 97 -182.5t184 -59.5q176 0 389 103v-195q-213 -102 -389 -102q-190 0 -336 141t-146 381zM297 1536h225q61 -123 123 -205q61 82 123 205h225q-119 -209 -245 -348h-205q-127 139 -246 348z M645 850q-106 0 -178 -61.5t-82 -190.5h520q-35 252 -260 252z" glyph-name="ecaron" unicode="ě"/><glyph d="M614 -10q-131 0 -226 65.5t-143 177t-69.5 230.5t-21.5 254q0 109 11 203t45 193t87 170t145.5 116t212.5 45q199 0 389 -123v-215q-201 143 -389 143q-301 0 -301 -532q0 -526 301 -527q123 0 189.5 121t66.5 344h-297v185h482v-840h-164l-6 197q-97 -207 -312 -207z M297 1597q102 190 246 349h205q143 -158 245 -349h-225q-61 123 -123 205q-61 -82 -123 -205h-225z" glyph-name="Gcircumflex" unicode="Ĝ"/><glyph d="M164 512q0 238 121 380t288 142q211 0 322 -157v147h190v-1157q0 -158 -122.5 -268.5t-329.5 -110.5q-190 0 -408 102v185q217 -102 391 -103q129 0 204 57.5t75 137.5v280q-111 -158 -322 -157q-168 0 -288.5 142t-120.5 380zM358 512q0 -160 76 -244t190.5 -84 t192.5 84t78 244q0 162 -78 250t-192.5 88t-190.5 -88t-76 -250zM297 1188q102 190 246 348h205q143 -158 245 -348h-225q-61 123 -123 205q-61 -82 -123 -205h-225z" glyph-name="gcircumflex" unicode="ĝ"/><glyph d="M154 717q0 109 11 203t45 193t87 170t145.5 116t212.5 45q199 0 389 -123v-215q-201 143 -389 143q-301 0 -301 -532q0 -526 301 -527q123 0 189.5 121t66.5 344h-297v185h482v-840h-164l-6 197q-96 -207 -312 -207q-131 0 -226 65.5t-143 177t-69.5 230.5t-21.5 254z M328 1946h184q0 -78 35 -121t98 -43q61 0 97 44t36 120h185q0 -162 -86 -255.5t-231.5 -93.5t-231.5 93.5t-86 255.5z" glyph-name="Gbreve" unicode="Ğ"/><glyph d="M573 -10q-168 0 -288.5 142t-120.5 380t121 380t288 142q211 0 322 -157v147h190v-1157q0 -158 -122.5 -268.5t-329.5 -110.5q-190 0 -408 102v185q217 -102 391 -103q129 0 204 57.5t75 137.5v280q-111 -157 -322 -157zM624.5 850q-114.5 0 -190.5 -88t-76 -250 q0 -160 76 -244t190.5 -84t192.5 84t78 244q0 162 -78 250t-192.5 88zM645.5 1188q-145.5 0 -231.5 93t-86 255h184q0 -78 35 -121t98 -43q61 0 97 44t36 120h185q0 -162 -86 -255t-231.5 -93z" glyph-name="gbreve" unicode="ğ"/><glyph d="M614 -10q-131 0 -226 65.5t-143 177t-69.5 230.5t-21.5 254q0 109 11 203t45 193t87 170t145.5 116t212.5 45q199 0 389 -123v-215q-201 143 -389 143q-301 0 -301 -532q0 -526 301 -527q123 0 189.5 121t66.5 344h-297v185h482v-840h-164l-6 197q-97 -207 -312 -207z M512 1843h266v-246h-266v246z" glyph-name="Gdotaccent" unicode="Ġ"/><glyph d="M164 512q0 238 121 380t288 142q211 0 322 -157v147h190v-1157q0 -158 -122.5 -268.5t-329.5 -110.5q-190 0 -408 102v185q217 -102 391 -103q129 0 204 57.5t75 137.5v280q-111 -158 -322 -157q-168 0 -288.5 142t-120.5 380zM358 512q0 -160 76 -244t190.5 -84 t192.5 84t78 244q0 162 -78 250t-192.5 88t-190.5 -88t-76 -250zM512 1434h266v-246h-266v246z" glyph-name="gdotaccent" unicode="ġ"/><glyph d="M614 -10q-131 0 -226 65.5t-143 177t-69.5 230.5t-21.5 254q0 109 11 203t45 193t87 170t145.5 116t212.5 45q199 0 389 -123v-215q-201 143 -389 143q-301 0 -301 -532q0 -526 301 -527q123 0 189.5 121t66.5 344h-297v185h482v-840h-164l-6 197q-97 -207 -312 -207z M604 -514h-205q86 184 123 348h287q-72 -158 -205 -348z" glyph-name="Gcommaaccent" unicode="Ģ"/><glyph d="M215 1434h195v-594h471v594h194v-1434h-194v655h-471v-655h-195v1434zM297 1597q102 190 246 349h205q143 -158 245 -349h-225q-61 123 -123 205q-61 -82 -123 -205h-225z" glyph-name="Hcircumflex" unicode="Ĥ"/><glyph d="M225 0v1434h191v-555q109 156 311 155q184 0 261 -129t77 -393v-512h-191v512q0 172 -46 255t-152 83q-113 0 -186.5 -88t-73.5 -250v-512h-191zM522 1597h-225q102 190 246 349h205q143 -158 245 -349h-225q-61 123 -123 205q-62 -82 -123 -205z" glyph-name="hcircumflex" unicode="ĥ"/><glyph d="M215 1434h195v-226h471v226h194v-1434h-194v655h-471v-655h-195v1434zM881 1024h-471v-184h471v184z" glyph-name="Hbar" unicode="Ħ"/><glyph d="M225 1434h191v-144h577v-184h-577v-227q109 156 311 155q184 0 261 -129t77 -393v-512h-191v512q0 172 -46 255t-152 83q-113 0 -186.5 -88t-73.5 -250v-512h-191v1434z" glyph-name="hbar" unicode="ħ"/><glyph d="M236 1249v185h819v-185h-310v-1065h310v-184h-819v184h315v1065h-315zM451 1608h-164q0 170 58 254t157 84q53 0 108.5 -43t99.5 -87t68 -44q61 0 62 163h164q0 -166 -56.5 -252t-159.5 -86q-53 0 -108 43t-99 87.5t-69 44.5q-61 0 -61 -164z" glyph-name="Itilde" unicode="Ĩ"/><glyph d="M1147 0h-963v174h389v676h-348v174h539v-850h383v-174zM451 1198h-164q0 170 58 254t157 84q53 0 108.5 -43t99.5 -87t68 -44q61 0 62 164h164q0 -166 -56.5 -252t-159.5 -86q-53 0 -108 43t-99 87t-69 44q-61 0 -61 -164z" glyph-name="itilde" unicode="ĩ"/><glyph d="M236 0v184h315v1065h-315v185h819v-185h-310v-1065h310v-184h-819zM993 1597h-696v185h696v-185z" glyph-name="Imacron" unicode="Ī"/><glyph d="M184 0v174h389v676h-348v174h539v-850h383v-174h-963zM297 1372h696v-184h-696v184z" glyph-name="imacron" unicode="ī"/><glyph d="M551 1249h-315v185h819v-185h-310v-1065h310v-184h-819v184h315v1065zM328 1946h184q0 -78 35 -121t98 -43q61 0 97 44t36 120h185q0 -162 -86 -255.5t-231.5 -93.5t-231.5 93.5t-86 255.5z" glyph-name="Ibreve" unicode="Ĭ"/><glyph d="M184 0v174h389v676h-348v174h539v-850h383v-174h-963zM328 1536h184q0 -78 35 -121t98 -43q61 0 97 44t36 120h185q0 -162 -86 -255t-231.5 -93t-231.5 93t-86 255z" glyph-name="ibreve" unicode="ĭ"/><glyph d="M236 1434h819v-185h-310v-1065h310v-184h-72q-113 -84 -164 -137t-51 -109q0 -82 113 -82q92 0 174 41v-184q-82 -41 -195 -41q-119 0 -197.5 60.5t-78.5 164.5q0 88 50 150.5t165 136.5h-563v184h315v1065h-315v185z" glyph-name="Iogonek" unicode="Į"/><glyph d="M625 0h-451v174h379v676h-328v174h518v-850h373v-174h-307q-113 -84 -164 -137t-51 -109q0 -82 113 -82q92 0 174 41v-184q-82 -41 -195 -41q-119 0 -197.5 60.5t-78.5 164.5q0 88 50 150.5t165 136.5zM502 1434h286v-246h-286v246z" glyph-name="iogonek" unicode="į"/><glyph d="M236 0v184h315v1065h-315v185h819v-185h-310v-1065h310v-184h-819zM512 1843h266v-246h-266v246z" glyph-name="Idotaccent" unicode="İ"/><glyph d="M184 0v174h389v676h-348v174h539v-850h383v-174h-963z" glyph-name="dotlessi" unicode="ı"/><glyph d="M102 0v174h379v676h-327v174h989v-1157q0 -141 -125 -260t-322 -119q-193 0 -389 102v185q197 -102 359 -103q135 0 210.5 54.5t75.5 140.5v133h-850zM952 850h-280v-676h280v676zM901 1188v246h287v-246h-287zM430 1188v246h287v-246h-287z" glyph-name="ij" unicode="ĳ"/><glyph d="M184 317q74 -59 175.5 -93t183.5 -34q133 0 209.5 80t76.5 232v747h-532v185h727v-932q0 -512 -481 -512q-213 0 -359 102v225zM297 1597q102 190 246 349h205q143 -158 245 -349h-225q-61 123 -123 205q-61 -82 -123 -205h-225z" glyph-name="Jcircumflex" unicode="Ĵ"/><glyph d="M123 -225q197 -102 358 -103q135 0 211 54.5t76 140.5v983h-410v174h600v-1157q0 -141 -124.5 -260t-321.5 -119q-193 0 -389 102v185zM543 1188h-226q102 190 246 348h205q143 -158 246 -348h-226q-61 123 -122 205q-62 -82 -123 -205z" glyph-name="jcircumflex" unicode="ĵ"/><glyph d="M246 0v1434h194v-580q274 311 441 580h225q-111 -190 -219.5 -334t-302.5 -363q186 -211 305 -370.5t237 -366.5h-235q-166 291 -451 621v-621h-194zM399 -514q86 184 123 348h287q-72 -158 -205 -348h-205z" glyph-name="Kcommaaccent" unicode="Ķ"/><glyph d="M276 0v1434h191v-807q221 201 393 397h256q-217 -246 -491 -481q180 -158 282.5 -267.5t229.5 -275.5h-246q-106 137 -197.5 236.5t-226.5 222.5v-459h-191zM399 -514q86 184 123 348h287q-72 -158 -205 -348h-205z" glyph-name="kcommaaccent" unicode="ķ"/><glyph d="M338 0v1024h190v-397q209 190 394 397h256q-199 -225 -492 -481q186 -170 290.5 -279.5t221.5 -263.5h-246q-178 236 -424 459v-459h-190z" glyph-name="kgreenlandic" unicode="ĸ"/><glyph d="M1116 0h-860v1434h195v-1250h665v-184zM543 1597q37 164 123 349h286q-133 -190 -204 -349h-205z" glyph-name="Lacute" unicode="Ĺ"/><glyph d="M174 0v174h379v1086h-369v174h559v-1260h373v-174h-942zM748 1597h-205q37 164 123 349h286q-132 -191 -204 -349z" glyph-name="lacute" unicode="ĺ"/><glyph d="M256 0v1434h195v-1250h665v-184h-860zM399 -514q86 184 123 348h287q-72 -158 -205 -348h-205z" glyph-name="Lcommaaccent" unicode="Ļ"/><glyph d="M174 0v174h379v1086h-369v174h559v-1260h373v-174h-942zM604 -514h-205q86 184 123 348h287q-72 -158 -205 -348z" glyph-name="lcommaaccent" unicode="ļ"/><glyph d="M256 0v1434h195v-1250h665v-184h-860zM625 512v328h368v-328h-368z" glyph-name="Ldot" unicode="Ŀ"/><glyph d="M743 174h373v-174h-942v174h379v1086h-369v174h559v-1260zM918 840h368v-328h-368v328z" glyph-name="ldot" unicode="ŀ"/><glyph d="M297 483l-123 -84v215l123 84v736h195v-603l460 316v-215l-460 -316v-432h665v-184h-860v483z" glyph-name="Lslash" unicode="Ł"/><glyph d="M762 174h375v-174h-942v174h376v426l-295 -201v215l295 201v445h-348v174h539v-488l293 201v-215l-293 -201v-557z" glyph-name="lslash" unicode="ł"/><glyph d="M410 0h-195v1434h246q266 -514 420 -990v990h194v-1434h-246q-199 662 -419 1126v-1126zM543 1597q37 164 123 349h286q-133 -190 -204 -349h-205z" glyph-name="Nacute" unicode="Ń"/><glyph d="M225 1024h191v-154q113 164 311 164q184 0 261 -129t77 -393v-512h-191v512q0 172 -46 255t-152 83q-113 0 -186.5 -88t-73.5 -250v-512h-191v1024zM748 1188h-205q37 164 123 348h286q-132 -190 -204 -348z" glyph-name="nacute" unicode="ń"/><glyph d="M410 0h-195v1434h246q266 -514 420 -990v990h194v-1434h-246q-199 662 -419 1126v-1126zM604 -514h-205q86 184 123 348h287q-72 -158 -205 -348z" glyph-name="Ncommaaccent" unicode="Ņ"/><glyph d="M225 1024h191v-154q113 164 311 164q184 0 261 -129t77 -393v-512h-191v512q0 172 -46 255t-152 83q-113 0 -186.5 -88t-73.5 -250v-512h-191v1024zM399 -514q86 184 123 348h287q-72 -158 -205 -348h-205z" glyph-name="ncommaaccent" unicode="ņ"/><glyph d="M215 0v1434h246q266 -514 420 -990v990h194v-1434h-246q-199 662 -419 1126v-1126h-195zM297 1946h225q61 -123 123 -205q61 82 123 205h225q-119 -209 -245 -349h-205q-127 140 -246 349z" glyph-name="Ncaron" unicode="Ň"/><glyph d="M225 1024h191v-154q113 164 311 164q184 0 261 -129t77 -393v-512h-191v512q0 172 -46 255t-152 83q-113 0 -186.5 -88t-73.5 -250v-512h-191v1024zM297 1536h225q61 -123 123 -205q61 82 123 205h225q-119 -209 -245 -348h-205q-127 139 -246 348z" glyph-name="ncaron" unicode="ň"/><glyph d="M410 0h-195v1434h246q266 -514 420 -990v990h194v-1434q0 -276 -83 -394t-275 -118q-145 0 -277 82v225q141 -106 256 -106q131 0 159 78.5t-26 232.5q-199 662 -419 1126v-1126z" glyph-name="Eng" unicode="Ŋ"/><glyph d="M416 0h-191v1024h191v-154q113 164 311 164q184 0 261 -129t77 -393v-553q0 -471 -348 -471q-92 0 -152.5 17.5t-134.5 64.5v205q78 -57 130 -80t126 -23q66 0 107 27t57 77t20 88t4 95v553q0 172 -46 255t-152 83q-113 0 -186.5 -88t-73.5 -250v-512z" glyph-name="eng" unicode="ŋ"/><glyph d="M133 716.5q0 112.5 13.5 211t49 196t92 166t147.5 111.5t210 43t210 -43t147.5 -111.5t92 -167t49 -196t13.5 -210t-13.5 -209.5t-49 -195.5t-92 -167t-147.5 -111.5t-210 -43t-210 43t-147.5 111.5t-92 167t-49 195.5t-13.5 209.5zM334 717q0 -526 311 -526.5t311 526.5 q0 532 -311 532t-311 -532zM993 1597h-696v185h696v-185z" glyph-name="Omacron" unicode="Ō"/><glyph d="M164 512q0 231 133 376.5t348 145.5t348 -145.5t133 -376.5t-133 -376.5t-348 -145.5t-348 145.5t-133 376.5zM358 512q0 -164 84 -246t203 -82t203 82t84 246q0 166 -84 252t-203 86t-203 -86t-84 -252zM993 1188h-696v184h696v-184z" glyph-name="omacron" unicode="ō"/><glyph d="M645 -10q-119 0 -210 43t-147.5 111.5t-92 167t-49 195.5t-13.5 209.5t13.5 211t49 196t92 166t147.5 111.5t210 43t210 -43t147.5 -111.5t92 -167t49 -196t13.5 -210t-13.5 -209.5t-49 -195.5t-92 -167t-147.5 -111.5t-210 -43zM334 717q0 -526 311 -526.5t311 526.5 q0 532 -311 532t-311 -532zM328 1946h184q0 -78 35 -121t98 -43q61 0 97 44t36 120h185q0 -162 -86 -255.5t-231.5 -93.5t-231.5 93.5t-86 255.5z" glyph-name="Obreve" unicode="Ŏ"/><glyph d="M645 -10q-215 0 -348 145.5t-133 376.5t133 376.5t348 145.5t348 -145.5t133 -376.5t-133 -376.5t-348 -145.5zM645 850q-119 0 -203 -86t-84 -252q0 -164 84 -246t203 -82t203 82t84 246q0 166 -84 252t-203 86zM645.5 1188q-145.5 0 -231.5 93t-86 255h184 q0 -78 35 -121t98 -43q61 0 97 44t36 120h185q0 -162 -86 -255t-231.5 -93z" glyph-name="obreve" unicode="ŏ"/><glyph d="M645 -10q-119 0 -210 43t-147.5 111.5t-92 167t-49 195.5t-13.5 209.5t13.5 211t49 196t92 166t147.5 111.5t210 43t210 -43t147.5 -111.5t92 -167t49 -196t13.5 -210t-13.5 -209.5t-49 -195.5t-92 -167t-147.5 -111.5t-210 -43zM334 717q0 -526 311 -526.5t311 526.5 q0 532 -311 532t-311 -532zM866 1597h-184q0 195 31 349h245q-63 -159 -92 -349zM334 1597q0 195 31 349h245q-63 -158 -92 -349h-184z" glyph-name="Ohungarumlaut" unicode="Ő"/><glyph d="M645 -10q-215 0 -348 145.5t-133 376.5t133 376.5t348 145.5t348 -145.5t133 -376.5t-133 -376.5t-348 -145.5zM645 850q-119 0 -203 -86t-84 -252q0 -164 84 -246t203 -82t203 82t84 246q0 166 -84 252t-203 86zM866 1188h-184q0 195 31 348h245q-63 -158 -92 -348z M518 1188h-184q0 195 31 348h245q-63 -158 -92 -348z" glyph-name="ohungarumlaut" unicode="ő"/><glyph d="M666 0q-147 0 -252 61.5t-159 169t-77.5 226t-23.5 260t23.5 260.5t77.5 226.5t158.5 169t252.5 61.5h512v-185h-318v-409h307v-185h-307v-460h318v-195h-512zM666 1239q-311 0 -312 -522q0 -516 312 -516v1038z" glyph-name="OE" unicode="Œ"/><glyph d="M420 -10q-176 0 -247 132t-71 400q0 260 71 386t247 126q154 0 225 -119q76 119 225 119q172 0 250 -131t78 -391v-86h-450q0 -123 38.5 -182.5t104.5 -59.5q100 0 256 103v-195q-152 -102 -256 -102q-156 0 -242 133q-69 -133 -229 -133zM297 522q0 -186 24.5 -262 t98.5 -76t98.5 76t24.5 262q0 190 -23.5 259t-99.5 69t-99.5 -69t-23.5 -259zM881 850q-70 0 -101.5 -59.5t-31.5 -192.5h256q0 137 -27.5 194.5t-95.5 57.5z" glyph-name="oe" unicode="œ"/><glyph d="M225 1434h430q195 0 323 -114t128 -296q0 -150 -93 -259.5t-235 -139.5q113 -72 201 -236l209 -389h-225l-158 307q-109 211 -161 259t-163 48h-61v-614h-195v1434zM420 799h235q123 0 186.5 58t63.5 167t-63.5 167t-186.5 58h-235v-450zM748 1597h-205q37 164 123 349 h286q-132 -191 -204 -349z" glyph-name="Racute" unicode="Ŕ"/><glyph d="M174 1024h395v-162q100 172 301 172q74 0 143.5 -30.5t102.5 -71.5v-184q-102 102 -246 102q-135 0 -218 -104.5t-83 -335.5v-236h414v-174h-809v174h205v676h-205v174zM748 1188h-205q37 164 123 348h286q-132 -190 -204 -348z" glyph-name="racute" unicode="ŕ"/><glyph d="M225 0v1434h430q195 0 323 -114t128 -296q0 -150 -93 -259.5t-235 -139.5q113 -72 201 -236l209 -389h-225l-158 307q-109 211 -161 259t-163 48h-61v-614h-195zM420 799h235q123 0 186.5 58t63.5 167t-63.5 167t-186.5 58h-235v-450zM399 -514q86 184 123 348h287 q-72 -158 -205 -348h-205z" glyph-name="Rcommaaccent" unicode="Ŗ"/><glyph d="M174 1024h395v-162q100 172 301 172q74 0 143.5 -30.5t102.5 -71.5v-184q-102 102 -246 102q-135 0 -218 -104.5t-83 -335.5v-236h414v-174h-809v174h205v676h-205v174zM399 -514q86 184 123 348h287q-72 -158 -205 -348h-205z" glyph-name="rcommaaccent" unicode="ŗ"/><glyph d="M225 0v1434h430q195 0 323 -114t128 -296q0 -150 -93 -259.5t-235 -139.5q113 -72 201 -236l209 -389h-225l-158 307q-109 211 -161 259t-163 48h-61v-614h-195zM420 799h235q123 0 186.5 58t63.5 167t-63.5 167t-186.5 58h-235v-450zM543 1597q-127 139 -246 349h225 q61 -123 123 -205q61 82 123 205h225q-119 -209 -245 -349h-205z" glyph-name="Rcaron" unicode="Ř"/><glyph d="M174 0v174h205v676h-205v174h395v-162q100 172 301 172q74 0 143.5 -30.5t102.5 -71.5v-184q-102 102 -246 102q-135 0 -218 -104.5t-83 -335.5v-236h414v-174h-809zM297 1536h225q61 -123 123 -205q61 82 123 205h225q-119 -209 -245 -348h-205q-127 139 -246 348z" glyph-name="rcaron" unicode="ř"/><glyph d="M645 -10q-199 0 -440 112v226q135 -78 232.5 -108t207.5 -30q127 0 183.5 62.5t56.5 157.5q0 96 -66.5 155.5t-173.5 59.5q-123 0 -214 38.5t-138 102t-67.5 130.5t-20.5 138q0 70 23.5 138.5t72.5 131t138 101.5t206 39q186 0 379 -123v-215q-201 143 -379 143 q-98 0 -168.5 -56t-70.5 -159q0 -90 56 -152.5t183 -62.5q109 0 197 -40t139 -102.5t77.5 -132t26.5 -134.5q0 -72 -23.5 -142.5t-72.5 -134t-138 -103.5t-206 -40zM543 1597q37 164 123 349h286q-133 -190 -204 -349h-205z" glyph-name="Sacute" unicode="Ś"/><glyph d="M645 -10q-201 0 -420 102v195q256 -102 410 -103q240 0 239 133q0 55 -45 84t-184 29q-399 0 -399 297q0 139 93 223t296 84q184 0 389 -102v-184q-205 102 -379 102q-215 0 -215 -123q0 -113 234 -113q76 0 142 -13t126.5 -45t96.5 -93.5t36 -145.5q0 -119 -71.5 -196.5 t-161 -104t-187.5 -26.5zM543 1188q37 164 123 348h286q-133 -190 -204 -348h-205z" glyph-name="sacute" unicode="ś"/><glyph d="M645 625q-123 0 -214 38.5t-138 102t-67.5 130.5t-20.5 138q0 70 23.5 138.5t72.5 131t138 101.5t206 39q186 0 379 -123v-215q-201 143 -379 143q-98 0 -168.5 -56t-70.5 -159q0 -90 56 -152.5t183 -62.5q109 0 197 -40t139 -102.5t77.5 -132t26.5 -134.5 q0 -72 -23.5 -142.5t-72.5 -134t-138 -103.5t-206 -40q-199 0 -440 112v226q135 -78 232.5 -108t207.5 -30q127 0 183.5 62.5t56.5 157.5q0 96 -67 155.5t-173 59.5zM297 1597q102 190 246 349h205q143 -158 245 -349h-225q-61 123 -123 205q-61 -82 -123 -205h-225z" glyph-name="Scircumflex" unicode="Ŝ"/><glyph d="M225 92v195q256 -102 410 -103q240 0 239 133q0 55 -45 84t-184 29q-399 0 -399 297q0 139 93 223t296 84q184 0 389 -102v-184q-205 102 -379 102q-215 0 -215 -123q0 -113 234 -113q76 0 142 -13t126.5 -45t96.5 -93.5t36 -145.5q0 -119 -71.5 -196.5t-161 -104 t-187.5 -26.5q-201 0 -420 102zM297 1188q102 190 246 348h205q143 -158 245 -348h-225q-61 123 -123 205q-61 -82 -123 -205h-225z" glyph-name="scircumflex" unicode="ŝ"/><glyph d="M205 1034q0 70 23.5 138.5t72.5 131t138 101.5t206 39q186 0 379 -123v-215q-201 143 -379 143q-98 0 -168.5 -56t-70.5 -159q0 -90 56 -152.5t183 -62.5q109 0 197 -40t139 -102.5t77.5 -132t26.5 -134.5q0 -70 -22.5 -139.5t-69.5 -132t-132 -103.5t-195 -45v-72 q98 0 156.5 -56.5t58.5 -148.5q0 -104 -79 -164.5t-198 -60.5q-113 0 -194 41v184q82 -41 174 -41q113 0 112.5 61.5t-112.5 61.5h-82v205q-123 23 -297 102v226q135 -78 232.5 -108t207.5 -30q127 0 183.5 62.5t56.5 157.5q0 96 -66.5 155.5t-173.5 59.5q-123 0 -214 38.5 t-138 102t-67.5 130t-20.5 138.5z" glyph-name="Scedilla" unicode="Ş"/><glyph d="M502 2q-129 20 -277 90v195q256 -102 410 -103q240 0 239 133q0 55 -45 84t-184 29q-399 0 -399 297q0 139 93 223t296 84q184 0 389 -102v-184q-205 102 -379 102q-215 0 -215 -123q0 -113 234 -113q76 0 142 -13t126.5 -45t96.5 -93.5t36 -145.5q0 -86 -37 -151.5 t-99.5 -101t-128 -54t-134.5 -20.5v-72q98 0 156.5 -56.5t58.5 -148.5q0 -104 -79 -164.5t-198 -60.5q-113 0 -194 41v184q82 -41 174 -41q113 0 112.5 61.5t-112.5 61.5h-82v207z" glyph-name="scedilla" unicode="ş"/><glyph d="M645 625q-123 0 -214 38.5t-138 102t-67.5 130.5t-20.5 138q0 70 23.5 138.5t72.5 131t138 101.5t206 39q186 0 379 -123v-215q-201 143 -379 143q-98 0 -168.5 -56t-70.5 -159q0 -90 56 -152.5t183 -62.5q109 0 197 -40t139 -102.5t77.5 -132t26.5 -134.5 q0 -72 -23.5 -142.5t-72.5 -134t-138 -103.5t-206 -40q-199 0 -440 112v226q135 -78 232.5 -108t207.5 -30q127 0 183.5 62.5t56.5 157.5q0 96 -67 155.5t-173 59.5zM543 1597q-127 139 -246 349h225q61 -123 123 -205q61 82 123 205h225q-119 -209 -245 -349h-205z" glyph-name="Scaron" unicode="Š"/><glyph d="M225 92v195q256 -102 410 -103q240 0 239 133q0 55 -45 84t-184 29q-399 0 -399 297q0 139 93 223t296 84q184 0 389 -102v-184q-205 102 -379 102q-215 0 -215 -123q0 -113 234 -113q76 0 142 -13t126.5 -45t96.5 -93.5t36 -145.5q0 -119 -71.5 -196.5t-161 -104 t-187.5 -26.5q-201 0 -420 102zM543 1188q-127 139 -246 348h225q61 -123 123 -205q61 82 123 205h225q-119 -209 -245 -348h-205z" glyph-name="scaron" unicode="š"/><glyph d="M143 1434h1004v-185h-410v-1331q98 0 151.5 -56.5t53.5 -148.5q0 -104 -79 -164.5t-197 -60.5q-113 0 -195 41v184q82 -41 174 -41q113 0 113 61.5t-113 61.5h-102v1454h-400v185z" glyph-name="Tcommaaccent" unicode="Ţ"/><glyph d="M430 850h-297v174h297v410h191v-410h454v-174h-454v-440q0 -236 206 -236q51 0 128 29.5t120 72.5v-184q-43 -43 -118.5 -72.5t-127.5 -29.5v-72q98 0 156.5 -56.5t58.5 -148.5q0 -104 -78.5 -164.5t-197.5 -60.5q-113 0 -195 41v184q82 -41 175 -41q113 0 112.5 61.5 t-112.5 61.5h-82v223q-113 45 -174.5 149.5t-61.5 242.5v440z" glyph-name="tcommaaccent" unicode="ţ"/><glyph d="M543 1249h-400v185h1004v-185h-410v-1249h-194v1249zM297 1946h225q61 -123 123 -205q61 82 123 205h225q-119 -209 -245 -349h-205q-127 140 -246 349z" glyph-name="Tcaron" unicode="Ť"/><glyph d="M543 1249h-400v185h1004v-185h-410v-225h256v-184h-256v-840h-194v840h-246v184h246v225z" glyph-name="Tbar" unicode="Ŧ"/><glyph d="M430 850h-297v174h297v410h191v-410h454v-174h-454v-215h311v-184h-311v-41q0 -236 206 -236q51 0 128 29.5t120 72.5v-184q-43 -43 -119.5 -72.5t-128.5 -29.5q-184 0 -290.5 118.5t-106.5 301.5v41h-194v184h194v215z" glyph-name="tbar" unicode="ŧ"/><glyph d="M195 502v932h194v-932q0 -150 68.5 -231t187.5 -81t187.5 81t68.5 231v932h195v-932q0 -250 -127 -381t-323.5 -131t-323.5 131t-127 381zM287 1608q0 170 58 254t157 84q53 0 108.5 -43t99.5 -87t68 -44q61 0 62 163h164q0 -166 -56.5 -252t-159.5 -86q-53 0 -108 43 t-99 87.5t-69 44.5q-61 0 -61 -164h-164z" glyph-name="Utilde" unicode="Ũ"/><glyph d="M584 -10q-358 0 -359 522v512h191v-512q0 -166 58 -252t161 -86q111 0 175 87t64 251v512h191v-1024h-191v139q-104 -149 -290 -149zM287 1198q0 170 58 254t157 84q53 0 108.5 -43t99.5 -87t68 -44q61 0 62 164h164q0 -166 -56.5 -252t-159.5 -86q-53 0 -108 43t-99 87 t-69 44q-61 0 -61 -164h-164z" glyph-name="utilde" unicode="ũ"/><glyph d="M645.5 -10q-196.5 0 -323.5 131t-127 381v932h194v-932q0 -150 68.5 -231t187.5 -81t187.5 81t68.5 231v932h195v-932q0 -250 -127 -381t-323.5 -131zM993 1597h-696v185h696v-185z" glyph-name="Umacron" unicode="Ū"/><glyph d="M225 512v512h191v-512q0 -166 58 -252t161 -86q111 0 175 87t64 251v512h191v-1024h-191v139q-104 -150 -290 -149q-359 0 -359 522zM993 1188h-696v184h696v-184z" glyph-name="umacron" unicode="ū"/><glyph d="M195 1434h194v-932q0 -150 68.5 -231t187.5 -81t187.5 81t68.5 231v932h195v-932q0 -250 -127 -381t-323.5 -131t-323.5 131t-127 381v932zM328 1946h184q0 -78 35 -121t98 -43q61 0 97 44t36 120h185q0 -162 -86 -255.5t-231.5 -93.5t-231.5 93.5t-86 255.5z" glyph-name="Ubreve" unicode="Ŭ"/><glyph d="M584 -10q-358 0 -359 522v512h191v-512q0 -166 58 -252t161 -86q111 0 175 87t64 251v512h191v-1024h-191v139q-104 -149 -290 -149zM645.5 1188q-145.5 0 -231.5 93t-86 255h184q0 -78 35 -121t98 -43q61 0 97 44t36 120h185q0 -162 -86 -255t-231.5 -93z" glyph-name="ubreve" unicode="ŭ"/><glyph d="M195 502v932h194v-932q0 -150 68.5 -231t187.5 -81t187.5 81t68.5 231v932h195v-932q0 -250 -127 -381t-323.5 -131t-323.5 131t-127 381zM645 1597q-131 0 -214 85t-83 222.5t83 222.5t214 85t214 -85t83 -222.5t-83 -222.5t-214 -85zM645 2028q-49 0 -81 -32t-32 -91.5 t32 -91t81 -31.5t81 31.5t32 91t-32 91.5t-81 32z" glyph-name="Uring" unicode="Ů"/><glyph d="M225 512v512h191v-512q0 -166 58 -252t161 -86q111 0 175 87t64 251v512h191v-1024h-191v139q-104 -150 -290 -149q-359 0 -359 522zM348 1495q0 137 83 222t214 85t214 -85t83 -222t-83 -222t-214 -85t-214 85t-83 222zM645 1618q-49 0 -81 -32t-32 -91t32 -91t81 -32 t81 32t32 91t-32 91t-81 32z" glyph-name="uring" unicode="ů"/><glyph d="M645.5 -10q-196.5 0 -323.5 131t-127 381v932h194v-932q0 -150 68.5 -231t187.5 -81t187.5 81t68.5 231v932h195v-932q0 -250 -127 -381t-323.5 -131zM866 1597h-184q0 195 31 349h245q-63 -159 -92 -349zM334 1597q0 195 31 349h245q-63 -158 -92 -349h-184z" glyph-name="Uhungarumlaut" unicode="Ű"/><glyph d="M584 -10q-358 0 -359 522v512h191v-512q0 -166 58 -252t161 -86q111 0 175 87t64 251v512h191v-1024h-191v139q-104 -149 -290 -149zM866 1188h-184q0 195 31 348h245q-63 -158 -92 -348zM334 1188q0 195 31 348h245q-63 -158 -92 -348h-184z" glyph-name="uhungarumlaut" unicode="ű"/><glyph d="M195 1434h194v-932q0 -150 68.5 -231t187.5 -81t187.5 81t68.5 231v932h195v-932q0 -219 -100.5 -348t-262.5 -156q-76 -57 -111.5 -88t-67.5 -74t-32 -82q0 -82 113 -82q92 0 174 41v-184q-82 -41 -195 -41q-119 0 -197.5 60.5t-78.5 164.5q0 88 50 150.5t163 134.5 q-160 31 -258 159t-98 345v932z" glyph-name="Uogonek" unicode="Ų"/><glyph d="M225 512v512h191v-512q0 -166 58 -252t161 -86q111 0 175 87t64 251v512h191v-1024h-6q-113 -84 -164 -137t-51 -109q0 -82 112 -82q92 0 174 41v-184q-82 -41 -194 -41q-119 0 -198 60.5t-79 164.5q0 88 50.5 150.5t164.5 136.5v139q-104 -150 -290 -149 q-359 0 -359 522z" glyph-name="uogonek" unicode="ų"/><glyph d="M154 1434h194q0 -694 33 -1110q80 297 151 700h205q72 -356 172 -709q33 422 33 1119h195q0 -406 -13.5 -700t-58.5 -734h-236q-125 412 -190 676q-59 -289 -178 -676h-236q-45 440 -58 734t-13 700zM522 1597h-225q102 190 246 349h205q143 -158 245 -349h-225 q-61 123 -123 205q-62 -82 -123 -205z" glyph-name="Wcircumflex" unicode="Ŵ"/><glyph d="M342 0q-164 522 -209 1024h195q41 -475 112 -768q59 213 121 522h170q55 -295 121 -526q84 332 111 772h194q-45 -502 -209 -1024h-190q-63 209 -109 393q-37 -156 -117 -393h-190zM522 1188h-225q102 190 246 348h205q143 -158 245 -348h-225q-61 123 -123 205 q-62 -82 -123 -205z" glyph-name="wcircumflex" unicode="ŵ"/><glyph d="M133 1434h215q119 -319 297 -615q178 295 297 615h215q-137 -342 -414 -820v-614h-194v614q-277 472 -416 820zM297 1597q102 190 246 349h205q143 -158 245 -349h-225q-61 123 -123 205q-61 -82 -123 -205h-225z" glyph-name="Ycircumflex" unicode="Ŷ"/><glyph d="M154 -410v185q41 -43 115.5 -73t133.5 -30q117 0 158 129l62 203q-242 457 -387 1020h204q92 -401 256 -782l240 782h201l-400 -1278q-37 -119 -128 -188.5t-222 -69.5q-47 0 -119.5 29.5t-113.5 72.5zM297 1188q102 190 246 348h205q143 -158 245 -348h-225 q-61 123 -123 205q-61 -82 -123 -205h-225z" glyph-name="ycircumflex" unicode="ŷ"/><glyph d="M549 614q-276 471 -416 820h215q119 -319 297 -615q178 295 297 615h215q-137 -342 -414 -820v-614h-194v614zM1004 1597h-267v246h267v-246zM287 1597v246h266v-246h-266z" glyph-name="Ydieresis" unicode="Ÿ"/><glyph d="M1075 0h-860v174l637 1075h-616v185h829v-174l-625 -1076h635v-184zM543 1597q37 164 123 349h286q-133 -190 -204 -349h-205z" glyph-name="Zacute" unicode="Ź"/><glyph d="M1075 0h-860v174l625 676h-604v174h829v-174l-604 -676h614v-174zM543 1188q37 164 123 348h286q-133 -190 -204 -348h-205z" glyph-name="zacute" unicode="ź"/><glyph d="M236 1249v185h829v-174l-625 -1076h635v-184h-860v174l637 1075h-616zM778 1597h-266v246h266v-246z" glyph-name="Zdotaccent" unicode="Ż"/><glyph d="M461 174h614v-174h-860v174l625 676h-604v174h829v-174zM778 1188h-266v246h266v-246z" glyph-name="zdotaccent" unicode="ż"/><glyph d="M215 174l637 1075h-616v185h829v-174l-625 -1076h635v-184h-860v174zM543 1597q-127 139 -246 349h225q61 -123 123 -205q61 82 123 205h225q-119 -209 -245 -349h-205z" glyph-name="Zcaron" unicode="Ž"/><glyph d="M1075 0h-860v174l625 676h-604v174h829v-174l-604 -676h614v-174zM297 1536h225q61 -123 123 -205q61 82 123 205h225q-119 -209 -245 -348h-205q-127 139 -246 348z" glyph-name="zcaron" unicode="ž"/><glyph d="M375 1024q0 188 99 304t280 116q51 0 126.5 -30t118.5 -73v-184q-43 43 -118.5 73t-126.5 30q-102 0 -145.5 -60.5t-43.5 -175.5v-1024h-190v1024z" glyph-name="longs" unicode="ſ"/><glyph d="M174 850v174h318q12 195 106 307.5t272 112.5q51 0 127 -30t119 -73v-184q-43 43 -118.5 73t-127.5 30q-100 0 -140 -58.5t-48 -177.5h434v-174h-444l-72 -1106h-190l71 1106h-307z" glyph-name="florin" unicode="ƒ"/><glyph d="M133 0q125 786 373 1434h276q248 -643 375 -1434h-205q-43 283 -94 512h-426q-51 -229 -94 -512h-205zM543 1597q-127 139 -246 349h225q61 -123 123 -205q61 82 123 205h225q-119 -209 -245 -349h-205zM477 696h336q-70 279 -168 576q-90 -265 -168 -576z" glyph-name="uni01CD" unicode="Ǎ"/><glyph d="M594 -10q-178 0 -283.5 94t-105.5 233q0 141 105.5 239.5t283.5 98.5q186 0 301 -110v110q0 82 -64.5 138.5t-185.5 56.5q-172 0 -389 -102v184q217 102 389 102q207 0 323.5 -109.5t116.5 -269.5v-655h-190v96q-113 -106 -301 -106zM399 317.5q0 -71.5 62.5 -112.5 t183.5 -41t185.5 41t64.5 112.5t-65.5 117.5t-184.5 46t-182.5 -46t-63.5 -117.5zM543 1188q-127 139 -246 348h225q61 -123 123 -205q61 82 123 205h225q-119 -209 -245 -348h-205z" glyph-name="uni01CE" unicode="ǎ"/><glyph d="M745 184h310v-184h-819v184h315v1065h-315v185h819v-185h-310v-1065zM297 1946h225q61 -123 123 -205q61 82 123 205h225q-119 -209 -245 -349h-205q-127 140 -246 349z" glyph-name="uni01CF" unicode="Ǐ"/><glyph d="M184 0v174h389v676h-348v174h539v-850h383v-174h-963zM297 1536h225q61 -123 123 -205q61 82 123 205h225q-119 -209 -245 -348h-205q-127 139 -246 348z" glyph-name="uni01D0" unicode="ǐ"/><glyph d="M645 -10q-119 0 -210 43t-147.5 111.5t-92 167t-49 195.5t-13.5 209.5t13.5 211t49 196t92 166t147.5 111.5t210 43t210 -43t147.5 -111.5t92 -167t49 -196t13.5 -210t-13.5 -209.5t-49 -195.5t-92 -167t-147.5 -111.5t-210 -43zM334 717q0 -526 311 -526.5t311 526.5 q0 532 -311 532t-311 -532zM297 1946h225q61 -123 123 -205q61 82 123 205h225q-119 -209 -245 -349h-205q-127 140 -246 349z" glyph-name="uni01D1" unicode="Ǒ"/><glyph d="M645 -10q-215 0 -348 145.5t-133 376.5t133 376.5t348 145.5t348 -145.5t133 -376.5t-133 -376.5t-348 -145.5zM645 850q-119 0 -203 -86t-84 -252q0 -164 84 -246t203 -82t203 82t84 246q0 166 -84 252t-203 86zM543 1188q-127 139 -246 348h225q61 -123 123 -205 q61 82 123 205h225q-119 -209 -245 -348h-205z" glyph-name="uni01D2" unicode="ǒ"/><glyph d="M195 1434h194v-932q0 -150 68.5 -231t187.5 -81t187.5 81t68.5 231v932h195v-932q0 -250 -127 -381t-323.5 -131t-323.5 131t-127 381v932zM297 1946h225q61 -123 123 -205q61 82 123 205h225q-119 -209 -245 -349h-205q-127 140 -246 349z" glyph-name="uni01D3" unicode="Ǔ"/><glyph d="M584 -10q-358 0 -359 522v512h191v-512q0 -166 58 -252t161 -86q111 0 175 87t64 251v512h191v-1024h-191v139q-104 -149 -290 -149zM543 1188q-127 139 -246 348h225q61 -123 123 -205q61 82 123 205h225q-119 -209 -245 -348h-205z" glyph-name="uni01D4" unicode="ǔ"/><glyph d="M184 598h721q-16 123 -97 187.5t-183 64.5q-154 0 -389 -113v195q213 102 389 102q190 0 335.5 -141t145.5 -381q0 -242 -136 -382t-324.5 -140t-325 140t-136.5 382v86zM385 426q35 -242 260 -242q106 0 178 60.5t82 181.5h-520z" glyph-name="uni01DD" unicode="ǝ"/><glyph d="M328 0h-205q125 786 373 1434h651v-185h-318v-409h308v-185h-308v-460h318v-195h-512v512h-213q-51 -229 -94 -512zM993 1597h-696v185h696v-185zM467 696h168v578q-100 -306 -168 -578z" glyph-name="uni01E2" unicode="Ǣ"/><glyph d="M399 -10q-125 0 -211 92t-86 235q0 145 86 241.5t211 96.5q96 0 164 -55v57q0 96 -31.5 144.5t-111.5 48.5q-158 0 -277 -102v184q123 104 287 102q152 -2 223 -108q74 109 217 108q172 0 250 -131t78 -391v-82h-450q0 -123 38.5 -184.5t104.5 -61.5q100 0 256 103v-195 q-152 -102 -256 -102q-166 0 -250 147q-78 -147 -242 -147zM993 1188h-696v184h696v-184zM430 481q-59 0 -96 -46t-37 -118q0 -70 36 -111.5t97.5 -41.5t97 42t35.5 111q0 72 -37 118t-96 46zM880.5 850q-69.5 0 -101 -60.5t-31.5 -195.5h266q0 135 -32 195.5t-101.5 60.5z " glyph-name="uni01E3" unicode="ǣ"/><glyph d="M154 717q0 109 11 203t45 193t87 170t145.5 116t212.5 45q199 0 389 -123v-215q-201 143 -389 143q-301 0 -301 -532q0 -526 301 -527q123 0 189.5 121t66.5 344h-297v185h482v-840h-164l-6 197q-96 -207 -312 -207q-131 0 -226 65.5t-143 177t-69.5 230.5t-21.5 254z M297 1946h225q61 -123 123 -205q61 82 123 205h225q-119 -209 -245 -349h-205q-127 140 -246 349z" glyph-name="Gcaron" unicode="Ǧ"/><glyph d="M573 -10q-168 0 -288.5 142t-120.5 380t121 380t288 142q211 0 322 -157v147h190v-1157q0 -158 -122.5 -268.5t-329.5 -110.5q-190 0 -408 102v185q217 -102 391 -103q129 0 204 57.5t75 137.5v280q-111 -157 -322 -157zM624.5 850q-114.5 0 -190.5 -88t-76 -250 q0 -160 76 -244t190.5 -84t192.5 84t78 244q0 162 -78 250t-192.5 88zM297 1536h225q61 -123 123 -205q61 82 123 205h225q-119 -209 -245 -348h-205q-127 139 -246 348z" glyph-name="gcaron" unicode="ǧ"/><glyph d="M246 0v1434h194v-580q274 311 441 580h225q-111 -190 -219.5 -334t-302.5 -363q186 -211 305 -370.5t237 -366.5h-235q-166 291 -451 621v-621h-194zM543 1597q-127 139 -246 349h225q61 -123 123 -205q61 82 123 205h225q-119 -209 -245 -349h-205z" glyph-name="uni01E8" unicode="Ǩ"/><glyph d="M276 0v1434h191v-807q221 201 393 397h256q-217 -246 -491 -481q180 -158 282.5 -267.5t229.5 -275.5h-246q-106 137 -197.5 236.5t-226.5 222.5v-459h-191zM543 1597q-127 139 -246 349h225q61 -123 123 -205q61 82 123 205h225q-119 -209 -245 -349h-205z" glyph-name="uni01E9" unicode="ǩ"/><glyph d="M549 -2q-119 20 -204 89t-129 173.5t-63.5 216t-19.5 240.5q0 113 13.5 211t49 195.5t92 166t147.5 111.5t210 43t210 -43t147.5 -111.5t92 -167t49 -196t13.5 -209.5q0 -131 -19.5 -243t-65.5 -217t-133 -174t-208 -87q-109 -82 -159 -135.5t-50 -106.5q0 -82 113 -82 q92 0 174 41v-184q-82 -41 -195 -41q-119 0 -197.5 60.5t-78.5 164.5q0 86 49 148.5t162 136.5zM334 717q0 -526 311 -526.5t311 526.5q0 532 -311 532t-311 -532z" glyph-name="uni01EA" unicode="Ǫ"/><glyph d="M543 0q-172 35 -275.5 173t-103.5 339q0 231 133 376.5t348 145.5t348 -145.5t133 -376.5q0 -209 -111.5 -350.5t-293.5 -165.5q-109 -80 -159 -133t-50 -109q0 -82 113 -82q92 0 174 41v-184q-82 -41 -195 -41q-119 0 -197.5 60.5t-78.5 164.5q0 88 50 150.5t165 136.5z M645 850q-119 0 -203 -86t-84 -252q0 -164 84 -246t203 -82t203 82t84 246q0 166 -84 252t-203 86z" glyph-name="uni01EB" unicode="ǫ"/><glyph d="M133 717q0 113 13.5 211t49 195.5t92 166t147.5 111.5t210 43t210 -43t147.5 -111.5t92 -167t49 -196t13.5 -209.5q0 -131 -19.5 -243t-65.5 -217t-133 -174t-208 -87q-109 -82 -159 -135.5t-50 -106.5q0 -82 113 -82q92 0 174 41v-184q-82 -41 -195 -41 q-119 0 -197.5 60.5t-78.5 164.5q0 86 49 148.5t162 136.5q-119 20 -204 89t-129 173.5t-63.5 216t-19.5 240.5zM334 717q0 -526 311 -526.5t311 526.5q0 532 -311 532t-311 -532zM993 1597h-696v185h696v-185z" glyph-name="uni01EC" unicode="Ǭ"/><glyph d="M164 512q0 231 133 376.5t348 145.5t348 -145.5t133 -376.5q0 -209 -111.5 -350.5t-293.5 -165.5q-109 -80 -159 -133t-50 -109q0 -82 113 -82q92 0 174 41v-184q-82 -41 -195 -41q-119 0 -197.5 60.5t-78.5 164.5q0 88 50 150.5t165 136.5q-172 35 -275.5 173 t-103.5 339zM358 512q0 -164 84 -246t203 -82t203 82t84 246q0 166 -84 252t-203 86t-203 -86t-84 -252zM993 1188h-696v184h696v-184z" glyph-name="uni01ED" unicode="ǭ"/><glyph d="M123 -410v185q197 -102 358 -103q135 0 211 54.5t76 140.5v983h-410v174h600v-1157q0 -141 -124.5 -260t-321.5 -119q-192 0 -389 102zM543 1188q-127 139 -246 348h225q61 -123 123 -205q61 82 123 205h225q-119 -209 -245 -348h-205z" glyph-name="uni01F0" unicode="ǰ"/><glyph d="M614 -10q-131 0 -226 65.5t-143 177t-69.5 230.5t-21.5 254q0 109 11 203t45 193t87 170t145.5 116t212.5 45q199 0 389 -123v-215q-201 143 -389 143q-301 0 -301 -532q0 -526 301 -527q123 0 189.5 121t66.5 344h-297v185h482v-840h-164l-6 197q-97 -207 -312 -207z M522 1597q37 164 123 349h287q-133 -190 -205 -349h-205z" glyph-name="uni01F4" unicode="Ǵ"/><glyph d="M573 -10q-168 0 -288.5 142t-120.5 380t121 380t288 142q211 0 322 -157v147h190v-1157q0 -158 -122.5 -268.5t-329.5 -110.5q-190 0 -408 102v185q217 -102 391 -103q129 0 204 57.5t75 137.5v280q-111 -157 -322 -157zM624.5 850q-114.5 0 -190.5 -88t-76 -250 q0 -160 76 -244t190.5 -84t192.5 84t78 244q0 162 -78 250t-192.5 88zM727 1188h-205q37 164 123 348h287q-133 -190 -205 -348z" glyph-name="uni01F5" unicode="ǵ"/><glyph d="M215 0v1434h246q266 -514 420 -990v990h194v-1434h-246q-199 662 -419 1126v-1126h-195zM358 1946h287q86 -184 123 -349h-205q-72 159 -205 349z" glyph-name="uni01F8" unicode="Ǹ"/><glyph d="M225 1024h191v-154q113 164 311 164q184 0 261 -129t77 -393v-512h-191v512q0 172 -46 255t-152 83q-113 0 -186.5 -88t-73.5 -250v-512h-191v1024zM358 1536h287q86 -184 123 -348h-205q-72 158 -205 348z" glyph-name="uni01F9" unicode="ǹ"/><glyph d="M328 0h-205q125 786 373 1434h651v-185h-318v-409h308v-185h-308v-460h318v-195h-512v512h-213q-51 -229 -94 -512zM522 1597q37 164 123 349h287q-133 -190 -205 -349h-205zM467 696h168v578q-100 -306 -168 -578z" glyph-name="AEacute" unicode="Ǽ"/><glyph d="M399 -10q-125 0 -211 92t-86 235q0 145 86 241.5t211 96.5q96 0 164 -55v57q0 96 -31.5 144.5t-111.5 48.5q-158 0 -277 -102v184q123 104 287 102q152 -2 223 -108q74 109 217 108q172 0 250 -131t78 -391v-82h-450q0 -123 38.5 -184.5t104.5 -61.5q100 0 256 103v-195 q-152 -102 -256 -102q-166 0 -250 147q-78 -147 -242 -147zM522 1188q37 164 123 348h287q-133 -190 -205 -348h-205zM430 481q-59 0 -96 -46t-37 -118q0 -70 36 -111.5t97.5 -41.5t97 42t35.5 111q0 72 -37 118t-96 46zM748 594h266q0 135 -32 195.5t-101.5 60.5 t-101 -60.5t-31.5 -195.5z" glyph-name="aeacute" unicode="ǽ"/><glyph d="M645 625q-123 0 -214 38.5t-138 102t-67.5 130.5t-20.5 138q0 70 23.5 138.5t72.5 131t138 101.5t206 39q186 0 379 -123v-215q-201 143 -379 143q-98 0 -168.5 -56t-70.5 -159q0 -90 56 -152.5t183 -62.5q109 0 197 -40t139 -102.5t77.5 -132t26.5 -134.5 q0 -72 -23.5 -142.5t-72.5 -134t-138 -103.5t-206 -40q-199 0 -440 112v226q135 -78 232.5 -108t207.5 -30q127 0 183.5 62.5t56.5 157.5q0 96 -67 155.5t-173 59.5zM604 -514h-205q86 184 123 348h287q-72 -158 -205 -348z" glyph-name="Scommaaccent" unicode="Ș"/><glyph d="M645 -10q-201 0 -420 102v195q256 -102 410 -103q240 0 239 133q0 55 -45 84t-184 29q-399 0 -399 297q0 139 93 223t296 84q184 0 389 -102v-184q-205 102 -379 102q-215 0 -215 -123q0 -113 234 -113q76 0 142 -13t126.5 -45t96.5 -93.5t36 -145.5q0 -119 -71.5 -196.5 t-161 -104t-187.5 -26.5zM604 -514h-205q86 184 123 348h287q-72 -158 -205 -348z" glyph-name="scommaaccent" unicode="ș"/><glyph d="M143 1434h1004v-185h-410v-1249h-194v1249h-400v185zM399 -514q86 184 123 348h287q-72 -158 -205 -348h-205z" glyph-name="uni021A" unicode="Ț"/><glyph d="M430 850h-297v174h297v410h191v-410h454v-174h-454v-440q0 -236 206 -236q51 0 128 29.5t120 72.5v-184q-43 -43 -119.5 -72.5t-128.5 -29.5q-184 0 -290.5 118.5t-106.5 301.5v440zM604 -514h-205q86 184 123 348h287q-72 -158 -205 -348z" glyph-name="uni021B" unicode="ț"/><glyph d="M133 0q125 786 373 1434h276q248 -643 375 -1434h-205q-43 283 -94 512h-426q-51 -229 -94 -512h-205zM477 696h336q-70 279 -168 576q-90 -265 -168 -576zM512 1597v246h266v-246h-266z" glyph-name="uni0226" unicode="Ȧ"/><glyph d="M594 -10q-178 0 -283.5 94t-105.5 233q0 141 105.5 239.5t283.5 98.5q186 0 301 -110v110q0 82 -64.5 138.5t-185.5 56.5q-172 0 -389 -102v184q217 102 389 102q207 0 323.5 -109.5t116.5 -269.5v-655h-190v96q-113 -106 -301 -106zM399 317.5q0 -71.5 62.5 -112.5 t183.5 -41t185.5 41t64.5 112.5t-65.5 117.5t-184.5 46t-182.5 -46t-63.5 -117.5zM512 1434h266v-246h-266v246z" glyph-name="uni0227" unicode="ȧ"/><glyph d="M563 0h-327v1434h808v-185h-614v-409h563v-185h-563v-460h625v-195h-328v-82q98 0 156.5 -56.5t58.5 -148.5q0 -104 -79 -164.5t-197 -60.5q-113 0 -195 41v184q82 -41 174 -41q113 0 113 61.5t-113 61.5h-82v205z" glyph-name="uni0228" unicode="Ȩ"/><glyph d="M184 512q0 242 136.5 382t325 140t324.5 -140t136 -382v-86h-721q16 -123 97 -182.5t184 -59.5q176 0 389 103v-195q-180 -86 -328 -100v-74q98 0 156.5 -56.5t58.5 -148.5q0 -104 -79 -164.5t-197 -60.5q-113 0 -195 41v184q82 -41 174 -41q113 0 113 61.5t-113 61.5 h-82v207q-160 37 -269.5 171t-109.5 339zM385 598h520q-35 252 -260 252q-106 0 -178 -61.5t-82 -190.5z" glyph-name="uni0229" unicode="ȩ"/><glyph d="M645 -10q-119 0 -210 43t-147.5 111.5t-92 167t-49 195.5t-13.5 209.5t13.5 211t49 196t92 166t147.5 111.5t210 43t210 -43t147.5 -111.5t92 -167t49 -196t13.5 -210t-13.5 -209.5t-49 -195.5t-92 -167t-147.5 -111.5t-210 -43zM334 717q0 -526 311 -526.5t311 526.5 q0 532 -311 532t-311 -532zM512 1843h266v-246h-266v246z" glyph-name="uni022E" unicode="Ȯ"/><glyph d="M645 -10q-215 0 -348 145.5t-133 376.5t133 376.5t348 145.5t348 -145.5t133 -376.5t-133 -376.5t-348 -145.5zM358 512q0 -164 84 -246t203 -82t203 82t84 246q0 166 -84 252t-203 86t-203 -86t-84 -252zM512 1188v246h266v-246h-266z" glyph-name="uni022F" unicode="ȯ"/><glyph d="M549 614q-276 471 -416 820h215q119 -319 297 -615q178 295 297 615h215q-137 -342 -414 -820v-614h-194v614zM993 1597h-696v185h696v-185z" glyph-name="uni0232" unicode="Ȳ"/><glyph d="M154 -225q41 -43 115.5 -73t133.5 -30q117 0 158 129l62 203q-242 457 -387 1020h204q92 -401 256 -782l240 782h201l-400 -1278q-37 -119 -128 -188.5t-222 -69.5q-47 0 -119.5 29.5t-113.5 72.5v185zM993 1188h-696v184h696v-184z" glyph-name="uni0233" unicode="ȳ"/><glyph d="M123 -225q197 -102 358 -103q135 0 211 54.5t76 140.5v983h-410v174h600v-1157q0 -141 -124.5 -260t-321.5 -119q-193 0 -389 102v185z" glyph-name="uni0237" unicode="ȷ"/><glyph d="M297 1188q102 190 246 348h205q143 -158 245 -348h-225q-61 123 -123 205q-61 -82 -123 -205h-225z" glyph-name="circumflex" unicode="ˆ"/><glyph d="M543 1188q-127 139 -246 348h225q61 -123 123 -205q61 82 123 205h225q-119 -209 -245 -348h-205z" glyph-name="caron" unicode="ˇ"/><glyph d="M328 1536h184q0 -78 35 -121t98 -43q61 0 97 44t36 120h185q0 -162 -86 -255t-231.5 -93t-231.5 93t-86 255z" glyph-name="breve" unicode="˘"/><glyph d="M778 1188h-266v246h266v-246z" glyph-name="dotaccent" unicode="˙"/><glyph d="M645 1188q-131 0 -214 85t-83 222t83 222t214 85t214 -85t83 -222t-83 -222t-214 -85zM645 1618q-49 0 -81 -32t-32 -91t32 -91t81 -32t81 32t32 91t-32 91t-81 32z" glyph-name="ring" unicode="˚"/><glyph d="M369 -287q0 88 50 150.5t165 136.5h184q-113 -84 -164 -137t-51 -109q0 -82 113 -82q92 0 174 41v-184q-82 -41 -195 -41q-119 0 -197.5 60.5t-78.5 164.5z" glyph-name="ogonek" unicode="˛"/><glyph d="M451 1198h-164q0 170 58 254t157 84q53 0 108.5 -43t99.5 -87t68 -44q61 0 62 164h164q0 -166 -56.5 -252t-159.5 -86q-53 0 -108 43t-99 87t-69 44q-61 0 -61 -164z" glyph-name="tilde" unicode="˜"/><glyph d="M866 1188h-184q0 195 31 348h245q-63 -158 -92 -348zM518 1188h-184q0 195 31 348h245q-63 -158 -92 -348z" glyph-name="hungarumlaut" unicode="˝"/><glyph d="M225 1024h191v-512q0 -166 58 -252t161 -86q111 0 175 87t64 251v512h191v-1024h-191v137q-100 -147 -270 -147q-119 0 -188 80v-582h-191v1536z" glyph-name="mu" unicode="μ"/><glyph d="M154 1434h194q0 -694 33 -1110q80 297 151 700h205q72 -356 172 -709q33 422 33 1119h195q0 -406 -13.5 -700t-58.5 -734h-236q-125 412 -190 676q-59 -289 -178 -676h-236q-45 440 -58 734t-13 700zM543 1597q-72 158 -205 349h287q86 -184 123 -349h-205z" glyph-name="Wgrave" unicode="Ẁ"/><glyph d="M133 1024h195q41 -475 112 -768q59 213 121 522h170q55 -295 121 -526q84 332 111 772h194q-45 -502 -209 -1024h-190q-63 209 -109 393q-37 -156 -117 -393h-190q-164 522 -209 1024zM543 1188q-72 158 -205 348h287q86 -184 123 -348h-205z" glyph-name="wgrave" unicode="ẁ"/><glyph d="M154 1434h194q0 -694 33 -1110q80 297 151 700h205q72 -356 172 -709q33 422 33 1119h195q0 -406 -13.5 -700t-58.5 -734h-236q-125 412 -190 676q-59 -289 -178 -676h-236q-45 440 -58 734t-13 700zM748 1597h-205q37 164 123 349h286q-132 -191 -204 -349z" glyph-name="Wacute" unicode="Ẃ"/><glyph d="M133 1024h195q41 -475 112 -768q59 213 121 522h170q55 -295 121 -526q84 332 111 772h194q-45 -502 -209 -1024h-190q-63 209 -109 393q-37 -156 -117 -393h-190q-164 522 -209 1024zM543 1188q37 164 123 348h286q-133 -190 -204 -348h-205z" glyph-name="wacute" unicode="ẃ"/><glyph d="M154 1434h194q0 -694 33 -1110q80 297 151 700h205q72 -356 172 -709q33 422 33 1119h195q0 -406 -13.5 -700t-58.5 -734h-236q-125 412 -190 676q-59 -289 -178 -676h-236q-45 440 -58 734t-13 700zM737 1843h267v-246h-267v246zM287 1843h266v-246h-266v246z" glyph-name="Wdieresis" unicode="Ẅ"/><glyph d="M342 0q-164 522 -209 1024h195q41 -475 112 -768q59 213 121 522h170q55 -295 121 -526q84 332 111 772h194q-45 -502 -209 -1024h-190q-63 209 -109 393q-37 -156 -117 -393h-190zM737 1188v246h267v-246h-267zM287 1434h266v-246h-266v246z" glyph-name="wdieresis" unicode="ẅ"/><glyph d="M184 563v174h922v-174h-922z" glyph-name="endash" unicode="–"/><glyph d="M113 563v174h1065v-174h-1065z" glyph-name="emdash" unicode="—"/><glyph d="M748 922h-287q0 147 49 323t115 291h204q-81 -301 -81 -614z" glyph-name="quoteleft" unicode="‘"/><glyph d="M666 922h-205q82 301 82 614h286q0 -147 -48.5 -323t-114.5 -291z" glyph-name="quoteright" unicode="’"/><glyph d="M666 -246h-205q82 301 82 615h286q0 -147 -48.5 -323.5t-114.5 -291.5z" glyph-name="quotesinglbase" unicode="‚"/><glyph d="M696 922q0 147 49.5 323t114.5 291h205q-82 -301 -82 -614h-287zM225 922q0 147 49.5 323t114.5 291h205q-82 -301 -82 -614h-287z" glyph-name="quotedblleft" unicode="“"/><glyph d="M901 922h-205q82 301 82 614h287q0 -147 -49 -323t-115 -291zM430 922h-205q82 301 82 614h287q0 -147 -49 -323t-115 -291z" glyph-name="quotedblright" unicode="”"/><glyph d="M901 -246h-205q82 301 82 615h287q0 -147 -49 -323.5t-115 -291.5zM430 -246h-205q82 301 82 615h287q0 -147 -49 -323.5t-115 -291.5z" glyph-name="quotedblbase" unicode="„"/><glyph d="M733 1198h301v-174h-301q-4 -758 -18 -1280h-133q-18 596 -23 1280h-303v174h303v338h174v-338z" glyph-name="dagger" unicode="†"/><glyph d="M215 635v164h340q-2 74 -2 225h-338v164h338v348h174v-348h348v-164h-348q0 -152 -2 -225h350v-164h-350q-2 -291 -16 -891h-134q-14 487 -20 891h-340z" glyph-name="daggerdbl" unicode="‡"/><glyph d="M410 614.5q0 106.5 67.5 176t167.5 69.5t168 -69.5t68 -176t-68 -176t-168 -69.5t-167.5 69.5t-67.5 176z" glyph-name="bullet" unicode="•"/><glyph d="M776 1024l117 -117l-262 -258l262 -262l-117 -115l-377 377z" glyph-name="guilsinglleft" unicode="‹"/><glyph d="M516 1024l377 -375l-377 -377l-117 115l263 262l-263 258z" glyph-name="guilsinglright" unicode="›"/><glyph d="M430 471h348v-174h-348v-297h-194v297h-236v174h236v963h819v-185h-625v-409h584v-185h-584v-184z" glyph-name="franc" unicode="₣"/><glyph d="M215 0v174q96 37 145.5 114t49.5 173h-195v174h195v164h-195v174h195v51q0 188 99 304t279 116q53 0 138.5 -30t128.5 -73v-184q-43 43 -128 73t-139 30q-102 0 -145 -60.5t-43 -175.5v-51h393v-174h-393v-164h393v-174h-393q0 -92 -32.5 -170t-90.5 -117h578v-174h-840z " glyph-name="lira" unicode="₤"/><glyph d="M133 799v174h178q45 209 168 340t340 131q170 0 318 -123v-215q-154 143 -318 143q-219 0 -299 -276h391v-174h-419q-4 -29 -4.5 -82t4.5 -82h419v-174h-391q80 -270 299 -271q186 0 338 127v-225q-170 -102 -338 -102q-217 0 -340 131t-168 340h-178v174h156 q-2 27 -2 82t2 82h-156z" glyph-name="Euro" unicode="€"/><glyph d="M614 717v717h205q41 -154 72 -289q31 135 72 289h204v-717h-143v561q-49 -199 -72 -356h-123q-23 158 -71 356v-561h-144zM82 1290v144h450v-144h-153v-573h-143v573h-154z" glyph-name="trademark" unicode="™"/><glyph d="M184 512q0 242 136.5 382t325 140t324.5 -140t136 -382v-86h-666v-139q78 -102 226 -103q176 0 389 103v-195q-213 -102 -389 -102q-190 0 -336 141t-146 381zM440 760v-162h410v156q-68 96 -205 96q-135 0 -205 -90z" glyph-name="estimated" unicode="℮"/><glyph d="M102 748q215 199 369 399h256q-76 -90 -114 -133t-108.5 -114t-146.5 -132h830v-174h-830q76 -61 149 -134t105.5 -111t114.5 -134h-256q-154 199 -369 399v134z" glyph-name="arrowleft" unicode="←"/><glyph d="M559 963q-61 -76 -134 -149t-111 -105.5t-134 -114.5v256q201 154 400 369h133q201 -215 399 -369v-256q-90 76 -133 113.5t-113.5 108.5t-132.5 147v-830h-174v830z" glyph-name="arrowup" unicode="↑"/><glyph d="M932 594h-830v174h830q-76 61 -146.5 132t-108.5 114t-114 133h256q154 -201 369 -399v-134q-215 -201 -369 -399h-256q82 96 115 134t105.5 111t148.5 134z" glyph-name="arrowright" unicode="→"/><glyph d="M180 502v256q90 -76 133 -114t114 -108.5t132 -146.5v830h174v-830q61 76 134 148.5t111 105.5t134 115v-256q-199 -154 -399 -369h-133q-199 215 -400 369z" glyph-name="arrowdown" unicode="↓"/><glyph d="M655 1024h-573v174h747v-809q61 76 134 148.5t111 105.5t134 115v-256q-201 -154 -399 -369h-133q-201 215 -400 369v256q90 -76 133.5 -114t114 -108.5t131.5 -146.5v635z" glyph-name="uni21B4" unicode="↴"/><glyph d="M82 614v134q215 199 369 399h256q-76 -90 -114 -133t-108.5 -114t-146.5 -132h696v666h174v-840h-870q76 -61 148.5 -134t105.5 -111t115 -134h-256q-154 198 -369 399z" glyph-name="carriagereturn" unicode="↵"/><glyph d="M133 1434h205q43 -283 94 -512h426q51 229 94 512h205q-127 -791 -375 -1434h-276q-248 648 -373 1434zM813 737h-336q78 -311 168 -575q98 296 168 575z" glyph-name="universal" unicode="∀"/><glyph d="M1055 0h-819v195h624v460h-573v185h573v409h-614v185h809v-1434z" glyph-name="existential" unicode="∃"/><glyph d="M276 563v174h779v-174h-779z" glyph-name="minus" unicode="−"/><glyph d="M526 635q-152 61 -260 125l82 141q125 -72 238 -164q-25 143 -25 287h164q0 -135 -23 -287q109 88 240 164l82 -141q-104 -59 -262 -125q150 -57 262 -123l-82 -141q-127 74 -240 161q23 -152 23 -286h-164q0 143 25 286q-119 -92 -238 -161l-82 141q117 68 260 123z" glyph-name="asteriskmath" unicode="∗"/><glyph d="M215 655v205l860 369v-205l-665 -266l665 -266v-205zM215 0v174h860v-174h-860z" glyph-name="lessequal" unicode="≤"/><glyph d="M215 1229l860 -369v-205l-860 -368v205l666 266l-666 266v205zM215 174h860v-174h-860v174z" glyph-name="greaterequal" unicode="≥"/><glyph d="M102 716.5q0 229.5 156 386.5t387.5 157t387 -157t155.5 -386.5t-155.5 -386t-387 -156.5t-387.5 156.5t-156 386zM225 716.5q0 -184.5 118 -302t302 -117.5t302 117.5t118 302t-118 302.5t-302 118t-302 -118t-118 -302.5zM645 717q96 0 166 -69.5t70 -186.5h-123 q0 61 -30 97t-83 36t-83 -36t-30 -97h-122q0 117 69.5 186.5t165.5 69.5zM451 877q0 31 17 53t44 22t44 -22.5t17 -52.5q0 -33 -17 -55.5t-44 -22.5t-44 22.5t-17 55.5zM778.5 952q26.5 0 44 -22.5t17.5 -52.5q0 -33 -17.5 -55.5t-44 -22.5t-44 22.5t-17.5 55.5 q0 31 17.5 53t44 22z" glyph-name="uni2369" unicode="⍩"/><glyph d="M133 706.5q0 239.5 141.5 391t370.5 151.5t370.5 -151.5t141.5 -391t-141.5 -391t-370.5 -151.5t-370.5 151.5t-141.5 391zM645 1126q-176 0 -282.5 -113.5t-106.5 -306t106.5 -306t282.5 -113.5t282.5 113.5t106.5 306t-106.5 306t-282.5 113.5zM471 983h211 q74 0 125 -55.5t51 -131t-46 -125.5t-130 -50h-86v-191h-125v553zM668 872h-72v-149h72q31 0 49 23.5t18 50.5q0 29 -18 52t-49 23z" glyph-name="uni24C5" unicode="Ⓟ"/><glyph d="M236 1434h307l41 -349l82 82l266 -143l123 -307l-82 -144l82 -317v-256h-615l-204 1024v410zM358 1311v-287l205 -850h328l-103 604l-40 162h-62l-20 -162v-237h-62l-41 237l-123 246l-20 287h-62z" glyph-name="uni261D" unicode="☝"/><glyph d="M1055 0h-307l-41 348l-82 -82l-267 144l-122 307l81 143l-81 318v256h614l205 -1024v-410zM932 123v287l-205 850h-328l103 -605l41 -161h61l21 161v238h61l41 -238l123 -245l20 -287h62z" glyph-name="uni261F" unicode="☟"/><glyph d="M102 716.5q0 229.5 156 386.5t387.5 157t387 -157t155.5 -386.5t-155.5 -386t-387 -156.5t-387.5 156.5t-156 386zM225 716.5q0 -184.5 118 -302t302 -117.5t302 117.5t118 302t-118 302.5t-302 118t-302 -118t-118 -302.5zM645 399q-135 0 -216 88t-81 230h123 q0 -90 48 -142.5t126 -52.5t126 52.5t48 142.5h123q0 -141 -81 -229.5t-216 -88.5zM451 877q0 31 17 53t44 22t44 -22.5t17 -52.5q0 -33 -17 -55.5t-44 -22.5t-44 22.5t-17 55.5zM778.5 952q26.5 0 44 -22.5t17.5 -52.5q0 -33 -17.5 -55.5t-44 -22.5t-44 22.5t-17.5 55.5 q0 31 17.5 53t44 22z" glyph-name="smileface" unicode="☺"/><glyph d="M301 297h688l-344 698zM102 174l543 1086l543 -1086h-1086zM586 461h123v-123h-123v123zM709 778l-21 -266h-82l-20 266h123z" glyph-name="uni26A0" unicode="⚠"/><glyph d="M580 1434h471l-416 -451l440 -307l-737 -676h-123l410 614l-410 267z" glyph-name="uni26A1" unicode="⚡"/><glyph d="M236 0v256l81 317l-81 144l122 307h144l-41 410h594v-410l-205 -1024h-614zM522 881l-123 -707h328l205 850v287h-62l-20 -287l-123 -246l-41 -235h-61v235l-31 103h-72zM666 1311h-62l41 -369l62 82z" glyph-name="uni270C" unicode="✌"/><glyph d="M645 61q-176 0 -292.5 121t-116.5 330q0 59 15 126t48 139.5t61.5 131t77.5 136t75 116.5t76 109.5t56 81.5q6 -10 56.5 -81t76 -110t74.5 -116.5t77.5 -136t61.5 -131t48.5 -139.5t15.5 -126q0 -209 -117 -330t-293 -121z" glyph-name="u1F4A7" unicode="💧"/><glyph d="M102 716.5q0 229.5 156 386.5t387.5 157t387 -157t155.5 -386.5t-155.5 -386t-387 -156.5t-387.5 156.5t-156 386zM225 716.5q0 -184.5 118 -302t302 -117.5t302 117.5t118 302t-118 302.5t-302 118t-302 -118t-118 -302.5zM389 532v123h512v-123h-512zM778.5 952 q26.5 0 44 -22.5t17.5 -52.5q0 -33 -17.5 -55.5t-44 -22.5t-44 22.5t-17.5 55.5q0 31 17.5 53t44 22zM512 952q27 0 44 -22.5t17 -52.5q0 -33 -17 -55.5t-44 -22.5t-44 22.5t-17 55.5q0 31 17 53t44 22z" glyph-name="u1F610" unicode="😐"/><glyph d="M102 716.5q0 229.5 156 386.5t387.5 157t387 -157t155.5 -386.5t-155.5 -386t-387 -156.5t-387.5 156.5t-156 386zM303 973q-78 -111 -78 -256q0 -184 118 -302t302 -118q145 0 256 78zM645 1137q-145 0 -256 -78l598 -596q78 106 78 254q0 184 -118 302t-302 118z" glyph-name="u1F6AB" unicode="🚫"/></font>
</defs>
</svg>
