<?xml version="1.0" standalone="no"?>
<!DOCTYPE svg PUBLIC "-//W3C//DTD SVG 1.1//EN" "http://www.w3.org/Graphics/SVG/1.1/DTD/svg11.dtd">
<svg xmlns="http://www.w3.org/2000/svg"><metadata>This SVG WebFont was generated by YouWorkForThem.
</metadata><defs><font horiz-adv-x="1290" id="ywftsvg"><font-face ascent="1536" bbox="0 -514 1331 2232" cap-height="1434" descent="-512" font-family="" font-stretch="normal" font-weight="700" panose-1="0 0 0 0 0 0 0 0 0 0" underline-position="0" underline-thickness="0" unicode-range="U+0020-1F6AB" units-per-em="2048" x-height="1024"/><missing-glyph horiz-adv-x="1024"/><glyph glyph-name=".notdef" horiz-adv-x="1024"/><glyph glyph-name="uni0000" horiz-adv-x="0"/><glyph glyph-name="glyph2" horiz-adv-x="681"/><glyph glyph-name="space" unicode=" "/><glyph d="M502 1434h286q0 -395 -40 -861h-205q-41 466 -41 861zM440 0v348h410v-348h-410z" glyph-name="exclam" unicode="!"/><glyph d="M758 881q-41 410 -41 655h327q0 -246 -40 -655h-246zM246 1536h327q0 -246 -41 -655h-245q-41 409 -41 655z" glyph-name="quotedbl" unicode="&quot;"/><glyph d="M113 410v204h204l52 205h-154v205h205l102 410h236l-103 -410h144l102 410h236l-103 -410h144v-205h-195l-51 -205h143v-204h-194l-103 -410h-235l102 410h-143l-103 -410h-235l102 410h-153zM553 614h143l52 205h-144z" glyph-name="numbersign" unicode="#"/><glyph d="M539 547q-100 12 -172 51t-110 95.5t-55.5 114.5t-17.5 124q0 147 86 248.5t269 117.5v238h215v-252q154 -33 270 -106v-256q-133 94 -270 133v-289q158 -33 255 -134.5t97 -252.5q0 -156 -93 -256t-259 -125v-254h-215v252q-162 16 -355 106v267q199 -115 355 -133v311z M539 1069q-123 -16 -123 -137q0 -104 123 -141v278zM754 246q111 33 110 133q0 115 -110 149v-282z" glyph-name="dollar" unicode="$"/><glyph d="M369 809q-127 0 -217.5 88t-90.5 229.5t90.5 229.5t217.5 88t217 -88t90 -229.5t-90 -229.5t-217 -88zM901 -10q-127 0 -217 88t-90 229.5t90 229.5t217 88t217 -88t90 -229.5t-90 -229.5t-217 -88zM199 143l-138 138l1031 1030l137 -137zM784 307.5q0 -59.5 34 -93.5 t83 -34t83 34t34 93.5t-33 96t-84 36.5t-84 -36.5t-33 -96zM252 1126.5q0 -59.5 33.5 -93.5t83 -34t83 34t33.5 93.5t-32.5 96.5t-84 37t-84 -37t-32.5 -96.5z" glyph-name="percent" unicode="%"/><glyph d="M563 -10q-197 0 -313.5 116.5t-116.5 303.5q0 190 215 366q-82 164 -82 289q0 180 95.5 279.5t252.5 99.5q127 0 212 -85t85 -233q0 -106 -72.5 -195t-205.5 -202q53 -84 168 -231q29 106 28 239h236q0 -248 -88 -446q135 -154 262 -291h-297q-14 16 -46 51t-46 51 q-119 -112 -287 -112zM692 285q-131 158 -227 295q-90 -94 -90 -170q0 -80 49 -129.5t139 -49.5q72 1 129 54zM526 915q150 121 150 211q0 51 -23.5 77t-58.5 26q-47 0 -80 -38t-33 -106q0 -70 45 -170z" glyph-name="ampersand" unicode="&amp;"/><glyph d="M481 1536h328q0 -246 -41 -655h-246q-41 409 -41 655z" glyph-name="quotesingle" unicode="'"/><glyph d="M457 645q0 444 297 891h245q-301 -451 -301 -891q0 -244 70 -448.5t227 -452.5h-245q-156 246 -224.5 450.5t-68.5 450.5z" glyph-name="parenleft" unicode="("/><glyph d="M293 1536h246q297 -446 297 -891q0 -246 -69 -450.5t-224 -450.5h-246q158 248 227.5 452.5t69.5 448.5q0 440 -301 891z" glyph-name="parenright" unicode=")"/><glyph d="M481 1139q-121 57 -235 121l98 174q121 -72 219 -144q-20 160 -20 246h200q0 -51 -20 -246q78 59 223 144l98 -174q-158 -88 -235 -121q131 -57 235 -115l-98 -174q-127 72 -223 143q20 -164 20 -256h-200q0 100 20 256q-106 -80 -219 -143l-98 174q110 62 235 115z" glyph-name="asterisk" unicode="*"/><glyph d="M236 727h317v317h205v-317h317v-205h-317v-317h-205v317h-317v205z" glyph-name="plus" unicode="+"/><glyph d="M543 -256h-246q129 270 205 604h409q-173 -350 -368 -604z" glyph-name="comma" unicode=","/><glyph d="M236 543v215h819v-215h-819z" glyph-name="hyphen" unicode="-"/><glyph d="M440 0v348h410v-348h-410z" glyph-name="period" unicode="."/><glyph d="M236 -256l593 1792h226l-594 -1792h-225z" glyph-name="slash" unicode="/"/><glyph d="M123 717q0 344 133 535.5t389 191.5t389 -191.5t133 -535.5t-133 -535.5t-389 -191.5t-389 191.5t-133 535.5zM365 717q0 -485 280.5 -485.5t280.5 485.5q0 492 -280.5 492t-280.5 -492z" glyph-name="zero" unicode="0"/><glyph d="M1096 0h-901v225h327v926q-154 -123 -317 -168v246q139 41 317 205h236v-1209h338v-225z" glyph-name="one" unicode="1"/><glyph d="M195 215q0 104 34.5 192.5t91 149.5t125 114.5t137 98.5t125 87t91.5 92t35 106q0 154 -230 153q-199 0 -389 -143v256q184 123 410 123q223 0 336.5 -113.5t113.5 -275.5q0 -90 -33.5 -164t-88 -126t-120 -98t-131 -91.5t-120 -92.5t-88 -113.5t-33.5 -144.5h635v-225 h-901v215z" glyph-name="two" unicode="2"/><glyph d="M195 379q82 -68 193.5 -108t205.5 -40q117 0 188.5 48.5t71.5 150.5t-68.5 153.5t-181.5 51.5h-133v235h133q229 0 230 164q0 86 -70 130t-170 44q-174 0 -358 -143v256q184 123 378 123q223 0 342 -106.5t119 -282.5t-188 -293q100 -57 154.5 -152.5t54.5 -199.5 q0 -162 -125 -291t-377 -129q-96 0 -207 35.5t-192 97.5v256z" glyph-name="three" unicode="3"/><glyph d="M754 389h-604v195l593 850h246v-820h154v-225h-154v-389h-235v389zM754 1116l-338 -502h338v502z" glyph-name="four" unicode="4"/><glyph d="M604 -10q-209 0 -409 133v256q197 -147 389 -148q123 0 196.5 65.5t73.5 174.5q0 106 -72.5 165.5t-197.5 59.5q-102 0 -348 -41v779h778v-226h-543v-290q78 14 133 14q244 0 368 -136.5t124 -324.5q0 -190 -125 -335.5t-367 -145.5z" glyph-name="five" unicode="5"/><glyph d="M154 481q0 147 37.5 280.5t114.5 254.5t150.5 210t188.5 208h307q-160 -152 -267 -277t-191 -274q102 49 192 49q219 0 335 -130t116 -321q0 -201 -133.5 -346t-378.5 -145q-154 0 -265.5 80t-158.5 188t-47 223zM395 481q0 -113 71 -181.5t179.5 -68.5t179 69t70.5 181 q0 100 -71.5 168t-178 68t-178.5 -68t-72 -168z" glyph-name="six" unicode="6"/><glyph d="M164 1208v226h962v-123q0 -98 -27.5 -185.5t-71.5 -154t-97 -130t-107.5 -131t-98.5 -141t-71.5 -175t-27.5 -220.5v-174h-236v174q0 180 49 327.5t121 241t142.5 170t119.5 150.5t49 145h-706z" glyph-name="seven" unicode="7"/><glyph d="M645 -10q-225 0 -358 106.5t-133 313.5q0 233 211 340q-170 106 -170 315q0 178 125.5 278.5t324.5 100.5t325 -100.5t126 -278.5q0 -209 -170 -315q211 -106 211 -340q0 -207 -133.5 -313.5t-358.5 -106.5zM395 430q0 -92 67.5 -145.5t182.5 -53.5t182.5 53.5 t67.5 145.5q0 98 -66.5 151.5t-183.5 53.5t-183.5 -53.5t-66.5 -151.5zM436 1044q0 -90 56.5 -137t152.5 -47t152.5 47t56.5 137q0 86 -61.5 130.5t-147.5 44.5t-147.5 -44.5t-61.5 -130.5z" glyph-name="eight" unicode="8"/><glyph d="M604 502q-217 0 -333.5 134t-116.5 327q0 199 129 340t362.5 141t362.5 -141.5t129 -339.5q0 -147 -38 -281.5t-115 -257.5t-151.5 -215t-187.5 -209h-328q164 150 281 278t199 273q-103 -49 -193 -49zM395 963q0 -100 72 -170t178.5 -70t178 69.5t71.5 170.5 q0 113 -69.5 179t-180 66t-180.5 -66t-70 -179z" glyph-name="nine" unicode="9"/><glyph d="M440 0v348h410v-348h-410zM850 676h-410v348h410v-348z" glyph-name="colon" unicode=":"/><glyph d="M481 -256h-245q129 270 204 604h430q-94 -190 -177 -322t-212 -282zM440 676v348h410v-348h-410z" glyph-name="semicolon" unicode=";"/><glyph d="M1096 143l-901 389v246l901 389v-245l-666 -267l666 -266v-246z" glyph-name="less" unicode="&lt;"/><glyph d="M195 737v205h901v-205h-901zM1096 307h-901v205h901v-205z" glyph-name="equal" unicode="="/><glyph d="M860 655l-665 267v245l901 -389v-246l-901 -389v246z" glyph-name="greater" unicode=">"/><glyph d="M215 1065v246q199 133 410 133q236 0 363.5 -94.5t127.5 -264.5q0 -141 -111.5 -249.5t-256.5 -108.5v-154h-205v369q332 0 331 143q0 123 -249 123q-195 0 -410 -143zM850 0h-410v348h410v-348z" glyph-name="question" unicode="?"/><glyph d="M113 532q0 911 542 912q272 0 377 -206t105 -706v-532h-205v213q-80 -121 -205 -121q-141 0 -229 120t-88 320q0 197 93 308.5t224 111.5q111 0 191 -96q-23 217 -85.5 300t-177.5 83q-338 0 -338 -707q0 -281 96.5 -432t241.5 -151q72 0 133 20v-205q-61 -20 -132.5 -20 t-143.5 24.5t-144.5 83t-129 145.5t-91 226t-34.5 309zM778 748q-63 0 -108 -51.5t-45 -164t46 -169t107 -56.5q59 0 106.5 60.5t47.5 165t-46.5 160t-107.5 55.5z" glyph-name="at" unicode="@"/><glyph d="M358 0h-245q125 786 372 1434h318q248 -643 375 -1434h-246q-37 244 -86 471h-402q-49 -227 -86 -471zM498 696h295q-55 229 -148 514q-81 -246 -147 -514z" glyph-name="A" unicode="A"/><glyph d="M195 1434h450q207 0 339 -95.5t132 -283.5q0 -111 -58.5 -199t-152.5 -115q104 -41 168 -128t64 -193q0 -195 -139.5 -307.5t-352.5 -112.5h-450v1434zM430 236h215q121 0 185.5 55t64.5 149q0 92 -64.5 143.5t-185.5 51.5h-215v-399zM430 860h215q117 0 173 51.5 t56 132.5q0 164 -229 164h-215v-348z" glyph-name="B" unicode="B"/><glyph d="M707 -10q-133 0 -235.5 45t-165 115.5t-102.5 169t-55.5 194.5t-15.5 202.5t15.5 203t55.5 194.5t102.5 169t164.5 116t236 45q166 0 348 -123v-256q-188 143 -348 143q-94 0 -163 -51t-103.5 -132t-50 -157.5t-15.5 -150.5t15.5 -151t50 -155.5t103 -129t163.5 -50.5 q158 0 368 127v-266q-204 -102 -368 -102z" glyph-name="C" unicode="C"/><glyph d="M225 1434h379q250 0 396.5 -172t146.5 -527q0 -139 -26.5 -262t-85 -233.5t-169 -175t-262.5 -64.5h-379v1434zM461 236h143q301 0 301 499q0 260 -77.5 366.5t-223.5 106.5h-143v-972z" glyph-name="D" unicode="D"/><glyph d="M215 1434h850v-226h-614v-348h563v-225h-563v-399h624v-236h-860v1434z" glyph-name="E" unicode="E"/><glyph d="M492 0h-236v1434h860v-226h-624v-348h583v-225h-583v-635z" glyph-name="F" unicode="F"/><glyph d="M133 717q0 135 23.5 254t79 230.5t163 177t256.5 65.5q178 0 389 -123v-256q-215 143 -389 143q-80 0 -138 -46t-87 -123.5t-42 -156.5t-13 -165t13 -164t42 -153.5t87 -122t138 -46.5q102 0 169 97.5t67 306.5h-277v225h502v-860h-205l-4 182q-94 -193 -293 -192 q-131 0 -229 65.5t-150.5 176t-77 231.5t-24.5 254z" glyph-name="G" unicode="G"/><glyph d="M195 1434h235v-574h430v574h236v-1434h-236v635h-430v-635h-235v1434z" glyph-name="H" unicode="H"/><glyph d="M530 1208h-315v226h860v-226h-309v-983h309v-225h-860v225h315v983z" glyph-name="I" unicode="I"/><glyph d="M522 -10q-213 0 -358 102v266q74 -59 175 -93t183 -34q139 0 213 62.5t74 208.5v706h-533v226h768v-932q0 -262 -143 -387t-379 -125z" glyph-name="J" unicode="J"/><glyph d="M225 1434h236v-535q242 283 399 535h266q-111 -190 -219 -334t-303 -363q186 -211 305 -370.5t238 -366.5h-277q-164 285 -409 573v-573h-236v1434z" glyph-name="K" unicode="K"/><glyph d="M236 0v1434h235v-1209h666v-225h-901z" glyph-name="L" unicode="L"/><glyph d="M164 0v1434h287q123 -356 194 -652q72 295 195 652h286v-1434h-235v965q-68 -227 -143 -555h-205q-76 328 -144 555v-965h-235z" glyph-name="M" unicode="M"/><glyph d="M195 1434h286q236 -455 379 -867v867h236v-1434h-287q-180 608 -379 1038v-1038h-235v1434z" glyph-name="N" unicode="N"/><glyph d="M113 716.5q0 112.5 13 210t50 196t95.5 167t153.5 111.5t220 43t220.5 -43t153.5 -111.5t95 -167t50.5 -196t13.5 -210t-13.5 -209.5t-50.5 -195.5t-95 -167t-153.5 -111.5t-220.5 -43t-220 43t-153.5 111.5t-95.5 167t-50 195.5t-13 209.5zM354 717q0 -485 291 -485.5 t291 485.5q0 492 -291 492t-291 -492z" glyph-name="O" unicode="O"/><glyph d="M471 0h-235v1434h471q199 0 335 -118t136 -312q0 -182 -138.5 -306.5t-332.5 -124.5h-236v-573zM471 1208v-409h236q115 0 172 59.5t57 145.5t-56.5 145t-168.5 59h-240z" glyph-name="P" unicode="P"/><glyph d="M113 717q0 139 26.5 262t85 230.5t166 171t255 63.5t255 -63.5t165.5 -171t85 -230.5t27 -262q0 -121 -22.5 -231.5t-70 -211t-131.5 -172t-194 -98.5q4 -74 37.5 -100.5t111.5 -26.5q66 0 145 35t124 88v-246q-45 -45 -124 -73.5t-145 -28.5q-184 0 -275 86t-99 260 q-152 25 -250.5 140.5t-135 260t-36.5 318.5zM354 717q0 -135 24.5 -237.5t92.5 -175.5t174.5 -73t174 73t92 175.5t24.5 237.5q0 98 -14.5 181t-46 155.5t-90 113.5t-140.5 41t-140.5 -41t-90 -113.5t-46 -155.5t-14.5 -181z" glyph-name="Q" unicode="Q"/><glyph d="M205 1434h430q223 0 357 -113t134 -297q0 -152 -94 -270.5t-233 -149.5q129 -82 200 -215l209 -389h-266l-158 307q-57 111 -91 167t-73.5 84t-66.5 32t-92 4h-21v-594h-235v1434zM440 819h195q250 0 250 205q0 102 -60.5 143t-189.5 41h-195v-389z" glyph-name="R" unicode="R"/><glyph d="M645 -10q-207 0 -461 112v267q137 -76 234.5 -107t206.5 -31q129 0 184 56.5t55 142.5q0 80 -57 127t-162 47q-133 0 -227 36t-142.5 99.5t-70 135t-21.5 159.5q0 72 21.5 138.5t70 131t143.5 102.5t226 38q207 0 399 -123v-256q-201 143 -378 143q-106 0 -173 -48 t-67 -126q0 -195 240 -194q215 0 327.5 -120t112.5 -290q0 -74 -21.5 -144.5t-69.5 -140t-143.5 -112.5t-226.5 -43z" glyph-name="S" unicode="S"/><glyph d="M123 1208v226h1044v-226h-409v-1208h-236v1208h-399z" glyph-name="T" unicode="T"/><glyph d="M645 -10q-207 0 -339 120.5t-132 391.5v932h236v-932q0 -270 235.5 -270.5t235.5 270.5v932h235v-932q0 -270 -132 -391t-339 -121z" glyph-name="U" unicode="U"/><glyph d="M113 1434h256q59 -330 115.5 -566.5t160.5 -593.5q104 356 160.5 593t116.5 567h256q-80 -399 -150 -670.5t-219 -763.5h-328q-152 500 -221 771.5t-147 662.5z" glyph-name="V" unicode="V"/><glyph d="M133 1434h236q0 -666 28 -1051q72 285 135 641h205q72 -352 156 -651q29 389 29 1061h235q0 -406 -13.5 -700t-58.5 -734h-276q-113 362 -168 588q-59 -262 -160 -588h-276q-45 440 -58.5 734t-13.5 700z" glyph-name="W" unicode="W"/><glyph d="M154 0l358 717l-348 717h256l225 -482l225 482h256l-348 -707l359 -727h-267l-225 502l-225 -502h-266z" glyph-name="X" unicode="X"/><glyph d="M528 614q-276 471 -415 820h256q104 -260 276 -574q172 313 277 574h256q-137 -342 -414 -820v-614h-236v614z" glyph-name="Y" unicode="Y"/><glyph d="M215 1208v226h860v-215l-614 -994h635v-225h-901v215l616 993h-596z" glyph-name="Z" unicode="Z"/><glyph d="M983 -256h-553v1792h553v-205h-328v-1382h328v-205z" glyph-name="bracketleft" unicode="["/><glyph d="M461 1536l594 -1792h-226l-593 1792h225z" glyph-name="backslash" unicode="\"/><glyph d="M307 -61h328v1402h-328v195h553v-1792h-553v195z" glyph-name="bracketright" unicode="]"/><glyph d="M236 922q125 291 286 512h246q162 -221 287 -512h-246q-84 217 -164 338q-80 -121 -164 -338h-245z" glyph-name="asciicircum" unicode="^"/><glyph d="M164 -256v215h962v-215h-962z" glyph-name="underscore" unicode="_"/><glyph d="M420 1536h328q86 -184 122 -348h-245q-72 158 -205 348z" glyph-name="grave" unicode="`"/><glyph d="M594 -10q-182 0 -296 95t-114 243q0 145 113 236t297 91q176 0 280 -94v53q0 215 -249 215q-184 0 -389 -102v215q184 92 409 92q223 0 342 -114.5t119 -305.5v-614h-232v86q-102 -96 -280 -96zM420 328q0 -123 225 -123q229 0 229 123t-229 123q-225 0 -225 -123z" glyph-name="a" unicode="a"/><glyph d="M184 0v1434h232v-551q111 152 311 151q180 0 300 -144.5t120 -377.5q0 -227 -121 -374.5t-299 -147.5q-201 0 -311 155v-145h-232zM416 512q0 -131 75.5 -209t174.5 -78q102 0 173.5 72t71.5 215t-72.5 220t-172.5 77q-102 0 -176 -77t-74 -220z" glyph-name="b" unicode="b"/><glyph d="M672 -10q-203 0 -347.5 135t-144.5 387t144.5 387t347.5 135q197 0 379 -112v-226q-182 113 -379 113q-113 0 -184.5 -78t-71.5 -219q0 -139 71.5 -213t184.5 -74q209 0 399 103v-236q-190 -102 -399 -102z" glyph-name="c" unicode="c"/><glyph d="M143 512q0 244 121 383t299 139q201 0 311 -160v560h232v-1434h-232v154q-115 -164 -311 -164q-176 0 -298 142t-122 380zM625 809q-100 0 -173 -77t-73 -220t71.5 -215t174 -72t176 72t73.5 215t-73.5 220t-175.5 77z" glyph-name="d" unicode="d"/><glyph d="M164 512q0 252 143.5 387t337.5 135q190 0 335.5 -141t145.5 -381v-86h-720q25 -201 280 -201q174 0 379 103v-236q-205 -102 -420 -102q-195 0 -338 135t-143 387zM645 809q-100 0 -164.5 -51t-74.5 -140h479q-18 90 -80 140.5t-160 50.5z" glyph-name="e" unicode="e"/><glyph d="M471 809h-317v215h317q0 195 93 307.5t286 112.5q68 0 156 -30t131 -73v-225q-43 43 -128 73t-139 30q-92 0 -130 -44.5t-38 -150.5h435v-215h-435v-594h353v-215h-901v215h317v594z" glyph-name="f" unicode="f"/><glyph d="M553 -10q-168 0 -289 142t-121 380t121 380t289 142q209 0 321 -160v150h232v-1075q0 -461 -475 -461q-195 0 -426 102v226q231 -102 409 -103q260 0 260 236v201q-112 -160 -321 -160zM379 512q0 -152 74.5 -219.5t171 -67.5t173 67.5t76.5 219.5q0 154 -77.5 225.5 t-172 71.5t-170 -71.5t-75.5 -225.5z" glyph-name="g" unicode="g"/><glyph d="M205 1434h231v-549q106 150 291 149q188 0 273 -131t85 -391v-512h-231v512q0 166 -42 231.5t-136 65.5q-104 0 -172 -69.5t-68 -227.5v-512h-231v1434z" glyph-name="h" unicode="h"/><glyph d="M154 0v215h378v594h-327v215h559v-809h373v-215h-983zM481 1188v246h328v-246h-328z" glyph-name="i" unicode="i"/><glyph d="M102 -184q197 -102 379 -103q135 0 201 62.5t66 173.5v860h-410v215h641v-1075q0 -211 -118 -336t-359 -125q-203 0 -400 102v226zM696 1434h328v-246h-328v246z" glyph-name="j" unicode="j"/><glyph d="M256 0v1434h231v-789q188 170 373 379h297q-217 -246 -491 -481q180 -158 282.5 -267.5t229.5 -275.5h-287q-170 223 -404 440v-440h-231z" glyph-name="k" unicode="k"/><glyph d="M154 0v215h378v1004h-368v215h600v-1219h373v-215h-983z" glyph-name="l" unicode="l"/><glyph d="M113 1024h231v-109q78 119 199 119q139 0 186 -131q78 131 223 131q61 0 102.5 -23.5t66 -61.5t36.5 -108.5t16.5 -142t4.5 -186.5v-512h-232v512q0 166 -13 231.5t-63 65.5q-53 0 -80.5 -60.5t-27.5 -236.5v-512h-234v512q0 164 -14 230.5t-63 66.5q-53 0 -80 -60.5 t-27 -236.5v-512h-231v1024z" glyph-name="m" unicode="m"/><glyph d="M205 1024h231v-139q106 150 291 149q188 0 273 -131t85 -391v-512h-231v512q0 166 -42 231.5t-136 65.5q-104 0 -172 -69.5t-68 -227.5v-512h-231v1024z" glyph-name="n" unicode="n"/><glyph d="M143 512q0 229 142.5 375.5t359.5 146.5t359.5 -146.5t142.5 -375.5t-142.5 -375.5t-359.5 -146.5t-359.5 146.5t-142.5 375.5zM379 512q0 -147 79 -217t187.5 -70t187 70t78.5 217q0 150 -79.5 223.5t-186 73.5t-186.5 -73.5t-80 -223.5z" glyph-name="o" unicode="o"/><glyph d="M184 -512v1538h232v-141q111 150 311 149q180 0 300 -142t120 -370q0 -236 -120 -384t-300 -148q-201 0 -311 160v-662h-232zM416 522q0 -137 74.5 -217t175.5 -80q98 0 171.5 80t73.5 217t-72.5 212t-173 75t-175 -75t-74.5 -212z" glyph-name="p" unicode="p"/><glyph d="M143 522q0 238 120 375t300 137q197 0 311 -164v154h232v-1536h-232v678q-115 -176 -311 -176q-178 0 -299 146t-121 386zM379 522q0 -139 72.5 -218t173 -79t175 80t74.5 217t-74.5 212t-175 75t-173 -75t-72.5 -212z" glyph-name="q" unicode="q"/><glyph d="M154 1024h436v-160q104 170 321 170q143 0 226 -102v-225q-102 102 -267 102q-129 0 -204.5 -98.5t-75.5 -259.5v-236h414v-215h-850v215h204v594h-204v215z" glyph-name="r" unicode="r"/><glyph d="M645 -10q-221 0 -440 102v236q256 -102 430 -103q219 0 219 92q0 49 -45 71t-164 22q-211 0 -315.5 88t-104.5 229q0 139 102.5 223t307.5 84t409 -102v-225q-205 102 -399 102t-194 -82q0 -51 51 -71.5t162 -20.5q422 0 421 -318q0 -90 -43 -157.5t-112.5 -102t-141 -51 t-143.5 -16.5z" glyph-name="s" unicode="s"/><glyph d="M113 809v215h297v410h231v-410h414v-215h-414v-358q0 -143 48 -189.5t159 -46.5q51 0 128 29.5t120 72.5v-225q-45 -45 -127 -73.5t-162 -28.5q-397 0 -397 461v358h-297z" glyph-name="t" unicode="t"/><glyph d="M584 -10q-184 0 -281.5 134t-97.5 388v512h231v-512q0 -141 50.5 -219t148.5 -78q106 0 162.5 79t56.5 218v512h231v-1024h-231v147q-88 -157 -270 -157z" glyph-name="u" unicode="u"/><glyph d="M143 1024h246q100 -395 256 -766q160 387 256 766h246q-74 -270 -150.5 -482t-228.5 -542h-246q-152 326 -227.5 537t-151.5 487z" glyph-name="v" unicode="v"/><glyph d="M322 0q-164 522 -209 1024h235q37 -426 98 -705q51 178 115 459h170q72 -315 115 -463q74 319 96 709h236q-45 -502 -209 -1024h-211q-80 242 -115 385q-39 -154 -111 -385h-210z" glyph-name="w" unicode="w"/><glyph d="M154 0l338 522l-318 502h266l205 -348l205 348h266l-317 -502l338 -522h-267l-225 369l-225 -369h-266z" glyph-name="x" unicode="x"/><glyph d="M133 -184q41 -43 116 -73t134 -30q76 0 111.5 29t60.5 108l47 154q-240 446 -387 1020h246q82 -367 231 -725l223 725h242l-399 -1278q-37 -119 -128 -188.5t-222 -69.5q-76 0 -154 28.5t-121 73.5v226z" glyph-name="y" unicode="y"/><glyph d="M492 215h604v-215h-901v215l604 594h-584v215h870v-215z" glyph-name="z" unicode="z"/><glyph d="M430 512h-102v246h102q61 0 102 41t41 102v225q0 221 80 315.5t289 94.5h102v-205h-102q-143 0 -143 -205v-225q0 -82 -46 -163t-118 -103q72 -23 118 -103.5t46 -162.5v-226q0 -195 145 -194h100v-205h-102q-211 0 -290 90t-79 309v226q0 61 -41 102t-102 41z" glyph-name="braceleft" unicode="{"/><glyph d="M539 -256v1792h215v-1792h-215z" glyph-name="bar" unicode="|"/><glyph d="M348 1331h-102v205h102q207 0 288 -88t81 -281v-266q0 -61 41 -102t102 -41h103v-246h-103q-61 0 -102 -41t-41 -102v-267q0 -190 -80 -274t-289 -84h-102v205h100q80 0 113 31.5t33 121.5v267q0 82 46 162.5t117 103.5q-72 23 -117.5 103.5t-45.5 162.5v266 q0 90 -33 127t-111 37z" glyph-name="braceright" unicode="}"/><glyph d="M236 737q39 39 112.5 71t132.5 32q74 0 186.5 -72t172.5 -72q98 0 256 123v-235q-41 -41 -119 -77t-137 -36q-74 0 -186.5 71.5t-172.5 71.5q-115 0 -245 -102v225z" glyph-name="asciitilde" unicode="~"/><glyph d="M440 1065v369h410v-369h-410zM788 0h-286q0 264 9 411.5t42 448.5h184q33 -301 42 -448.5t9 -411.5z" glyph-name="exclamdown" unicode="¡"/><glyph d="M164 676q0 223 115.5 355t289.5 161v344h215v-350q117 -25 240 -101v-225q-123 76 -240 101v-562q137 27 260 93v-236q-123 -66 -260 -92v-420h-215v416q-174 29 -289.5 161t-115.5 355zM569 958q-78 -25 -124 -97.5t-46 -184.5q0 -111 46.5 -180.5t123.5 -94.5v557z" glyph-name="cent" unicode="¢"/><glyph d="M195 614v215h194v195q0 188 99.5 304t279.5 116q66 0 157 -29t150 -74v-225q-43 43 -128 73t-138 30q-92 0 -140 -51.5t-48 -143.5v-195h393v-215h-393q0 -213 -134 -399h588v-215h-880v215q195 160 194 399h-194z" glyph-name="sterling" unicode="£"/><glyph d="M412 819q-201 365 -299 615h256q123 -328 276 -584q154 256 277 584h256q-98 -250 -299 -615h217v-205h-332v-143h332v-205h-332v-266h-236v266h-333v205h333v143h-333v205h217z" glyph-name="yen" unicode="¥"/><glyph d="M543 -256v727h205v-727h-205zM748 819h-205v717h205v-717z" glyph-name="brokenbar" unicode="¦"/><glyph d="M666 -10q-242 0 -461 102v236q256 -102 430 -103q219 0 219 92q0 57 -46 75t-163 18q-215 0 -317.5 78.5t-102.5 218.5q0 133 103 202q-102 84 -103 228q0 139 93.5 223t295.5 84q225 0 430 -103v-225q-205 102 -399 102.5t-194 -81.5q0 -27 9 -44.5t55 -33t130 -15.5 q178 0 309 -73.5t131 -222.5q0 -119 -108 -193q109 -74 108 -217q0 -178 -119.5 -263t-299.5 -85zM645 819q-195 0 -194 -92q0 -49 47 -70.5t161 -21.5q195 0 195 92q0 51 -51.5 71.5t-157.5 20.5z" glyph-name="section" unicode="§"/><glyph d="M1024 1188h-307v246h307v-246zM573 1188h-307v246h307v-246z" glyph-name="dieresis" unicode="¨"/><glyph d="M113 706.5q0 241.5 145 397.5t387 156q244 0 393.5 -156t149.5 -397.5t-149.5 -397t-393.5 -155.5q-242 0 -387 155.5t-145 397zM276 706.5q0 -178.5 97.5 -284t271.5 -105.5q176 0 277.5 105.5t101.5 284t-101.5 284t-277.5 105.5q-174 0 -271.5 -105.5t-97.5 -284z M389 706.5q0 118.5 66.5 197.5t179.5 79q133 0 215 -61v-164q-35 35 -86 53t-88 18q-123 0 -123 -122.5t123 -122.5q35 0 87 16t87 45v-162q-84 -53 -215 -53q-113 0 -179.5 79t-66.5 197.5z" glyph-name="copyright" unicode="©"/><glyph d="M600 819q-96 0 -165.5 57.5t-69.5 147.5q0 88 69.5 141.5t165.5 53.5q61 0 111 -25q-6 86 -101 86q-106 0 -204 -61v163q98 61 204 62q145 0 221 -61.5t76 -204.5v-349h-194v17q-54 -27 -113 -27zM559 1024q0 -41 78 -41q74 0 74 41t-74 41q-78 0 -78 -41z" glyph-name="ordfeminine" unicode="ª"/><glyph d="M1010 1065l164 -158l-277 -258l277 -262l-164 -156l-410 418zM528 1065l164 -158l-276 -258l276 -262l-164 -156l-409 418z" glyph-name="guillemotleft" unicode="«"/><glyph d="M164 543v215h962v-522h-225v307h-737z" glyph-name="logicalnot" unicode="¬"/><glyph d="M645.5 358q-231.5 0 -382 153t-150.5 390.5t150.5 390t382 152.5t382 -152.5t150.5 -390t-150.5 -390.5t-382 -153zM645 1280q-369 0 -369 -379t369 -379t369 379t-369 379zM430 625v553h211q90 0 148.5 -53.5t58.5 -131.5q0 -109 -111 -151q31 -23 62 -74l82 -143h-174 l-52 110q-20 43 -32.5 63.5t-19.5 23.5t-19 3v-200h-154zM584 932h41q33 0 51 17.5t18 44t-18.5 44t-50.5 17.5h-41v-123z" glyph-name="registered" unicode="®"/><glyph d="M276 1188v225h738v-225h-738z" glyph-name="macron" unicode="¯"/><glyph d="M246 1034q0 172 112.5 291t286.5 119t286.5 -119t112.5 -291t-112.5 -290.5t-286.5 -118.5t-286.5 118.5t-112.5 290.5zM471 1034q0 -82 46 -138t128 -56t128 56t46 138t-46 138.5t-128 56.5t-128 -56.5t-46 -138.5z" glyph-name="degree" unicode="°"/><glyph d="M420 954q0 68 25.5 117t61.5 72.5t71.5 38t61.5 26t26 23.5q0 25 -41 24q-92 0 -195 -49v185q98 55 215 55q90 0 150.5 -56.5t60.5 -158.5q0 -63 -38 -105.5t-83 -58.5t-83 -34.5t-38 -37.5h242v-174h-436v133z" glyph-name="uni00B2" unicode="²"/><glyph d="M410 1034q82 -41 184 -41q76 0 76 41q0 31 -86 31h-52v133h52q76 0 75 41q0 31 -65 31q-61 0 -164 -51v174q68 51 184 51q98 0 167 -47t69 -127q0 -41 -22.5 -80t-59.5 -57q41 -12 66.5 -46t25.5 -83q0 -82 -69.5 -138.5t-176.5 -56.5q-129 0 -204 45v180z" glyph-name="uni00B3" unicode="³"/><glyph d="M666 1188h-246q37 164 123 348h327q-132 -190 -204 -348z" glyph-name="acute" unicode="´"/><glyph d="M205 1024h231v-512q0 -297 199 -297q90 0 154.5 70.5t64.5 226.5v512h231v-1024h-231v150q-90 -160 -270 -160q-92 0 -148 55v-557h-231v1536z" glyph-name="uni00B5" unicode="µ"/><glyph d="M635 676q-193 0 -322 123t-129 307q0 197 127 313.5t324 116.5h553v-1792h-205v1587h-143v-1587h-205v932z" glyph-name="paragraph" unicode="¶"/><glyph d="M440 614v328h410v-328h-410z" glyph-name="periodcentered" unicode="·"/><glyph d="M451 -471v205q82 -41 194 -41q92 0 92 51t-92 51h-102v236h205v-113q86 0 150.5 -58.5t64.5 -146.5q0 -225 -318 -225q-112 0 -194 41z" glyph-name="cedilla" unicode="¸"/><glyph d="M573 1229q-82 -41 -143 -41v184q82 20 143 62h185v-615h-185v410z" glyph-name="uni00B9" unicode="¹"/><glyph d="M338 1126q0 150 91 234t216 84t216 -84t91 -234q0 -147 -91 -232t-216 -85t-216 85t-91 232zM543 1126.5q0 -75.5 31.5 -109.5t70.5 -34t71 34t32 109.5t-32 109.5t-71 34t-70.5 -34t-31.5 -109.5z" glyph-name="ordmasculine" unicode="º"/><glyph d="M283 1065l409 -416l-409 -418l-164 156l276 262l-276 258zM764 1065l410 -416l-410 -418l-164 156l277 262l-277 258z" glyph-name="guillemotright" unicode="»"/><glyph d="M61 281l1031 1030l137 -137l-1030 -1031zM553 133v143l266 338h174v-338h72v-143h-72v-133h-184v133h-256zM164 1188v184q82 20 143 62h185v-615h-185v410q-82 -41 -143 -41zM809 410l-102 -134h102v134z" glyph-name="onequarter" unicode="¼"/><glyph d="M199 143l-138 138l1031 1030l137 -137zM1133 0h-437v133q0 84 39 139.5t84 72.5t84 33.5t39 31.5q0 25 -41 24q-92 0 -194 -49v184q98 55 215 56q90 0 150.5 -56.5t60.5 -158.5q0 -63 -38 -105.5t-83 -59t-83 -34.5t-38 -37h242v-174zM164 1372q82 20 143 62h185v-615 h-185v410q-82 -41 -143 -41v184z" glyph-name="onehalf" unicode="½"/><glyph d="M61 281l1031 1030l137 -137l-1030 -1031zM143 1034q82 -41 185 -41q76 0 75 41q0 31 -86 31h-51v133h51q76 0 76 41q0 31 -65 31q-61 0 -164 -51v174q68 51 184 51q98 0 167 -47t69 -127q0 -41 -22.5 -80t-59.5 -57q41 -12 66.5 -46t25.5 -83q0 -82 -69.5 -138.5 t-176.5 -56.5q-129 0 -205 45v180zM553 276l266 338h174v-338h72v-143h-72v-133h-184v133h-256v143zM809 410l-102 -134h102v134z" glyph-name="threequarters" unicode="¾"/><glyph d="M195 348q0 135 100 238.5t268 103.5v170h205v-389q-180 0 -256 -29.5t-76 -93.5q0 -123 230 -123q215 0 430 144v-246q-199 -133 -430 -133q-229 0 -350 99t-121 259zM461 1434h409v-349h-409v349z" glyph-name="questiondown" unicode="¿"/><glyph d="M358 0h-245q125 786 372 1434h318q248 -643 375 -1434h-246q-37 244 -86 471h-402q-49 -227 -86 -471zM317 1946h328q86 -184 123 -349h-246q-72 159 -205 349zM498 696h295q-55 229 -148 514q-81 -246 -147 -514z" glyph-name="Agrave" unicode="À"/><glyph d="M358 0h-245q125 786 372 1434h318q248 -643 375 -1434h-246q-37 244 -86 471h-402q-49 -227 -86 -471zM768 1597h-246q37 164 123 349h328q-133 -191 -205 -349zM498 696h295q-55 229 -148 514q-81 -246 -147 -514z" glyph-name="Aacute" unicode="Á"/><glyph d="M358 0h-245q125 786 372 1434h318q248 -643 375 -1434h-246q-37 244 -86 471h-402q-49 -227 -86 -471zM276 1597q102 190 246 349h246q143 -158 246 -349h-266q-39 115 -103 195q-63 -80 -102 -195h-267zM498 696h295q-55 229 -148 514q-81 -246 -147 -514z" glyph-name="Acircumflex" unicode="Â"/><glyph d="M358 0h-245q125 786 372 1434h318q248 -643 375 -1434h-246q-37 244 -86 471h-402q-49 -227 -86 -471zM471 1608h-205q0 170 58.5 254t156.5 84q53 0 108.5 -33t99.5 -67t69 -34q33 0 47 25t14 98h205q0 -166 -56.5 -252t-158.5 -86q-53 0 -108.5 33t-99.5 67t-69 34 q-33 0 -47 -24.5t-14 -98.5zM498 696h295q-55 229 -148 514q-81 -246 -147 -514z" glyph-name="Atilde" unicode="Ã"/><glyph d="M358 0h-245q125 786 372 1434h318q248 -643 375 -1434h-246q-37 244 -86 471h-402q-49 -227 -86 -471zM498 696h295q-55 229 -148 514q-81 -246 -147 -514zM1024 1597h-307v246h307v-246zM266 1597v246h307v-246h-307z" glyph-name="Adieresis" unicode="Ä"/><glyph d="M358 0h-245q125 782 372 1432q-158 86 -157 278q0 143 91 230.5t226 87.5t226.5 -87.5t91.5 -230.5q0 -195 -160 -278q250 -645 375 -1432h-246q-37 244 -86 471h-402q-49 -227 -86 -471zM498 696h295q-55 229 -148 514q-81 -246 -147 -514zM532 1710q0 -53 32 -83 t81 -30q47 0 80 31t33 82q0 53 -32 83t-81 30q-47 0 -80 -31t-33 -82z" glyph-name="Aring" unicode="Å"/><glyph d="M348 0h-246q125 786 373 1434h692v-226h-317v-348h307v-225h-307v-399h317v-236h-553v471h-184q-41 -205 -82 -471zM477 696h137v510q-74 -234 -137 -510z" glyph-name="AE" unicode="Æ"/><glyph d="M522 14q-111 33 -189.5 109t-120.5 176t-60.5 202.5t-18.5 215.5q0 106 15.5 202.5t55.5 194.5t102.5 169t164.5 116t236 45q166 0 348 -123v-256q-188 143 -348 143q-94 0 -163 -51t-103.5 -132t-50 -157.5t-15.5 -150.5t15.5 -151t50 -155.5t103 -129t163.5 -50.5 q158 0 368 127v-266q-197 -98 -348 -102v-72q86 0 150.5 -58.5t64.5 -146.5q0 -225 -317 -225q-113 0 -195 41v205q82 -41 195 -41q92 0 92 51t-92 51h-103v219z" glyph-name="Ccedilla" unicode="Ç"/><glyph d="M215 1434h850v-226h-614v-348h563v-225h-563v-399h624v-236h-860v1434zM317 1946h328q86 -184 123 -349h-246q-72 159 -205 349z" glyph-name="Egrave" unicode="È"/><glyph d="M215 0v1434h850v-226h-614v-348h563v-225h-563v-399h624v-236h-860zM522 1597q37 164 123 349h328q-133 -190 -205 -349h-246z" glyph-name="Eacute" unicode="É"/><glyph d="M215 1434h850v-226h-614v-348h563v-225h-563v-399h624v-236h-860v1434zM543 1597h-267q102 190 246 349h246q143 -158 246 -349h-266q-39 115 -103 195q-63 -80 -102 -195z" glyph-name="Ecircumflex" unicode="Ê"/><glyph d="M1075 0h-860v1434h850v-226h-614v-348h563v-225h-563v-399h624v-236zM1024 1597h-307v246h307v-246zM266 1597v246h307v-246h-307z" glyph-name="Edieresis" unicode="Ë"/><glyph d="M215 1434h860v-226h-309v-983h309v-225h-860v225h315v983h-315v226zM317 1946h328q86 -184 123 -349h-246q-72 159 -205 349z" glyph-name="Igrave" unicode="Ì"/><glyph d="M215 1434h860v-226h-309v-983h309v-225h-860v225h315v983h-315v226zM768 1597h-246q37 164 123 349h328q-133 -191 -205 -349z" glyph-name="Iacute" unicode="Í"/><glyph d="M215 1434h860v-226h-309v-983h309v-225h-860v225h315v983h-315v226zM276 1597q102 190 246 349h246q143 -158 246 -349h-266q-39 115 -103 195q-63 -80 -102 -195h-267z" glyph-name="Icircumflex" unicode="Î"/><glyph d="M215 1208v226h860v-226h-309v-983h309v-225h-860v225h315v983h-315zM1024 1597h-307v246h307v-246zM266 1843h307v-246h-307v246z" glyph-name="Idieresis" unicode="Ï"/><glyph d="M66 840h174v594h399q246 0 384 -171t138 -528q0 -143 -23.5 -263t-77.5 -231.5t-161.5 -176t-259.5 -64.5h-399v625h-174v215zM475 840h174v-215h-174v-389h123q152 0 237 107.5t85 391.5q0 147 -24 245.5t-72 146t-100 64.5t-126 17h-123v-368z" glyph-name="Eth" unicode="Ð"/><glyph d="M430 0h-235v1434h286q236 -455 379 -867v867h236v-1434h-287q-180 608 -379 1038v-1038zM266 1608q0 170 58.5 254t156.5 84q53 0 108.5 -33t99.5 -67t69 -34q33 0 47 25t14 98h205q0 -166 -56.5 -252t-158.5 -86q-53 0 -108.5 33t-99.5 67t-69 34q-33 0 -47 -25t-14 -98 h-205z" glyph-name="Ntilde" unicode="Ñ"/><glyph d="M645 -10q-125 0 -220 43t-153.5 111.5t-95.5 167t-50 195.5t-13 209.5t13 210t50 196t95.5 167t153.5 111.5t220 43t220.5 -43t153.5 -111.5t95 -167t50.5 -196t13.5 -210t-13.5 -209.5t-50.5 -195.5t-95 -167t-153.5 -111.5t-220.5 -43zM354 717q0 -485 291 -485.5 t291 485.5q0 492 -291 492t-291 -492zM317 1946h328q86 -184 123 -349h-246q-72 159 -205 349z" glyph-name="Ograve" unicode="Ò"/><glyph d="M113 716.5q0 112.5 13 210t50 196t95.5 167t153.5 111.5t220 43t220.5 -43t153.5 -111.5t95 -167t50.5 -196t13.5 -210t-13.5 -209.5t-50.5 -195.5t-95 -167t-153.5 -111.5t-220.5 -43t-220 43t-153.5 111.5t-95.5 167t-50 195.5t-13 209.5zM354 717q0 -485 291 -485.5 t291 485.5q0 492 -291 492t-291 -492zM522 1597q37 164 123 349h328q-133 -190 -205 -349h-246z" glyph-name="Oacute" unicode="Ó"/><glyph d="M645 -10q-125 0 -220 43t-153.5 111.5t-95.5 167t-50 195.5t-13 209.5t13 210t50 196t95.5 167t153.5 111.5t220 43t220.5 -43t153.5 -111.5t95 -167t50.5 -196t13.5 -210t-13.5 -209.5t-50.5 -195.5t-95 -167t-153.5 -111.5t-220.5 -43zM645 1208q-291 0 -291 -491 q0 -485 291 -485.5t291 485.5q0 491 -291 491zM276 1597q102 190 246 349h246q143 -158 246 -349h-266q-39 115 -103 195q-63 -80 -102 -195h-267z" glyph-name="Ocircumflex" unicode="Ô"/><glyph d="M645 -10q-125 0 -220 43t-153.5 111.5t-95.5 167t-50 195.5t-13 209.5t13 210t50 196t95.5 167t153.5 111.5t220 43t220.5 -43t153.5 -111.5t95 -167t50.5 -196t13.5 -210t-13.5 -209.5t-50.5 -195.5t-95 -167t-153.5 -111.5t-220.5 -43zM354 717q0 -485 291 -485.5 t291 485.5q0 492 -291 492t-291 -492zM471 1608h-205q0 170 58.5 254t156.5 84q53 0 108.5 -33t99.5 -67t69 -34q33 0 47 25t14 98h205q0 -166 -56.5 -252t-158.5 -86q-53 0 -108.5 33t-99.5 67t-69 34q-33 0 -47 -24.5t-14 -98.5z" glyph-name="Otilde" unicode="Õ"/><glyph d="M645 -10q-125 0 -220 43t-153.5 111.5t-95.5 167t-50 195.5t-13 209.5t13 210t50 196t95.5 167t153.5 111.5t220 43t220.5 -43t153.5 -111.5t95 -167t50.5 -196t13.5 -210t-13.5 -209.5t-50.5 -195.5t-95 -167t-153.5 -111.5t-220.5 -43zM354 717q0 -485 291 -485.5 t291 485.5q0 492 -291 492t-291 -492zM717 1843h307v-246h-307v246zM266 1597v246h307v-246h-307z" glyph-name="Odieresis" unicode="Ö"/><glyph d="M246 399l256 256l-256 246l143 143l256 -256l256 256l133 -143l-256 -246l256 -256l-133 -143l-256 256l-256 -256z" glyph-name="multiply" unicode="×"/><glyph d="M330 90q-217 172 -217 627q0 113 13 210t50 195.5t95.5 167t153.5 111.5t220 43q72 0 129 -12l35 104h225l-65 -199q209 -178 209 -620q0 -113 -13.5 -210t-50.5 -195.5t-95 -167t-153.5 -111.5t-220.5 -43q-57 0 -119 10l-86 -256h-225zM420 365l278 839q-33 4 -53 4 q-291 0 -291 -491q0 -231 66 -352zM602 233q14 -2 43 -2q291 0 291 486q0 223 -59 344z" glyph-name="Oslash" unicode="Ø"/><glyph d="M645 -10q-207 0 -339 120.5t-132 391.5v932h236v-932q0 -270 235.5 -270.5t235.5 270.5v932h235v-932q0 -270 -132 -391t-339 -121zM522 1597q-72 158 -205 349h328q86 -184 123 -349h-246z" glyph-name="Ugrave" unicode="Ù"/><glyph d="M174 502v932h236v-932q0 -270 235.5 -270.5t235.5 270.5v932h235v-932q0 -270 -132 -391t-339 -121t-339 121t-132 391zM768 1597h-246q37 164 123 349h328q-133 -191 -205 -349z" glyph-name="Uacute" unicode="Ú"/><glyph d="M174 502v932h236v-932q0 -270 235.5 -270.5t235.5 270.5v932h235v-932q0 -270 -132 -391t-339 -121t-339 121t-132 391zM543 1597h-267q102 190 246 349h246q143 -158 246 -349h-266q-39 115 -103 195q-63 -80 -102 -195z" glyph-name="Ucircumflex" unicode="Û"/><glyph d="M645 -10q-207 0 -339 120.5t-132 391.5v932h236v-932q0 -270 235.5 -270.5t235.5 270.5v932h235v-932q0 -270 -132 -391t-339 -121zM1024 1597h-307v246h307v-246zM573 1597h-307v246h307v-246z" glyph-name="Udieresis" unicode="Ü"/><glyph d="M528 614q-276 471 -415 820h256q104 -260 276 -574q172 313 277 574h256q-137 -342 -414 -820v-614h-236v614zM768 1597h-246q37 164 123 349h328q-133 -191 -205 -349z" glyph-name="Yacute" unicode="Ý"/><glyph d="M397 -256h-233v1690h233v-410h226q217 0 360 -106.5t143 -323.5t-144 -328.5t-359 -111.5h-226v-410zM623 799h-226v-410h226q262 0 262 205t-262 205z" glyph-name="Thorn" unicode="Þ"/><glyph d="M154 0v850q0 295 137 444.5t364 149.5q205 0 323 -109.5t118 -259.5q0 -92 -56.5 -182t-156.5 -131q119 -41 186.5 -139.5t67.5 -223.5q0 -158 -105.5 -283.5t-304.5 -125.5q-111 0 -215 51v235q115 -66 195 -65q90 0 139 57.5t49 151.5t-80 164.5t-201 70.5h-41v195 q154 0 217.5 65.5t63.5 159.5q0 76 -53 120t-146 44q-266 0 -266 -389v-850h-235z" glyph-name="germandbls" unicode="ß"/><glyph d="M594 -10q-182 0 -296 95t-114 243q0 145 113 236t297 91q176 0 280 -94v53q0 215 -249 215q-184 0 -389 -102v215q184 92 409 92q223 0 342 -114.5t119 -305.5v-614h-232v86q-102 -96 -280 -96zM645 451q-225 0 -225 -123t225 -123q229 0 229 123t-229 123zM522 1188 q-72 158 -205 348h328q86 -184 123 -348h-246z" glyph-name="agrave" unicode="à"/><glyph d="M594 -10q-182 0 -296 95t-114 243q0 145 113 236t297 91q176 0 280 -94v53q0 215 -249 215q-184 0 -389 -102v215q184 92 409 92q223 0 342 -114.5t119 -305.5v-614h-232v86q-102 -96 -280 -96zM645 451q-225 0 -225 -123t225 -123q229 0 229 123t-229 123zM522 1188 q37 164 123 348h328q-133 -190 -205 -348h-246z" glyph-name="aacute" unicode="á"/><glyph d="M594 -10q-182 0 -296 95t-114 243q0 145 113 236t297 91q176 0 280 -94v53q0 215 -249 215q-184 0 -389 -102v215q184 92 409 92q223 0 342 -114.5t119 -305.5v-614h-232v86q-102 -96 -280 -96zM276 1188q102 190 246 348h246q143 -158 246 -348h-266q-39 115 -103 194 q-63 -80 -102 -194h-267zM420 328q0 -123 225 -123q229 0 229 123t-229 123q-225 0 -225 -123z" glyph-name="acircumflex" unicode="â"/><glyph d="M594 -10q-182 0 -296 95t-114 243q0 145 113 236t297 91q176 0 280 -94v53q0 215 -249 215q-184 0 -389 -102v215q184 92 409 92q223 0 342 -114.5t119 -305.5v-614h-232v86q-102 -96 -280 -96zM266 1198q0 170 58.5 254t156.5 84q53 0 108.5 -33t99.5 -66.5t69 -33.5 q33 0 47 24.5t14 98.5h205q0 -166 -56.5 -252t-158.5 -86q-53 0 -108.5 32.5t-99.5 66.5t-69 34q-33 0 -47 -24.5t-14 -98.5h-205zM645 451q-225 0 -225 -123t225 -123q229 0 229 123t-229 123z" glyph-name="atilde" unicode="ã"/><glyph d="M594 -10q-182 0 -296 95t-114 243q0 145 113 236t297 91q176 0 280 -94v53q0 215 -249 215q-184 0 -389 -102v215q184 92 409 92q223 0 342 -114.5t119 -305.5v-614h-232v86q-102 -96 -280 -96zM420 328q0 -123 225 -123q229 0 229 123t-229 123q-225 0 -225 -123z M1024 1188h-307v246h307v-246zM573 1188h-307v246h307v-246z" glyph-name="adieresis" unicode="ä"/><glyph d="M594 -10q-182 0 -296 95t-114 243q0 145 113 236t297 91q176 0 280 -94v53q0 215 -249 215q-184 0 -389 -102v215q117 57 251 80q-160 84 -159 278q0 143 91 230.5t226 87.5t226.5 -87t91.5 -231q0 -199 -166 -282q152 -37 230.5 -143.5t78.5 -260.5v-614h-232v86 q-102 -96 -280 -96zM645 451q-225 0 -225 -123t225 -123q229 0 229 123t-229 123zM645 1413q-47 0 -80 -30.5t-33 -82.5q0 -53 32 -82.5t81 -29.5q47 0 80 30.5t33 81.5q0 53 -32 83t-81 30z" glyph-name="aring" unicode="å"/><glyph d="M379 -10q-127 0 -212 98t-85 270q0 145 86 241.5t211 96.5q92 0 164 -41v2q0 94 -31 133t-113 39q-158 0 -276 -102v205q119 102 287 102q162 0 239 -110q84 111 232 110q172 0 249.5 -131t77.5 -391v-102h-460q0 -98 43 -151.5t120 -53.5q57 0 104.5 21.5t141.5 80.5 v-215q-145 -102 -287 -102q-154 0 -237 129q-92 -129 -254 -129zM430 502q-57 0 -85 -42t-28 -102q0 -154 113 -153.5t113 153.5q0 59 -28 101.5t-85 42.5zM748 614h245q0 104 -33.5 159.5t-89 55.5t-89 -55.5t-33.5 -159.5z" glyph-name="ae" unicode="æ"/><glyph d="M543 4q-160 39 -261.5 169t-101.5 339q0 252 144.5 387t347.5 135q197 0 379 -112v-226q-182 113 -379 113q-113 0 -184.5 -78t-71.5 -219q0 -139 71.5 -213t184.5 -74q209 0 399 103v-236q-152 -82 -323 -98v-76q86 0 150.5 -58.5t64.5 -146.5q0 -225 -318 -225 q-113 0 -194 41v205q82 -41 194 -41q92 0 92 51t-92 51h-102v209z" glyph-name="ccedilla" unicode="ç"/><glyph d="M645 -10q-195 0 -338 135t-143 387t143.5 387t337.5 135q190 0 335.5 -141t145.5 -381v-86h-720q25 -201 280 -201q174 0 379 103v-236q-205 -102 -420 -102zM522 1188q-72 158 -205 348h328q86 -184 123 -348h-246zM406 618h479q-18 90 -80 140.5t-160 50.5 q-100 0 -164.5 -51.5t-74.5 -139.5z" glyph-name="egrave" unicode="è"/><glyph d="M164 512q0 252 143.5 387t337.5 135q190 0 335.5 -141t145.5 -381v-86h-720q25 -201 280 -201q174 0 379 103v-236q-205 -102 -420 -102q-195 0 -338 135t-143 387zM768 1188h-246q37 164 123 348h328q-133 -190 -205 -348zM406 618h479q-18 90 -80 140.5t-160 50.5 q-100 0 -164.5 -51.5t-74.5 -139.5z" glyph-name="eacute" unicode="é"/><glyph d="M645 -10q-195 0 -338 135t-143 387t143.5 387t337.5 135q190 0 335.5 -141t145.5 -381v-86h-720q25 -201 280 -201q174 0 379 103v-236q-205 -102 -420 -102zM276 1188q102 190 246 348h246q143 -158 246 -348h-266q-39 115 -103 194q-63 -80 -102 -194h-267zM645 809 q-100 0 -164.5 -51t-74.5 -140h479q-18 90 -80 140.5t-160 50.5z" glyph-name="ecircumflex" unicode="ê"/><glyph d="M645 -10q-195 0 -338 135t-143 387t143.5 387t337.5 135q190 0 335.5 -141t145.5 -381v-86h-720q25 -201 280 -201q174 0 379 103v-236q-205 -102 -420 -102zM406 618h479q-18 90 -80 140.5t-160 50.5q-100 0 -164.5 -51.5t-74.5 -139.5zM1024 1188h-307v246h307v-246z M573 1188h-307v246h307v-246z" glyph-name="edieresis" unicode="ë"/><glyph d="M164 215h389v594h-348v215h579v-809h383v-215h-1003v215zM317 1536h328q86 -184 123 -348h-246q-72 158 -205 348z" glyph-name="igrave" unicode="ì"/><glyph d="M164 215h389v594h-348v215h579v-809h383v-215h-1003v215zM768 1188h-246q37 164 123 348h328q-133 -190 -205 -348z" glyph-name="iacute" unicode="í"/><glyph d="M164 0v215h389v594h-348v215h579v-809h383v-215h-1003zM543 1188h-267q102 190 246 348h246q143 -158 246 -348h-266q-39 115 -103 194q-63 -79 -102 -194z" glyph-name="icircumflex" unicode="î"/><glyph d="M164 0v215h389v594h-348v215h579v-809h383v-215h-1003zM1024 1188h-307v246h307v-246zM266 1188v246h307v-246h-307z" glyph-name="idieresis" unicode="ï"/><glyph d="M154 481q0 190 115.5 320.5t334.5 130.5q90 0 193 -49q-51 94 -123 188l-254 -119l-82 164l213 103q-76 86 -213 215h307q74 -78 109 -117l241 117l80 -174l-194 -93q256 -330 256 -686q0 -115 -47.5 -223t-159 -188t-264.5 -80q-246 0 -379 145t-133 346zM395 481 q0 -113 71 -181.5t179.5 -68.5t179 69t70.5 181q0 100 -71.5 168t-178 68t-178.5 -68t-72 -168z" glyph-name="eth" unicode="ð"/><glyph d="M205 0v1024h231v-139q106 150 291 149q188 0 273 -131t85 -391v-512h-231v512q0 166 -42 231.5t-136 65.5q-104 0 -172 -69.5t-68 -227.5v-512h-231zM266 1198q0 170 58.5 254t156.5 84q53 0 108.5 -33t99.5 -66.5t69 -33.5q33 0 47 24.5t14 98.5h205q0 -166 -56.5 -252 t-158.5 -86q-53 0 -108.5 32.5t-99.5 66.5t-69 34q-33 0 -47 -24.5t-14 -98.5h-205z" glyph-name="ntilde" unicode="ñ"/><glyph d="M645 -10q-217 0 -359.5 146.5t-142.5 375.5t142.5 375.5t359.5 146.5t359.5 -146.5t142.5 -375.5t-142.5 -375.5t-359.5 -146.5zM645.5 809q-106.5 0 -186.5 -73.5t-80 -223.5q0 -147 79 -217t187.5 -70t187 70t78.5 217q0 150 -79.5 223.5t-186 73.5zM522 1188 q-72 158 -205 348h328q86 -184 123 -348h-246z" glyph-name="ograve" unicode="ò"/><glyph d="M645 -10q-217 0 -359.5 146.5t-142.5 375.5t142.5 375.5t359.5 146.5t359.5 -146.5t142.5 -375.5t-142.5 -375.5t-359.5 -146.5zM379 512q0 -147 79 -217t187.5 -70t187 70t78.5 217q0 150 -79.5 223.5t-186 73.5t-186.5 -73.5t-80 -223.5zM768 1188h-246q37 164 123 348 h328q-133 -190 -205 -348z" glyph-name="oacute" unicode="ó"/><glyph d="M143 512q0 229 142.5 375.5t359.5 146.5t359.5 -146.5t142.5 -375.5t-142.5 -375.5t-359.5 -146.5t-359.5 146.5t-142.5 375.5zM645.5 809q-106.5 0 -186.5 -73.5t-80 -223.5q0 -147 79 -217t187.5 -70t187 70t78.5 217q0 150 -79.5 223.5t-186 73.5zM543 1188h-267 q102 190 246 348h246q143 -158 246 -348h-266q-39 115 -103 194q-63 -79 -102 -194z" glyph-name="ocircumflex" unicode="ô"/><glyph d="M645 -10q-217 0 -359.5 146.5t-142.5 375.5t142.5 375.5t359.5 146.5t359.5 -146.5t142.5 -375.5t-142.5 -375.5t-359.5 -146.5zM645.5 809q-106.5 0 -186.5 -73.5t-80 -223.5q0 -147 79 -217t187.5 -70t187 70t78.5 217q0 150 -79.5 223.5t-186 73.5zM266 1198 q0 170 58.5 254t156.5 84q53 0 108.5 -33t99.5 -66.5t69 -33.5q33 0 47 24.5t14 98.5h205q0 -166 -56.5 -252t-158.5 -86q-53 0 -108.5 32.5t-99.5 66.5t-69 34q-33 0 -47 -24.5t-14 -98.5h-205z" glyph-name="otilde" unicode="õ"/><glyph d="M143 512q0 229 142.5 375.5t359.5 146.5t359.5 -146.5t142.5 -375.5t-142.5 -375.5t-359.5 -146.5t-359.5 146.5t-142.5 375.5zM379 512q0 -147 79 -217t187.5 -70t187 70t78.5 217q0 150 -79.5 223.5t-186 73.5t-186.5 -73.5t-80 -223.5zM717 1434h307v-246h-307v246z M573 1188h-307v246h307v-246z" glyph-name="odieresis" unicode="ö"/><glyph d="M256 543v215h819v-215h-819zM870 0h-409v348h409v-348zM461 1300h409v-348h-409v348z" glyph-name="divide" unicode="÷"/><glyph d="M385 84q-201 150 -201 432q0 240 142.5 379t339.5 139q39 0 77 -6l107 283h225l-137 -361q209 -145 209 -434q0 -238 -143.5 -382t-337.5 -144q-49 0 -88 8l-97 -254h-225zM664 225q113 0 180 74t67 217q0 133 -57 209zM473 315l186 494q-109 -2 -174 -76t-65 -217 q0 -129 53 -201z" glyph-name="oslash" unicode="ø"/><glyph d="M205 512v512h231v-512q0 -141 50.5 -219t148.5 -78q106 0 162.5 79t56.5 218v512h231v-1024h-231v147q-88 -158 -270 -157q-184 0 -281.5 134t-97.5 388zM317 1536h328q86 -184 123 -348h-246q-72 158 -205 348z" glyph-name="ugrave" unicode="ù"/><glyph d="M205 512v512h231v-512q0 -141 50.5 -219t148.5 -78q106 0 162.5 79t56.5 218v512h231v-1024h-231v147q-88 -158 -270 -157q-184 0 -281.5 134t-97.5 388zM522 1188q37 164 123 348h328q-133 -190 -205 -348h-246z" glyph-name="uacute" unicode="ú"/><glyph d="M205 512v512h231v-512q0 -141 50.5 -219t148.5 -78q106 0 162.5 79t56.5 218v512h231v-1024h-231v147q-88 -158 -270 -157q-184 0 -281.5 134t-97.5 388zM276 1188q102 190 246 348h246q143 -158 246 -348h-266q-39 115 -103 194q-63 -80 -102 -194h-267z" glyph-name="ucircumflex" unicode="û"/><glyph d="M584 -10q-184 0 -281.5 134t-97.5 388v512h231v-512q0 -141 50.5 -219t148.5 -78q106 0 162.5 79t56.5 218v512h231v-1024h-231v147q-88 -157 -270 -157zM717 1434h307v-246h-307v246zM266 1434h307v-246h-307v246z" glyph-name="udieresis" unicode="ü"/><glyph d="M133 -184q41 -43 116 -73t134 -30q76 0 111.5 29t60.5 108l47 154q-240 446 -387 1020h246q82 -367 231 -725l223 725h242l-399 -1278q-37 -119 -128 -188.5t-222 -69.5q-76 0 -154 28.5t-121 73.5v226zM768 1188h-246q37 164 123 348h328q-133 -190 -205 -348z" glyph-name="yacute" unicode="ý"/><glyph d="M164 -256v1690h231v-541q115 141 291 141q182 0 311 -142t129 -380t-129 -380t-311 -142q-176 0 -291 141v-387h-231zM395 512q0 -135 70 -211t180.5 -76t178 76t67.5 211q0 137 -67.5 217t-178 80t-180.5 -81t-70 -216z" glyph-name="thorn" unicode="þ"/><glyph d="M133 -184q41 -43 116 -73t134 -30q76 0 111.5 29t60.5 108l47 154q-240 446 -387 1020h246q82 -367 231 -725l223 725h242l-399 -1278q-37 -119 -128 -188.5t-222 -69.5q-76 0 -154 28.5t-121 73.5v226zM1024 1188h-307v246h307v-246zM266 1188v246h307v-246h-307z" glyph-name="ydieresis" unicode="ÿ"/><glyph d="M358 0h-245q125 786 372 1434h318q248 -643 375 -1434h-246q-37 244 -86 471h-402q-49 -227 -86 -471zM1014 1597h-738v226h738v-226zM498 696h295q-55 229 -148 514q-81 -246 -147 -514z" glyph-name="Amacron" unicode="Ā"/><glyph d="M594 -10q-182 0 -296 95t-114 243q0 145 113 236t297 91q176 0 280 -94v53q0 215 -249 215q-184 0 -389 -102v215q184 92 409 92q223 0 342 -114.5t119 -305.5v-614h-232v86q-102 -96 -280 -96zM1014 1188h-738v225h738v-225zM645 451q-225 0 -225 -123t225 -123 q229 0 229 123t-229 123z" glyph-name="amacron" unicode="ā"/><glyph d="M113 0q125 786 372 1434h318q248 -643 375 -1434h-246q-37 244 -86 471h-402q-49 -227 -86 -471h-245zM645 1597q-158 0 -248 96.5t-90 252.5h225q0 -51 27 -87t86 -36q57 0 85 35.5t28 87.5h225q0 -156 -90 -252.5t-248 -96.5zM498 696h295q-55 229 -148 514 q-81 -246 -147 -514z" glyph-name="Abreve" unicode="Ă"/><glyph d="M594 -10q-182 0 -296 95t-114 243q0 145 113 236t297 91q176 0 280 -94v53q0 215 -249 215q-184 0 -389 -102v215q184 92 409 92q223 0 342 -114.5t119 -305.5v-614h-232v86q-102 -96 -280 -96zM645 1188q-158 0 -248 96t-90 252h225q0 -51 27 -87t86 -36q57 0 85 36 t28 87h225q0 -156 -90 -252t-248 -96zM420 328q0 -123 225 -123q229 0 229 123t-229 123q-225 0 -225 -123z" glyph-name="abreve" unicode="ă"/><glyph d="M358 0h-245q125 786 372 1434h318q248 -643 375 -1434h-21q-113 -84 -164 -134t-51 -91q0 -61 113 -62q92 0 174 41v-225q-123 -41 -236 -41q-119 0 -197.5 60.5t-78.5 164.5q0 88 50 150.5t165 136.5q-37 244 -86 471h-402q-49 -227 -86 -471zM498 696h295 q-55 229 -148 514q-81 -246 -147 -514z" glyph-name="Aogonek" unicode="Ą"/><glyph d="M594 -10q-182 0 -296 95t-114 243q0 145 113 236t297 91q176 0 280 -94v53q0 215 -249 215q-184 0 -389 -102v215q184 92 409 92q223 0 342 -114.5t119 -305.5v-614h-6q-113 -84 -164 -134t-51 -91q0 -61 112 -62q92 0 174 41v-225q-123 -41 -235 -41q-119 0 -198 60.5 t-79 164.5q0 88 50.5 150.5t164.5 136.5v86q-102 -96 -280 -96zM420 328q0 -123 225 -123q229 0 229 123t-229 123q-225 0 -225 -123z" glyph-name="aogonek" unicode="ą"/><glyph d="M133 716.5q0 106.5 15.5 203t55.5 194.5t102.5 169t164.5 116t236 45q166 0 348 -123v-256q-188 143 -348 143q-94 0 -163 -51t-103.5 -132t-50 -157.5t-15.5 -150.5t15.5 -151t50 -155.5t103 -129t163.5 -50.5q158 0 368 127v-266q-205 -102 -368 -102q-133 0 -235.5 45 t-165 115.5t-102.5 169t-55.5 194.5t-15.5 202.5zM522 1597q37 164 123 349h328q-133 -190 -205 -349h-246z" glyph-name="Cacute" unicode="Ć"/><glyph d="M180 512q0 252 144.5 387t347.5 135q197 0 379 -112v-226q-182 113 -379 113q-113 0 -184.5 -78t-71.5 -219q0 -139 71.5 -213t184.5 -74q209 0 399 103v-236q-190 -102 -399 -102q-203 0 -347.5 135t-144.5 387zM522 1188q37 164 123 348h328q-133 -190 -205 -348h-246z " glyph-name="cacute" unicode="ć"/><glyph d="M133 716.5q0 106.5 15.5 203t55.5 194.5t102.5 169t164.5 116t236 45q166 0 348 -123v-256q-188 143 -348 143q-94 0 -163 -51t-103.5 -132t-50 -157.5t-15.5 -150.5t15.5 -151t50 -155.5t103 -129t163.5 -50.5q158 0 368 127v-266q-205 -102 -368 -102q-133 0 -235.5 45 t-165 115.5t-102.5 169t-55.5 194.5t-15.5 202.5zM276 1597q102 190 246 349h246q143 -158 246 -349h-266q-39 115 -103 195q-63 -80 -102 -195h-267z" glyph-name="Ccircumflex" unicode="Ĉ"/><glyph d="M180 512q0 252 144.5 387t347.5 135q197 0 379 -112v-226q-182 113 -379 113q-113 0 -184.5 -78t-71.5 -219q0 -139 71.5 -213t184.5 -74q209 0 399 103v-236q-190 -102 -399 -102q-203 0 -347.5 135t-144.5 387zM276 1188q102 190 246 348h246q143 -158 246 -348h-266 q-39 115 -103 194q-63 -80 -102 -194h-267z" glyph-name="ccircumflex" unicode="ĉ"/><glyph d="M133 716.5q0 106.5 15.5 203t55.5 194.5t102.5 169t164.5 116t236 45q166 0 348 -123v-256q-188 143 -348 143q-94 0 -163 -51t-103.5 -132t-50 -157.5t-15.5 -150.5t15.5 -151t50 -155.5t103 -129t163.5 -50.5q158 0 368 127v-266q-205 -102 -368 -102q-133 0 -235.5 45 t-165 115.5t-102.5 169t-55.5 194.5t-15.5 202.5zM492 1843h307v-246h-307v246z" glyph-name="Cdotaccent" unicode="Ċ"/><glyph d="M180 512q0 252 144.5 387t347.5 135q197 0 379 -112v-226q-182 113 -379 113q-113 0 -184.5 -78t-71.5 -219q0 -139 71.5 -213t184.5 -74q209 0 399 103v-236q-190 -102 -399 -102q-203 0 -347.5 135t-144.5 387zM492 1434h307v-246h-307v246z" glyph-name="cdotaccent" unicode="ċ"/><glyph d="M707 -10q-133 0 -235.5 45t-165 115.5t-102.5 169t-55.5 194.5t-15.5 202.5t15.5 203t55.5 194.5t102.5 169t164.5 116t236 45q166 0 348 -123v-256q-188 143 -348 143q-94 0 -163 -51t-103.5 -132t-50 -157.5t-15.5 -150.5t15.5 -151t50 -155.5t103 -129t163.5 -50.5 q158 0 368 127v-266q-204 -102 -368 -102zM522 1597q-127 139 -246 349h267q39 -115 102 -195q63 80 103 195h266q-119 -209 -246 -349h-246z" glyph-name="Ccaron" unicode="Č"/><glyph d="M672 -10q-203 0 -347.5 135t-144.5 387t144.5 387t347.5 135q197 0 379 -112v-226q-182 113 -379 113q-113 0 -184.5 -78t-71.5 -219q0 -139 71.5 -213t184.5 -74q209 0 399 103v-236q-190 -102 -399 -102zM522 1188q-127 139 -246 348h267q39 -115 102 -195 q63 80 103 195h266q-119 -209 -246 -348h-246z" glyph-name="ccaron" unicode="č"/><glyph d="M225 0v1434h379q250 0 396.5 -172t146.5 -527q0 -139 -26.5 -262t-85 -233.5t-169 -175t-262.5 -64.5h-379zM461 236h143q301 0 301 499q0 260 -77.5 366.5t-223.5 106.5h-143v-972zM522 1597q-127 139 -246 349h267q39 -115 102 -195q63 80 103 195h266 q-119 -209 -246 -349h-246z" glyph-name="Dcaron" unicode="Ď"/><glyph d="M66 840h174v594h399q246 0 384 -171t138 -528q0 -143 -23.5 -263t-77.5 -231.5t-161.5 -176t-259.5 -64.5h-399v625h-174v215zM475 840h174v-215h-174v-389h123q152 0 237 107.5t85 391.5q0 147 -24 245.5t-72 146t-100 64.5t-126 17h-123v-368z" glyph-name="Dcroat" unicode="Đ"/><glyph d="M143 512q0 244 121 383t299 139q201 0 311 -160v232h-403v225h403v103h232v-103h102v-225h-102v-1106h-232v154q-115 -164 -311 -164q-176 0 -298 142t-122 380zM379 512q0 -143 71.5 -215t174 -72t176 72t73.5 215t-73.5 220t-175.5 77q-100 0 -173 -77t-73 -220z" glyph-name="dcroat" unicode="đ"/><glyph d="M215 1434h850v-226h-614v-348h563v-225h-563v-399h624v-236h-860v1434zM276 1597v226h738v-226h-738z" glyph-name="Emacron" unicode="Ē"/><glyph d="M164 512q0 252 143.5 387t337.5 135q190 0 335.5 -141t145.5 -381v-86h-720q25 -201 280 -201q174 0 379 103v-236q-205 -102 -420 -102q-195 0 -338 135t-143 387zM276 1188v225h738v-225h-738zM406 618h479q-18 90 -80 140.5t-160 50.5q-100 0 -164.5 -51.5 t-74.5 -139.5z" glyph-name="emacron" unicode="ē"/><glyph d="M215 0v1434h850v-226h-614v-348h563v-225h-563v-399h624v-236h-860zM307 1946h225q0 -51 27 -87t86 -36q57 0 85 35.5t28 87.5h225q0 -156 -90 -252.5t-248 -96.5t-248 96.5t-90 252.5z" glyph-name="Ebreve" unicode="Ĕ"/><glyph d="M645 -10q-195 0 -338 135t-143 387t143.5 387t337.5 135q190 0 335.5 -141t145.5 -381v-86h-720q25 -201 280 -201q174 0 379 103v-236q-205 -102 -420 -102zM645 1188q-158 0 -248 96t-90 252h225q0 -51 27 -87t86 -36q57 0 85 36t28 87h225q0 -156 -90 -252t-248 -96z M406 618h479q-18 90 -80 140.5t-160 50.5q-100 0 -164.5 -51.5t-74.5 -139.5z" glyph-name="ebreve" unicode="ĕ"/><glyph d="M215 0v1434h850v-226h-614v-348h563v-225h-563v-399h624v-236h-860zM492 1843h307v-246h-307v246z" glyph-name="Edotaccent" unicode="Ė"/><glyph d="M164 512q0 252 143.5 387t337.5 135q190 0 335.5 -141t145.5 -381v-86h-720q25 -201 280 -201q174 0 379 103v-236q-205 -102 -420 -102q-195 0 -338 135t-143 387zM406 618h479q-18 90 -80 140.5t-160 50.5q-100 0 -164.5 -51.5t-74.5 -139.5zM492 1434h307v-246h-307 v246z" glyph-name="edotaccent" unicode="ė"/><glyph d="M215 1434h850v-226h-614v-348h563v-225h-563v-399h624v-236h-225q-113 -84 -164 -134t-51 -91q0 -61 113 -62q92 0 174 41v-225q-123 -41 -236 -41q-119 0 -197.5 60.5t-78.5 164.5q0 88 50 150.5t165 136.5h-410v1434z" glyph-name="Eogonek" unicode="Ę"/><glyph d="M164 512q0 252 143.5 387t337.5 135q190 0 335.5 -141t145.5 -381v-86h-720q25 -201 280 -201q174 0 379 103v-236q-139 -70 -283 -92h6q-113 -84 -164 -134t-51 -91q0 -61 113 -62q92 0 174 41v-225q-123 -41 -235 -41q-119 0 -198 60.5t-79 164.5q0 86 49 148.5 t162 136.5q-170 29 -282.5 160t-112.5 354zM645 809q-100 0 -164.5 -51t-74.5 -140h479q-18 90 -80 140.5t-160 50.5z" glyph-name="eogonek" unicode="ę"/><glyph d="M215 0v1434h850v-226h-614v-348h563v-225h-563v-399h624v-236h-860zM276 1946h267q39 -115 102 -195q63 80 103 195h266q-119 -209 -246 -349h-246q-127 140 -246 349z" glyph-name="Ecaron" unicode="Ě"/><glyph d="M164 512q0 252 143.5 387t337.5 135q190 0 335.5 -141t145.5 -381v-86h-720q25 -201 280 -201q174 0 379 103v-236q-205 -102 -420 -102q-195 0 -338 135t-143 387zM276 1536h267q39 -115 102 -195q63 80 103 195h266q-119 -209 -246 -348h-246q-127 139 -246 348z M645 809q-100 0 -164.5 -51t-74.5 -140h479q-18 90 -80 140.5t-160 50.5z" glyph-name="ecaron" unicode="ě"/><glyph d="M614 -10q-131 0 -229 65.5t-150.5 176t-77 231.5t-24.5 254q0 135 23.5 254t79 230.5t163 177t256.5 65.5q178 0 389 -123v-256q-215 143 -389 143q-80 0 -138 -46t-87 -123.5t-42 -156.5t-13 -165t13 -164t42 -153.5t87 -122t138 -46.5q102 0 169 97.5t67 306.5h-277 v225h502v-860h-205l-4 182q-94 -192 -293 -192zM276 1597q102 190 246 349h246q143 -158 246 -349h-266q-39 115 -103 195q-63 -80 -102 -195h-267z" glyph-name="Gcircumflex" unicode="Ĝ"/><glyph d="M553 -10q-168 0 -289 142t-121 380t121 380t289 142q209 0 321 -160v150h232v-1075q0 -461 -475 -461q-195 0 -426 102v226q231 -102 409 -103q260 0 260 236v201q-112 -160 -321 -160zM624.5 809q-94.5 0 -170 -71.5t-75.5 -225.5q0 -152 74.5 -219.5t171 -67.5 t173 67.5t76.5 219.5q0 154 -77.5 225.5t-172 71.5zM276 1188q102 190 246 348h246q143 -158 246 -348h-266q-39 115 -103 194q-63 -80 -102 -194h-267z" glyph-name="gcircumflex" unicode="ĝ"/><glyph d="M133 717q0 135 23.5 254t79 230.5t163 177t256.5 65.5q178 0 389 -123v-256q-215 143 -389 143q-80 0 -138 -46t-87 -123.5t-42 -156.5t-13 -165t13 -164t42 -153.5t87 -122t138 -46.5q102 0 169 97.5t67 306.5h-277v225h502v-860h-205l-4 182q-94 -193 -293 -192 q-131 0 -229 65.5t-150.5 176t-77 231.5t-24.5 254zM307 1946h225q0 -51 27 -87t86 -36q57 0 85 35.5t28 87.5h225q0 -156 -90 -252.5t-248 -96.5t-248 96.5t-90 252.5z" glyph-name="Gbreve" unicode="Ğ"/><glyph d="M553 -10q-168 0 -289 142t-121 380t121 380t289 142q209 0 321 -160v150h232v-1075q0 -461 -475 -461q-195 0 -426 102v226q231 -102 409 -103q260 0 260 236v201q-112 -160 -321 -160zM624.5 809q-94.5 0 -170 -71.5t-75.5 -225.5q0 -152 74.5 -219.5t171 -67.5 t173 67.5t76.5 219.5q0 154 -77.5 225.5t-172 71.5zM645 1188q-158 0 -248 96t-90 252h225q0 -51 27 -87t86 -36q57 0 85 36t28 87h225q0 -156 -90 -252t-248 -96z" glyph-name="gbreve" unicode="ğ"/><glyph d="M614 -10q-131 0 -229 65.5t-150.5 176t-77 231.5t-24.5 254q0 135 23.5 254t79 230.5t163 177t256.5 65.5q178 0 389 -123v-256q-215 143 -389 143q-80 0 -138 -46t-87 -123.5t-42 -156.5t-13 -165t13 -164t42 -153.5t87 -122t138 -46.5q102 0 169 97.5t67 306.5h-277 v225h502v-860h-205l-4 182q-94 -192 -293 -192zM492 1843h307v-246h-307v246z" glyph-name="Gdotaccent" unicode="Ġ"/><glyph d="M143 512q0 238 121 380t289 142q209 0 321 -160v150h232v-1075q0 -461 -475 -461q-195 0 -426 102v226q231 -102 409 -103q260 0 260 236v201q-113 -160 -321 -160q-168 0 -289 142t-121 380zM379 512q0 -152 74.5 -219.5t171 -67.5t173 67.5t76.5 219.5 q0 154 -77.5 225.5t-172 71.5t-170 -71.5t-75.5 -225.5zM492 1434h307v-246h-307v246z" glyph-name="gdotaccent" unicode="ġ"/><glyph d="M133 717q0 135 23.5 254t79 230.5t163 177t256.5 65.5q178 0 389 -123v-256q-215 143 -389 143q-80 0 -138 -46t-87 -123.5t-42 -156.5t-13 -165t13 -164t42 -153.5t87 -122t138 -46.5q102 0 169 97.5t67 306.5h-277v225h502v-860h-205l-4 182q-94 -193 -293 -192 q-131 0 -229 65.5t-150.5 176t-77 231.5t-24.5 254zM625 -514h-246q86 184 123 348h327q-71 -158 -204 -348z" glyph-name="Gcommaaccent" unicode="Ģ"/><glyph d="M430 0h-235v1434h235v-574h430v574h236v-1434h-236v635h-430v-635zM276 1597q102 190 246 349h246q143 -158 246 -349h-266q-39 115 -103 195q-63 -80 -102 -195h-267z" glyph-name="Hcircumflex" unicode="Ĥ"/><glyph d="M436 0h-231v1434h231v-549q106 150 291 149q188 0 273 -131t85 -391v-512h-231v512q0 166 -42 231.5t-136 65.5q-104 0 -172 -69.5t-68 -227.5v-512zM276 1597q102 190 246 349h246q143 -158 246 -349h-266q-39 115 -103 195q-63 -80 -102 -195h-267z" glyph-name="hcircumflex" unicode="ĥ"/><glyph d="M195 0v1434h235v-185h430v185h236v-1434h-236v635h-430v-635h-235zM860 1024h-430v-164h430v164z" glyph-name="Hbar" unicode="Ħ"/><glyph d="M205 1434h231v-123h578v-226h-578v-200q106 150 291 149q188 0 273 -131t85 -391v-512h-231v512q0 166 -42 231.5t-136 65.5q-104 0 -172 -69.5t-68 -227.5v-512h-231v1434z" glyph-name="hbar" unicode="ħ"/><glyph d="M215 1208v226h860v-226h-309v-983h309v-225h-860v225h315v983h-315zM471 1608h-205q0 170 58.5 254t156.5 84q53 0 108.5 -33t99.5 -67t69 -34q33 0 47 25t14 98h205q0 -166 -56.5 -252t-158.5 -86q-53 0 -108.5 33t-99.5 67t-69 34q-33 0 -47 -24.5t-14 -98.5z" glyph-name="Itilde" unicode="Ĩ"/><glyph d="M1167 0h-1003v215h389v594h-348v215h579v-809h383v-215zM471 1198h-205q0 170 58.5 254t156.5 84q53 0 108.5 -33t99.5 -66.5t69 -33.5q33 0 47 24.5t14 98.5h205q0 -166 -56.5 -252t-158.5 -86q-53 0 -108.5 32.5t-99.5 66.5t-69 34q-33 0 -47 -24.5t-14 -98.5z" glyph-name="itilde" unicode="ĩ"/><glyph d="M215 0v225h315v983h-315v226h860v-226h-309v-983h309v-225h-860zM1014 1597h-738v226h738v-226z" glyph-name="Imacron" unicode="Ī"/><glyph d="M164 0v215h389v594h-348v215h579v-809h383v-215h-1003zM276 1413h738v-225h-738v225z" glyph-name="imacron" unicode="ī"/><glyph d="M530 1208h-315v226h860v-226h-309v-983h309v-225h-860v225h315v983zM307 1946h225q0 -51 27 -87t86 -36q57 0 85 35.5t28 87.5h225q0 -156 -90 -252.5t-248 -96.5t-248 96.5t-90 252.5z" glyph-name="Ibreve" unicode="Ĭ"/><glyph d="M164 0v215h389v594h-348v215h579v-809h383v-215h-1003zM307 1536h225q0 -51 27 -87t86 -36q57 0 85 36t28 87h225q0 -156 -90 -252t-248 -96t-248 96t-90 252z" glyph-name="ibreve" unicode="ĭ"/><glyph d="M215 1434h860v-226h-309v-983h309v-225h-71q-113 -84 -164.5 -134t-51.5 -91q0 -61 113 -62q92 0 174 41v-225q-123 -41 -235 -41q-119 0 -198 60.5t-79 164.5q0 88 50.5 150.5t164.5 136.5h-563v225h315v983h-315v226z" glyph-name="Iogonek" unicode="Į"/><glyph d="M604 0h-450v215h378v594h-327v215h559v-809h373v-215h-308q-113 -84 -164 -134t-51 -91q0 -61 113 -62q92 0 174 41v-225q-123 -41 -235 -41q-119 0 -198 60.5t-79 164.5q0 88 50 150.5t165 136.5zM481 1434h328v-246h-328v246z" glyph-name="iogonek" unicode="į"/><glyph d="M215 0v225h315v983h-315v226h860v-226h-309v-983h309v-225h-860zM492 1843h307v-246h-307v246z" glyph-name="Idotaccent" unicode="İ"/><glyph d="M164 0v215h389v594h-348v215h579v-809h383v-215h-1003z" glyph-name="dotlessi" unicode="ı"/><glyph d="M61 0v215h379v594h-327v215h1071v-1075q0 -211 -118 -336t-359 -125q-203 0 -400 102v226q197 -102 379 -103q135 0 200.5 62.5t65.5 173.5v51h-891zM952 809h-280v-594h280v594zM901 1434h328v-246h-328v246zM717 1188h-328v246h328v-246z" glyph-name="ij" unicode="ĳ"/><glyph d="M164 358q74 -59 175 -93t183 -34q139 0 213 62.5t74 208.5v706h-533v226h768v-932q0 -262 -143 -387t-379 -125q-213 0 -358 102v266zM276 1597q102 190 246 349h246q143 -158 246 -349h-266q-39 115 -103 195q-63 -80 -102 -195h-267z" glyph-name="Jcircumflex" unicode="Ĵ"/><glyph d="M123 -184q197 -102 379 -103q135 0 200.5 62.5t65.5 173.5v860h-410v215h641v-1075q0 -211 -117.5 -336t-359.5 -125q-203 0 -399 102v226zM584 1188h-267q102 190 246 348h246q143 -158 246 -348h-267q-39 115 -102 194q-63 -79 -102 -194z" glyph-name="jcircumflex" unicode="ĵ"/><glyph d="M225 0v1434h236v-535q242 283 399 535h266q-111 -190 -219 -334t-303 -363q186 -211 305 -370.5t238 -366.5h-277q-164 285 -409 573v-573h-236zM379 -514q86 184 123 348h327q-72 -158 -204 -348h-246z" glyph-name="Kcommaaccent" unicode="Ķ"/><glyph d="M256 0v1434h231v-789q188 170 373 379h297q-217 -246 -491 -481q180 -158 282.5 -267.5t229.5 -275.5h-287q-170 223 -404 440v-440h-231zM379 -514q86 184 123 348h327q-72 -158 -204 -348h-246z" glyph-name="kcommaaccent" unicode="ķ"/><glyph d="M338 0v1024h231v-360q178 162 353 360h297q-199 -225 -492 -481q186 -170 290.5 -279.5t221.5 -263.5h-287q-170 223 -383 420v-420h-231z" glyph-name="kgreenlandic" unicode="ĸ"/><glyph d="M1137 0h-901v1434h235v-1209h666v-225zM522 1597q37 164 123 349h328q-133 -190 -205 -349h-246z" glyph-name="Lacute" unicode="Ĺ"/><glyph d="M154 0v215h378v1004h-368v215h600v-1219h373v-215h-983zM768 1597h-246q37 164 123 349h328q-133 -191 -205 -349z" glyph-name="lacute" unicode="ĺ"/><glyph d="M236 0v1434h235v-1209h666v-225h-901zM379 -514q86 184 123 348h327q-72 -158 -204 -348h-246z" glyph-name="Lcommaaccent" unicode="Ļ"/><glyph d="M154 0v215h378v1004h-368v215h600v-1219h373v-215h-983zM625 -514h-246q86 184 123 348h327q-71 -158 -204 -348z" glyph-name="lcommaaccent" unicode="ļ"/><glyph d="M236 0v1434h235v-1209h666v-225h-901zM604 512v328h410v-328h-410z" glyph-name="Ldot" unicode="Ŀ"/><glyph d="M784 215h373v-215h-983v215h379v1004h-369v215h600v-1219zM922 840h409v-328h-409v328z" glyph-name="ldot" unicode="ŀ"/><glyph d="M297 463l-123 -84v256l123 84v715h235v-562l461 316v-256l-461 -316v-391h666v-225h-901v463z" glyph-name="Lslash" unicode="Ł"/><glyph d="M195 0v215h376v363l-295 -199v256l295 199v385h-348v215h580v-445l293 199v-256l-293 -199v-518h375v-215h-983z" glyph-name="lslash" unicode="ł"/><glyph d="M430 0h-235v1434h286q236 -455 379 -867v867h236v-1434h-287q-180 608 -379 1038v-1038zM522 1597q37 164 123 349h328q-133 -190 -205 -349h-246z" glyph-name="Nacute" unicode="Ń"/><glyph d="M205 1024h231v-139q106 150 291 149q188 0 273 -131t85 -391v-512h-231v512q0 166 -42 231.5t-136 65.5q-104 0 -172 -69.5t-68 -227.5v-512h-231v1024zM768 1188h-246q37 164 123 348h328q-133 -190 -205 -348z" glyph-name="nacute" unicode="ń"/><glyph d="M430 0h-235v1434h286q236 -455 379 -867v867h236v-1434h-287q-180 608 -379 1038v-1038zM625 -514h-246q86 184 123 348h327q-71 -158 -204 -348z" glyph-name="Ncommaaccent" unicode="Ņ"/><glyph d="M205 1024h231v-139q106 150 291 149q188 0 273 -131t85 -391v-512h-231v512q0 166 -42 231.5t-136 65.5q-104 0 -172 -69.5t-68 -227.5v-512h-231v1024zM379 -514q86 184 123 348h327q-72 -158 -204 -348h-246z" glyph-name="ncommaaccent" unicode="ņ"/><glyph d="M195 0v1434h286q236 -455 379 -867v867h236v-1434h-287q-180 608 -379 1038v-1038h-235zM276 1946h267q39 -115 102 -195q63 80 103 195h266q-119 -209 -246 -349h-246q-127 140 -246 349z" glyph-name="Ncaron" unicode="Ň"/><glyph d="M205 1024h231v-139q106 150 291 149q188 0 273 -131t85 -391v-512h-231v512q0 166 -42 231.5t-136 65.5q-104 0 -172 -69.5t-68 -227.5v-512h-231v1024zM276 1536h267q39 -115 102 -195q63 80 103 195h266q-119 -209 -246 -348h-246q-127 139 -246 348z" glyph-name="ncaron" unicode="ň"/><glyph d="M430 0h-235v1434h286q236 -455 379 -867v867h236v-1434q0 -270 -96.5 -391t-292.5 -121q-135 0 -267 82v266q141 -106 246 -106q106 0 135 65.5t-12 204.5q-180 608 -379 1038v-1038z" glyph-name="Eng" unicode="Ŋ"/><glyph d="M436 0h-231v1024h231v-150q109 160 291 160q188 0 273 -131t85 -391v-553q0 -231 -89 -351t-289 -120q-90 0 -146.5 17.5t-130.5 64.5v246q80 -59 127 -81t119 -22q57 0 96 21.5t55.5 61.5t21.5 76t5 87v553q0 166 -42 231.5t-136 65.5q-104 0 -172 -69.5t-68 -227.5 v-512z" glyph-name="eng" unicode="ŋ"/><glyph d="M113 716.5q0 112.5 13 210t50 196t95.5 167t153.5 111.5t220 43t220.5 -43t153.5 -111.5t95 -167t50.5 -196t13.5 -210t-13.5 -209.5t-50.5 -195.5t-95 -167t-153.5 -111.5t-220.5 -43t-220 43t-153.5 111.5t-95.5 167t-50 195.5t-13 209.5zM354 717q0 -485 291 -485.5 t291 485.5q0 492 -291 492t-291 -492zM1014 1597h-738v226h738v-226z" glyph-name="Omacron" unicode="Ō"/><glyph d="M143 512q0 229 142.5 375.5t359.5 146.5t359.5 -146.5t142.5 -375.5t-142.5 -375.5t-359.5 -146.5t-359.5 146.5t-142.5 375.5zM379 512q0 -147 79 -217t187.5 -70t187 70t78.5 217q0 150 -79.5 223.5t-186 73.5t-186.5 -73.5t-80 -223.5zM1014 1188h-738v225h738v-225z " glyph-name="omacron" unicode="ō"/><glyph d="M645 -10q-125 0 -220 43t-153.5 111.5t-95.5 167t-50 195.5t-13 209.5t13 210t50 196t95.5 167t153.5 111.5t220 43t220.5 -43t153.5 -111.5t95 -167t50.5 -196t13.5 -210t-13.5 -209.5t-50.5 -195.5t-95 -167t-153.5 -111.5t-220.5 -43zM354 717q0 -485 291 -485.5 t291 485.5q0 492 -291 492t-291 -492zM307 1946h225q0 -51 27 -87t86 -36q57 0 85 35.5t28 87.5h225q0 -156 -90 -252.5t-248 -96.5t-248 96.5t-90 252.5z" glyph-name="Obreve" unicode="Ŏ"/><glyph d="M645 -10q-217 0 -359.5 146.5t-142.5 375.5t142.5 375.5t359.5 146.5t359.5 -146.5t142.5 -375.5t-142.5 -375.5t-359.5 -146.5zM645.5 809q-106.5 0 -186.5 -73.5t-80 -223.5q0 -147 79 -217t187.5 -70t187 70t78.5 217q0 150 -79.5 223.5t-186 73.5zM645 1188 q-158 0 -248 96t-90 252h225q0 -51 27 -87t86 -36q57 0 85 36t28 87h225q0 -156 -90 -252t-248 -96z" glyph-name="obreve" unicode="ŏ"/><glyph d="M113 716.5q0 112.5 13 210t50 196t95.5 167t153.5 111.5t220 43t220.5 -43t153.5 -111.5t95 -167t50.5 -196t13.5 -210t-13.5 -209.5t-50.5 -195.5t-95 -167t-153.5 -111.5t-220.5 -43t-220 43t-153.5 111.5t-95.5 167t-50 195.5t-13 209.5zM354 717q0 -485 291 -485.5 t291 485.5q0 492 -291 492t-291 -492zM907 1597h-225q0 195 31 349h286q-63 -159 -92 -349zM293 1597q0 195 31 349h286q-63 -158 -92 -349h-225z" glyph-name="Ohungarumlaut" unicode="Ő"/><glyph d="M645 -10q-217 0 -359.5 146.5t-142.5 375.5t142.5 375.5t359.5 146.5t359.5 -146.5t142.5 -375.5t-142.5 -375.5t-359.5 -146.5zM379 512q0 -147 79 -217t187.5 -70t187 70t78.5 217q0 150 -79.5 223.5t-186 73.5t-186.5 -73.5t-80 -223.5zM907 1188h-225q0 195 31 348 h286q-63 -158 -92 -348zM518 1188h-225q0 195 31 348h286q-63 -158 -92 -348z" glyph-name="ohungarumlaut" unicode="ő"/><glyph d="M645 0q-147 0 -251.5 61.5t-159 169t-78 226t-23.5 260t23.5 260.5t78 226.5t159 169t251.5 61.5h553v-226h-317v-348h307v-225h-307v-399h317v-236h-553zM645 1198q-72 0 -123 -29.5t-78.5 -73.5t-44 -113t-20.5 -128t-4 -137t4 -137.5t20.5 -127t44 -110.5t78.5 -71.5 t123 -28.5v956z" glyph-name="OE" unicode="Œ"/><glyph d="M399 -10q-174 0 -245.5 137t-71.5 395q0 248 71.5 380t245.5 132q154 0 236 -121q86 121 235 121q180 0 259 -130t79 -392v-102h-460q0 -98 43 -151.5t120 -53.5q57 0 104.5 21.5t141.5 80.5v-215q-145 -102 -287 -102q-150 0 -235 127q-84 -127 -236 -127zM317 522 q0 -170 26 -243.5t87.5 -73.5t87 73.5t25.5 243.5q0 168 -25.5 237.5t-87 69.5t-87.5 -69.5t-26 -237.5zM870.5 829q-55.5 0 -89 -55t-33.5 -160h245q0 104 -33.5 159.5t-89 55.5z" glyph-name="oe" unicode="œ"/><glyph d="M205 1434h430q223 0 357 -113t134 -297q0 -152 -94 -270.5t-233 -149.5q129 -82 200 -215l209 -389h-266l-158 307q-57 111 -91 167t-73.5 84t-66.5 32t-92 4h-21v-594h-235v1434zM440 819h195q250 0 250 205q0 102 -60.5 143t-189.5 41h-195v-389zM768 1597h-246 q37 164 123 349h328q-133 -191 -205 -349z" glyph-name="Racute" unicode="Ŕ"/><glyph d="M154 1024h436v-160q104 170 321 170q143 0 226 -102v-225q-102 102 -267 102q-129 0 -204.5 -98.5t-75.5 -259.5v-236h414v-215h-850v215h204v594h-204v215zM768 1188h-246q37 164 123 348h328q-133 -190 -205 -348z" glyph-name="racute" unicode="ŕ"/><glyph d="M205 0v1434h430q223 0 357 -113t134 -297q0 -152 -94 -270.5t-233 -149.5q129 -82 200 -215l209 -389h-266l-158 307q-57 111 -91 167t-73.5 84t-66.5 32t-92 4h-21v-594h-235zM440 819h195q250 0 250 205q0 102 -60.5 143t-189.5 41h-195v-389zM379 -514q86 184 123 348 h327q-72 -158 -204 -348h-246z" glyph-name="Rcommaaccent" unicode="Ŗ"/><glyph d="M154 809v215h436v-160q104 170 321 170q143 0 226 -102v-225q-102 102 -267 102q-129 0 -204.5 -98.5t-75.5 -259.5v-236h414v-215h-850v215h204v594h-204zM625 -514h-246q86 184 123 348h327q-71 -158 -204 -348z" glyph-name="rcommaaccent" unicode="ŗ"/><glyph d="M205 0v1434h430q223 0 357 -113t134 -297q0 -152 -94 -270.5t-233 -149.5q129 -82 200 -215l209 -389h-266l-158 307q-57 111 -91 167t-73.5 84t-66.5 32t-92 4h-21v-594h-235zM440 819h195q250 0 250 205q0 102 -60.5 143t-189.5 41h-195v-389zM276 1946h267 q39 -115 102 -195q63 80 103 195h266q-119 -209 -246 -349h-246q-127 140 -246 349z" glyph-name="Rcaron" unicode="Ř"/><glyph d="M154 0v215h204v594h-204v215h436v-160q104 170 321 170q143 0 226 -102v-225q-102 102 -267 102q-129 0 -204.5 -98.5t-75.5 -259.5v-236h414v-215h-850zM276 1536h267q39 -115 102 -195q63 80 103 195h266q-119 -209 -246 -348h-246q-127 139 -246 348z" glyph-name="rcaron" unicode="ř"/><glyph d="M645 604q-133 0 -227 36t-142.5 99.5t-70 135t-21.5 159.5q0 72 21.5 138.5t70 131t143.5 102.5t226 38q207 0 399 -123v-256q-201 143 -378 143q-106 0 -173 -48t-67 -126q0 -195 240 -194q215 0 327.5 -120t112.5 -290q0 -74 -21.5 -144.5t-69.5 -140t-143.5 -112.5 t-226.5 -43q-207 0 -461 112v267q137 -76 234.5 -107t206.5 -31q129 0 184 56.5t55 142.5q0 80 -57.5 127t-161.5 47zM522 1597q37 164 123 349h328q-133 -190 -205 -349h-246z" glyph-name="Sacute" unicode="Ś"/><glyph d="M645 -10q-221 0 -440 102v236q256 -102 430 -103q219 0 219 92q0 49 -45 71t-164 22q-211 0 -315.5 88t-104.5 229q0 139 102.5 223t307.5 84t409 -102v-225q-205 102 -399 102t-194 -82q0 -51 51 -71.5t162 -20.5q422 0 421 -318q0 -90 -43 -157.5t-112.5 -102t-141 -51 t-143.5 -16.5zM522 1188q37 164 123 348h328q-133 -190 -205 -348h-246z" glyph-name="sacute" unicode="ś"/><glyph d="M645 604q-133 0 -227 36t-142.5 99.5t-70 135t-21.5 159.5q0 72 21.5 138.5t70 131t143.5 102.5t226 38q207 0 399 -123v-256q-201 143 -378 143q-106 0 -173 -48t-67 -126q0 -195 240 -194q215 0 327.5 -120t112.5 -290q0 -74 -21.5 -144.5t-69.5 -140t-143.5 -112.5 t-226.5 -43q-207 0 -461 112v267q137 -76 234.5 -107t206.5 -31q129 0 184 56.5t55 142.5q0 80 -57.5 127t-161.5 47zM276 1597q102 190 246 349h246q143 -158 246 -349h-266q-39 115 -103 195q-63 -80 -102 -195h-267z" glyph-name="Scircumflex" unicode="Ŝ"/><glyph d="M645 -10q-221 0 -440 102v236q256 -102 430 -103q219 0 219 92q0 49 -45 71t-164 22q-211 0 -315.5 88t-104.5 229q0 139 102.5 223t307.5 84t409 -102v-225q-205 102 -399 102t-194 -82q0 -51 51 -71.5t162 -20.5q422 0 421 -318q0 -90 -43 -157.5t-112.5 -102t-141 -51 t-143.5 -16.5zM276 1188q102 190 246 348h246q143 -158 246 -348h-266q-39 115 -103 194q-63 -80 -102 -194h-267z" glyph-name="scircumflex" unicode="ŝ"/><glyph d="M645 604q-133 0 -227 36t-142.5 99.5t-70 135t-21.5 159.5q0 72 21.5 138.5t70 131t143.5 102.5t226 38q207 0 399 -123v-256q-201 143 -378 143q-106 0 -173 -48t-67 -126q0 -195 240 -194q215 0 327.5 -120t112.5 -290q0 -55 -11.5 -108.5t-41 -112.5t-74.5 -104.5 t-121 -76t-172 -36.5v-74q86 0 150.5 -58.5t64.5 -146.5q0 -225 -317 -225q-113 0 -195 41v205q82 -41 195 -41q92 0 92 51t-92 51h-103v209q-135 25 -297 98v267q137 -76 234.5 -107t206.5 -31q129 0 184 56.5t55 142.5q0 80 -57.5 127t-161.5 47z" glyph-name="Scedilla" unicode="Ş"/><glyph d="M481 4q-133 20 -276 88v236q256 -102 430 -103q219 0 219 92q0 49 -45 71t-164 22q-211 0 -315.5 88t-104.5 229q0 139 102.5 223t307.5 84t409 -102v-225q-205 102 -399 102t-194 -82q0 -51 51 -71.5t162 -20.5q422 0 421 -318q0 -111 -66.5 -186.5t-150.5 -104 t-182 -34.5v-74q86 0 150.5 -58.5t64.5 -146.5q0 -225 -317 -225q-113 0 -195 41v205q82 -41 195 -41q92 0 92 51t-92 51h-103v209z" glyph-name="scedilla" unicode="ş"/><glyph d="M645 604q-133 0 -227 36t-142.5 99.5t-70 135t-21.5 159.5q0 72 21.5 138.5t70 131t143.5 102.5t226 38q207 0 399 -123v-256q-201 143 -378 143q-106 0 -173 -48t-67 -126q0 -195 240 -194q215 0 327.5 -120t112.5 -290q0 -74 -21.5 -144.5t-69.5 -140t-143.5 -112.5 t-226.5 -43q-207 0 -461 112v267q137 -76 234.5 -107t206.5 -31q129 0 184 56.5t55 142.5q0 80 -57.5 127t-161.5 47zM522 1597q-127 139 -246 349h267q39 -115 102 -195q63 80 103 195h266q-119 -209 -246 -349h-246z" glyph-name="Scaron" unicode="Š"/><glyph d="M205 92v236q256 -102 430 -103q219 0 219 92q0 49 -45 71t-164 22q-211 0 -315.5 88t-104.5 229q0 139 102.5 223t307.5 84t409 -102v-225q-205 102 -399 102t-194 -82q0 -51 51 -71.5t162 -20.5q422 0 421 -318q0 -90 -43 -157.5t-112.5 -102t-141 -51t-143.5 -16.5 q-221 0 -440 102zM522 1188q-127 139 -246 348h267q39 -115 102 -195q63 80 103 195h266q-119 -209 -246 -348h-246z" glyph-name="scaron" unicode="š"/><glyph d="M143 1434h1045v-226h-410v-1290q86 0 145.5 -57.5t59.5 -147.5q0 -225 -317 -225q-113 0 -195 41v205q82 -41 195 -41q92 0 92 51t-92 51h-123v1413h-400v226z" glyph-name="Tcommaaccent" unicode="Ţ"/><glyph d="M430 809h-297v215h297v410h232v-410h413v-215h-413v-358q0 -143 48 -189.5t158 -46.5q51 0 128 29.5t120 72.5v-225q-82 -82 -246 -100v-74q86 0 150.5 -58.5t64.5 -146.5q0 -225 -317 -225q-113 0 -195 41v205q82 -41 195 -41q92 0 92 51t-92 51h-102v219 q-236 80 -236 437v358z" glyph-name="tcommaaccent" unicode="ţ"/><glyph d="M522 1208h-399v226h1044v-226h-409v-1208h-236v1208zM276 1946h267q39 -115 102 -195q63 80 103 195h266q-119 -209 -246 -349h-246q-127 140 -246 349z" glyph-name="Tcaron" unicode="Ť"/><glyph d="M522 1208h-399v226h1044v-226h-409v-184h256v-225h-256v-799h-236v799h-246v225h246v184z" glyph-name="Tbar" unicode="Ŧ"/><glyph d="M410 809h-297v215h297v410h231v-410h414v-215h-414v-154h311v-225h-311q4 -131 52 -173t155 -42q51 0 128 29.5t120 72.5v-225q-45 -45 -127 -73.5t-162 -28.5q-387 0 -397 440h-195v225h195v154z" glyph-name="tbar" unicode="ŧ"/><glyph d="M174 502v932h236v-932q0 -270 235.5 -270.5t235.5 270.5v932h235v-932q0 -270 -132 -391t-339 -121t-339 121t-132 391zM266 1608q0 170 58.5 254t156.5 84q53 0 108.5 -33t99.5 -67t69 -34q33 0 47 25t14 98h205q0 -166 -56.5 -252t-158.5 -86q-53 0 -108.5 33t-99.5 67 t-69 34q-33 0 -47 -25t-14 -98h-205z" glyph-name="Utilde" unicode="Ũ"/><glyph d="M205 1024h231v-512q0 -141 50.5 -219t148.5 -78q106 0 162.5 79t56.5 218v512h231v-1024h-231v147q-88 -158 -270 -157q-184 0 -281.5 134t-97.5 388v512zM266 1198q0 170 58.5 254t156.5 84q53 0 108.5 -33t99.5 -66.5t69 -33.5q33 0 47 24.5t14 98.5h205 q0 -166 -56.5 -252t-158.5 -86q-53 0 -108.5 32.5t-99.5 66.5t-69 34q-33 0 -47 -24.5t-14 -98.5h-205z" glyph-name="utilde" unicode="ũ"/><glyph d="M645 -10q-207 0 -339 120.5t-132 391.5v932h236v-932q0 -270 235.5 -270.5t235.5 270.5v932h235v-932q0 -270 -132 -391t-339 -121zM1014 1597h-738v226h738v-226z" glyph-name="Umacron" unicode="Ū"/><glyph d="M205 512v512h231v-512q0 -141 50.5 -219t148.5 -78q106 0 162.5 79t56.5 218v512h231v-1024h-231v147q-88 -158 -270 -157q-184 0 -281.5 134t-97.5 388zM1014 1188h-738v225h738v-225z" glyph-name="umacron" unicode="ū"/><glyph d="M174 1434h236v-932q0 -270 235.5 -270.5t235.5 270.5v932h235v-932q0 -270 -132 -391t-339 -121t-339 120.5t-132 391.5v932zM307 1946h225q0 -51 27 -87t86 -36q57 0 85 35.5t28 87.5h225q0 -156 -90 -252.5t-248 -96.5t-248 96.5t-90 252.5z" glyph-name="Ubreve" unicode="Ŭ"/><glyph d="M205 512v512h231v-512q0 -141 50.5 -219t148.5 -78q106 0 162.5 79t56.5 218v512h231v-1024h-231v147q-88 -158 -270 -157q-184 0 -281.5 134t-97.5 388zM645 1188q-158 0 -248 96t-90 252h225q0 -51 27 -87t86 -36q57 0 85 36t28 87h225q0 -156 -90 -252t-248 -96z" glyph-name="ubreve" unicode="ŭ"/><glyph d="M174 502v932h236v-932q0 -270 235.5 -270.5t235.5 270.5v932h235v-932q0 -270 -132 -391t-339 -121t-339 121t-132 391zM645 1597q-135 0 -226 87.5t-91 230.5t91 230t226 87t226.5 -87t91.5 -230t-91.5 -230.5t-226.5 -87.5zM645 2028q-47 0 -80 -31t-33 -82 q0 -53 32 -83t81 -30q47 0 80 31t33 82q0 53 -32 83t-81 30z" glyph-name="Uring" unicode="Ů"/><glyph d="M584 -10q-184 0 -281.5 134t-97.5 388v512h231v-512q0 -141 50.5 -219t148.5 -78q106 0 162.5 79t56.5 218v512h231v-1024h-231v147q-88 -157 -270 -157zM645 1188q-135 0 -226 87t-91 230.5t91 230.5t226 87t226.5 -87t91.5 -230.5t-91.5 -230.5t-226.5 -87zM645 1618 q-47 0 -80 -31t-33 -82q0 -53 32 -82.5t81 -29.5q47 0 80 30.5t33 81.5q0 53 -32 83t-81 30z" glyph-name="uring" unicode="ů"/><glyph d="M645 -10q-207 0 -339 120.5t-132 391.5v932h236v-932q0 -270 235.5 -270.5t235.5 270.5v932h235v-932q0 -270 -132 -391t-339 -121zM907 1597h-225q0 195 31 349h286q-63 -159 -92 -349zM293 1597q0 195 31 349h286q-63 -158 -92 -349h-225z" glyph-name="Uhungarumlaut" unicode="Ű"/><glyph d="M205 1024h231v-512q0 -141 50.5 -219t148.5 -78q106 0 162.5 79t56.5 218v512h231v-1024h-231v147q-88 -158 -270 -157q-184 0 -281.5 134t-97.5 388v512zM907 1188h-225q0 195 31 348h286q-63 -158 -92 -348zM293 1188q0 195 31 348h286q-63 -158 -92 -348h-225z" glyph-name="uhungarumlaut" unicode="ű"/><glyph d="M174 1434h236v-932q0 -270 235.5 -270.5t235.5 270.5v932h235v-932q0 -438 -360 -502q-76 -57 -113 -88t-68.5 -70t-31.5 -67q0 -61 112 -62q92 0 174 41v-225q-123 -41 -235 -41q-119 0 -198 60.5t-79 164.5q0 88 50.5 150.5t164.5 136.5q-358 63 -358 502v932z" glyph-name="Uogonek" unicode="Ų"/><glyph d="M584 -10q-184 0 -281.5 134t-97.5 388v512h231v-512q0 -141 50.5 -219t148.5 -78q106 0 162.5 79t56.5 218v512h231v-1024h-10q-113 -84 -164 -134t-51 -91q0 -61 113 -62q92 0 174 41v-225q-123 -41 -236 -41q-119 0 -197.5 60.5t-78.5 164.5q0 88 50 150.5t165 136.5h4 v147q-88 -157 -270 -157z" glyph-name="uogonek" unicode="ų"/><glyph d="M133 1434h236q0 -666 28 -1051q72 285 135 641h205q72 -352 156 -651q29 389 29 1061h235q0 -406 -13.5 -700t-58.5 -734h-276q-113 362 -168 588q-59 -262 -160 -588h-276q-45 440 -58.5 734t-13.5 700zM276 1597q102 190 246 349h246q143 -158 246 -349h-266 q-39 115 -103 195q-63 -80 -102 -195h-267z" glyph-name="Wcircumflex" unicode="Ŵ"/><glyph d="M113 1024h235q37 -426 98 -705q51 178 115 459h170q72 -315 115 -463q74 319 96 709h236q-45 -502 -209 -1024h-211q-80 242 -115 385q-39 -154 -111 -385h-210q-164 522 -209 1024zM276 1188q102 190 246 348h246q143 -158 246 -348h-266q-39 115 -103 194 q-63 -80 -102 -194h-267z" glyph-name="wcircumflex" unicode="ŵ"/><glyph d="M528 614q-276 471 -415 820h256q104 -260 276 -574q172 313 277 574h256q-137 -342 -414 -820v-614h-236v614zM276 1597q102 190 246 349h246q143 -158 246 -349h-266q-39 115 -103 195q-63 -80 -102 -195h-267z" glyph-name="Ycircumflex" unicode="Ŷ"/><glyph d="M133 -184q41 -43 116 -73t134 -30q76 0 111.5 29t60.5 108l47 154q-240 446 -387 1020h246q82 -367 231 -725l223 725h242l-399 -1278q-37 -119 -128 -188.5t-222 -69.5q-76 0 -154 28.5t-121 73.5v226zM543 1188h-267q102 190 246 348h246q143 -158 246 -348h-266 q-39 115 -103 194q-63 -79 -102 -194z" glyph-name="ycircumflex" unicode="ŷ"/><glyph d="M528 614q-276 471 -415 820h256q104 -260 276 -574q172 313 277 574h256q-137 -342 -414 -820v-614h-236v614zM1024 1597h-307v246h307v-246zM266 1597v246h307v-246h-307z" glyph-name="Ydieresis" unicode="Ÿ"/><glyph d="M1096 0h-901v215l616 993h-596v226h860v-215l-614 -994h635v-225zM522 1597q37 164 123 349h328q-133 -190 -205 -349h-246z" glyph-name="Zacute" unicode="Ź"/><glyph d="M1096 0h-901v215l604 594h-584v215h870v-215l-593 -594h604v-215zM522 1188q37 164 123 348h328q-133 -190 -205 -348h-246z" glyph-name="zacute" unicode="ź"/><glyph d="M215 1208v226h860v-215l-614 -994h635v-225h-901v215l616 993h-596zM799 1597h-307v246h307v-246z" glyph-name="Zdotaccent" unicode="Ż"/><glyph d="M492 215h604v-215h-901v215l604 594h-584v215h870v-215zM799 1188h-307v246h307v-246z" glyph-name="zdotaccent" unicode="ż"/><glyph d="M195 215l616 993h-596v226h860v-215l-614 -994h635v-225h-901v215zM276 1946h267q39 -115 102 -195q63 80 103 195h266q-119 -209 -246 -349h-246q-127 140 -246 349z" glyph-name="Zcaron" unicode="Ž"/><glyph d="M1096 0h-901v215l604 594h-584v215h870v-215l-593 -594h604v-215zM276 1536h267q39 -115 102 -195q63 80 103 195h266q-119 -209 -246 -348h-246q-127 139 -246 348z" glyph-name="zcaron" unicode="ž"/><glyph d="M354 1024q0 190 102.5 305t297.5 115q53 0 138 -30t128 -73v-225q-43 43 -128 73t-138 30q-168 0 -168 -195v-1024h-232v1024z" glyph-name="longs" unicode="ſ"/><glyph d="M154 809v215h317q12 195 106.5 307.5t272.5 112.5q53 0 145 -30t142 -73v-225q-51 43 -133 73t-134 30q-80 0 -120.5 -45.5t-47.5 -149.5h435v-215h-449l-67 -1065h-232l68 1065h-303z" glyph-name="florin" unicode="ƒ"/><glyph d="M113 0q125 786 372 1434h318q248 -643 375 -1434h-246q-37 244 -86 471h-402q-49 -227 -86 -471h-245zM522 1597q-127 139 -246 349h267q39 -115 102 -195q63 80 103 195h266q-119 -209 -246 -349h-246zM498 696h295q-55 229 -148 514q-81 -246 -147 -514z" glyph-name="uni01CD" unicode="Ǎ"/><glyph d="M594 -10q-182 0 -296 95t-114 243q0 145 113 236t297 91q176 0 280 -94v53q0 215 -249 215q-184 0 -389 -102v215q184 92 409 92q223 0 342 -114.5t119 -305.5v-614h-232v86q-102 -96 -280 -96zM522 1188q-127 139 -246 348h267q39 -115 102 -195q63 80 103 195h266 q-119 -209 -246 -348h-246zM645 451q-225 0 -225 -123t225 -123q229 0 229 123t-229 123z" glyph-name="uni01CE" unicode="ǎ"/><glyph d="M215 1434h860v-226h-309v-983h309v-225h-860v225h315v983h-315v226zM522 1597q-127 139 -246 349h267q39 -115 102 -195q63 80 103 195h266q-119 -209 -246 -349h-246z" glyph-name="uni01CF" unicode="Ǐ"/><glyph d="M164 0v215h389v594h-348v215h579v-809h383v-215h-1003zM276 1536h267q39 -115 102 -195q63 80 103 195h266q-119 -209 -246 -348h-246q-127 139 -246 348z" glyph-name="uni01D0" unicode="ǐ"/><glyph d="M645 -10q-125 0 -220 43t-153.5 111.5t-95.5 167t-50 195.5t-13 209.5t13 210t50 196t95.5 167t153.5 111.5t220 43t220.5 -43t153.5 -111.5t95 -167t50.5 -196t13.5 -210t-13.5 -209.5t-50.5 -195.5t-95 -167t-153.5 -111.5t-220.5 -43zM354 717q0 -485 291 -485.5 t291 485.5q0 492 -291 492t-291 -492zM276 1946h267q39 -115 102 -195q63 80 103 195h266q-119 -209 -246 -349h-246q-127 140 -246 349z" glyph-name="uni01D1" unicode="Ǒ"/><glyph d="M645 -10q-217 0 -359.5 146.5t-142.5 375.5t142.5 375.5t359.5 146.5t359.5 -146.5t142.5 -375.5t-142.5 -375.5t-359.5 -146.5zM645.5 809q-106.5 0 -186.5 -73.5t-80 -223.5q0 -147 79 -217t187.5 -70t187 70t78.5 217q0 150 -79.5 223.5t-186 73.5zM522 1188 q-127 139 -246 348h267q39 -115 102 -195q63 80 103 195h266q-119 -209 -246 -348h-246z" glyph-name="uni01D2" unicode="ǒ"/><glyph d="M174 1434h236v-932q0 -270 235.5 -270.5t235.5 270.5v932h235v-932q0 -270 -132 -391t-339 -121t-339 120.5t-132 391.5v932zM276 1946h267q39 -115 102 -195q63 80 103 195h266q-119 -209 -246 -349h-246q-127 140 -246 349z" glyph-name="uni01D3" unicode="Ǔ"/><glyph d="M205 512v512h231v-512q0 -141 50.5 -219t148.5 -78q106 0 162.5 79t56.5 218v512h231v-1024h-231v147q-88 -158 -270 -157q-184 0 -281.5 134t-97.5 388zM522 1188q-127 139 -246 348h267q39 -115 102 -195q63 80 103 195h266q-119 -209 -246 -348h-246z" glyph-name="uni01D4" unicode="ǔ"/><glyph d="M164 598h721q-12 96 -81 153.5t-200 57.5q-154 0 -379 -113v236q205 102 420 102q195 0 338 -135t143 -387t-143 -387t-338 -135q-190 0 -335.5 141t-145.5 381v86zM406 406q18 -84 79.5 -132.5t159.5 -48.5t163.5 49.5t76.5 131.5h-479z" glyph-name="uni01DD" unicode="ǝ"/><glyph d="M348 0h-246q125 786 373 1434h692v-226h-317v-348h307v-225h-307v-399h317v-236h-553v471h-184q-41 -205 -82 -471zM1014 1597h-738v226h738v-226zM477 696h137v510q-74 -234 -137 -510z" glyph-name="uni01E2" unicode="Ǣ"/><glyph d="M379 -10q-127 0 -212 98t-85 270q0 145 86 241.5t211 96.5q92 0 164 -41v2q0 94 -31 133t-113 39q-158 0 -276 -102v205q119 102 287 102q162 0 239 -110q84 111 232 110q172 0 249.5 -131t77.5 -391v-102h-460q0 -98 43 -151.5t120 -53.5q57 0 104.5 21.5t141.5 80.5 v-215q-145 -102 -287 -102q-154 0 -237 129q-92 -129 -254 -129zM276 1188v225h738v-225h-738zM430 502q-57 0 -85 -42t-28 -102q0 -154 113 -153.5t113 153.5q0 59 -28 101.5t-85 42.5zM748 614h245q0 104 -33.5 159.5t-89 55.5t-89 -55.5t-33.5 -159.5z" glyph-name="uni01E3" unicode="ǣ"/><glyph d="M133 717q0 135 23.5 254t79 230.5t163 177t256.5 65.5q178 0 389 -123v-256q-215 143 -389 143q-80 0 -138 -46t-87 -123.5t-42 -156.5t-13 -165t13 -164t42 -153.5t87 -122t138 -46.5q102 0 169 97.5t67 306.5h-277v225h502v-860h-205l-4 182q-94 -193 -293 -192 q-131 0 -229 65.5t-150.5 176t-77 231.5t-24.5 254zM522 1597q-127 139 -246 349h267q39 -115 102 -195q63 80 103 195h266q-119 -209 -246 -349h-246z" glyph-name="Gcaron" unicode="Ǧ"/><glyph d="M553 -10q-168 0 -289 142t-121 380t121 380t289 142q209 0 321 -160v150h232v-1075q0 -461 -475 -461q-195 0 -426 102v226q231 -102 409 -103q260 0 260 236v201q-112 -160 -321 -160zM624.5 809q-94.5 0 -170 -71.5t-75.5 -225.5q0 -152 74.5 -219.5t171 -67.5 t173 67.5t76.5 219.5q0 154 -77.5 225.5t-172 71.5zM522 1188q-127 139 -246 348h267q39 -115 102 -195q63 80 103 195h266q-119 -209 -246 -348h-246z" glyph-name="gcaron" unicode="ǧ"/><glyph d="M225 0v1434h236v-535q242 283 399 535h266q-111 -190 -219 -334t-303 -363q186 -211 305 -370.5t238 -366.5h-277q-164 285 -409 573v-573h-236zM522 1597q-127 139 -246 349h267q39 -115 102 -195q63 80 103 195h266q-119 -209 -246 -349h-246z" glyph-name="uni01E8" unicode="Ǩ"/><glyph d="M256 0v1434h231v-789q188 170 373 379h297q-217 -246 -491 -481q180 -158 282.5 -267.5t229.5 -275.5h-287q-170 223 -404 440v-440h-231zM522 1597q-127 139 -246 349h267q39 -115 102 -195q63 80 103 195h266q-119 -209 -246 -349h-246z" glyph-name="uni01E9" unicode="ǩ"/><glyph d="M113 717q0 113 13 210t50 195.5t95.5 167t153.5 111.5t220 43t220.5 -43t153.5 -111.5t95 -167t50.5 -196t13.5 -209.5q0 -129 -19.5 -238.5t-63.5 -214t-130 -174.5t-207 -90q-113 -84 -164 -134t-51 -91q0 -61 112 -62q92 0 174 41v-225q-123 -41 -235 -41 q-119 0 -198 60.5t-79 164.5q0 88 50.5 150.5t164.5 136.5q-419 78 -419 717zM354 717q0 -485 291 -485.5t291 485.5q0 492 -291 492t-291 -492z" glyph-name="uni01EA" unicode="Ǫ"/><glyph d="M539 0q-176 37 -286 175t-110 337q0 229 142.5 375.5t359.5 146.5t359.5 -146.5t142.5 -375.5q0 -201 -111.5 -340t-290.5 -172q-76 -57 -112.5 -88t-68.5 -70t-32 -67q0 -61 113 -62q92 0 174 41v-225q-123 -41 -235 -41q-119 0 -198 60.5t-79 164.5q0 88 50.5 150.5 t164.5 136.5h17zM645.5 809q-106.5 0 -186.5 -73.5t-80 -223.5q0 -147 79 -217t187.5 -70t187 70t78.5 217q0 150 -79.5 223.5t-186 73.5z" glyph-name="uni01EB" unicode="ǫ"/><glyph d="M113 717q0 113 13 210t50 195.5t95.5 167t153.5 111.5t220 43t220.5 -43t153.5 -111.5t95 -167t50.5 -196t13.5 -209.5q0 -129 -19.5 -238.5t-63.5 -214t-130 -174.5t-207 -90q-113 -84 -164 -134t-51 -91q0 -61 112 -62q92 0 174 41v-225q-123 -41 -235 -41 q-119 0 -198 60.5t-79 164.5q0 88 50.5 150.5t164.5 136.5q-419 78 -419 717zM354 717q0 -485 291 -485.5t291 485.5q0 492 -291 492t-291 -492zM1014 1597h-738v226h738v-226z" glyph-name="uni01EC" unicode="Ǭ"/><glyph d="M143 512q0 229 142.5 375.5t359.5 146.5t359.5 -146.5t142.5 -375.5q0 -201 -111.5 -340t-290.5 -172q-76 -57 -112.5 -88t-68.5 -70t-32 -67q0 -61 113 -62q92 0 174 41v-225q-123 -41 -235 -41q-119 0 -198 60.5t-79 164.5q0 88 50.5 150.5t164.5 136.5h17 q-176 37 -286 175t-110 337zM379 512q0 -147 79 -217t187.5 -70t187 70t78.5 217q0 150 -79.5 223.5t-186 73.5t-186.5 -73.5t-80 -223.5zM1014 1188h-738v225h738v-225z" glyph-name="uni01ED" unicode="ǭ"/><glyph d="M102 -410v226q197 -102 379 -103q135 0 201 62.5t66 173.5v860h-410v215h641v-1075q0 -211 -118 -336t-359 -125q-203 0 -400 102zM522 1188q-127 139 -246 348h267q39 -115 102 -195q63 80 103 195h266q-119 -209 -246 -348h-246z" glyph-name="uni01F0" unicode="ǰ"/><glyph d="M614 -10q-131 0 -229 65.5t-150.5 176t-77 231.5t-24.5 254q0 135 23.5 254t79 230.5t163 177t256.5 65.5q178 0 389 -123v-256q-215 143 -389 143q-80 0 -138 -46t-87 -123.5t-42 -156.5t-13 -165t13 -164t42 -153.5t87 -122t138 -46.5q102 0 169 97.5t67 306.5h-277 v225h502v-860h-205l-4 182q-94 -192 -293 -192zM502 1597q37 164 123 349h327q-133 -190 -204 -349h-246z" glyph-name="uni01F4" unicode="Ǵ"/><glyph d="M553 -10q-168 0 -289 142t-121 380t121 380t289 142q209 0 321 -160v150h232v-1075q0 -461 -475 -461q-195 0 -426 102v226q231 -102 409 -103q260 0 260 236v201q-112 -160 -321 -160zM624.5 809q-94.5 0 -170 -71.5t-75.5 -225.5q0 -152 74.5 -219.5t171 -67.5 t173 67.5t76.5 219.5q0 154 -77.5 225.5t-172 71.5zM748 1188h-246q37 164 123 348h327q-132 -190 -204 -348z" glyph-name="uni01F5" unicode="ǵ"/><glyph d="M195 0v1434h286q236 -455 379 -867v867h236v-1434h-287q-180 608 -379 1038v-1038h-235zM338 1946h328q86 -184 122 -349h-245q-72 159 -205 349z" glyph-name="uni01F8" unicode="Ǹ"/><glyph d="M205 0v1024h231v-139q106 150 291 149q188 0 273 -131t85 -391v-512h-231v512q0 166 -42 231.5t-136 65.5q-104 0 -172 -69.5t-68 -227.5v-512h-231zM338 1536h328q86 -184 122 -348h-245q-72 158 -205 348z" glyph-name="uni01F9" unicode="ǹ"/><glyph d="M348 0h-246q125 786 373 1434h692v-226h-317v-348h307v-225h-307v-399h317v-236h-553v471h-184q-41 -205 -82 -471zM502 1597q37 164 123 349h327q-133 -190 -204 -349h-246zM477 696h137v510q-74 -234 -137 -510z" glyph-name="AEacute" unicode="Ǽ"/><glyph d="M379 -10q-127 0 -212 98t-85 270q0 145 86 241.5t211 96.5q92 0 164 -41v2q0 94 -31 133t-113 39q-158 0 -276 -102v205q119 102 287 102q162 0 239 -110q84 111 232 110q172 0 249.5 -131t77.5 -391v-102h-460q0 -98 43 -151.5t120 -53.5q57 0 104.5 21.5t141.5 80.5 v-215q-145 -102 -287 -102q-154 0 -237 129q-92 -129 -254 -129zM502 1188q37 164 123 348h327q-133 -190 -204 -348h-246zM430 502q-57 0 -85 -42t-28 -102q0 -154 113 -153.5t113 153.5q0 59 -28 101.5t-85 42.5zM870.5 829q-55.5 0 -89 -55t-33.5 -160h245 q0 104 -33.5 159.5t-89 55.5z" glyph-name="aeacute" unicode="ǽ"/><glyph d="M645 604q-133 0 -227 36t-142.5 99.5t-70 135t-21.5 159.5q0 72 21.5 138.5t70 131t143.5 102.5t226 38q207 0 399 -123v-256q-201 143 -378 143q-106 0 -173 -48t-67 -126q0 -195 240 -194q215 0 327.5 -120t112.5 -290q0 -74 -21.5 -144.5t-69.5 -140t-143.5 -112.5 t-226.5 -43q-207 0 -461 112v267q137 -76 234.5 -107t206.5 -31q129 0 184 56.5t55 142.5q0 80 -57.5 127t-161.5 47zM625 -514h-246q86 184 123 348h327q-71 -158 -204 -348z" glyph-name="Scommaaccent" unicode="Ș"/><glyph d="M645 -10q-221 0 -440 102v236q256 -102 430 -103q219 0 219 92q0 49 -45 71t-164 22q-211 0 -315.5 88t-104.5 229q0 139 102.5 223t307.5 84t409 -102v-225q-205 102 -399 102t-194 -82q0 -51 51 -71.5t162 -20.5q422 0 421 -318q0 -90 -43 -157.5t-112.5 -102t-141 -51 t-143.5 -16.5zM625 -514h-246q86 184 123 348h327q-71 -158 -204 -348z" glyph-name="scommaaccent" unicode="ș"/><glyph d="M123 1434h1044v-226h-409v-1208h-236v1208h-399v226zM379 -514q86 184 123 348h327q-72 -158 -204 -348h-246z" glyph-name="uni021A" unicode="Ț"/><glyph d="M410 809h-297v215h297v410h231v-410h414v-215h-414v-358q0 -143 48 -189.5t159 -46.5q51 0 128 29.5t120 72.5v-225q-45 -45 -127 -73.5t-162 -28.5q-397 0 -397 461v358zM379 -514q86 184 123 348h327q-72 -158 -204 -348h-246z" glyph-name="uni021B" unicode="ț"/><glyph d="M113 0q125 786 372 1434h318q248 -643 375 -1434h-246q-37 244 -86 471h-402q-49 -227 -86 -471h-245zM498 696h295q-55 229 -148 514q-81 -246 -147 -514zM492 1597v246h307v-246h-307z" glyph-name="uni0226" unicode="Ȧ"/><glyph d="M594 -10q-182 0 -296 95t-114 243q0 145 113 236t297 91q176 0 280 -94v53q0 215 -249 215q-184 0 -389 -102v215q184 92 409 92q223 0 342 -114.5t119 -305.5v-614h-232v86q-102 -96 -280 -96zM420 328q0 -123 225 -123q229 0 229 123t-229 123q-225 0 -225 -123z M492 1434h307v-246h-307v246z" glyph-name="uni0227" unicode="ȧ"/><glyph d="M215 0v1434h850v-226h-614v-348h563v-225h-563v-399h624v-236h-327v-82q86 0 150.5 -58.5t64.5 -146.5q0 -225 -318 -225q-113 0 -194 41v205q82 -41 194 -41q92 0 92 51t-92 51h-102v205h-328z" glyph-name="uni0228" unicode="Ȩ"/><glyph d="M164 512q0 252 143.5 387t337.5 135q190 0 335.5 -141t145.5 -381v-86h-720q25 -201 280 -201q174 0 379 103v-236q-164 -80 -317 -96v-78q86 0 150.5 -58.5t64.5 -146.5q0 -225 -318 -225q-113 0 -194 41v205q82 -41 194 -41q92 0 92 51t-92 51h-102v205 q-162 33 -270.5 164t-108.5 348zM406 618h479q-18 90 -80 140.5t-160 50.5q-100 0 -164.5 -51.5t-74.5 -139.5z" glyph-name="uni0229" unicode="ȩ"/><glyph d="M645 -10q-125 0 -220 43t-153.5 111.5t-95.5 167t-50 195.5t-13 209.5t13 210t50 196t95.5 167t153.5 111.5t220 43t220.5 -43t153.5 -111.5t95 -167t50.5 -196t13.5 -210t-13.5 -209.5t-50.5 -195.5t-95 -167t-153.5 -111.5t-220.5 -43zM354 717q0 -485 291 -485.5 t291 485.5q0 492 -291 492t-291 -492zM492 1843h307v-246h-307v246z" glyph-name="uni022E" unicode="Ȯ"/><glyph d="M645 -10q-217 0 -359.5 146.5t-142.5 375.5t142.5 375.5t359.5 146.5t359.5 -146.5t142.5 -375.5t-142.5 -375.5t-359.5 -146.5zM379 512q0 -147 79 -217t187.5 -70t187 70t78.5 217q0 150 -79.5 223.5t-186 73.5t-186.5 -73.5t-80 -223.5zM492 1188v246h307v-246h-307z " glyph-name="uni022F" unicode="ȯ"/><glyph d="M528 614q-276 471 -415 820h256q104 -260 276 -574q172 313 277 574h256q-137 -342 -414 -820v-614h-236v614zM1014 1597h-738v226h738v-226z" glyph-name="uni0232" unicode="Ȳ"/><glyph d="M133 -184q41 -43 116 -73t134 -30q76 0 111.5 29t60.5 108l47 154q-240 446 -387 1020h246q82 -367 231 -725l223 725h242l-399 -1278q-37 -119 -128 -188.5t-222 -69.5q-76 0 -154 28.5t-121 73.5v226zM1014 1188h-738v225h738v-225z" glyph-name="uni0233" unicode="ȳ"/><glyph d="M102 -184q197 -102 379 -103q135 0 201 62.5t66 173.5v860h-410v215h641v-1075q0 -211 -118 -336t-359 -125q-203 0 -400 102v226z" glyph-name="uni0237" unicode="ȷ"/><glyph d="M276 1188q102 190 246 348h246q143 -158 246 -348h-266q-39 115 -103 194q-63 -80 -102 -194h-267z" glyph-name="circumflex" unicode="ˆ"/><glyph d="M522 1188q-127 139 -246 348h267q39 -115 102 -195q63 80 103 195h266q-119 -209 -246 -348h-246z" glyph-name="caron" unicode="ˇ"/><glyph d="M307 1536h225q0 -51 27 -87t86 -36q57 0 85 36t28 87h225q0 -156 -90 -252t-248 -96t-248 96t-90 252z" glyph-name="breve" unicode="˘"/><glyph d="M799 1188h-307v246h307v-246z" glyph-name="dotaccent" unicode="˙"/><glyph d="M645 1188q-135 0 -226 87t-91 230.5t91 230.5t226 87t226.5 -87t91.5 -230.5t-91.5 -230.5t-226.5 -87zM645 1618q-47 0 -80 -31t-33 -82q0 -53 32 -82.5t81 -29.5q47 0 80 30.5t33 81.5q0 53 -32 83t-81 30z" glyph-name="ring" unicode="˚"/><glyph d="M348 -287q0 88 50.5 150.5t164.5 136.5h225q-113 -84 -164 -134t-51 -91q0 -61 113 -62q92 0 174 41v-225q-123 -41 -235 -41q-119 0 -198 60.5t-79 164.5z" glyph-name="ogonek" unicode="˛"/><glyph d="M471 1198h-205q0 170 58.5 254t156.5 84q53 0 108.5 -33t99.5 -66.5t69 -33.5q33 0 47 24.5t14 98.5h205q0 -166 -56.5 -252t-158.5 -86q-53 0 -108.5 32.5t-99.5 66.5t-69 34q-33 0 -47 -24.5t-14 -98.5z" glyph-name="tilde" unicode="˜"/><glyph d="M907 1188h-225q0 195 31 348h286q-63 -158 -92 -348zM518 1188h-225q0 195 31 348h286q-63 -158 -92 -348z" glyph-name="hungarumlaut" unicode="˝"/><glyph d="M205 1024h231v-512q0 -297 199 -297q90 0 154.5 70.5t64.5 226.5v512h231v-1024h-231v150q-90 -160 -270 -160q-92 0 -148 55v-557h-231v1536z" glyph-name="mu" unicode="μ"/><glyph d="M133 1434h236q0 -666 28 -1051q72 285 135 641h205q72 -352 156 -651q29 389 29 1061h235q0 -406 -13.5 -700t-58.5 -734h-276q-113 362 -168 588q-59 -262 -160 -588h-276q-45 440 -58.5 734t-13.5 700zM522 1597q-72 158 -205 349h328q86 -184 123 -349h-246z" glyph-name="Wgrave" unicode="Ẁ"/><glyph d="M322 0q-164 522 -209 1024h235q37 -426 98 -705q51 178 115 459h170q72 -315 115 -463q74 319 96 709h236q-45 -502 -209 -1024h-211q-80 242 -115 385q-39 -154 -111 -385h-210zM522 1188q-72 158 -205 348h328q86 -184 123 -348h-246z" glyph-name="wgrave" unicode="ẁ"/><glyph d="M133 1434h236q0 -666 28 -1051q72 285 135 641h205q72 -352 156 -651q29 389 29 1061h235q0 -406 -13.5 -700t-58.5 -734h-276q-113 362 -168 588q-59 -262 -160 -588h-276q-45 440 -58.5 734t-13.5 700zM768 1597h-246q37 164 123 349h328q-133 -191 -205 -349z" glyph-name="Wacute" unicode="Ẃ"/><glyph d="M113 1024h235q37 -426 98 -705q51 178 115 459h170q72 -315 115 -463q74 319 96 709h236q-45 -502 -209 -1024h-211q-80 242 -115 385q-39 -154 -111 -385h-210q-164 522 -209 1024zM522 1188q37 164 123 348h328q-133 -190 -205 -348h-246z" glyph-name="wacute" unicode="ẃ"/><glyph d="M133 1434h236q0 -666 28 -1051q72 285 135 641h205q72 -352 156 -651q29 389 29 1061h235q0 -406 -13.5 -700t-58.5 -734h-276q-113 362 -168 588q-59 -262 -160 -588h-276q-45 440 -58.5 734t-13.5 700zM1024 1597h-307v246h307v-246zM266 1597v246h307v-246h-307z" glyph-name="Wdieresis" unicode="Ẅ"/><glyph d="M322 0q-164 522 -209 1024h235q37 -426 98 -705q51 178 115 459h170q72 -315 115 -463q74 319 96 709h236q-45 -502 -209 -1024h-211q-80 242 -115 385q-39 -154 -111 -385h-210zM717 1434h307v-246h-307v246zM266 1434h307v-246h-307v246z" glyph-name="wdieresis" unicode="ẅ"/><glyph d="M164 543v215h962v-215h-962z" glyph-name="endash" unicode="–"/><glyph d="M92 543v215h1106v-215h-1106z" glyph-name="emdash" unicode="—"/><glyph d="M768 922h-328q0 147 49.5 323t114.5 291h246q-82 -301 -82 -614z" glyph-name="quoteleft" unicode="‘"/><glyph d="M686 922h-246q82 301 82 614h328q0 -147 -49 -323t-115 -291z" glyph-name="quoteright" unicode="’"/><glyph d="M686 -246h-246q82 301 82 615h328q0 -147 -49 -323.5t-115 -291.5z" glyph-name="quotesinglbase" unicode="‚"/><glyph d="M676 922q0 147 49 323t115 291h245q-82 -301 -81 -614h-328zM205 922q0 147 49 323t115 291h245q-82 -301 -82 -614h-327z" glyph-name="quotedblleft" unicode="“"/><glyph d="M922 922h-246q82 301 82 614h327q0 -147 -48.5 -323t-114.5 -291zM451 922h-246q82 301 82 614h327q0 -147 -48.5 -323t-114.5 -291z" glyph-name="quotedblright" unicode="”"/><glyph d="M922 -246h-246q82 301 82 615h327q0 -147 -48.5 -323.5t-114.5 -291.5zM451 -246h-246q82 301 82 615h327q0 -147 -48.5 -323.5t-114.5 -291.5z" glyph-name="quotedblbase" unicode="„"/><glyph d="M748 1239h307v-215h-307q-4 -758 -19 -1280h-174q-18 596 -23 1280h-296v215h296v297h216v-297z" glyph-name="dagger" unicode="†"/><glyph d="M195 635v205h340q-2 59 -3 184h-337v205h337v307h216v-307h348v-205h-348v-184h348v-205h-351q-2 -291 -16 -891h-174q-14 487 -20 891h-340z" glyph-name="daggerdbl" unicode="‡"/><glyph d="M389 614.5q0 110.5 71.5 188.5t184.5 78t184.5 -78t71.5 -188.5t-71.5 -188.5t-184.5 -78t-184.5 78t-71.5 188.5z" glyph-name="bullet" unicode="•"/><glyph d="M799 1065l155 -158l-278 -258l278 -262l-155 -156l-420 418z" glyph-name="guilsinglleft" unicode="‹"/><glyph d="M543 1065l409 -416l-409 -418l-164 156l276 262l-276 258z" glyph-name="guilsinglright" unicode="›"/><glyph d="M451 471h368v-215h-368v-256h-236v256h-215v215h215v963h860v-226h-624v-348h583v-225h-583v-164z" glyph-name="franc" unicode="₣"/><glyph d="M195 0v215q82 23 138 85t56 120h-194v215h194v143h-194v215h194v11q0 209 93 324.5t286 115.5q88 0 173 -31t134 -72v-225q-137 102 -276 103q-94 0 -136 -47.5t-42 -167.5v-11h393v-215h-393v-143h393v-215h-393q0 -59 -30 -115.5t-73 -89.5h557v-215h-880z" glyph-name="lira" unicode="₤"/><glyph d="M113 778v215h184q47 201 169 326t333 125t358 -123v-256q-154 143 -358 143q-186 0 -256 -215h389v-215h-422q-2 -20 -2 -61q0 -53 2 -82h422v-215h-381q68 -188 248 -189q227 0 379 127v-266q-170 -102 -379 -102q-207 0 -328 118.5t-170 311.5h-188v215h155 q-2 27 -2 82q0 41 2 61h-155z" glyph-name="Euro" unicode="€"/><glyph d="M614 1434h226q41 -119 61 -271q20 152 62 271h225v-717h-164v536q-33 -135 -61 -331h-123q-29 197 -62 331v-536h-164v717zM215 1270h-154v164h471v-164h-153v-553h-164v553z" glyph-name="trademark" unicode="™"/><glyph d="M164 512q0 246 142.5 384t359.5 138q188 0 324 -140t136 -382v-86h-665v-119q74 -102 225 -102q84 0 159 24.5t210 87.5v-225q-219 -102 -369 -102q-219 0 -370.5 139t-151.5 383zM461 739v-125h368v119q-29 47 -81 71.5t-103 24.5q-49 0 -102 -23.5t-82 -66.5z" glyph-name="estimated" unicode="℮"/><glyph d="M82 758q242 225 369 389h297q-154 -182 -369 -359h829v-215h-829q209 -170 369 -358h-297q-127 164 -369 389v154z" glyph-name="arrowleft" unicode="←"/><glyph d="M539 963q-61 -76 -134 -149t-111 -105.5t-134 -114.5v297q201 154 399 369h174q201 -215 400 -369v-297q-96 82 -134 114.5t-111 105.5t-134 149v-830h-215v830z" glyph-name="arrowup" unicode="↑"/><glyph d="M911 573h-829v215h829q-215 176 -368 359h297q127 -164 368 -389v-154q-242 -225 -368 -389h-297q159 188 368 358z" glyph-name="arrowright" unicode="→"/><glyph d="M160 502v297q96 -82 134 -115t110.5 -105.5t134.5 -148.5v830h215v-830q61 76 134 148.5t110.5 105.5t134.5 115v-297q-199 -154 -400 -369h-174q-198 215 -399 369z" glyph-name="arrowdown" unicode="↓"/><glyph d="M635 1024h-574v215h789v-809q61 76 134 148.5t111 105.5t134 115v-297q-201 -154 -400 -369h-174q-201 215 -399 369v297q90 -76 133 -114t113.5 -108.5t132.5 -146.5v594z" glyph-name="uni21B4" unicode="↴"/><glyph d="M61 573v175q215 199 369 399h297q-76 -90 -114 -133t-108.5 -114t-146.5 -132h656v666h215v-881h-871q76 -61 149 -134t105.5 -111t114.5 -134h-297q-154 198 -369 399z" glyph-name="carriagereturn" unicode="↵"/><glyph d="M113 1434h245q37 -244 86 -471h402q49 227 86 471h246q-127 -791 -375 -1434h-318q-247 648 -372 1434zM793 737h-295q66 -268 147 -514q93 285 148 514z" glyph-name="universal" unicode="∀"/><glyph d="M1075 0h-860v236h625v399h-574v225h574v348h-615v226l850 2v-1436z" glyph-name="existential" unicode="∃"/><glyph d="M256 543v215h819v-215h-819z" glyph-name="minus" unicode="−"/><glyph d="M481 625q-223 104 -235 112l102 174q86 -49 215 -143q-20 160 -20 256h200q0 -61 -20 -256q111 84 219 143l102 -174q-74 -43 -235 -112q121 -49 235 -113l-102 -174q-131 78 -219 143q20 -164 20 -256h-200q0 100 20 256q-100 -76 -215 -143l-102 174q118 68 235 113z " glyph-name="asteriskmath" unicode="∗"/><glyph d="M195 655v205l901 389v-245l-625 -246l625 -246v-246zM195 0v215h901v-215h-901z" glyph-name="lessequal" unicode="≤"/><glyph d="M195 1249l901 -389v-205l-901 -389v246l624 246l-624 246v245zM195 215h901v-215h-901v215z" glyph-name="greaterequal" unicode="≥"/><glyph d="M82 717q0 248 159.5 415.5t403.5 167.5t403.5 -167.5t159.5 -415.5t-159.5 -416t-403.5 -168t-403.5 168t-159.5 416zM246 716.5q0 -186.5 108.5 -303t290.5 -116.5t290.5 116.5t108.5 303t-108.5 303.5t-290.5 117t-290.5 -117t-108.5 -303.5zM645.5 727 q110.5 0 183 -72.5t72.5 -193.5h-143q0 49 -31 86t-82 37t-82 -37t-31 -86h-143q0 121 73 193.5t183.5 72.5zM778.5 973q30.5 0 51 -23.5t20.5 -62.5t-20.5 -63.5t-51 -24.5t-51 24.5t-20.5 63.5t20.5 62.5t51 23.5zM440 887q0 39 20.5 62.5t51.5 23.5t51.5 -23.5 t20.5 -62.5t-20.5 -63.5t-51.5 -24.5t-51.5 24.5t-20.5 63.5z" glyph-name="uni2369" unicode="⍩"/><glyph d="M113 706.5q0 237.5 150.5 390t382 152.5t382 -152.5t150.5 -390t-150.5 -390t-382 -152.5t-382 152.5t-150.5 390zM645 1085q-369 0 -369 -378.5t369 -378.5t369 378.5t-369 378.5zM451 983h211q98 0 153 -58.5t55 -138.5q0 -78 -55 -132t-153 -54h-58v-170h-153v553z M647 852h-43v-129h43q33 0 51.5 18.5t18.5 45t-18.5 46t-51.5 19.5z" glyph-name="uni24C5" unicode="Ⓟ"/><glyph d="M215 1434h328l41 -328l82 82l286 -164l123 -307l-82 -144l82 -317v-256h-655l-205 1024v410zM358 1290v-266l205 -850h328l-103 604l-40 162h-62l-10 -162v-237h-82l-41 237l-113 246l-20 266h-62z" glyph-name="uni261D" unicode="☝"/><glyph d="M1075 0h-327l-41 328l-82 -82l-287 164l-123 307l82 143l-82 318v256h655l205 -1024v-410zM911 143v267l-204 850h-328l102 -605l41 -161h62l10 161v238h82l41 -238l112 -245l21 -267h61z" glyph-name="uni261F" unicode="☟"/><glyph d="M82 717q0 248 159.5 415.5t403.5 167.5t403.5 -167.5t159.5 -415.5t-159.5 -416t-403.5 -168t-403.5 168t-159.5 416zM246 716.5q0 -186.5 108.5 -303t290.5 -116.5t290.5 116.5t108.5 303t-108.5 303.5t-290.5 117t-290.5 -117t-108.5 -303.5zM645 399q-133 0 -215 94.5 t-82 223.5h144q0 -76 45 -125t108.5 -49t108.5 49t45 125h143q0 -129 -82 -223.5t-215 -94.5zM778.5 973q30.5 0 51 -23.5t20.5 -62.5t-20.5 -63.5t-51 -24.5t-51 24.5t-20.5 63.5t20.5 62.5t51 23.5zM440 887q0 39 20.5 62.5t51.5 23.5t51.5 -23.5t20.5 -62.5t-20.5 -63.5 t-51.5 -24.5t-51.5 24.5t-20.5 63.5z" glyph-name="smileface" unicode="☺"/><glyph d="M301 297h688l-344 698zM565 461h144v-123h-144v123zM709 778l-21 -266h-102l-21 266h144zM82 154l563 1126l563 -1126h-1126z" glyph-name="uni26A0" unicode="⚠"/><glyph d="M559 1434h512l-416 -451l441 -307l-738 -676h-163l409 614l-409 267z" glyph-name="uni26A1" unicode="⚡"/><glyph d="M215 0v276l102 297l-102 144l123 327h143l-41 390h635v-390l-205 -1044h-655zM522 860l-123 -665h328l205 849v246h-62l-20 -246l-113 -286l-41 -215h-82v215l-20 102h-72zM666 1290h-62l41 -348l62 102z" glyph-name="uni270C" unicode="✌"/><glyph d="M645 61q-186 0 -308 111t-122 340q0 63 15.5 132t50 143.5t62.5 130t83 135.5t77.5 111.5t81 108.5t60.5 79q2 -2 60.5 -79t81 -108.5t78 -111.5t83 -135.5t62 -130t50 -143.5t15.5 -132q0 -229 -122 -340t-308 -111z" glyph-name="u1F4A7" unicode="💧"/><glyph d="M82 717q0 248 159.5 415.5t403.5 167.5t403.5 -167.5t159.5 -415.5t-159.5 -416t-403.5 -168t-403.5 168t-159.5 416zM246 716.5q0 -186.5 108.5 -303t290.5 -116.5t290.5 116.5t108.5 303t-108.5 303.5t-290.5 117t-290.5 -117t-108.5 -303.5zM389 522v144h512v-144 h-512zM778.5 973q30.5 0 51 -23.5t20.5 -62.5t-20.5 -63.5t-51 -24.5t-51 24.5t-20.5 63.5t20.5 62.5t51 23.5zM512 973q31 0 51.5 -23.5t20.5 -62.5t-20.5 -63.5t-51.5 -24.5t-51.5 24.5t-20.5 63.5t20.5 62.5t51.5 23.5z" glyph-name="u1F610" unicode="😐"/><glyph d="M82 717q0 248 159.5 415.5t403.5 167.5t403.5 -167.5t159.5 -415.5t-159.5 -416t-403.5 -168t-403.5 168t-159.5 416zM885 369l-582 583q-57 -102 -57 -235q0 -186 108.5 -303t290.5 -117q140 0 240 72zM645 1137q-139 0 -239 -72l581 -582q57 102 57 234 q0 186 -108.5 303t-290.5 117z" glyph-name="u1F6AB" unicode="🚫"/></font>
</defs>
</svg>
