<svg xmlns="http://www.w3.org/2000/svg">
<defs>
<font horiz-adv-x="1126" id="ywftsvg"><font-face ascent="1638" bbox="-945 -891 2722 2188.2" cap-height="1319" descent="-410" font-family="" font-stretch="normal" font-weight="700" panose-1="2 11 0 3 5 4 1 2 5 4" underline-position="0" underline-thickness="0" unicode-range="U+0020-FFFD" units-per-em="2048" x-height="939"/><missing-glyph d="M1014 973q51 -171 51 -398q0 -58 -14 -118q-3 -9 -8 -1q-9 19 -21.5 35t-21.5 24l-10 7q2 -3 5 -9t11.5 -25t12 -36t5.5 -43.5t-7 -48.5q-17 -48 -58 -84q-7 -3 -7 4q-2 17 -7.5 30.5t-10.5 20.5l-6 5q0 -5 -0.5 -12.5t-8.5 -31.5t-19 -46t-36.5 -51t-59.5 -52 q-3 -2 -6.5 -4t-5.5 -2q-5 -3 -8.5 -1t-0.5 7q5 12 8 23t1 17v5q-5 -9 -15.5 -24.5t-50.5 -45t-88 -43.5q-48 14 -87 42t-54 50l-16 21q-5 -19 7 -45q2 -5 0 -7.5t-7 1.5q-3 2 -7.5 4t-5.5 2q-55 36 -85.5 84t-34.5 78l-5 31q-19 -19 -24 -56q0 -7 -7 -4q-41 34 -56 84 q-10 43 -4 78.5t18 59.5l13 24q-34 -26 -53 -66q-9 -10 -10 1q-14 60 -13 118q0 101 12.5 201t26.5 149l12 48q3 15 12 17q114 31 210 43l13 34q2 2 4 1q44 -15 61 -10q38 9 75 75q2 3 5 0q38 -67 75 -75q22 -5 62 10q3 0 3 -1l14 -34q68 -9 210 -43q9 -3 12 -17zM428 975 q-2 0 3.5 -26.5t10.5 -54.5l5 -27q41 39 96 39h3q15 0 27 -5q24 -7 40.5 -24t21.5 -30l3 -12q2 3 3.5 7.5t4.5 18t1 23.5q20 12 40 18t36 5t31.5 -4.5t25.5 -9.5t18.5 -11.5t13.5 -11.5l4 -3l15 111l-58 -44l-29 87l-58 -58l-56 100l-60 -97l-51 58l-31 -92zM364 823 q20 -2 30 -21q15 15 41 26q-5 10 -16 17.5t-20 11.5l-10 1l22 14q-56 14 -85 -39q-14 -29 -9.5 -53t16.5 -39l12 -14q3 17 15 36q9 15 9.5 29.5t-2.5 23.5zM916 727q5 5 11.5 14.5t15.5 38.5t-8 53q-14 24 -35 33.5t-36 7.5l-14 -2l22 -14q-34 -9 -46 -30q24 -10 43 -26 q5 9 11.5 14t12.5 7h5q-15 -24 3 -58zM829 561q9 0 17.5 -5t13.5 -10l4 -5q0 58 -40 82q2 7 4.5 17t1.5 39t-9.5 51.5t-36.5 43.5t-72 26l15 21q-63 7 -97 -46q-15 24 -40 35t-40 11h-18q15 -14 16 -21q-70 -9 -98 -53t-22 -85l7 -39q-17 -10 -27 -30.5t-12 -36.5v-15 q15 20 34 20q-3 -5 -7.5 -13.5t-8.5 -39t11 -61.5l20 -37q20 24 45 42q-19 31 -19 58q0 48 43 87q-24 -41 -19 -82q12 -39 32 -39q10 0 46 25.5t41 39.5q10 27 2 50q-12 10 -28 1
<glyph d="M1304 1234q-290 108 -290 -172v-123h264v-219h-264v-720h-251v720h-357v-720h-251v720h-104v219h104v75q0 166 75 273t183 138.5t226.5 12t208.5 -89.5q73 96 196 117.5t262 -31.5zM406 939h357v102q0 60 8 120q-72 70 -156 85t-146.5 -44t-62.5 -187v-76z" glyph-name="f_f.liga" horiz-adv-x="1348" unicode="ff"/><glyph d="M1613 939v-939h-256v720h-343v-720h-251v720h-357v-720h-251v720h-104v219h104v75q0 169 77 276.5t187 137t229.5 7.5t208.5 -94q79 87 216 112t274.5 -2.5t258.5 -86.5l-87 -203q-94 41 -181 59.5t-161 14.5t-118.5 -49.5t-44.5 -129.5v-117h599zM406 939h357v117 q0 49 8 105q-72 70 -156 85t-146.5 -44t-62.5 -187v-76z" glyph-name="f_f_i.liga" horiz-adv-x="1747" unicode="ffi"/><glyph d="M1804 213l37 -194q-123 -41 -216.5 -37t-149 77.5t-55.5 211.5v970q-125 34 -215.5 35.5t-140.5 -51.5t-50 -163v-123h257v-219h-257v-720h-251v720h-357v-720h-251v720h-104v219h104v75q0 133 49 230t126.5 142.5t169.5 57.5t183.5 -13t163.5 -79q184 215 822 49v-1101 q0 -63 33.5 -82.5t101.5 -4.5zM406 939h357v140q0 44 5 85q-72 68 -155.5 82t-145 -45t-61.5 -186v-76z" glyph-name="f_f_l.liga" horiz-adv-x="1920" unicode="ffl"/><glyph d="M1014 973q51 -171 51 -398q0 -58 -14 -118q-3 -9 -8 -1q-9 19 -21.5 35t-21.5 24l-10 7q2 -3 5 -9t11.5 -25t12 -36t5.5 -43.5t-7 -48.5q-17 -48 -58 -84q-7 -3 -7 4q-2 17 -7.5 30.5t-10.5 20.5l-6 5q0 -5 -0.5 -12.5t-8.5 -31.5t-19 -46t-36.5 -51t-59.5 -52 q-3 -2 -6.5 -4t-5.5 -2q-5 -3 -8.5 -1t-0.5 7q5 12 8 23t1 17v5q-5 -9 -15.5 -24.5t-50.5 -45t-88 -43.5q-48 14 -87 42t-54 50l-16 21q-5 -19 7 -45q2 -5 0 -7.5t-7 1.5q-3 2 -7.5 4t-5.5 2q-55 36 -85.5 84t-34.5 78l-5 31q-19 -19 -24 -56q0 -7 -7 -4q-41 34 -56 84 q-10 43 -4 78.5t18 59.5l13 24q-34 -26 -53 -66q-9 -10 -10 1q-14 60 -13 118q0 101 12.5 201t26.5 149l12 48q3 15 12 17q114 31 210 43l13 34q2 2 4 1q44 -15 61 -10q38 9 75 75q2 3 5 0q38 -67 75 -75q22 -5 62 10q3 0 3 -1l14 -34q68 -9 210 -43q9 -3 12 -17zM428 975 q-2 0 3.5 -26.5t10.5 -54.5l5 -27q41 39 96 39h3q15 0 27 -5q24 -7 40.5 -24t21.5 -30l3 -12q2 3 3.5 7.5t4.5 18t1 23.5q20 12 40 18t36 5t31.5 -4.5t25.5 -9.5t18.5 -11.5t13.5 -11.5l4 -3l15 111l-58 -44l-29 87l-58 -58l-56 100l-60 -97l-51 58l-31 -92zM364 823 q20 -2 30 -21q15 15 41 26q-5 10 -16 17.5t-20 11.5l-10 1l22 14q-56 14 -85 -39q-14 -29 -9.5 -53t16.5 -39l12 -14q3 17 15 36q9 15 9.5 29.5t-2.5 23.5zM916 727q5 5 11.5 14.5t15.5 38.5t-8 53q-14 24 -35 33.5t-36 7.5l-14 -2l22 -14q-34 -9 -46 -30q24 -10 43 -26 q5 9 11.5 14t12.5 7h5q-15 -24 3 -58zM829 561q9 0 17.5 -5t13.5 -10l4 -5q0 58 -40 82q2 7 4.5 17t1.5 39t-9.5 51.5t-36.5 43.5t-72 26l15 21q-63 7 -97 -46q-15 24 -40 35t-40 11h-18q15 -14 16 -21q-70 -9 -98 -53t-22 -85l7 -39q-17 -10 -27 -30.5t-12 -36.5v-15 q15 20 34 20q-3 -5 -7.5 -13.5t-8.5 -39t11 -61.5l20 -37q20 24 45 42q-19 31 -19 58q0 48 43 87q-24 -41 -19 -82q12 -39 32 -39q10 0 46 25.5t41 39.5q10 27 2 50q-12 10 -28 17.5t-27 9.5l-10 3q7 20 22 29q7 3 28.5 -2.5t28.5 -5.5t28 6t28 2.5t12 -11.5t7 -13l2 -5 q-39 -7 -64 -30q-3 -5 -2 -21.5t6 -28.5q3 -14 39 -39.5t48 -25.5q7 0 17 13t14 26q5 41 -19 82q41 -38 41 -87q0 -12 -4.5 -26.5t-7.5 -22.5l-5 -9l44 -42q10 14 19 37q12 36 12 61.5t-9 39.5zM493 707l-25 15q60 -3 93 -15q-3 -17 -13 -36t-19 -29l-7 -12l4 30h-11 q-12 0 -21 9t-9.5 19t8.5 19zM737 630q-27 32 -37 77q15 5 38 9t40 4l16 2l-24 -14q5 -10 5 -17q0 -29 -31 -29q-2 0 -5 1t-5 1zM688 369q14 12 22.5 29t9.5 27v10q-17 24 -47.5 48t-42.5 24t-43 -24t-46 -48q-5 -39 27 -60v14q31 -24 62 -24q14 0 34 7q22 10 22 27 q3 -7 4 -14.5t-1 -12.5z" glyph-name=".notdef" horiz-adv-x="1271"/><glyph glyph-name="glyph1" horiz-adv-x="0"/><glyph glyph-name="glyph2" horiz-adv-x="682"/><glyph glyph-name="space" horiz-adv-x="482" unicode=" "/><glyph d="M367 391h-152l-39 643l-17 434h263l-12 -434zM288 212q49 0 81 -34.5t32 -87.5q0 -49 -31.5 -85t-81.5 -36q-51 0 -82.5 35t-31.5 86q0 55 30.5 88.5t83.5 33.5z" glyph-name="exclam" horiz-adv-x="576" unicode="!"/><glyph d="M230 1056h-138l-41 412h215zM529 1056h-138l-41 412h215z" glyph-name="quotedbl" horiz-adv-x="617" unicode="&quot;"/><glyph d="M1123 696h-188l-58 -245h171v-169h-212l-66 -282h-185l67 282h-251l-66 -282h-185l67 282h-138v169h179l58 247h-164v171h205l68 292h183l-69 -292h251l68 292h186l-68 -292h147v-173zM691 451l58 245l-251 2l-58 -247h251z" glyph-name="numbersign" horiz-adv-x="1201" unicode="#"/><glyph d="M862 391q0 -113 -81 -189t-209 -91l10 -111h-157l12 113q-171 27 -302 169l126 143q53 -63 123 -99t131 -36q56 0 95 25.5t39 61.5q0 46 -48 78.5t-116.5 56.5t-136.5 54t-116 87t-48 141q0 97 73.5 164.5t196.5 84.5l-12 118h157l-10 -118q148 -19 252 -121l-131 -137 q-31 36 -87 62.5t-108 26.5q-53 0 -82.5 -25.5t-29.5 -56.5q0 -34 34 -61.5t85 -43.5t110 -41t110.5 -53t85.5 -80t34 -122z" glyph-name="dollar" horiz-adv-x="1010" unicode="$"/><glyph d="M466 -20l-155 87l682 1160l154 -89zM373.5 1193q124.5 0 206.5 -73.5t82 -194.5q0 -102 -72.5 -183.5t-215.5 -81.5q-125 0 -204.5 72t-79.5 193t79.5 194.5t204 73.5zM373.5 1031q-42.5 0 -65.5 -31t-23 -75q0 -43 23 -72.5t65.5 -29.5t66 30.5t23.5 71.5q0 44 -23.5 75 t-66 31zM1076.5 519q124.5 0 206 -74.5t81.5 -195.5q0 -102 -72 -182.5t-215 -80.5q-125 0 -204 71t-79 192q0 123 79 196.5t203.5 73.5zM1077 355q-41 0 -64 -31.5t-23 -74.5q0 -41 23 -71t64 -30q43 0 66.5 30t23.5 71q0 43 -23.5 74.5t-66.5 31.5z" glyph-name="percent" horiz-adv-x="1450" unicode="%"/><glyph d="M1210 137l-169 -166l-154 167q-177 -166 -394 -165q-174 0 -291.5 113.5t-117.5 282.5q0 119 58 204.5t181 182.5q-77 84 -112 151.5t-35 150.5q0 123 103 209t236 86q150 0 242.5 -93t92.5 -209q-2 -102 -53 -172t-143 -138l211 -229q51 116 82 258l231 -55 q-36 -208 -144 -387zM515 1164q-49 0 -79 -30t-30 -76q0 -22 7 -41.5t23 -41t24 -31t32 -29.5l23 -22q109 82 110 158q0 49 -31 81t-79 32zM515 210q119 0 217 97l-263 289q-131 -118 -129 -227q0 -60 48 -109.5t127 -49.5z" glyph-name="ampersand" horiz-adv-x="1280" unicode="&amp;"/><glyph d="M230 1056h-138l-41 412h215z" glyph-name="quotesingle" horiz-adv-x="315" unicode="'"/><glyph d="M623 1391q-292 -312 -292 -811q0 -488 289 -797l-142 -100q-384 387 -384 904q0 521 387 905z" glyph-name="parenleft" horiz-adv-x="713" unicode="("/><glyph d="M80 1391l140 101q389 -386 389 -905q0 -515 -385 -904l-142 100q288 309 288 797q0 500 -290 811z" glyph-name="parenright" horiz-adv-x="679" unicode=")"/><glyph d="M177 812l164 174l-216 55l68 172l186 -100l-29 223h193l-28 -223l186 100l69 -172l-219 -55l164 -174l-150 -109l-118 196l-119 -196z" glyph-name="asterisk" horiz-adv-x="892" unicode="*"/><glyph d="M980 645v-222h-302v-326h-241v326h-299v222h299v309h241v-309h302z" glyph-name="plus" horiz-adv-x="1119" unicode="+"/><glyph d="M213 283q79 -2 121.5 -56.5t37.5 -142.5q-10 -232 -218 -391q-51 58 -67 70q159 128 145 211q-19 -3 -29 -3q-63 3 -104 51t-38 118q3 63 43.5 104t108.5 39z" glyph-name="comma" horiz-adv-x="443" unicode=","/><glyph d="M729 604v-218h-608v218h608z" glyph-name="hyphen" horiz-adv-x="855" unicode="-"/><glyph d="M227 294q67 0 108.5 -44.5t41.5 -114.5q0 -67 -41.5 -114.5t-108.5 -47.5t-108.5 45t-41.5 117t41 115.5t109 43.5z" glyph-name="period" horiz-adv-x="452" unicode="."/><glyph d="M386 -142h-249l595 1429h248z" glyph-name="slash" horiz-adv-x="1104" unicode="/"/><glyph d="M623 -24q-234 0 -369 172.5t-135 435.5t136 434.5t370 171.5q232 0 367.5 -170t135.5 -434.5t-135.5 -437t-369.5 -172.5zM625 975q-70 0 -122 -38t-78 -100t-37 -124.5t-11 -128.5q0 -94 19.5 -177t77.5 -148.5t149 -65.5q123 0 186 109t63 277q0 70 -12 134.5 t-38.5 126t-76.5 98.5t-120 37z" glyph-name="zero" horiz-adv-x="1245" unicode="0"/><glyph d="M474 1161h164v-1161h-264v911l-210 -75l-72 210z" glyph-name="one" horiz-adv-x="839" unicode="1"/><glyph d="M492 222l469 17v-239h-831v208l372 311q99 85 146.5 151t47.5 139q0 85 -62 124.5t-132 39.5q-138 0 -239 -154l-169 156q157 215 427 215q184 0 304 -96t120 -263q0 -140 -76.5 -251t-197.5 -211z" glyph-name="two" horiz-adv-x="1095" unicode="2"/><glyph d="M597 674q155 -20 244 -112.5t89 -220.5q0 -70 -24 -132t-74 -116t-141.5 -85.5t-214.5 -31.5q-130 0 -232 48t-148 113l169 146q65 -104 211 -104q89 0 142.5 51.5t53.5 122.5q0 73 -56 119.5t-140 46.5q-26 0 -52 -2.5t-52.5 -6t-36.5 -5.5l-43 166l329 264l-474 -19 v245h744v-214z" glyph-name="three" horiz-adv-x="1056" unicode="3"/><glyph d="M1021 471v-220h-151v-251h-235v251h-500l-51 220l551 690h235v-690h151zM340 471h295v374z" glyph-name="four" horiz-adv-x="1114" unicode="4"/><glyph d="M546 739q176 0 293 -96.5t117 -270.5q0 -167 -107.5 -281.5t-324.5 -114.5q-268 0 -423 193l145 152q109 -138 261 -138q97 0 147.5 52.5t50.5 133.5q0 82 -47 136.5t-136 54.5q-82 0 -148 -58l-190 118l48 541h640v-245l-435 21l-21 -215q69 17 130 17z" glyph-name="five" horiz-adv-x="1076" unicode="5"/><glyph d="M649 763q157 0 266 -105t109 -279q0 -164 -111 -281.5t-319 -117.5q-130 0 -226.5 54.5t-148.5 144t-76 187.5t-24 202q0 166 50.5 303.5t163 228.5t273.5 91q218 0 362 -123l-120 -162q-109 82 -227 82q-215 0 -244 -336q103 111 272 111zM589 179q82 0 130.5 54.5 t48.5 147.5q0 96 -48.5 155.5t-123.5 59.5q-61 0 -123 -34.5t-98 -92.5q14 -155 73 -222.5t141 -67.5z" glyph-name="six" horiz-adv-x="1148" unicode="6"/><glyph d="M87 1161h806v-221l-432 -940h-280l457 930l-551 -22v253z" glyph-name="seven" horiz-adv-x="996" unicode="7"/><glyph d="M785 606q201 -84 201 -278q0 -145 -115 -248.5t-323 -103.5q-196 0 -319 95t-123 252q0 196 194 283q-166 84 -165 256q0 147 113.5 237.5t294.5 90.5t296 -90.5t115 -230.5q0 -179 -169 -263zM544 1000q-80 0 -126 -45t-46 -111.5t46 -112t126 -45.5q79 0 126 45.5 t47 112t-47 111.5t-126 45zM544 188q87 0 138.5 45t51.5 110q0 67 -51.5 112t-138.5 45t-136.5 -45t-49.5 -112q0 -65 50.5 -110t135.5 -45z" glyph-name="eight" horiz-adv-x="1093" unicode="8"/><glyph d="M548 1191q130 0 227 -54.5t149 -144t76 -187t24 -203.5q0 -121 -30 -230t-88 -198.5t-153.5 -141.5t-216.5 -52q-118 0 -212 37.5t-148 84.5l119 163q109 -82 226 -82q217 0 245 336q-104 -109 -271 -109q-157 0 -266.5 104t-109.5 280q0 162 110.5 279.5t318.5 117.5z M548 577q61 0 122.5 34t97.5 92q-12 154 -70 221.5t-141.5 67.5t-135.5 -55t-52 -147q0 -97 49.5 -155t129.5 -58z" glyph-name="nine" horiz-adv-x="1134" unicode="9"/><glyph d="M229 819q67 0 108.5 -43.5t41.5 -115.5q0 -67 -42 -113.5t-110 -46.5q-67 0 -107 45.5t-40 114.5q0 73 39.5 116t109.5 43zM229 294q67 0 108.5 -45.5t41.5 -115.5q0 -65 -42 -112.5t-110 -47.5q-67 0 -107 45t-40 115q0 73 39.5 117t109.5 44z" glyph-name="colon" horiz-adv-x="450" unicode=":"/><glyph d="M203 500q-67 0 -107 45.5t-40 114.5q0 73 39.5 116t109.5 43q67 0 108.5 -43.5t41.5 -115.5q0 -67 -42 -113.5t-110 -46.5zM224 288q77 -2 119.5 -56.5t38.5 -142.5q-10 -232 -218 -389q-46 53 -67 68q159 130 145 212l-29 -4q-63 3 -104 50t-39 119q3 63 44.5 104.5 t109.5 38.5z" glyph-name="semicolon" horiz-adv-x="453" unicode=";"/><glyph d="M843 713l-490 -189l490 -189l-89 -205l-602 266v256l602 266z" glyph-name="less" horiz-adv-x="964" unicode="&lt;"/><glyph d="M864 794v-200h-700v200h700zM864 445v-198h-700v198h700z" glyph-name="equal" horiz-adv-x="1030" unicode="="/><glyph d="M207 918l600 -266v-256l-600 -266l-89 205l490 189l-490 189z" glyph-name="greater" horiz-adv-x="964" unicode=">"/><glyph d="M567 1485q220 0 350.5 -125.5t130.5 -313.5q0 -174 -100 -287.5t-274 -150.5l-22 -193h-189l-47 363q189 0 282.5 73.5t93.5 194.5q0 101 -66.5 161.5t-158.5 60.5q-155 0 -273 -162l-198 128q60 104 184.5 177.5t286.5 73.5zM555 256q60 0 96.5 -38.5t36.5 -101.5 q0 -58 -37 -100.5t-96.5 -42.5t-96 41t-36.5 102q0 65 36 102.5t97 37.5z" glyph-name="question" horiz-adv-x="1155" unicode="?"/><glyph d="M712 1188q270 0 437 -170t167 -436q0 -137 -59 -214.5t-172 -77.5q-60 0 -113.5 31t-75.5 90q-72 -121 -230 -121q-123 0 -199 84.5t-76 214.5q0 131 74 215.5t201 84.5q155 0 227 -116l30 65h75v-348q0 -32 22.5 -53.5t58.5 -21.5q55 0 81 46t26 121q0 225 -133 351.5 t-341 126.5q-210 0 -343 -124.5t-133 -353.5q0 -227 133.5 -351.5t342.5 -124.5q155 0 268 71l68 -110q-147 -94 -336 -94q-283 0 -444.5 178t-161.5 431q0 265 165 435.5t441 170.5zM703 416q75 0 118 48t43 125q0 82 -42 129t-119 47q-75 0 -119.5 -48t-44.5 -128 q0 -77 44.5 -125t119.5 -48z" glyph-name="at" horiz-adv-x="1423" unicode="@"/><glyph d="M1113 0l-109 294h-574l-109 -294h-266l513 1319h296l517 -1319h-268zM517 531h398l-200 532z" glyph-name="A" horiz-adv-x="1437" unicode="A"/><glyph d="M997 710q90 -39 144.5 -130.5t54.5 -205.5q0 -164 -99.5 -269t-258.5 -105h-672v1319h617q148 0 240.5 -96.5t92.5 -249.5q0 -174 -119 -263zM749 1094h-338v-311h338q63 0 107.5 43t44.5 111q0 70 -44.5 113.5t-107.5 43.5zM800 225q70 0 121.5 50.5t51.5 123.5 q0 79 -52 126.5t-126 47.5h-384v-348h389z" glyph-name="B" horiz-adv-x="1297" unicode="B"/><glyph d="M1304 1094l-205 -147q-58 77 -143.5 124t-184.5 47q-189 0 -301 -129t-112 -328.5t112 -328.5t301 -129q99 0 184.5 47t141.5 124l207 -145q-90 -123 -229.5 -191.5t-303.5 -68.5q-292 0 -478.5 194.5t-186.5 497t185 496t480 193.5q164 0 303.5 -67.5t229.5 -188.5z" glyph-name="C" horiz-adv-x="1380" unicode="C"/><glyph d="M761 1319q276 0 448.5 -184t172.5 -476q0 -287 -173 -473t-448 -186h-595v1319h595zM761 234q166 0 262.5 119.5t96.5 305.5q0 188 -97.5 307t-261.5 119h-343v-851h343z" glyph-name="D" horiz-adv-x="1488" unicode="D"/><glyph d="M1055 1094h-645v-307l496 -2v-218h-496v-342h645v-225h-889v1319h889v-225z" glyph-name="E" horiz-adv-x="1177" unicode="E"/><glyph d="M1055 1085h-637v-337h487v-222h-487v-526h-252v1319h889v-234z" glyph-name="F" horiz-adv-x="1158" unicode="F"/><glyph d="M1263 720v-490q-85 -123 -221 -190t-298 -67q-280 0 -459 193.5t-179 497.5t176.5 496.5t459.5 192.5q164 0 299 -66.5t224 -189.5l-185 -152q-56 79 -146.5 127t-197.5 48q-174 0 -276 -128t-102 -328q0 -201 105 -329t290 -128q160 0 240 110v169h-240v234h510z" glyph-name="G" horiz-adv-x="1409" unicode="G"/><glyph d="M1041 1319h253v-1319h-253v543h-623v-543h-252v1319h252v-544h623v544z" glyph-name="H" horiz-adv-x="1459" unicode="H"/><glyph d="M418 0h-252v1319h252v-1319z" glyph-name="I" horiz-adv-x="580" unicode="I"/><glyph d="M84 193l172 136q53 -68 106.5 -103t127.5 -35q104 0 175.5 76t71.5 236v816h253v-845q0 -104 -25.5 -191.5t-80.5 -158.5t-150.5 -111t-223.5 -40q-143 0 -254.5 62t-171.5 158z" glyph-name="J" horiz-adv-x="1152" unicode="J"/><glyph d="M942 0l-459 543h-65v-543h-252v1318h252v-543h60l442 543h312l-565 -659l598 -659h-323z" glyph-name="K" horiz-adv-x="1297" unicode="K"/><glyph d="M418 234h637v-234h-889v1319h252v-1085z" glyph-name="L" horiz-adv-x="1155" unicode="L"/><glyph d="M1524 0h-249l-56 947l-299 -947h-196l-294 910l-56 -910h-253l86 1319h314l302 -962l302 962h314z" glyph-name="M" horiz-adv-x="1650" unicode="M"/><glyph d="M1137 1319h244v-1319h-244l-726 918v-918h-245v1319h245l726 -921v921z" glyph-name="N" horiz-adv-x="1546" unicode="N"/><glyph d="M749 1350q288 0 466 -192t178 -498q0 -304 -177 -497.5t-467 -193.5q-285 0 -464 194t-179 497.5t176.5 496.5t466.5 193zM749 1118q-184 0 -287.5 -128t-103.5 -329.5t103.5 -329.5t287.5 -128q186 0 289.5 127t103.5 330q0 205 -106 331.5t-287 126.5z" glyph-name="O" horiz-adv-x="1500" unicode="O"/><glyph d="M601 1318q280 0 420.5 -123t140.5 -340q0 -218 -141.5 -340t-419.5 -122h-183v-393h-252v1318h435zM601 630q304 0 304 228q0 118 -80.5 177t-223.5 59h-183v-464h183z" glyph-name="P" horiz-adv-x="1269" unicode="P"/><glyph d="M1393 660q0 -292 -164 -483l155 -177l-188 -166l-167 193q-126 -58 -278 -58q-287 0 -466 194t-179 497.5t176.5 496.5t468.5 193q287 0 464.5 -192.5t177.5 -497.5zM358 660.5q0 -201.5 104.5 -329.5t288.5 -128q183 0 287 128t104 329q0 203 -105 330.5t-286 127.5 q-186 0 -289.5 -128t-103.5 -329.5z" glyph-name="Q" horiz-adv-x="1500" unicode="Q"/><glyph d="M1232 0h-275l-240 445q-20 -2 -60 -1h-239v-444h-252v1319h510q543 0 543 -438q0 -302 -274 -396zM418 660h239q147 0 225.5 49t78.5 168.5t-72.5 169t-212.5 49.5h-258v-436z" glyph-name="R" horiz-adv-x="1295" unicode="R"/><glyph d="M84 217l186 160q154 -177 358 -177q104 0 171.5 44t67.5 118q0 61 -53 107t-131.5 72.5t-170.5 63.5t-170.5 78t-131.5 117t-53 178q0 171 131.5 273t348.5 102q280 0 457 -184l-176 -155q-142 123 -288 123q-96 0 -152 -43.5t-56 -103.5q0 -55 52 -96t131 -66.5 t170.5 -62t171 -78.5t131.5 -120.5t52 -184.5q0 -186 -146 -297.5t-361 -111.5q-159 0 -298.5 64t-240.5 180z" glyph-name="S" horiz-adv-x="1227" unicode="S"/><glyph d="M1138 1319v-232h-411v-1087h-249v1087h-411v232h1071z" glyph-name="T" horiz-adv-x="1208" unicode="T"/><glyph d="M1287 1319v-701q0 -649 -565 -649t-565 649v701h253v-670q0 -461 312 -461t312 461v670h253z" glyph-name="U" horiz-adv-x="1443" unicode="U"/><glyph d="M1289 1318l-463 -1318h-309l-462 1318h291l325 -1069l324 1069h294z" glyph-name="V" horiz-adv-x="1344" unicode="V"/><glyph d="M1399 1319h285l-308 -1319h-248l-256 911l-283 -911h-244l-282 1319h270l157 -897l300 897h174l273 -889z" glyph-name="W" horiz-adv-x="1749" unicode="W"/><glyph d="M55 0l408 655l-427 664h292l271 -447l259 447h294l-410 -664l425 -655h-293l-270 423l-258 -423h-291z" glyph-name="X" horiz-adv-x="1210" unicode="X"/><glyph d="M876 1319h286l-432 -812v-507h-264v517l-427 802h285l277 -614z" glyph-name="Y" horiz-adv-x="1204" unicode="Y"/><glyph d="M1222 1318v-142l-754 -952l754 13v-237h-1111v140l754 954l-754 -14v238h1111z" glyph-name="Z" horiz-adv-x="1324" unicode="Z"/><glyph d="M585 1405v-193h-213v-1256h213v-193h-426v1642h426z" glyph-name="bracketleft" horiz-adv-x="704" unicode="["/><glyph d="M1004 44l-234 -111l-732 1567l232 111z" glyph-name="backslash" horiz-adv-x="1082" unicode="\"/><glyph d="M108 1405h428v-1642h-428v193h216v1256h-216v193z" glyph-name="bracketright" horiz-adv-x="704" unicode="]"/><glyph d="M1010 737l-204 -88l-246 510l-248 -510l-206 88l326 582h254z" glyph-name="asciicircum" horiz-adv-x="1119" unicode="^"/><glyph d="M920 -68v-202h-852v202h852z" glyph-name="underscore" horiz-adv-x="989" unicode="_"/><glyph d="M539 1062l-401 126l74 188l367 -222z" glyph-name="grave" horiz-adv-x="798" unicode="`"/><glyph d="M816 939h239v-939h-190l-42 138q-97 -166 -311 -165q-201 0 -320.5 136.5t-119.5 358t119.5 360t315.5 138.5q205 0 309 -166v139zM568.5 195q112.5 0 178 75t65.5 199q0 123 -65.5 199t-178 76t-179 -76t-66.5 -199t66.5 -198.5t179 -75.5z" glyph-name="a" horiz-adv-x="1198" unicode="a"/><glyph d="M672 966q205 0 323 -137.5t118 -357.5t-118 -359t-317 -139q-210 0 -316 162l-46 -135h-188v1468h244v-640q104 138 300 138zM618 195q111 0 178.5 75.5t67.5 198.5t-67.5 199t-178.5 76t-178.5 -76t-67.5 -199t67.5 -198.5t178.5 -75.5z" glyph-name="b" horiz-adv-x="1186" unicode="b"/><glyph d="M75 468q0 229 137.5 363.5t360.5 134.5q270 0 413 -196l-177 -121q-80 102 -227 102q-121 0 -191 -78.5t-70 -204.5q0 -123 69 -201.5t189 -78.5q150 0 230 102l177 -121q-142 -196 -413 -196q-222 0 -360 134t-138 361z" glyph-name="c" horiz-adv-x="1039" unicode="c"/><glyph d="M812 1468h244v-1468h-186l-47 135q-106 -162 -316 -162q-200 0 -317.5 139t-117.5 359t117.5 357.5t322.5 137.5q196 0 300 -138v640zM567 195q111 0 178 75.5t67 198.5t-67 199t-178 76t-178.5 -76t-67.5 -199t67.5 -198.5t178.5 -75.5z" glyph-name="d" horiz-adv-x="1186" unicode="d"/><glyph d="M72 471q0 215 122 355t347 140q239 0 348 -153t68 -419h-622q15 -101 74 -161.5t161 -60.5q145 0 288 96l103 -172q-174 -123 -391 -123q-227 0 -362.5 136.5t-135.5 361.5zM335 544h409q3 96 -44.5 165t-153.5 69t-158.5 -72.5t-52.5 -161.5z" glyph-name="e" horiz-adv-x="1064" unicode="e"/><glyph d="M696 1234q-290 109 -290 -172v-123h266v-219h-266v-720h-244v720h-111v219h111v102q0 140 43.5 238t117 141.5t171 50.5t204.5 -37z" glyph-name="f" horiz-adv-x="742" unicode="f"/><glyph d="M864 939h198v-948q0 -104 -28.5 -191.5t-86.5 -159.5t-156 -112t-228 -40q-314 0 -462 220l179 137q113 -142 266 -142q109 0 187.5 78.5t78.5 235.5v133q-102 -131 -300 -131q-203 0 -321.5 131.5t-118.5 339.5q0 210 117.5 343t317.5 133q210 0 319 -157zM567 232 q111 0 178 70t67 186q0 114 -66.5 185t-178.5 71q-111 0 -178.5 -71.5t-67.5 -184.5t67.5 -184.5t178.5 -71.5z" glyph-name="g" horiz-adv-x="1186" unicode="g"/><glyph d="M674 964q154 0 247.5 -90.5t93.5 -296.5v-577h-257l1 536q0 96 -33 145t-110 49q-114 0 -232 -153v-577h-256v1449h256v-625q126 140 290 140zM266 643z" glyph-name="h" horiz-adv-x="1124" unicode="h"/><glyph d="M256 1469q61 0 100.5 -40.5t39.5 -107.5q0 -63 -38.5 -107.5t-101.5 -44.5q-61 0 -100.5 42.5t-39.5 109.5q0 68 38.5 108t101.5 40zM382 0h-247v939h247v-939z" glyph-name="i" horiz-adv-x="530" unicode="i"/><glyph d="M258 1468q63 0 101.5 -41t38.5 -108q0 -63 -38.5 -107.5t-101.5 -44.5q-61 0 -100.5 43t-39.5 109q0 68 38.5 108.5t101.5 40.5zM393 939v-959q0 -111 -27.5 -201t-78 -152t-105 -103t-126.5 -77l-111 184l11 5q10 5 27 17t36.5 29.5t41 43t37.5 56t27.5 72.5t11.5 88 v997h256z" glyph-name="j" horiz-adv-x="535" unicode="j"/><glyph d="M754 -2l-300 377h-73v-375h-253v1399h253v-790h78l258 330h321l-372 -449l423 -492h-335z" glyph-name="k" horiz-adv-x="1099" unicode="k"/><glyph d="M500 213l39 -194q-123 -41 -216.5 -37t-149 77.5t-55.5 211.5v1156h249v-1127q0 -63 32.5 -82.5t100.5 -4.5z" glyph-name="l" horiz-adv-x="616" unicode="l"/><glyph d="M1212 964q145 0 233.5 -90.5t88.5 -296.5v-577h-245l1 555q0 195 -133 194q-99 0 -203 -128q2 -15 2 -44v-577h-248l2 555q0 97 -30.5 145.5t-102.5 48.5q-96 0 -200 -126v-623h-256v939h200l37 -113q121 138 273 138q207 0 284 -165q128 165 297 165zM244 642z" glyph-name="m" horiz-adv-x="1650" unicode="m"/><glyph d="M669 964q152 0 246 -91t94 -296v-577h-258l2 536q0 96 -33.5 145t-110.5 49q-114 0 -232 -153v-577h-256v939h200l43 -130q131 155 305 155z" glyph-name="n" unicode="n"/><glyph d="M575 966q218 0 360 -137.5t142 -360.5q0 -94 -31 -181t-90.5 -158t-157.5 -113.5t-223 -42.5q-224 0 -363.5 134.5t-139.5 360t139.5 362t363.5 136.5zM575 748q-121 0 -184 -81.5t-63 -198.5q0 -114 63 -195.5t184 -81.5q118 0 182 81t64 196q0 116 -63.5 198t-182.5 82 z" glyph-name="o" horiz-adv-x="1150" unicode="o"/><glyph d="M674 966q200 0 317.5 -139t117.5 -359.5t-117.5 -357.5t-322.5 -137q-196 0 -300 138v-623h-244v1451h186l47 -135q106 162 316 162zM614 195q111 0 178.5 75.5t67.5 198.5t-67.5 199t-178.5 76t-178 -76t-67 -199t67 -198.5t178 -75.5z" glyph-name="p" horiz-adv-x="1181" unicode="p"/><glyph d="M869 939h187v-1451h-244v623q-104 -138 -300 -138q-205 0 -322.5 137t-117.5 357.5t117.5 359.5t317.5 139q210 0 316 -162zM567 195q111 0 178 75.5t67 198.5t-67 199t-178 76t-178.5 -76t-67.5 -199t67.5 -198.5t178.5 -75.5z" glyph-name="q" horiz-adv-x="1177" unicode="q"/><glyph d="M575 966q94 0 188 -55l-111 -228q-61 34 -114 34q-75 0 -120.5 -74.5t-52.5 -171.5v-471h-244v939h188l43 -128q80 155 223 155z" glyph-name="r" horiz-adv-x="795" unicode="r"/><glyph d="M478 -27q-119 0 -243 38t-179 90l103 181q48 -41 148.5 -77t182.5 -36q79 0 119.5 25.5t40.5 68.5q0 41 -41.5 66.5t-104 35.5t-136 29t-135.5 44.5t-104 84.5t-42 144q0 125 104 212t285 87q198 0 384 -113l-99 -172q-140 89 -285 89q-150 0 -150 -86q0 -41 42 -65.5 t105 -34t136.5 -29t136.5 -45t105 -86t42 -151.5q0 -133 -110 -216.5t-305 -83.5z" glyph-name="s" horiz-adv-x="964" unicode="s"/><glyph d="M433 386q0 -70 18 -116t46.5 -66t69.5 -24t77.5 3.5t82.5 23.5l-3 -200q-84 -29 -161.5 -34t-147 18.5t-120.5 74t-81 138.5t-30 204v331h-141v200h141v293h249v-293h243l-19 -200h-224v-353z" glyph-name="t" horiz-adv-x="774" unicode="t"/><glyph d="M748 939h256v-939h-200l-43 130q-131 -155 -304 -156q-154 0 -247.5 90.5t-93.5 297.5v577h258l-2 -507q0 -97 33.5 -146t109.5 -49q67 0 120 37.5t113 114.5v550z" glyph-name="u" unicode="u"/><glyph d="M780 939h280l-377 -939h-261l-379 939h278l230 -722z" glyph-name="v" horiz-adv-x="1104" unicode="v"/><glyph d="M1217 939h271l-316 -939h-245l-162 671l-164 -671h-249l-314 939h254l169 -604l191 605h222l186 -594z" glyph-name="w" horiz-adv-x="1529" unicode="w"/><glyph d="M9 939h300l181 -301l182 301h280l-309 -468l316 -471h-300l-176 290l-171 -290h-292l309 461z" glyph-name="x" horiz-adv-x="974" unicode="x"/><glyph d="M674 939h249l-355 -1048q-22 -70 -45 -122t-55.5 -101t-73.5 -78t-94 -46.5t-122 -16t-152 23.5l17 239q60 -24 105 -27.5t74 8.5t52 47t37.5 69t34.5 93q5 14 7 20l-331 939h256l200 -656z" glyph-name="y" horiz-adv-x="947" unicode="y"/><glyph d="M872 939v-236l-519 -486l519 19v-236h-812v236l507 486l-507 -19v236h812z" glyph-name="z" horiz-adv-x="930" unicode="z"/><glyph d="M543 -254q-160 0 -245.5 82t-85.5 233v309q0 56 -22.5 81t-81.5 25h-40v181h40q60 0 82 25.5t22 82.5v307q0 152 85 234.5t246 82.5v-201q-73 0 -99 -33.5t-26 -125.5v-256q0 -89 -27 -134t-115 -72q87 -27 114.5 -71.5t27.5 -135.5v-254q0 -94 25.5 -127.5t99.5 -33.5 v-199z" glyph-name="braceleft" horiz-adv-x="686" unicode="{"/><glyph d="M439 -375h-256v1694h256v-1694z" glyph-name="bar" horiz-adv-x="621" unicode="|"/><glyph d="M102 1389q160 0 245.5 -82.5t85.5 -234.5v-307q0 -56 22.5 -82t82.5 -26h39v-181h-39q-60 0 -82.5 -24.5t-22.5 -81.5v-309q0 -152 -85 -233.5t-246 -81.5v199q73 0 100 34.5t27 126.5v254q0 90 27 134.5t114 72.5q-87 27 -114 72t-27 134v256q0 92 -26 125.5t-101 33.5 v201z" glyph-name="braceright" horiz-adv-x="684" unicode="}"/><glyph d="M331 560h-167q0 123 75 196t174 73q75 0 158 -56t129 -56q79 0 78 104h164q0 -135 -69 -203t-170 -68q-61 0 -112.5 29.5t-92.5 59.5t-80 30q-87 0 -87 -109z" glyph-name="asciitilde" horiz-adv-x="1105" unicode="~"/><glyph d="M290 831q-51 0 -83.5 34t-32.5 87q0 51 32.5 88t83.5 37t82.5 -35t31.5 -89.5t-30.5 -88t-83.5 -33.5zM222 689h130l58 -752l18 -360h-280l18 360z" glyph-name="exclamdown" horiz-adv-x="576" unicode="¡"/><glyph d="M563 305q119 0 208 101l169 -112q-121 -169 -341 -181l3 -113h-133l5 118q-172 26 -270 147t-98 312q0 195 98 316.5t274 147.5v120h124l-3 -117q222 -15 341 -177l-169 -113q-82 99 -208 99q-111 0 -169 -78.5t-58 -197.5q0 -116 58 -194t169 -78z" glyph-name="cent" horiz-adv-x="1017" unicode="¢"/><glyph d="M480 490v-268h467v-222h-831v155l118 43v292h-118v176h118v92q0 196 117.5 313t302.5 117q201 0 324 -138l-135 -149q-72 80 -176 80q-90 0 -138.5 -66.5t-48.5 -156.5v-92h297v-176h-297z" glyph-name="sterling" horiz-adv-x="1030" unicode="£"/><glyph d="M894 592q0 -121 -51 -205l130 -109l-121 -121l-111 126q-84 -51 -198 -51q-121 0 -207 55l-111 -132l-121 121l132 115q-51 89 -52 203q0 118 52 200l-132 116l121 119l111 -131q87 53 203 53q118 0 200 -52l113 128l121 -121l-130 -109q51 -89 51 -205zM539 404 q160 0 161 185q0 189 -161 189q-82 0 -120 -50t-38 -136q0 -87 39.5 -137.5t118.5 -50.5z" glyph-name="currency" horiz-adv-x="1071" unicode="¤"/><glyph d="M1157 1161l-380 -608h160v-142h-679v142h165l-384 608h280l278 -523l280 523h280zM258 179v144h679v-144h-217v-179h-247v179h-215z" glyph-name="yen" horiz-adv-x="1199" unicode="¥"/><glyph d="M439 620h-256v699h256v-699zM439 -375h-256v739h256v-739z" glyph-name="brokenbar" horiz-adv-x="621" unicode="¦"/><glyph d="M771 282q145 -89 145 -263q0 -164 -116 -247t-291 -83q-261 0 -425 174l123 152q118 -140 297 -140t179 137q0 72 -58 118t-141 71.5t-165.5 57t-141 98t-58.5 169.5q0 167 149 239q-148 92 -149 252q0 152 113 244t283 92q230 0 372 -153l-112 -142q-44 48 -111.5 79.5 t-142.5 31.5q-77 0 -123 -35t-46 -100q0 -68 58 -113t141.5 -72.5t166 -61t140.5 -101.5t58 -172q0 -165 -145 -232zM352 553q0 -65 49.5 -102.5t146.5 -71.5q60 -12 99 17t39 87q0 65 -47.5 105t-138.5 76q-63 9 -105.5 -20.5t-42.5 -90.5z" glyph-name="section" horiz-adv-x="1012" unicode="§"/><glyph d="M283 1319q46 0 76 -31.5t30 -80.5q0 -46 -30 -79.5t-76 -33.5q-48 0 -77 31.5t-29 81.5q0 51 29 81.5t77 30.5zM625 1319q46 0 75 -31.5t29 -80.5q0 -46 -29 -79.5t-75 -33.5q-48 0 -77 31.5t-29 81.5q0 51 28.5 81.5t77.5 30.5z" glyph-name="dieresis" horiz-adv-x="907" unicode="¨"/><glyph d="M706.5 1251q249.5 0 418.5 -164t169 -423q0 -261 -170 -425t-417 -164q-249 0 -419 164t-170 425q0 259 169.5 423t419 164zM707 1118q-195 0 -325.5 -125.5t-130.5 -328.5q0 -205 130.5 -330.5t325.5 -125.5q193 0 322.5 125.5t129.5 330.5q0 203 -130.5 328.5 t-321.5 125.5zM428 662q0 137 79.5 219t211.5 82q160 0 242 -120l-113 -72q-39 61 -128 62q-70 0 -109 -47t-39 -124q0 -73 39 -121t109 -48q82 0 130 63l111 -71q-82 -119 -242 -120q-131 0 -211 81t-80 216z" glyph-name="copyright" horiz-adv-x="1431" unicode="©"/><glyph d="M365 1353q142 0 235 -68t93 -201v-406h-154l-27 80q-70 -99 -210 -99q-109 0 -171.5 56t-62.5 143q0 104 72.5 164t195.5 60q90 0 169 -24v24q0 58 -41.5 87t-110.5 29q-104 0 -184 -43l-58 147q90 51 254 51zM365 802q51 0 90.5 37.5t47.5 104.5q-65 20 -121 20 q-53 0 -86 -21t-33 -59q0 -82 102 -82z" glyph-name="ordfeminine" horiz-adv-x="800" unicode="ª"/><glyph d="M638 727l-251 -253l251 -256l-165 -158l-347 413l347 413zM1070 727l-251 -253l251 -256l-165 -158l-347 413l347 413z" glyph-name="guillemotleft" horiz-adv-x="1237" unicode="«"/><glyph d="M1033 775v-471h-200v290h-669v181h869z" glyph-name="logicalnot" horiz-adv-x="1196" unicode="¬"/><glyph d="M447 1353q155 0 252.5 -100.5t97.5 -262.5q0 -157 -96.5 -260.5t-253.5 -101.5q-159 0 -255 100.5t-96 261t97 262t254 101.5zM447 688q128 0 205 84.5t77 217.5t-77 216.5t-205 83.5q-130 0 -206.5 -83.5t-76.5 -216.5t76.5 -217.5t206.5 -84.5zM606 1051 q0 -97 -87 -124l90 -139h-97l-72 128h-8h-43v-128h-84v396h127q174 0 174 -133zM389 1109v-121h43q46 0 67.5 13.5t21.5 48.5q0 36 -21.5 47.5t-67.5 11.5h-43z" glyph-name="registered" horiz-adv-x="896" unicode="®"/><glyph d="M150 1118v153h598v-153h-598z" glyph-name="macron" horiz-adv-x="896" unicode="¯"/><glyph d="M278 1355q89 0 145.5 -55.5t56.5 -144.5q0 -82 -56.5 -142.5t-145.5 -60.5q-90 0 -146.5 57.5t-56.5 145.5q0 92 54.5 146t148.5 54zM278 1229q-36 0 -55.5 -20.5t-19.5 -53t20.5 -54t54.5 -21.5t54.5 22.5t20.5 52.5q0 32 -21.5 53t-53.5 21z" glyph-name="degree" horiz-adv-x="552" unicode="°"/><glyph d="M630 777h273v-204h-273v-194h-222v194h-270v204h270v177h222v-177zM138 97v203h765v-203h-765z" glyph-name="plusminus" horiz-adv-x="1061" unicode="±"/><glyph d="M321 963l188 8v-150h-419v130l178 146q29 26 40 38t23 34t12 46q0 67 -72 67q-7 0 -13.5 -1t-13.5 -4.5l-12 -6t-12 -8.5t-11 -9.5t-12 -11t-10.5 -10t-10 -12t-9.5 -11.5l-102 101q89 108 220 108q92 0 153.5 -47t61.5 -136q0 -123 -125 -227z" glyph-name="uni00B2" horiz-adv-x="600" unicode="²"/><glyph d="M360 1150q67 -15 104.5 -58.5t37.5 -98.5q0 -75 -54 -129.5t-182 -54.5q-116 0 -187 67l102 95q36 -26 85 -26q41 0 56.5 19t15.5 36q0 12 -4.5 23t-21.5 22t-46 11q-3 0 -20 2t-31 0l-39 114l102 84l-164 -10v155h374v-133z" glyph-name="uni00B3" horiz-adv-x="597" unicode="³"/><glyph d="M261 1062l-41 92l369 222l73 -188z" glyph-name="acute" horiz-adv-x="798" unicode="´"/><glyph d="M748 939h256v-939h-200l-43 130q-131 -155 -304 -156q-82 0 -143 24v-510h-198v1451h258l-2 -507q0 -97 33.5 -146t109.5 -49q67 0 120 37.5t113 114.5v550z" glyph-name="uni00B5" unicode="µ"/><glyph d="M1234 1318v-1625h-200v1398h-198v-1398h-199v739q-558 2 -558 442q0 207 139.5 324.5t418.5 119.5h597z" glyph-name="paragraph" horiz-adv-x="1401" unicode="¶"/><glyph d="M247 773q51 0 83 -33t32 -88q0 -51 -31.5 -88t-83 -37t-83 36t-31.5 89q0 56 30.5 88.5t83.5 32.5z" glyph-name="periodcentered" horiz-adv-x="493" unicode="·"/><glyph d="M379 20l87 -8l-10 -99q31 -2 65 -12t69.5 -30.5t57 -60.5t14.5 -93q-9 -72 -49.5 -111t-100.5 -43.5t-118.5 5.5t-117.5 34l33 116q27 -17 75.5 -31.5t96.5 -8.5t51 47q9 94 -179 94z" glyph-name="cedilla" horiz-adv-x="841" unicode="¸"/><glyph d="M288 1401h98v-580h-162v423l-99 -34l-45 133z" glyph-name="uni00B9" horiz-adv-x="522" unicode="¹"/><glyph d="M420 1353q155 0 256 -95.5t101 -252.5q0 -138 -91.5 -242t-265.5 -104q-159 0 -258 94.5t-99 251.5t100 252.5t257 95.5zM420 1179q-75 0 -112 -52t-37 -122t37 -121t112 -51q73 0 111.5 52t38.5 120q0 70 -37.5 122t-112.5 52z" glyph-name="ordmasculine" horiz-adv-x="841" unicode="º"/><glyph d="M340 886l344 -413l-344 -413l-168 158l251 256l-251 253zM765 886l344 -413l-344 -413l-166 158l251 256l-251 253z" glyph-name="guillemotright" horiz-adv-x="1237" unicode="»"/><glyph d="M1138 1388l145 -81l-856 -1331l-147 75zM386 736h-162v423l-99 -34l-45 133l208 58h98v-580zM1473 249v-138h-77v-111h-145v111h-244l-53 138l297 331h145v-334zM1097 229l154 8v164z" glyph-name="onequarter" horiz-adv-x="1551" unicode="¼"/><glyph d="M1138 1388l145 -81l-856 -1331l-147 75zM386 736h-162v423l-99 -34l-45 133l208 58h98v-580zM1275 142l188 8v-150h-419v130l178 146q29 26 40 38t23 34t12 46q0 67 -72 67q-7 0 -13.5 -1t-13.5 -4.5l-12 -6t-12 -8.5t-11 -9.5t-12 -11t-10.5 -10t-10 -12t-9.5 -11.5 l-102 101q89 108 220 108q92 0 153.5 -47t61.5 -136q0 -123 -125 -227z" glyph-name="onehalf" horiz-adv-x="1554" unicode="½"/><glyph d="M1208 1388l145 -81l-856 -1331l-147 75zM502 908q0 -75 -54 -129.5t-182 -54.5q-116 0 -187 66l102 96q36 -26 85 -26q41 0 56.5 19t15.5 36q0 12 -4.5 23t-21.5 22t-46 11q-3 0 -20 2t-31 0l-39 114l102 84l-164 -10v155h374v-133l-128 -118q67 -15 104.5 -58.5 t37.5 -98.5zM1543 249v-138h-77v-111h-145v111h-244l-53 138l297 331h145v-334zM1167 229l154 8v164z" glyph-name="threequarters" horiz-adv-x="1621" unicode="¾"/><glyph d="M602.5 790q-59.5 0 -98 39.5t-38.5 101t37.5 104t97 42.5t97.5 -42t38 -105t-37 -101.5t-96.5 -38.5zM862 -60l198 -128q-60 -104 -184.5 -177.5t-286.5 -73.5q-220 0 -350.5 125.5t-130.5 313.5q0 176 100.5 289.5t277.5 150.5l29 207h166l56 -379q-188 0 -280.5 -73.5 t-92.5 -194.5q0 -101 66.5 -161.5t158.5 -60.5q155 0 273 162z" glyph-name="questiondown" horiz-adv-x="1155" unicode="¿"/><glyph d="M845 1534l-39 -92l-402 126l74 188zM1113 0l-109 294h-574l-109 -294h-266l513 1319h296l517 -1319h-268zM517 531h398l-200 532z" glyph-name="Agrave" horiz-adv-x="1437" unicode="À"/><glyph d="M1021 1568l-401 -126l-41 92l368 222zM1113 0l-109 294h-574l-109 -294h-266l513 1319h296l517 -1319h-268zM517 531h398l-200 532z" glyph-name="Aacute" horiz-adv-x="1437" unicode="Á"/><glyph d="M719 1574l-198 -123l-76 88l231 221h87l229 -221l-76 -88zM1113 0l-109 294h-574l-109 -294h-266l513 1319h296l517 -1319h-268zM517 531h398l-200 532z" glyph-name="Acircumflex" horiz-adv-x="1437" unicode="Â"/><glyph d="M592 1556q-75 0 -75 -99h-152q0 113 67.5 181.5t154.5 68.5q63 0 132 -51.5t109 -51.5q61 0 61 96h152q0 -125 -60.5 -188t-149.5 -63q-41 0 -77.5 17t-59 36.5t-49.5 36.5t-53 17zM1113 0l-109 294h-574l-109 -294h-266l513 1319h296l517 -1319h-268zM517 531h398 l-200 532z" glyph-name="Atilde" horiz-adv-x="1437" unicode="Ã"/><glyph d="M551 1475q-48 0 -77 31.5t-29 80.5q0 51 29 82t77 31q46 0 76 -31.5t30 -81.5q0 -46 -30 -79t-76 -33zM893 1475q-48 0 -77 31.5t-29 80.5q0 51 28 82t78 31q46 0 75 -31.5t29 -81.5q0 -46 -29 -79t-75 -33zM1113 0l-109 294h-574l-109 -294h-266l513 1319h296l517 -1319 h-268zM517 531h398l-200 532z" glyph-name="Adieresis" horiz-adv-x="1437" unicode="Ä"/><glyph d="M718.5 1417q-83.5 0 -136.5 58t-53 146q0 94 51 148.5t139 54.5q84 0 137.5 -56t53.5 -147q0 -84 -54 -144t-137.5 -60zM719 1707q-36 0 -57.5 -24t-21.5 -62q0 -36 22 -61.5t57 -25.5q36 0 58 25.5t22 61.5q0 38 -23 62t-57 24zM1113 0l-109 294h-574l-109 -294h-266 l513 1319h296l517 -1319h-268zM517 531h398l-200 532z" glyph-name="Aring" horiz-adv-x="1437" unicode="Å"/><glyph d="M1766 1082h-595v-295h389v-237h-389v-313h595v-237h-832v300h-413l-186 -300h-280l873 1319h838v-237zM643 498h291v468z" glyph-name="AE" horiz-adv-x="1889" unicode="Æ"/><glyph d="M771 203q99 0 184.5 47t141.5 124l207 -145q-87 -116 -214 -183.5t-279 -74.5l-5 -58q31 -2 65 -12t69.5 -30.5t57 -60.5t14.5 -93q-9 -72 -49.5 -111t-100.5 -43.5t-119 5.5t-117 34l33 116q27 -17 75.5 -31.5t96.5 -8.5t51 47q9 94 -179 94l19 152q-271 17 -443.5 209 t-172.5 480q0 302 185 496t480 194q164 0 303 -67.5t230 -188.5l-205 -147q-58 77 -143.5 124t-184.5 47q-189 0 -301 -129t-112 -328.5t112 -328.5t301 -129z" glyph-name="Ccedilla" horiz-adv-x="1380" unicode="Ç"/><glyph d="M727 1534l-39 -92l-401 126l73 188zM1055 1094h-645v-307l496 -2v-218h-496v-342h645v-225h-889v1319h889v-225z" glyph-name="Egrave" horiz-adv-x="1177" unicode="È"/><glyph d="M903 1568l-401 -126l-41 92l368 222zM1055 1094h-645v-307l496 -2v-218h-496v-342h645v-225h-889v1319h889v-225z" glyph-name="Eacute" horiz-adv-x="1177" unicode="É"/><glyph d="M601 1574l-198 -123l-75 88l230 221h87l229 -221l-75 -88zM1055 1094h-645v-307l496 -2v-218h-496v-342h645v-225h-889v1319h889v-225z" glyph-name="Ecircumflex" horiz-adv-x="1177" unicode="Ê"/><glyph d="M433 1475q-48 0 -76.5 31.5t-28.5 80.5q0 51 29 82t76 31q46 0 76 -31.5t30 -81.5q0 -46 -30 -79t-76 -33zM775 1475q-48 0 -77 31.5t-29 80.5q0 51 28 82t78 31q46 0 75 -31.5t29 -81.5q0 -46 -29 -79t-75 -33zM1055 1094h-645v-307l496 -2v-218h-496v-342h645v-225 h-889v1319h889v-225z" glyph-name="Edieresis" horiz-adv-x="1177" unicode="Ë"/><glyph d="M381 1442l-401 126l73 188l367 -222zM418 0h-252v1319h252v-1319z" glyph-name="Igrave" horiz-adv-x="580" unicode="Ì"/><glyph d="M195 1442l-41 92l368 222l74 -188zM418 0h-252v1319h252v-1319z" glyph-name="Iacute" horiz-adv-x="580" unicode="Í"/><glyph d="M251 1760h87l229 -221l-75 -88l-198 123l-198 -123l-76 88zM418 0h-252v1319h252v-1319z" glyph-name="Icircumflex" horiz-adv-x="580" unicode="Î"/><glyph d="M126 1700q46 0 76 -31.5t30 -81.5q0 -46 -30 -79t-76 -33q-48 0 -77 31.5t-29 80.5q0 51 29 82t77 31zM468 1700q46 0 75 -31.5t29 -81.5q0 -46 -29 -79t-75 -33q-48 0 -77 31.5t-29 80.5q0 51 28.5 82t77.5 31zM418 0h-252v1319h252v-1319z" glyph-name="Idieresis" horiz-adv-x="580" unicode="Ï"/><glyph d="M698 1319q278 0 450.5 -183.5t172.5 -476.5q0 -287 -173 -473t-450 -186h-502v536h-116v237h116v546h502zM698 237q166 0 261.5 118.5t95.5 303.5q0 186 -96.5 304.5t-260.5 118.5h-246v-309h313v-237h-313v-299h246z" glyph-name="Eth" horiz-adv-x="1426" unicode="Ð"/><glyph d="M630 1556q-75 0 -75 -99h-152q0 113 67.5 181.5t154.5 68.5q63 0 132 -51.5t108 -51.5q61 0 62 96h152q0 -125 -61 -188t-149 -63q-41 0 -78 17t-59 36.5t-49 36.5t-53 17zM1137 1319h244v-1319h-244l-726 918v-918h-245v1319h245l726 -921v921z" glyph-name="Ntilde" horiz-adv-x="1546" unicode="Ñ"/><glyph d="M836 1442l-401 126l74 188l367 -222zM749 1350q288 0 466 -192t178 -498q0 -304 -177 -497.5t-467 -193.5q-285 0 -464 194t-179 497.5t176.5 496.5t466.5 193zM749 1118q-184 0 -287.5 -128t-103.5 -329.5t103.5 -329.5t287.5 -128q186 0 289.5 127t103.5 330 q0 205 -106 331.5t-287 126.5z" glyph-name="Ograve" horiz-adv-x="1500" unicode="Ò"/><glyph d="M650 1442l-41 92l369 222l73 -188zM749 1350q288 0 466 -192t178 -498q0 -304 -177 -497.5t-467 -193.5q-285 0 -464 194t-179 497.5t176.5 496.5t466.5 193zM749 1118q-184 0 -287.5 -128t-103.5 -329.5t103.5 -329.5t287.5 -128q186 0 289.5 127t103.5 330 q0 205 -106 331.5t-287 126.5z" glyph-name="Oacute" horiz-adv-x="1500" unicode="Ó"/><glyph d="M707 1760h87l228 -221l-75 -88l-198 123l-198 -123l-75 88zM749 1350q288 0 466 -192t178 -498q0 -304 -177 -497.5t-467 -193.5q-285 0 -464 194t-179 497.5t176.5 496.5t466.5 193zM749 1118q-184 0 -287.5 -128t-103.5 -329.5t103.5 -329.5t287.5 -128 q186 0 289.5 127t103.5 330q0 205 -106 331.5t-287 126.5z" glyph-name="Ocircumflex" horiz-adv-x="1500" unicode="Ô"/><glyph d="M548 1457h-152q0 113 67.5 181.5t154.5 68.5q63 0 132 -51.5t108 -51.5q61 0 62 96h152q0 -125 -60.5 -188t-149.5 -63q-41 0 -77.5 17t-59 36.5t-49.5 36.5t-53 17q-75 0 -75 -99zM749 1350q288 0 466 -192t178 -498q0 -304 -177 -497.5t-467 -193.5q-285 0 -464 194 t-179 497.5t176.5 496.5t466.5 193zM749 1118q-184 0 -287.5 -128t-103.5 -329.5t103.5 -329.5t287.5 -128q186 0 289.5 127t103.5 330q0 205 -106 331.5t-287 126.5z" glyph-name="Otilde" horiz-adv-x="1500" unicode="Õ"/><glyph d="M582 1700q46 0 76 -31.5t30 -81.5q0 -46 -30 -79t-76 -33q-48 0 -77 31.5t-29 80.5q0 51 29 82t77 31zM923 1700q46 0 75 -31.5t29 -81.5q0 -46 -29 -79t-75 -33q-48 0 -77 31.5t-29 80.5q0 51 28.5 82t77.5 31zM749 1350q288 0 466 -192t178 -498q0 -304 -177 -497.5 t-467 -193.5q-285 0 -464 194t-179 497.5t176.5 496.5t466.5 193zM749 1118q-184 0 -287.5 -128t-103.5 -329.5t103.5 -329.5t287.5 -128q186 0 289.5 127t103.5 330q0 205 -106 331.5t-287 126.5z" glyph-name="Odieresis" horiz-adv-x="1500" unicode="Ö"/><glyph d="M869 500l-173 -169l-206 205l-186 -186l-157 159l186 186l-195 192l171 173l194 -195l188 190l159 -157l-190 -190z" glyph-name="multiply" horiz-adv-x="1010" unicode="×"/><glyph d="M1473 1196l-142 -143q99 -169 99 -393q0 -304 -175.5 -497.5t-466.5 -193.5q-236 0 -404 137l-130 -130l-148 149l140 140q-102 171 -103 395q0 304 177 497t468 193q234 0 405 -135l131 132zM399 660q0 -113 34 -206l586 585q-97 75 -231 75q-184 0 -286.5 -127 t-102.5 -327zM1176 660q0 113 -34 205l-584 -585q96 -73 230 -73q183 0 285.5 126t102.5 327z" glyph-name="Oslash" horiz-adv-x="1580" unicode="Ø"/><glyph d="M806 1442l-402 126l74 188l367 -222zM1287 1319v-701q0 -649 -565 -649t-565 649v701h253v-670q0 -461 312 -461t312 461v670h253z" glyph-name="Ugrave" horiz-adv-x="1443" unicode="Ù"/><glyph d="M620 1442l-41 92l368 222l74 -188zM1287 1319v-701q0 -649 -565 -649t-565 649v701h253v-670q0 -461 312 -461t312 461v670h253z" glyph-name="Uacute" horiz-adv-x="1443" unicode="Ú"/><glyph d="M676 1760h87l229 -221l-76 -88l-197 123l-198 -123l-76 88zM1287 1319v-701q0 -649 -565 -649t-565 649v701h253v-670q0 -461 312 -461t312 461v670h253z" glyph-name="Ucircumflex" horiz-adv-x="1443" unicode="Û"/><glyph d="M551 1700q46 0 76 -31.5t30 -81.5q0 -46 -30 -79t-76 -33q-48 0 -77 31.5t-29 80.5q0 51 29 82t77 31zM893 1700q46 0 75 -31.5t29 -81.5q0 -46 -29 -79t-75 -33q-48 0 -77 31.5t-29 80.5q0 51 28.5 82t77.5 31zM1287 1319v-701q0 -649 -565 -649t-565 649v701h253v-670 q0 -461 312 -461t312 461v670h253z" glyph-name="Udieresis" horiz-adv-x="1443" unicode="Ü"/><glyph d="M903 1558l-401 -126l-41 92l368 222zM876 1319h286l-432 -812v-507h-264v517l-427 802h285l277 -614z" glyph-name="Yacute" horiz-adv-x="1204" unicode="Ý"/><glyph d="M561 1145q280 0 422 -117.5t142 -326.5q0 -442 -564 -442h-139v-259h-256v1318h256v-173h139zM561 480q148 0 225.5 46.5t77.5 171.5t-78.5 171.5t-224.5 46.5h-139v-436h139z" glyph-name="Thorn" horiz-adv-x="1232" unicode="Þ"/><glyph d="M166 -200q44 176 44 430v536q0 259 109 406t338 147q174 0 283.5 -90.5t109.5 -221.5q0 -63 -30 -116t-64 -79.5t-89 -62.5t-75 -53q-60 -48 -60 -88q0 -36 35 -61t89 -37t115.5 -31.5t115 -42.5t88.5 -74t35 -123q0 -128 -94 -195.5t-261 -67.5q-109 0 -205.5 32.5 t-147.5 78.5l89 154q44 -38 120 -68t149 -30q145 0 145 94q0 46 -48.5 73.5t-118.5 43t-141 36.5t-119.5 72.5t-48.5 131.5q0 111 125 210q27 22 71.5 52t65.5 45t38.5 42.5t17.5 58.5q0 55 -52.5 91.5t-125.5 36.5q-246 0 -246 -362v-538q0 -275 -46 -479z" glyph-name="germandbls" horiz-adv-x="1310" unicode="ß"/><glyph d="M649 1154l-40 -92l-401 126l74 188zM816 939h239v-939h-190l-42 138q-97 -166 -311 -165q-201 0 -320.5 136.5t-119.5 358t119.5 360t315.5 138.5q205 0 309 -166v139zM568.5 195q112.5 0 178 75t65.5 199q0 123 -65.5 199t-178 76t-179 -76t-66.5 -199t66.5 -198.5 t179 -75.5z" glyph-name="agrave" horiz-adv-x="1198" unicode="à"/><glyph d="M824 1188l-401 -126l-41 92l369 222zM816 939h239v-939h-190l-42 138q-97 -166 -311 -165q-201 0 -320.5 136.5t-119.5 358t119.5 360t315.5 138.5q205 0 309 -166v139zM568.5 195q112.5 0 178 75t65.5 199q0 123 -65.5 199t-178 76t-179 -76t-66.5 -199t66.5 -198.5 t179 -75.5z" glyph-name="aacute" horiz-adv-x="1198" unicode="á"/><glyph d="M522 1193l-198 -123l-75 89l231 220h87l228 -220l-75 -89zM816 939h239v-939h-190l-42 138q-97 -166 -311 -165q-201 0 -320.5 136.5t-119.5 358t119.5 360t315.5 138.5q205 0 309 -166v139zM568.5 195q112.5 0 178 75t65.5 199q0 123 -65.5 199t-178 76t-179 -76 t-66.5 -199t66.5 -198.5t179 -75.5z" glyph-name="acircumflex" horiz-adv-x="1198" unicode="â"/><glyph d="M396 1176q-75 0 -75 -99h-152q0 113 67.5 181t154.5 68q63 0 132 -51t108 -51q61 0 62 95h152q0 -125 -60.5 -188t-149.5 -63q-53 0 -96.5 27.5t-77.5 54t-65 26.5zM816 939h239v-939h-190l-42 138q-97 -166 -311 -165q-201 0 -320.5 136.5t-119.5 358t119.5 360 t315.5 138.5q205 0 309 -166v139zM568.5 195q112.5 0 178 75t65.5 199q0 123 -65.5 199t-178 76t-179 -76t-66.5 -199t66.5 -198.5t179 -75.5z" glyph-name="atilde" horiz-adv-x="1198" unicode="ã"/><glyph d="M355 1094q-48 0 -77 31.5t-29 81.5q0 51 29 81.5t77 30.5q46 0 76 -31.5t30 -80.5q0 -46 -30 -79.5t-76 -33.5zM696 1094q-48 0 -76.5 31.5t-28.5 81.5q0 51 28 81.5t77 30.5q46 0 75 -31.5t29 -80.5q0 -46 -29 -79.5t-75 -33.5zM816 939h239v-939h-190l-42 138 q-97 -166 -311 -165q-201 0 -320.5 136.5t-119.5 358t119.5 360t315.5 138.5q205 0 309 -166v139zM568.5 195q112.5 0 178 75t65.5 199q0 123 -65.5 199t-178 76t-179 -76t-66.5 -199t66.5 -198.5t179 -75.5z" glyph-name="adieresis" horiz-adv-x="1198" unicode="ä"/><glyph d="M522.5 1036q-83.5 0 -136.5 58t-53 147q0 94 51 148.5t138 54.5q84 0 137.5 -56.5t53.5 -146.5q0 -84 -53.5 -144.5t-137 -60.5zM522 1326q-36 0 -57 -24t-21 -61q0 -36 22 -61.5t56 -25.5q36 0 58 25.5t22 61.5q0 38 -23 61.5t-57 23.5zM816 939h239v-939h-190l-42 138 q-97 -166 -311 -165q-201 0 -320.5 136.5t-119.5 358t119.5 360t315.5 138.5q205 0 309 -166v139zM568.5 195q112.5 0 178 75t65.5 199q0 123 -65.5 199t-178 76t-179 -76t-66.5 -199t66.5 -198.5t179 -75.5z" glyph-name="aring" horiz-adv-x="1198" unicode="å"/><glyph d="M1196 172q147 0 287 96l114 -172q-172 -123 -401 -123q-282 0 -396 210q-109 -210 -368 -210q-162 0 -261 84.5t-99 227.5q0 145 103 224.5t279 79.5q126 0 246 -41q-7 90 -72 143t-179 53q-137 0 -283 -72l-84 210q193 84 369 84q229 0 355 -186q108 186 360 186 q249 0 354.5 -150t71.5 -422h-633q36 -222 237 -222zM1166 766q-172 0 -207 -206h408q9 89 -42 147.5t-159 58.5zM486 184q80 0 139 46t71 135q-85 31 -189 31q-169 0 -169 -104q0 -55 43.5 -81.5t104.5 -26.5z" glyph-name="ae" horiz-adv-x="1698" unicode="æ"/><glyph d="M579 188q150 0 230 102l177 -121q-130 -181 -372 -195l-6 -61q31 -2 65 -12t69.5 -30.5t57 -60.5t14.5 -93q-9 -72 -49.5 -111t-100.5 -43.5t-119 5.5t-117 34l33 116q27 -17 75.5 -31.5t96.5 -8.5t51 47q9 94 -179 94l21 155q-203 15 -327 147.5t-124 346.5 q0 229 137.5 363.5t360.5 134.5q270 0 413 -196l-177 -121q-80 102 -227 102q-121 0 -191 -78.5t-70 -204.5q0 -123 69.5 -201.5t188.5 -78.5z" glyph-name="ccedilla" horiz-adv-x="1039" unicode="ç"/><glyph d="M616 1062l-401 126l73 188l367 -222zM72 471q0 215 122 355t347 140q239 0 348 -153t68 -419h-622q15 -101 74 -161.5t161 -60.5q145 0 288 96l103 -172q-174 -123 -391 -123q-227 0 -362.5 136.5t-135.5 361.5zM335 544h409q3 96 -44.5 165t-153.5 69t-158.5 -72.5 t-52.5 -161.5z" glyph-name="egrave" horiz-adv-x="1064" unicode="è"/><glyph d="M430 1062l-41 92l369 222l73 -188zM72 471q0 215 122 355t347 140q239 0 348 -153t68 -419h-622q15 -101 74 -161.5t161 -60.5q145 0 288 96l103 -172q-174 -123 -391 -123q-227 0 -362.5 136.5t-135.5 361.5zM335 544h409q3 96 -44.5 165t-153.5 69t-158.5 -72.5 t-52.5 -161.5z" glyph-name="eacute" horiz-adv-x="1064" unicode="é"/><glyph d="M486 1379h87l229 -220l-75 -89l-198 123l-198 -123l-75 89zM72 471q0 215 122 355t347 140q239 0 348 -153t68 -419h-622q15 -101 74 -161.5t161 -60.5q145 0 288 96l103 -172q-174 -123 -391 -123q-227 0 -362.5 136.5t-135.5 361.5zM335 544h409q3 96 -44.5 165 t-153.5 69t-158.5 -72.5t-52.5 -161.5z" glyph-name="ecircumflex" horiz-adv-x="1064" unicode="ê"/><glyph d="M362 1319q46 0 76 -31.5t30 -80.5q0 -46 -30 -79.5t-76 -33.5q-48 0 -77 31.5t-29 81.5q0 51 29 81.5t77 30.5zM703 1319q46 0 75 -31.5t29 -80.5q0 -46 -29 -79.5t-75 -33.5q-48 0 -77 31.5t-29 81.5q0 51 28.5 81.5t77.5 30.5zM72 471q0 215 122 355t347 140 q239 0 348 -153t68 -419h-622q15 -101 74 -161.5t161 -60.5q145 0 288 96l103 -172q-174 -123 -391 -123q-227 0 -362.5 136.5t-135.5 361.5zM335 544h409q3 96 -44.5 165t-153.5 69t-158.5 -72.5t-52.5 -161.5z" glyph-name="edieresis" horiz-adv-x="1064" unicode="ë"/><glyph d="M353 1062l-401 126l74 188l367 -222zM391 0h-248v939h248v-939z" glyph-name="igrave" horiz-adv-x="534" unicode="ì"/><glyph d="M167 1062l-41 92l369 222l73 -188zM391 0h-248v939h248v-939z" glyph-name="iacute" horiz-adv-x="534" unicode="í"/><glyph d="M224 1379h87l228 -220l-75 -89l-198 123l-198 -123l-75 89zM391 0h-248v939h248v-939z" glyph-name="icircumflex" horiz-adv-x="534" unicode="î"/><glyph d="M99 1319q46 0 76 -31.5t30 -80.5q0 -46 -30 -79.5t-76 -33.5q-48 0 -77 31.5t-29 81.5q0 51 29 81.5t77 30.5zM440 1319q46 0 75 -31.5t29 -80.5q0 -46 -29 -79.5t-75 -33.5q-48 0 -76.5 31.5t-28.5 81.5q0 51 28 81.5t77 30.5zM391 0h-248v939h248v-939z" glyph-name="idieresis" horiz-adv-x="534" unicode="ï"/><glyph d="M872 1128q154 -215 154 -493q0 -140 -30 -258t-89.5 -210t-157 -144t-225.5 -52q-210 0 -331 129.5t-121 315.5q0 205 120 322t294 117q193 0 299 -162q-17 195 -126 333l-202 -98l-71 152l145 70q-77 60 -195 110l86 211q176 -56 336 -210l193 92l70 -153zM532 184 q200 0 245 273q-32 84 -98 141t-150 57q-104 0 -158 -70t-52 -169q-2 -92 51.5 -162t161.5 -70z" glyph-name="eth" horiz-adv-x="1138" unicode="ð"/><glyph d="M413 1176q-75 0 -75 -99h-152q0 113 67.5 181t154.5 68q63 0 132 -51t109 -51q61 0 61 95h152q0 -125 -60.5 -188t-149.5 -63q-53 0 -96.5 27.5t-77.5 54t-65 26.5zM669 964q152 0 246 -91t94 -296v-577h-258l2 536q0 96 -33.5 145t-110.5 49q-114 0 -232 -153v-577h-256 v939h200l43 -130q131 155 305 155z" glyph-name="ntilde" unicode="ñ"/><glyph d="M643 1062l-401 126l74 188l367 -222zM575 966q218 0 360 -137.5t142 -360.5q0 -94 -31 -181t-90.5 -158t-157.5 -113.5t-223 -42.5q-224 0 -363.5 134.5t-139.5 360t139.5 362t363.5 136.5zM575 748q-121 0 -184 -81.5t-63 -198.5q0 -114 63 -195.5t184 -81.5 q118 0 182 81t64 196q0 116 -63.5 198t-182.5 82z" glyph-name="ograve" horiz-adv-x="1150" unicode="ò"/><glyph d="M457 1062l-41 92l369 222l73 -188zM575 966q218 0 360 -137.5t142 -360.5q0 -94 -31 -181t-90.5 -158t-157.5 -113.5t-223 -42.5q-224 0 -363.5 134.5t-139.5 360t139.5 362t363.5 136.5zM575 748q-121 0 -184 -81.5t-63 -198.5q0 -114 63 -195.5t184 -81.5q118 0 182 81 t64 196q0 116 -63.5 198t-182.5 82z" glyph-name="oacute" horiz-adv-x="1150" unicode="ó"/><glyph d="M514 1379h87l228 -220l-75 -89l-198 123l-198 -123l-75 89zM575 966q218 0 360 -137.5t142 -360.5q0 -94 -31 -181t-90.5 -158t-157.5 -113.5t-223 -42.5q-224 0 -363.5 134.5t-139.5 360t139.5 362t363.5 136.5zM575 748q-121 0 -184 -81.5t-63 -198.5q0 -114 63 -195.5 t184 -81.5q118 0 182 81t64 196q0 116 -63.5 198t-182.5 82z" glyph-name="ocircumflex" horiz-adv-x="1150" unicode="ô"/><glyph d="M355 1077h-152q0 113 67.5 181t154.5 68q63 0 132 -51t109 -51q61 0 61 95h152q0 -125 -60.5 -188t-149.5 -63q-53 0 -96.5 27.5t-77.5 54t-65 26.5q-75 0 -75 -99zM575 966q218 0 360 -137.5t142 -360.5q0 -94 -31 -181t-90.5 -158t-157.5 -113.5t-223 -42.5 q-224 0 -363.5 134.5t-139.5 360t139.5 362t363.5 136.5zM575 748q-121 0 -184 -81.5t-63 -198.5q0 -114 63 -195.5t184 -81.5q118 0 182 81t64 196q0 116 -63.5 198t-182.5 82z" glyph-name="otilde" horiz-adv-x="1150" unicode="õ"/><glyph d="M389 1319q46 0 76 -31.5t30 -80.5q0 -46 -30 -79.5t-76 -33.5q-48 0 -77 31.5t-29 81.5q0 51 29 81.5t77 30.5zM730 1319q46 0 75.5 -31.5t29.5 -80.5q0 -46 -29 -79.5t-76 -33.5q-48 0 -76.5 31.5t-28.5 81.5q0 51 28 81.5t77 30.5zM575 966q218 0 360 -137.5 t142 -360.5q0 -94 -31 -181t-90.5 -158t-157.5 -113.5t-223 -42.5q-224 0 -363.5 134.5t-139.5 360t139.5 362t363.5 136.5zM575 748q-121 0 -184 -81.5t-63 -198.5q0 -114 63 -195.5t184 -81.5q118 0 182 81t64 196q0 116 -63.5 198t-182.5 82z" glyph-name="odieresis" horiz-adv-x="1150" unicode="ö"/><glyph d="M529 1142q51 0 83.5 -34.5t32.5 -88.5q0 -51 -32.5 -88t-83.5 -37t-82.5 36t-31.5 89q0 56 30.5 89.5t83.5 33.5zM911 797v-184h-773v184h773zM529 515q51 0 83.5 -34t32.5 -88q0 -51 -32.5 -88t-83.5 -37t-82.5 36t-31.5 89q0 56 30.5 89t83.5 33z" glyph-name="divide" horiz-adv-x="1051" unicode="÷"/><glyph d="M969 790q106 -133 106 -322q0 -94 -30.5 -181t-90.5 -158t-158 -113.5t-223 -42.5q-189 0 -322 99l-87 -87l-77 75l87 87q-104 131 -104 321q0 225 140 361.5t363 136.5q186 0 320 -101l90 91l75 -77zM326 468q0 -75 31 -139l365 366q-65 53 -149 53q-114 0 -180.5 -83 t-66.5 -197zM573 191q111 0 178.5 83t67.5 194q0 79 -31 141l-365 -365q65 -53 150 -53z" glyph-name="oslash" horiz-adv-x="1146" unicode="ø"/><glyph d="M681 1154l-39 -92l-401 126l73 188zM748 939h256v-939h-200l-43 130q-131 -155 -304 -156q-154 0 -247.5 90.5t-93.5 297.5v577h258l-2 -507q0 -97 33.5 -146t109.5 -49q67 0 120 37.5t113 114.5v550z" glyph-name="ugrave" unicode="ù"/><glyph d="M857 1188l-401 -126l-41 92l368 222zM748 939h256v-939h-200l-43 130q-131 -155 -304 -156q-154 0 -247.5 90.5t-93.5 297.5v577h258l-2 -507q0 -97 33.5 -146t109.5 -49q67 0 120 37.5t113 114.5v550z" glyph-name="uacute" unicode="ú"/><glyph d="M555 1193l-198 -123l-75 89l230 220h87l229 -220l-75 -89zM748 939h256v-939h-200l-43 130q-131 -155 -304 -156q-154 0 -247.5 90.5t-93.5 297.5v577h258l-2 -507q0 -97 33.5 -146t109.5 -49q67 0 120 37.5t113 114.5v550z" glyph-name="ucircumflex" unicode="û"/><glyph d="M387 1094q-48 0 -76.5 31.5t-28.5 81.5q0 51 29 81.5t76 30.5q46 0 76 -31.5t30 -80.5q0 -46 -30 -79.5t-76 -33.5zM729 1094q-48 0 -77 31.5t-29 81.5q0 51 28 81.5t78 30.5q46 0 75 -31.5t29 -80.5q0 -46 -29 -79.5t-75 -33.5zM748 939h256v-939h-200l-43 130 q-131 -155 -304 -156q-154 0 -247.5 90.5t-93.5 297.5v577h258l-2 -507q0 -97 33.5 -146t109.5 -49q67 0 120 37.5t113 114.5v550z" glyph-name="udieresis" unicode="ü"/><glyph d="M782 1188l-401 -126l-41 92l368 222zM674 939h249l-355 -1048q-22 -70 -45 -122t-55.5 -101t-73.5 -78t-94 -46.5t-122 -16t-152 23.5l17 239q60 -24 105 -27.5t74 8.5t52 47t37.5 69t34.5 93q5 14 7 20l-331 939h256l200 -656z" glyph-name="yacute" horiz-adv-x="947" unicode="ý"/><glyph d="M669 966q198 0 324.5 -141t126.5 -357.5t-126.5 -355.5t-331.5 -139q-171 0 -281 102v-587h-256v1963h256v-594q114 109 288 109zM625 195q113 0 180 75.5t67 198.5t-67.5 199t-179.5 76q-111 0 -177.5 -76t-66.5 -199t67.5 -198.5t176.5 -75.5z" glyph-name="thorn" horiz-adv-x="1192" unicode="þ"/><glyph d="M312 1094q-48 0 -76.5 31.5t-28.5 81.5q0 51 29 81.5t76 30.5q46 0 76 -31.5t30 -80.5q0 -46 -30 -79.5t-76 -33.5zM654 1094q-48 0 -77 31.5t-29 81.5q0 51 28 81.5t78 30.5q46 0 75 -31.5t29 -80.5q0 -46 -29 -79.5t-75 -33.5zM674 939h249l-355 -1048 q-22 -70 -45 -122t-55.5 -101t-73.5 -78t-94 -46.5t-122 -16t-152 23.5l17 239q60 -24 105 -27.5t74 8.5t52 47t37.5 69t34.5 93q5 14 7 20l-331 939h256l200 -656z" glyph-name="ydieresis" horiz-adv-x="947" unicode="ÿ"/><glyph d="M1024 1652v-154h-597v154h597zM1113 0l-109 294h-574l-109 -294h-266l513 1319h296l517 -1319h-268zM517 531h398l-200 532z" glyph-name="Amacron" horiz-adv-x="1437" unicode="Ā"/><glyph d="M828 1271v-153h-598v153h598zM816 939h239v-939h-190l-42 138q-97 -166 -311 -165q-201 0 -320.5 136.5t-119.5 358t119.5 360t315.5 138.5q205 0 309 -166v139zM568.5 195q112.5 0 178 75t65.5 199q0 123 -65.5 199t-178 76t-179 -76t-66.5 -199t66.5 -198.5t179 -75.5z " glyph-name="amacron" horiz-adv-x="1198" unicode="ā"/><glyph d="M719 1457q-119 0 -187.5 62.5t-74.5 180.5h157q19 -102 105 -103q31 0 51 10.5t32 33.5t14.5 29t7.5 30h157q-5 -106 -68.5 -174.5t-193.5 -68.5zM1113 0l-109 294h-574l-109 -294h-266l513 1319h296l517 -1319h-268zM517 531h398l-200 532z" glyph-name="Abreve" horiz-adv-x="1437" unicode="Ă"/><glyph d="M522 1077q-119 0 -187.5 62t-73.5 180h157q19 -102 104 -102q31 0 51.5 10t32.5 33t14.5 29t7.5 30h157q-5 -106 -69 -174t-194 -68zM816 939h239v-939h-190l-42 138q-97 -166 -311 -165q-201 0 -320.5 136.5t-119.5 358t119.5 360t315.5 138.5q205 0 309 -166v139z M568.5 195q112.5 0 178 75t65.5 199q0 123 -65.5 199t-178 76t-179 -76t-66.5 -199t66.5 -198.5t179 -75.5z" glyph-name="abreve" horiz-adv-x="1198" unicode="ă"/><glyph d="M1159 -268q39 0 78 39l55 -80q-73 -79 -159 -82q-84 -2 -129 39t-43 111q0 61 47.5 127t107.5 114h-3l-109 294h-574l-109 -294h-266l513 1319h296l517 -1319h-156q-44 -56 -65.5 -85t-38.5 -63.5t-17 -59.5q0 -60 55 -60zM517 531h398l-200 532z" glyph-name="Aogonek" horiz-adv-x="1437" unicode="Ą"/><glyph d="M1055 0h-86q-44 -56 -65.5 -85t-38.5 -63.5t-17 -59.5q0 -60 55 -60q39 0 78 39l55 -80q-73 -79 -159 -82q-84 -2 -129 39t-43 111q0 63 48.5 129t108.5 114h3l-42 136q-97 -166 -311 -165q-201 0 -320.5 136.5t-119.5 358t119.5 360t315.5 138.5q205 0 309 -166v139h239 v-939zM568.5 195q112.5 0 178 75t65.5 199q0 123 -65.5 199t-178 76t-179 -76t-66.5 -199t66.5 -198.5t179 -75.5z" glyph-name="aogonek" horiz-adv-x="1198" unicode="ą"/><glyph d="M655 1442l-41 92l369 222l73 -188zM1304 1094l-205 -147q-58 77 -143.5 124t-184.5 47q-189 0 -301 -129t-112 -328.5t112 -328.5t301 -129q99 0 184.5 47t141.5 124l207 -145q-90 -123 -229.5 -191.5t-303.5 -68.5q-292 0 -478.5 194.5t-186.5 497t185 496t480 193.5 q164 0 303.5 -67.5t229.5 -188.5z" glyph-name="Cacute" horiz-adv-x="1380" unicode="Ć"/><glyph d="M456 1062l-41 92l368 222l74 -188zM75 468q0 229 137.5 363.5t360.5 134.5q270 0 413 -196l-177 -121q-80 102 -227 102q-121 0 -191 -78.5t-70 -204.5q0 -123 69 -201.5t189 -78.5q150 0 230 102l177 -121q-142 -196 -413 -196q-222 0 -360 134t-138 361z" glyph-name="cacute" horiz-adv-x="1039" unicode="ć"/><glyph d="M756 1746q63 0 102.5 -42t39.5 -108q0 -63 -38.5 -108.5t-103.5 -45.5q-63 0 -102.5 43.5t-39.5 110.5q0 68 39.5 109t102.5 41zM1304 1094l-205 -147q-58 77 -143.5 124t-184.5 47q-189 0 -301 -129t-112 -328.5t112 -328.5t301 -129q99 0 184.5 47t141.5 124l207 -145 q-90 -123 -229.5 -191.5t-303.5 -68.5q-292 0 -478.5 194.5t-186.5 497t185 496t480 193.5q164 0 303.5 -67.5t229.5 -188.5z" glyph-name="Cdotaccent" horiz-adv-x="1380" unicode="Ċ"/><glyph d="M556.5 1365q63.5 0 102.5 -41.5t39 -108.5q0 -63 -38.5 -108t-103.5 -45q-63 0 -102 43.5t-39 109.5q0 68 39 109t102.5 41zM75 468q0 229 137.5 363.5t360.5 134.5q270 0 413 -196l-177 -121q-80 102 -227 102q-121 0 -191 -78.5t-70 -204.5q0 -123 69 -201.5t189 -78.5 q150 0 230 102l177 -121q-142 -196 -413 -196q-222 0 -360 134t-138 361z" glyph-name="cdotaccent" horiz-adv-x="1039" unicode="ċ"/><glyph d="M713 1452l-230 219l75 90l198 -124l198 124l75 -90l-229 -219h-87zM1304 1094l-205 -147q-58 77 -143.5 124t-184.5 47q-189 0 -301 -129t-112 -328.5t112 -328.5t301 -129q99 0 184.5 47t141.5 124l207 -145q-90 -123 -229.5 -191.5t-303.5 -68.5q-292 0 -478.5 194.5 t-186.5 497t185 496t480 193.5q164 0 303.5 -67.5t229.5 -188.5z" glyph-name="Ccaron" horiz-adv-x="1380" unicode="Č"/><glyph d="M514 1072l-231 218l75 91l198 -125l198 125l75 -91l-228 -218h-87zM75 468q0 229 137.5 363.5t360.5 134.5q270 0 413 -196l-177 -121q-80 102 -227 102q-121 0 -191 -78.5t-70 -204.5q0 -123 69 -201.5t189 -78.5q150 0 230 102l177 -121q-142 -196 -413 -196 q-222 0 -360 134t-138 361z" glyph-name="ccaron" horiz-adv-x="1039" unicode="č"/><glyph d="M777 1452h-88l-230 219l75 90l198 -124l198 124l75 -90zM761 1319q276 0 448.5 -184t172.5 -476q0 -287 -173 -473t-448 -186h-595v1319h595zM761 234q166 0 262.5 119.5t96.5 305.5q0 188 -97.5 307t-261.5 119h-343v-851h343z" glyph-name="Dcaron" horiz-adv-x="1488" unicode="Ď"/><glyph d="M1246 1475l186 -81l-196 -373l-93 37zM812 828v640h244v-1468h-186l-47 135q-106 -162 -316 -162q-200 0 -317.5 139t-117.5 359t117.5 357.5t322.5 137.5q196 0 300 -138zM567 195q111 0 178 75.5t67 198.5t-67 199t-178 76t-178.5 -76t-67.5 -199t67.5 -198.5 t178.5 -75.5z" glyph-name="dcaron" horiz-adv-x="1203" unicode="ď"/><glyph d="M698 1319q278 0 450.5 -183.5t172.5 -476.5q0 -287 -173 -473t-450 -186h-502v536h-116v237h116v546h502zM698 237q166 0 261.5 118.5t95.5 303.5q0 186 -96.5 304.5t-260.5 118.5h-246v-309h313v-237h-313v-299h246z" glyph-name="Dcroat" horiz-adv-x="1426" unicode="Đ"/><glyph d="M1201 1290v-162h-102v-1128h-179l-46 125q-126 -152 -328 -152q-210 0 -327.5 137t-117.5 358q0 224 125.5 361t331.5 137q166 0 285 -116v278h-230v162h230v178h256v-178h102zM599 205q111 0 176.5 70.5t65.5 192.5q0 123 -64.5 194.5t-177.5 71.5t-177.5 -69 t-64.5 -197q0 -121 65.5 -192t176.5 -71z" glyph-name="dcroat" horiz-adv-x="1278" unicode="đ"/><glyph d="M906 1652v-154h-597v154h597zM1055 1094h-645v-307l496 -2v-218h-496v-342h645v-225h-889v1319h889v-225z" glyph-name="Emacron" horiz-adv-x="1177" unicode="Ē"/><glyph d="M237 1118v153h598v-153h-598zM72 471q0 215 122 355t347 140q239 0 348 -153t68 -419h-622q15 -101 74 -161.5t161 -60.5q145 0 288 96l103 -172q-174 -123 -391 -123q-227 0 -362.5 136.5t-135.5 361.5zM335 544h409q3 96 -44.5 165t-153.5 69t-158.5 -72.5 t-52.5 -161.5z" glyph-name="emacron" horiz-adv-x="1064" unicode="ē"/><glyph d="M602 1442q-63 0 -102 43.5t-39 110.5q0 68 39 109t102.5 41t102.5 -42t39 -108q0 -63 -38.5 -108.5t-103.5 -45.5zM1055 1094h-645v-307l496 -2v-218h-496v-342h645v-225h-889v1319h889v-225z" glyph-name="Edotaccent" horiz-adv-x="1177" unicode="Ė"/><glyph d="M531 1365q63 0 102 -41.5t39 -108.5q0 -63 -38 -108t-103 -45q-63 0 -102.5 43.5t-39.5 109.5q0 68 39.5 109t102.5 41zM72 471q0 215 122 355t347 140q239 0 348 -153t68 -419h-622q15 -101 74 -161.5t161 -60.5q145 0 288 96l103 -172q-174 -123 -391 -123 q-227 0 -362.5 136.5t-135.5 361.5zM335 544h409q3 96 -44.5 165t-153.5 69t-158.5 -72.5t-52.5 -161.5z" glyph-name="edotaccent" horiz-adv-x="1064" unicode="ė"/><glyph d="M1055 1094h-645v-307l496 -2v-218h-496v-342h645v-225h-130q-65 -82 -92 -125.5t-27 -81.5q0 -60 54 -59q39 0 79 39l54 -80q-73 -79 -158 -82q-84 -2 -129.5 39t-43.5 111q0 111 152 239h-648v1319h889v-225z" glyph-name="Eogonek" horiz-adv-x="1177" unicode="Ę"/><glyph d="M957 -152l55 -80q-73 -79 -159 -82q-84 -2 -129 39t-43 111q0 72 72 159q-89 -22 -183 -22q-227 0 -362.5 136.5t-135.5 361.5q0 215 122 355t347 140q239 0 348 -153t68 -419h-622q15 -101 74 -161.5t161 -60.5q145 0 288 96l103 -172l-26 -17h12q-67 -84 -95 -128.5 t-28 -81.5q0 -60 55 -60q39 0 78 39zM546 778q-106 0 -158.5 -72.5t-52.5 -161.5h409q3 96 -44.5 165t-153.5 69z" glyph-name="eogonek" horiz-adv-x="1064" unicode="ę"/><glyph d="M647 1452h-87l-231 219l75 90l198 -124l198 124l76 -90zM1055 1094h-645v-307l496 -2v-218h-496v-342h645v-225h-889v1319h889v-225z" glyph-name="Ecaron" horiz-adv-x="1177" unicode="Ě"/><glyph d="M488 1072l-230 218l75 91l198 -125l198 125l75 -91l-229 -218h-87zM72 471q0 215 122 355t347 140q239 0 348 -153t68 -419h-622q15 -101 74 -161.5t161 -60.5q145 0 288 96l103 -172q-174 -123 -391 -123q-227 0 -362.5 136.5t-135.5 361.5zM335 544h409q3 96 -44.5 165 t-153.5 69t-158.5 -72.5t-52.5 -161.5z" glyph-name="ecaron" horiz-adv-x="1064" unicode="ě"/><glyph d="M746 1457q-119 0 -187.5 62.5t-73.5 180.5h157q19 -102 104 -103q31 0 51 10.5t32 33.5t15 29t8 30h157q-5 -106 -69 -174.5t-194 -68.5zM1263 720v-490q-85 -123 -221 -190t-298 -67q-280 0 -459 193.5t-179 497.5t176.5 496.5t459.5 192.5q164 0 299 -66.5t224 -189.5 l-185 -152q-56 79 -146.5 127t-197.5 48q-174 0 -276 -128t-102 -328q0 -201 105 -329t290 -128q160 0 240 110v169h-240v234h510z" glyph-name="Gbreve" horiz-adv-x="1409" unicode="Ğ"/><glyph d="M563 1077q-119 0 -187.5 62t-73.5 180h157q19 -102 104 -102q31 0 51.5 10t32.5 33t14.5 29t7.5 30h157q-5 -106 -69 -174t-194 -68zM864 939h198v-948q0 -104 -28.5 -191.5t-86.5 -159.5t-156 -112t-228 -40q-314 0 -462 220l179 137q113 -142 266 -142 q109 0 187.5 78.5t78.5 235.5v133q-102 -131 -300 -131q-203 0 -321.5 131.5t-118.5 339.5q0 210 117.5 343t317.5 133q210 0 319 -157zM567 232q111 0 178 70t67 186q0 114 -66.5 185t-178.5 71q-111 0 -178.5 -71.5t-67.5 -184.5t67.5 -184.5t178.5 -71.5z" glyph-name="gbreve" horiz-adv-x="1186" unicode="ğ"/><glyph d="M748 1442q-63 0 -102.5 43.5t-39.5 110.5q0 68 39 109t102.5 41t102.5 -42t39 -108q0 -63 -38 -108.5t-103 -45.5zM1263 720v-490q-85 -123 -221 -190t-298 -67q-280 0 -459 193.5t-179 497.5t176.5 496.5t459.5 192.5q164 0 299 -66.5t224 -189.5l-185 -152 q-56 79 -146.5 127t-197.5 48q-174 0 -276 -128t-102 -328q0 -201 105 -329t290 -128q160 0 240 110v169h-240v234h510z" glyph-name="Gdotaccent" horiz-adv-x="1409" unicode="Ġ"/><glyph d="M565 1062q-63 0 -102.5 43.5t-39.5 109.5q0 68 39.5 109t102.5 41t102.5 -41.5t39.5 -108.5q0 -63 -38.5 -108t-103.5 -45zM864 939h198v-948q0 -104 -28.5 -191.5t-86.5 -159.5t-156 -112t-228 -40q-314 0 -462 220l179 137q113 -142 266 -142q109 0 187.5 78.5 t78.5 235.5v133q-102 -131 -300 -131q-203 0 -321.5 131.5t-118.5 339.5q0 210 117.5 343t317.5 133q210 0 319 -157zM567 232q111 0 178 70t67 186q0 114 -66.5 185t-178.5 71q-111 0 -178.5 -71.5t-67.5 -184.5t67.5 -184.5t178.5 -71.5z" glyph-name="gdotaccent" horiz-adv-x="1186" unicode="ġ"/><glyph d="M1263 720v-490q-85 -123 -221 -190t-298 -67q-280 0 -459 193.5t-179 497.5t176.5 496.5t459.5 192.5q164 0 299 -66.5t224 -189.5l-185 -152q-56 79 -146.5 127t-197.5 48q-174 0 -276 -128t-102 -328q0 -201 105 -329t290 -128q160 0 240 110v169h-240v234h510z M748 -125q63 0 97 -43.5t34 -119.5q0 -201 -205 -236l-24 84q87 17 111 61h-13q-53 0 -86.5 35t-33.5 91q0 58 32.5 93t87.5 35z" glyph-name="Gcommaaccent" horiz-adv-x="1409" unicode="Ģ"/><glyph d="M556 1082q-61 0 -94.5 44.5t-33.5 121.5q0 96 53 156t152 77l26 -83q-90 -19 -113 -63h15q53 0 85.5 -36t32.5 -91q0 -56 -33.5 -91t-89.5 -35zM864 939h198v-948q0 -104 -28.5 -191.5t-86.5 -159.5t-156 -112t-228 -40q-314 0 -462 220l179 137q113 -142 266 -142 q109 0 187.5 78.5t78.5 235.5v133q-102 -131 -300 -131q-203 0 -321.5 131.5t-118.5 339.5q0 210 117.5 343t317.5 133q210 0 319 -157zM567 232q111 0 178 70t67 186q0 114 -66.5 185t-178.5 71q-111 0 -178.5 -71.5t-67.5 -184.5t67.5 -184.5t178.5 -71.5z" glyph-name="gcommaaccent" horiz-adv-x="1186" unicode="ģ"/><glyph d="M1461 1055v-108h-123v-947h-256v539h-560v-539h-256v947h-118v108h118v264h256v-264h560v264h256v-264h123zM1082 777v170h-560v-170h560z" glyph-name="Hbar" horiz-adv-x="1609" unicode="Ħ"/><glyph d="M766 964q154 0 248 -90.5t94 -296.5v-577h-258l2 555q0 97 -33.5 145.5t-110.5 48.5q-114 0 -232 -153v-596h-256v1123h-92v152h92v174h256v-174h292v-152h-292v-300q128 141 290 141zM360 643z" glyph-name="hbar" horiz-adv-x="1216" unicode="ħ"/><glyph d="M92 1457h-152q0 113 67.5 181.5t154.5 68.5q63 0 132.5 -51.5t108.5 -51.5q61 0 61 96h152q0 -125 -60.5 -188t-149.5 -63q-41 0 -77.5 17t-59 36.5t-49.5 36.5t-53 17q-75 0 -75 -99zM418 0h-252v1319h252v-1319z" glyph-name="Itilde" horiz-adv-x="580" unicode="Ĩ"/><glyph d="M65 1077h-152q0 113 67.5 181t154.5 68q63 0 132 -51t108 -51q61 0 62 95h152q0 -125 -60.5 -188t-149.5 -63q-53 0 -96.5 27.5t-77.5 54t-65 26.5q-75 0 -75 -99zM391 0h-248v939h248v-939z" glyph-name="itilde" horiz-adv-x="534" unicode="ĩ"/><glyph d="M2 1498v154h597v-154h-597zM418 0h-252v1319h252v-1319z" glyph-name="Imacron" horiz-adv-x="580" unicode="Ī"/><glyph d="M-26 1118v153h598v-153h-598zM391 0h-248v939h248v-939z" glyph-name="imacron" horiz-adv-x="534" unicode="ī"/><glyph d="M418 0h-142q-63 -79 -91 -124t-28 -81q0 -60 55 -60q39 0 78 40l55 -80q-73 -79 -159 -82q-84 -2 -129 39t-43 111q0 114 152 239v1317h252v-1319z" glyph-name="Iogonek" horiz-adv-x="580" unicode="Į"/><glyph d="M268 1062q-63 0 -102.5 43.5t-39.5 109.5q0 68 39.5 109t102.5 41t102.5 -41.5t39.5 -108.5q0 -63 -38.5 -108t-103.5 -45zM143 5v934h248v-939h-142q-61 -77 -88.5 -121.5t-27.5 -79.5q0 -60 55 -60q39 0 78 39l55 -80q-73 -79 -159 -82q-84 -2 -129 39t-43 111 q0 61 46.5 127t106.5 112z" glyph-name="iogonek" horiz-adv-x="534" unicode="į"/><glyph d="M295 1746q63 0 102.5 -42t39.5 -108q0 -63 -38.5 -108.5t-103.5 -45.5q-63 0 -102 43.5t-39 110.5q0 68 39 109t102 41zM418 0h-252v1319h252v-1319z" glyph-name="Idotaccent" horiz-adv-x="580" unicode="İ"/><glyph d="M391 0h-248v939h248v-939z" glyph-name="dotlessi" horiz-adv-x="534" unicode="ı"/><glyph d="M416 512h-252v807h252v-807zM188 193l172 136q53 -68 107 -103t125 -35q106 0 177 76t71 236v816h252v-845q0 -106 -25.5 -192.5t-79 -157.5t-149.5 -111t-224 -40q-145 0 -256.5 62t-169.5 158z" glyph-name="IJ" horiz-adv-x="1256" unicode="Ĳ"/><glyph d="M256 1469q61 0 100.5 -40.5t39.5 -107.5q0 -63 -38.5 -107.5t-101.5 -44.5q-61 0 -100.5 42.5t-39.5 109.5q0 68 38.5 108t101.5 40zM788.5 1468q63.5 0 101.5 -41t38 -108q0 -63 -38 -107.5t-102 -44.5q-61 0 -100 43t-39 109q0 68 38 108.5t101.5 40.5zM382 0h-247v939 h247v-939zM923 939v-959q0 -111 -27 -201t-77.5 -152t-105 -103t-126.5 -77l-111 184l10 5q10 5 27.5 17t37 29.5t41 43t37.5 56t27 72.5t11 88v997h256z" glyph-name="ij" horiz-adv-x="1066" unicode="ĳ"/><glyph d="M667 659l598 -659h-323l-459 543h-65v-543h-252v1318h252v-543h60l442 543h312zM671 -125q63 0 97 -43.5t34 -119.5q0 -201 -205 -236l-24 84q87 17 111 61h-13q-53 0 -86.5 35t-33.5 91q0 58 33.5 93t86.5 35z" glyph-name="Kcommaaccent" horiz-adv-x="1297" unicode="Ķ"/><glyph d="M666 490l423 -492h-335l-300 377h-73v-375h-253v1399h253v-790h78l258 330h321zM565 -125q63 0 97 -43.5t34 -119.5q0 -201 -204 -236l-24 84q87 17 111 61h-14q-53 0 -86.5 35t-33.5 91q0 58 33.5 93t86.5 35z" glyph-name="kcommaaccent" horiz-adv-x="1099" unicode="ķ"/><glyph d="M596 1568l-401 -126l-41 92l368 222zM418 234h637v-234h-889v1319h252v-1085z" glyph-name="Lacute" horiz-adv-x="1155" unicode="Ĺ"/><glyph d="M143 1574l-41 92l369 222l73 -188zM500 213l39 -194q-123 -41 -216.5 -37t-149 77.5t-55.5 211.5v1156h249v-1127q0 -63 32.5 -82.5t100.5 -4.5z" glyph-name="lacute" horiz-adv-x="616" unicode="ĺ"/><glyph d="M418 234h637v-234h-889v1319h252v-1085zM637 -125q63 0 97 -43.5t34 -119.5q0 -201 -205 -236l-24 84q87 17 111 61h-13q-53 0 -86.5 35t-33.5 91q0 58 33.5 93t86.5 35z" glyph-name="Lcommaaccent" horiz-adv-x="1155" unicode="Ļ"/><glyph d="M539 19q-123 -41 -216.5 -37t-149 77.5t-55.5 211.5v1156h249v-1127q0 -63 32.5 -82.5t100.5 -4.5zM338 -125q63 0 97 -43.5t34 -119.5q0 -201 -204 -236l-24 84q87 17 111 61h-14q-53 0 -86.5 35t-33.5 91q0 58 32.5 93t87.5 35z" glyph-name="lcommaaccent" horiz-adv-x="616" unicode="ļ"/><glyph d="M780 1246l-196 -374l-92 38l102 416zM418 234h637v-234h-889v1319h252v-1085z" glyph-name="Lcaron" horiz-adv-x="1155" unicode="Ľ"/><glyph d="M532 1004l-92 37l103 416l186 -80zM500 213l39 -194q-123 -41 -216.5 -37t-149 77.5t-55.5 211.5v1156h249v-1127q0 -63 32.5 -82.5t100.5 -4.5z" glyph-name="lcaron" horiz-adv-x="633" unicode="ľ"/><glyph d="M427 237h577v-237h-833v474l-137 -59v199l137 60v645h256v-532l208 90v-198l-208 -92v-350z" glyph-name="Lslash" horiz-adv-x="1087" unicode="Ł"/><glyph d="M582 230l39 -194q-123 -41 -216.5 -37t-149 77.5t-55.5 211.5v304l-130 -58v200l130 58v659h256v-545l143 65v-200l-143 -64v-390q0 -63 29.5 -82t96.5 -5z" glyph-name="lslash" horiz-adv-x="672" unicode="ł"/><glyph d="M1058 1568l-401 -126l-41 92l369 222zM1137 1319h244v-1319h-244l-726 918v-918h-245v1319h245l726 -921v921z" glyph-name="Nacute" horiz-adv-x="1546" unicode="Ń"/><glyph d="M841 1188l-401 -126l-41 92l369 222zM669 964q152 0 246 -91t94 -296v-577h-258l2 536q0 96 -33.5 145t-110.5 49q-114 0 -232 -153v-577h-256v939h200l43 -130q131 155 305 155z" glyph-name="nacute" unicode="ń"/><glyph d="M1137 1319h244v-1319h-244l-726 918v-918h-245v1319h245l726 -921v921zM794 -125q63 0 97 -43.5t34 -119.5q0 -201 -205 -236l-24 84q87 17 111 61h-13q-53 0 -86.5 35t-33.5 91q0 58 33.5 93t86.5 35z" glyph-name="Ncommaaccent" horiz-adv-x="1546" unicode="Ņ"/><glyph d="M669 964q152 0 246 -91t94 -296v-577h-258l2 536q0 96 -33.5 145t-110.5 49q-114 0 -232 -153v-577h-256v939h200l43 -130q131 155 305 155zM589 -125q63 0 97 -43.5t34 -119.5q0 -201 -205 -236l-23 84q87 17 110 61h-13q-53 0 -86.5 35t-33.5 91q0 58 33.5 93t86.5 35z " glyph-name="ncommaaccent" unicode="ņ"/><glyph d="M802 1452h-87l-230 219l75 90l198 -124l198 124l75 -90zM1137 1319h244v-1319h-244l-726 918v-918h-245v1319h245l726 -921v921z" glyph-name="Ncaron" horiz-adv-x="1546" unicode="Ň"/><glyph d="M585 1072h-87l-230 218l75 91l198 -125l198 125l75 -91zM669 964q152 0 246 -91t94 -296v-577h-258l2 536q0 96 -33.5 145t-110.5 49q-114 0 -232 -153v-577h-256v939h200l43 -130q131 155 305 155z" glyph-name="ncaron" unicode="ň"/><glyph d="M1070 1319h254v-1339q0 -111 -26.5 -201t-76.5 -152t-104.5 -103t-126.5 -77l-116 184l10 5q9 5 26 17t37.5 29.5t41 43t36.5 56t27 72.5t11 88v65l-641 889v-896h-256v1319h257l647 -897v897z" glyph-name="Eng" horiz-adv-x="1488" unicode="Ŋ"/><glyph d="M669 964q152 0 246 -91t94 -296v-597q0 -113 -27.5 -202.5t-78 -151t-105 -102.5t-126.5 -77l-109 184l10 5q9 5 25 17t36.5 29.5t41 43t37 56t27.5 72.5t11 88v196l2 417q0 97 -33.5 145.5t-110.5 48.5q-114 0 -232 -153v-596h-256v939h200l43 -132q133 157 305 157z M261 643z" glyph-name="eng" unicode="ŋ"/><glyph d="M457 1498v154h598v-154h-598zM749 1350q288 0 466 -192t178 -498q0 -304 -177 -497.5t-467 -193.5q-285 0 -464 194t-179 497.5t176.5 496.5t466.5 193zM749 1118q-184 0 -287.5 -128t-103.5 -329.5t103.5 -329.5t287.5 -128q186 0 289.5 127t103.5 330q0 205 -106 331.5 t-287 126.5z" glyph-name="Omacron" horiz-adv-x="1500" unicode="Ō"/><glyph d="M265 1118v153h597v-153h-597zM575 966q218 0 360 -137.5t142 -360.5q0 -94 -31 -181t-90.5 -158t-157.5 -113.5t-223 -42.5q-224 0 -363.5 134.5t-139.5 360t139.5 362t363.5 136.5zM575 748q-121 0 -184 -81.5t-63 -198.5q0 -114 63 -195.5t184 -81.5q118 0 182 81 t64 196q0 116 -63.5 198t-182.5 82z" glyph-name="omacron" horiz-adv-x="1150" unicode="ō"/><glyph d="M654 1425l-96 26l46 307l193 -58zM894 1425l-97 26l46 307l195 -58zM749 1350q288 0 466 -192t178 -498q0 -304 -177 -497.5t-467 -193.5q-285 0 -464 194t-179 497.5t176.5 496.5t466.5 193zM749 1118q-184 0 -287.5 -128t-103.5 -329.5t103.5 -329.5t287.5 -128 q186 0 289.5 127t103.5 330q0 205 -106 331.5t-287 126.5z" glyph-name="Ohungarumlaut" horiz-adv-x="1500" unicode="Ő"/><glyph d="M461 1044l-96 26l46 307l193 -58zM701 1044l-97 26l46 307l195 -58zM575 966q218 0 360 -137.5t142 -360.5q0 -94 -31 -181t-90.5 -158t-157.5 -113.5t-223 -42.5q-224 0 -363.5 134.5t-139.5 360t139.5 362t363.5 136.5zM575 748q-121 0 -184 -81.5t-63 -198.5 q0 -114 63 -195.5t184 -81.5q118 0 182 81t64 196q0 116 -63.5 198t-182.5 82z" glyph-name="ohungarumlaut" horiz-adv-x="1150" unicode="ő"/><glyph d="M2010 1082h-595v-295h389v-237h-389v-313h595v-237h-832v164q-171 -195 -451 -195q-276 0 -448.5 194t-172.5 497.5t169.5 496.5t451.5 193q278 0 451 -195v164h832v-237zM749 207q184 0 286.5 126t102.5 327q0 203 -104 328.5t-285 125.5q-183 0 -285 -127t-102 -327 q0 -201 102 -327t285 -126z" glyph-name="OE" horiz-adv-x="2133" unicode="Œ"/><glyph d="M1319 172q145 0 289 96l112 -172q-172 -123 -401 -123q-261 0 -380 186q-119 -186 -384 -186q-210 0 -346.5 135.5t-136.5 359t136.5 361t346.5 137.5q253 0 379 -183q108 183 356.5 183t354.5 -150t72 -422h-633q15 -101 74 -161.5t161 -60.5zM1290 766 q-174 0 -206 -206h406q9 89 -41.5 147.5t-158.5 58.5zM575 191q111 0 178.5 83t67.5 194q0 114 -66.5 197t-179.5 83q-114 0 -180.5 -83t-66.5 -197q0 -113 66.5 -195t180.5 -82z" glyph-name="oe" horiz-adv-x="1822" unicode="œ"/><glyph d="M944 1568l-401 -126l-41 92l368 222zM1232 0h-275l-240 445q-20 -2 -60 -1h-239v-444h-252v1319h510q543 0 543 -438q0 -302 -274 -396zM418 660h239q147 0 225.5 49t78.5 168.5t-72.5 169t-212.5 49.5h-258v-436z" glyph-name="Racute" horiz-adv-x="1295" unicode="Ŕ"/><glyph d="M695 1188l-401 -126l-41 92l368 222zM575 966q94 0 188 -55l-111 -228q-61 34 -114 34q-75 0 -120.5 -74.5t-52.5 -171.5v-471h-244v939h188l43 -128q80 155 223 155z" glyph-name="racute" horiz-adv-x="795" unicode="ŕ"/><glyph d="M945 485l287 -485h-275l-240 445q-20 -2 -60 -1h-239v-444h-252v1319h510q543 0 543 -438q-1 -302 -274 -396zM418 660h239q147 0 225.5 49t78.5 168.5t-72.5 169t-212.5 49.5h-258v-436zM671 -125q63 0 97 -43.5t34 -119.5q0 -201 -205 -236l-24 84q87 17 111 61h-13 q-53 0 -86.5 35t-33.5 91q0 58 33.5 93t86.5 35z" glyph-name="Rcommaaccent" horiz-adv-x="1295" unicode="Ŗ"/><glyph d="M575 966q94 0 188 -55l-111 -228q-61 34 -114 34q-75 0 -120.5 -74.5t-52.5 -171.5v-471h-244v939h188l43 -128q80 155 223 155zM237 -125q63 0 97.5 -43.5t34.5 -119.5q0 -201 -205 -236l-24 84q87 17 111 61h-14q-53 0 -86 35t-33 91q0 58 33 93t86 35z" glyph-name="rcommaaccent" horiz-adv-x="795" unicode="ŗ"/><glyph d="M688 1452h-87l-231 219l75 90l198 -124l198 124l75 -90zM1232 0h-275l-240 445q-20 -2 -60 -1h-239v-444h-252v1319h510q543 0 543 -438q0 -302 -274 -396zM418 660h239q147 0 225.5 49t78.5 168.5t-72.5 169t-212.5 49.5h-258v-436z" glyph-name="Rcaron" horiz-adv-x="1295" unicode="Ř"/><glyph d="M439 1072h-87l-231 218l75 91l198 -125l198 125l75 -91zM575 966q94 0 188 -55l-111 -228q-61 34 -114 34q-75 0 -120.5 -74.5t-52.5 -171.5v-471h-244v939h188l43 -128q80 155 223 155z" glyph-name="rcaron" horiz-adv-x="795" unicode="ř"/><glyph d="M526 1442l-41 92l368 222l74 -188zM84 217l186 160q154 -177 358 -177q104 0 171.5 44t67.5 118q0 61 -53 107t-131.5 72.5t-170.5 63.5t-170.5 78t-131.5 117t-53 178q0 171 131.5 273t348.5 102q280 0 457 -184l-176 -155q-142 123 -288 123q-96 0 -152 -43.5 t-56 -103.5q0 -55 52 -96t131 -66.5t170.5 -62t171 -78.5t131.5 -120.5t52 -184.5q0 -186 -146 -297.5t-361 -111.5q-159 0 -298.5 64t-240.5 180z" glyph-name="Sacute" horiz-adv-x="1227" unicode="Ś"/><glyph d="M377 1201l-41 93l369 222l73 -188zM478 -27q-119 0 -243 38t-179 90l103 181q48 -41 148.5 -77t182.5 -36q79 0 119.5 25.5t40.5 68.5q0 41 -41.5 66.5t-104 35.5t-136 29t-135.5 44.5t-104 84.5t-42 144q0 125 104 212t285 87q198 0 384 -113l-99 -172q-140 89 -285 89 q-150 0 -150 -86q0 -41 42 -65.5t105 -34t136.5 -29t136.5 -45t105 -86t42 -151.5q0 -133 -110 -216.5t-305 -83.5z" glyph-name="sacute" horiz-adv-x="964" unicode="ś"/><glyph d="M1130 382q0 -176 -131.5 -286t-331.5 -122l-7 -61q31 -2 65 -12t70 -30.5t57.5 -60.5t14.5 -93q-9 -72 -49.5 -111t-100.5 -43.5t-119 5.5t-117 34l33 116q27 -17 75.5 -31.5t96.5 -8.5t51 47q9 94 -179 94l21 155q-300 19 -495 243l186 160q154 -177 358 -177 q104 0 171.5 44t67.5 118q0 61 -53 107t-131.5 72.5t-170.5 63.5t-170.5 78t-131.5 117t-53 178q0 171 131.5 273t348.5 102q280 0 457 -184l-176 -155q-142 123 -288 123q-96 0 -152 -43.5t-56 -103.5q0 -55 52 -96t131 -66.5t170.5 -62t171 -78.5t131.5 -120.5t52 -184.5z " glyph-name="Scedilla" horiz-adv-x="1227" unicode="Ş"/><glyph d="M893 273q0 -125 -97.5 -206.5t-269.5 -92.5l-7 -61q31 -2 64 -11.5t68 -29t56.5 -55t19.5 -82.5q-7 -147 -171 -170q-65 -9 -127 5.5t-89 31.5l32 116q27 -17 76 -31.5t96.5 -8.5t51.5 47q9 94 -180 94l21 155q-114 7 -222.5 44t-158.5 83l103 181q48 -41 148.5 -77 t182.5 -36q79 0 119.5 25.5t40.5 68.5q0 41 -41.5 66.5t-104 35.5t-136 29t-135.5 44.5t-104 84.5t-42 144q0 125 104 212t285 87q198 0 384 -113l-99 -172q-140 89 -285 89q-150 0 -150 -86q0 -41 42 -65.5t105 -34t136.5 -29t136.5 -45t105 -86.5t42 -151z" glyph-name="scedilla" horiz-adv-x="964" unicode="ş"/><glyph d="M584 1452l-231 219l75 90l198 -124l198 124l75 -90l-228 -219h-87zM84 217l186 160q154 -177 358 -177q104 0 171.5 44t67.5 118q0 61 -53 107t-131.5 72.5t-170.5 63.5t-170.5 78t-131.5 117t-53 178q0 171 131.5 273t348.5 102q280 0 457 -184l-176 -155 q-142 123 -288 123q-96 0 -152 -43.5t-56 -103.5q0 -55 52 -96t131 -66.5t170.5 -62t171 -78.5t131.5 -120.5t52 -184.5q0 -186 -146 -297.5t-361 -111.5q-159 0 -298.5 64t-240.5 180z" glyph-name="Scaron" horiz-adv-x="1227" unicode="Š"/><glyph d="M435 1212l-230 218l75 91l198 -125l198 125l75 -91l-229 -218h-87zM478 -27q-119 0 -243 38t-179 90l103 181q48 -41 148.5 -77t182.5 -36q79 0 119.5 25.5t40.5 68.5q0 41 -41.5 66.5t-104 35.5t-136 29t-135.5 44.5t-104 84.5t-42 144q0 125 104 212t285 87 q198 0 384 -113l-99 -172q-140 89 -285 89q-150 0 -150 -86q0 -41 42 -65.5t105 -34t136.5 -29t136.5 -45t105 -86t42 -151.5q0 -133 -110 -216.5t-305 -83.5z" glyph-name="scaron" horiz-adv-x="964" unicode="š"/><glyph d="M727 0h-78l-9 -87q31 -2 65 -12t70 -30.5t57 -60.5t15 -93q-9 -72 -50 -111t-100.5 -43.5t-118.5 5.5t-117 34l32 116q27 -17 76 -31.5t96.5 -8.5t51.5 47q9 94 -179 94l22 181h-82v1087h-411v232h1071v-232h-411v-1087z" glyph-name="Tcommaaccent" horiz-adv-x="1208" unicode="Ţ"/><glyph d="M724 7q-114 -39 -202 -34l-7 -60q31 -2 65 -12t70 -30.5t57.5 -60.5t14.5 -93q-9 -72 -50 -111t-100.5 -43.5t-118.5 5.5t-117 34l33 116q27 -17 75.5 -31.5t96.5 -8.5t51 47q9 94 -179 94l20 166q-114 31 -181.5 136.5t-67.5 286.5v331h-141v200h141v293h249v-293h243 l-19 -200h-224v-353q0 -70 18 -116t46.5 -66t69.5 -24t77.5 3.5t82.5 23.5z" glyph-name="tcommaaccent" horiz-adv-x="774" unicode="ţ"/><glyph d="M649 1452h-88l-230 219l75 90l198 -124l198 124l75 -90zM1138 1319v-232h-411v-1087h-249v1087h-411v232h1071z" glyph-name="Tcaron" horiz-adv-x="1208" unicode="Ť"/><glyph d="M835 1405l-197 -374l-92 37l103 417zM433 386q0 -70 18 -116t46.5 -66t69.5 -24t77.5 3.5t82.5 23.5l-3 -200q-84 -29 -161.5 -34t-147 18.5t-120.5 74t-81 138.5t-30 204v331h-141v200h141v293h249v-293h243l-19 -200h-224v-353z" glyph-name="tcaron" horiz-adv-x="774" unicode="ť"/><glyph d="M1138 1082h-408v-239h272v-237h-272v-606h-256v606h-271v237h271v239h-407v237h1071v-237z" glyph-name="Tbar" horiz-adv-x="1208" unicode="Ŧ"/><glyph d="M433 382q0 -283 294 -179l-3 -201q-84 -29 -162.5 -34.5t-148.5 18.5t-123 74.5t-83.5 138.5t-30.5 204v37h-99v173h99v126h-133v200h133v293h257v-293h243l-19 -200h-224v-126h205l-13 -173h-192v-58z" glyph-name="tbar" horiz-adv-x="774" unicode="ŧ"/><glyph d="M517 1457h-152q0 113 67.5 181.5t154.5 68.5q63 0 132 -51.5t109 -51.5q61 0 61 96h152q0 -125 -60.5 -188t-149.5 -63q-41 0 -77.5 17t-59 36.5t-49.5 36.5t-53 17q-75 0 -75 -99zM1287 1319v-701q0 -649 -565 -649t-565 649v701h253v-670q0 -461 312 -461t312 461v670 h253z" glyph-name="Utilde" horiz-adv-x="1443" unicode="Ũ"/><glyph d="M428 1176q-75 0 -75 -99h-152q0 113 67.5 181t154.5 68q63 0 132.5 -51t108.5 -51q61 0 61 95h152q0 -125 -60.5 -188t-149.5 -63q-53 0 -96.5 27.5t-77.5 54t-65 26.5zM748 939h256v-939h-200l-43 130q-131 -155 -304 -156q-154 0 -247.5 90.5t-93.5 297.5v577h258 l-2 -507q0 -97 33.5 -146t109.5 -49q67 0 120 37.5t113 114.5v550z" glyph-name="utilde" unicode="ũ"/><glyph d="M427 1498v154h597v-154h-597zM1287 1319v-701q0 -649 -565 -649t-565 649v701h253v-670q0 -461 312 -461t312 461v670h253z" glyph-name="Umacron" horiz-adv-x="1443" unicode="Ū"/><glyph d="M860 1271v-153h-597v153h597zM748 939h256v-939h-200l-43 130q-131 -155 -304 -156q-154 0 -247.5 90.5t-93.5 297.5v577h258l-2 -507q0 -97 33.5 -146t109.5 -49q67 0 120 37.5t113 114.5v550z" glyph-name="umacron" unicode="ū"/><glyph d="M719 1824q84 0 137.5 -56t53.5 -147q0 -84 -54 -144t-137.5 -60t-136.5 58t-53 146q0 94 51.5 148.5t138.5 54.5zM719 1707q-36 0 -57.5 -24t-21.5 -62q0 -36 22 -61.5t57 -25.5q36 0 58 25.5t22 61.5q0 38 -23 62t-57 24zM1287 1319v-701q0 -649 -565 -649t-565 649v701 h253v-670q0 -461 312 -461t312 461v670h253z" glyph-name="Uring" horiz-adv-x="1443" unicode="Ů"/><glyph d="M554.5 1036q-83.5 0 -136.5 58t-53 147q0 94 51.5 148.5t138.5 54.5q84 0 137.5 -56.5t53.5 -146.5q0 -84 -54 -144.5t-137.5 -60.5zM555 1326q-36 0 -57.5 -24t-21.5 -61q0 -36 22.5 -61.5t56.5 -25.5q36 0 58 25.5t22 61.5q0 38 -23 61.5t-57 23.5zM748 939h256v-939 h-200l-43 130q-131 -155 -304 -156q-154 0 -247.5 90.5t-93.5 297.5v577h258l-2 -507q0 -97 33.5 -146t109.5 -49q67 0 120 37.5t113 114.5v550z" glyph-name="uring" unicode="ů"/><glyph d="M623 1425l-96 26l46 307l193 -58zM864 1425l-98 26l46 307l195 -58zM1287 1319v-701q0 -649 -565 -649t-565 649v701h253v-670q0 -461 312 -461t312 461v670h253z" glyph-name="Uhungarumlaut" horiz-adv-x="1443" unicode="Ű"/><glyph d="M602 1319l-143 -275l-95 26l46 307zM700 1044l-98 26l47 307l194 -58zM748 939h256v-939h-200l-43 130q-131 -155 -304 -156q-154 0 -247.5 90.5t-93.5 297.5v577h258l-2 -507q0 -97 33.5 -146t109.5 -49q67 0 120 37.5t113 114.5v550z" glyph-name="uhungarumlaut" unicode="ű"/><glyph d="M1034 1319h253v-701q0 -486 -321 -608q-44 -58 -64 -85t-37 -60.5t-17 -59.5q0 -60 55 -59q39 0 78 39l55 -80q-73 -79 -159 -82q-84 -2 -129 39t-43 111q0 94 111 201q-46 -5 -94 -5q-565 0 -565 649v701h253v-670q0 -461 312 -461t312 461v670z" glyph-name="Uogonek" horiz-adv-x="1443" unicode="Ų"/><glyph d="M1004 0h-88q-65 -80 -91 -123.5t-26 -79.5q0 -60 54 -60q39 0 79 39l54 -80q-73 -79 -158 -82q-84 -2 -129 39.5t-44 110.5q0 60 44.5 124t104.5 112l-43 130q-131 -155 -304 -156q-154 0 -247.5 90.5t-93.5 297.5v577h258l-2 -507q0 -97 33.5 -146t109.5 -49 q67 0 120 37.5t113 114.5v550h256v-939z" glyph-name="uogonek" unicode="ų"/><glyph d="M833 1574l-198 -123l-75 88l230 221h87l229 -221l-75 -88zM1399 1319h285l-308 -1319h-248l-256 911l-283 -911h-244l-282 1319h270l157 -897l300 897h174l273 -889z" glyph-name="Wcircumflex" horiz-adv-x="1749" unicode="Ŵ"/><glyph d="M763 1193l-198 -123l-75 89l230 220h87l229 -220l-75 -89zM1217 939h271l-316 -939h-245l-162 671l-164 -671h-249l-314 939h254l169 -604l191 605h222l186 -594z" glyph-name="wcircumflex" horiz-adv-x="1529" unicode="ŵ"/><glyph d="M601 1563l-198 -123l-75 89l230 220h87l229 -220l-75 -89zM876 1319h286l-432 -812v-507h-264v517l-427 802h285l277 -614z" glyph-name="Ycircumflex" horiz-adv-x="1204" unicode="Ŷ"/><glyph d="M480 1193l-198 -123l-75 89l230 220h87l229 -220l-75 -89zM674 939h249l-355 -1048q-22 -70 -45 -122t-55.5 -101t-73.5 -78t-94 -46.5t-122 -16t-152 23.5l17 239q60 -24 105 -27.5t74 8.5t52 47t37.5 69t34.5 93q5 14 7 20l-331 939h256l200 -656z" glyph-name="ycircumflex" horiz-adv-x="947" unicode="ŷ"/><glyph d="M433 1464q-48 0 -76.5 31.5t-28.5 81.5q0 51 29 82t76 31q46 0 76 -32t30 -81q0 -46 -30 -79.5t-76 -33.5zM775 1464q-48 0 -77 31.5t-29 81.5q0 51 28 82t78 31q46 0 75 -32t29 -81q0 -46 -29 -79.5t-75 -33.5zM876 1319h286l-432 -812v-507h-264v517l-427 802h285 l277 -614z" glyph-name="Ydieresis" horiz-adv-x="1204" unicode="Ÿ"/><glyph d="M966 1568l-401 -126l-41 92l369 222zM1222 1318v-142l-754 -952l754 13v-237h-1111v140l754 954l-754 -14v238h1111z" glyph-name="Zacute" horiz-adv-x="1324" unicode="Ź"/><glyph d="M766 1188l-401 -126l-41 92l369 222zM872 939v-236l-519 -486l519 19v-236h-812v236l507 486l-507 -19v236h812z" glyph-name="zacute" horiz-adv-x="930" unicode="ź"/><glyph d="M666 1442q-63 0 -102.5 43.5t-39.5 110.5q0 68 39 109t102.5 41t102.5 -42t39 -108q0 -63 -38 -108.5t-103 -45.5zM1222 1318v-142l-754 -952l754 13v-237h-1111v140l754 954l-754 -14v238h1111z" glyph-name="Zdotaccent" horiz-adv-x="1324" unicode="Ż"/><glyph d="M466 1062q-63 0 -102.5 43.5t-39.5 109.5q0 68 39.5 109t102.5 41t102.5 -41.5t39.5 -108.5q0 -63 -38.5 -108t-103.5 -45zM872 939v-236l-519 -486l519 19v-236h-812v236l507 486l-507 -19v236h812z" glyph-name="zdotaccent" horiz-adv-x="930" unicode="ż"/><glyph d="M710 1452h-87l-230 219l75 90l198 -124l198 124l75 -90zM1222 1318v-142l-754 -952l754 13v-237h-1111v140l754 954l-754 -14v238h1111z" glyph-name="Zcaron" horiz-adv-x="1324" unicode="Ž"/><glyph d="M510 1072h-87l-230 218l75 91l198 -125l198 125l75 -91zM872 939v-236l-519 -486l519 19v-236h-812v236l507 486l-507 -19v236h812z" glyph-name="zcaron" horiz-adv-x="930" unicode="ž"/><glyph d="M162 1041q0 140 43.5 238t117 141.5t171 50.5t204.5 -37l-2 -200q-290 109 -290 -172v-1062h-244v720h-111v219h111v102z" glyph-name="longs" horiz-adv-x="721" unicode="ſ"/><glyph d="M1244 1159h-29q177 -191 178 -499q0 -304 -177 -497.5t-467 -193.5q-285 0 -464 194t-179 497.5t176.5 497.5t466.5 194h2q75 0 216 -8.5t180 -10.5q114 -5 90 135h191q14 -75 10.5 -143.5t-54 -117t-140.5 -48.5zM749 203q186 0 289.5 127t103.5 330q0 205 -106 331.5 t-287 126.5q-184 0 -287.5 -128t-103.5 -329.5t103.5 -329.5t287.5 -128z" glyph-name="Ohorn" horiz-adv-x="1508" unicode="Ơ"/><glyph d="M1166 1089q15 -48 10 -97.5t-23 -90.5t-64 -67.5t-113 -27.5q119 -137 119.5 -338.5t-130 -348t-373.5 -146.5q-222 0 -362 135.5t-140 359.5q0 225 140 361.5t362 136.5q60 0 292 -12q114 -5 91 135h191zM592 191q111 0 179.5 83t68.5 194q0 114 -67.5 197t-180.5 83 q-114 0 -180 -83t-66 -197q0 -113 66.5 -195t179.5 -82z" glyph-name="ohorn" horiz-adv-x="1187" unicode="ơ"/><glyph d="M1594 1454q9 -53 2 -107.5t-25 -100t-65 -73.5t-115 -28l-92 2v-526q0 -309 -137.5 -478.5t-427.5 -169.5q-567 0 -567 648v698h253v-667q0 -461 314 -461q312 0 312 461v667h266q114 -5 91 135h191z" glyph-name="Uhorn" horiz-adv-x="1539" unicode="Ư"/><glyph d="M1285 1073q9 -53 2 -107.5t-25 -99.5t-65 -73t-117 -28l-58 1v-766h-199l-43 131q-130 -157 -306 -157q-154 0 -247.5 90.5t-93.5 297.5v577h260l-2 -507q0 -97 32.5 -146t108.5 -49q67 0 121 37.5t113 114.5v550h253q97 5 75 134h191z" glyph-name="uhorn" horiz-adv-x="1324" unicode="ư"/><glyph d="M765 1452h-87l-231 219l75 90l198 -124l198 124l75 -90zM1113 0l-109 294h-574l-109 -294h-266l513 1319h296l517 -1319h-268zM517 531h398l-200 532z" glyph-name="uni01CD" horiz-adv-x="1437" unicode="Ǎ"/><glyph d="M568 1072h-87l-230 218l75 91l198 -125l198 125l75 -91zM816 939h239v-939h-190l-42 138q-97 -166 -311 -165q-201 0 -320.5 136.5t-119.5 358t119.5 360t315.5 138.5q205 0 309 -166v139zM568.5 195q112.5 0 178 75t65.5 199q0 123 -65.5 199t-178 76t-179 -76 t-66.5 -199t66.5 -198.5t179 -75.5z" glyph-name="uni01CE" horiz-adv-x="1198" unicode="ǎ"/><glyph d="M253 1452l-231 219l75 90l198 -124l198 124l75 -90l-228 -219h-87zM418 0h-252v1319h252v-1319z" glyph-name="uni01CF" horiz-adv-x="580" unicode="Ǐ"/><glyph d="M225 1072l-230 218l75 91l198 -125l198 125l75 -91l-229 -218h-87zM391 0h-248v939h248v-939z" glyph-name="uni01D0" horiz-adv-x="534" unicode="ǐ"/><glyph d="M708 1452l-230 219l75 90l198 -124l198 124l75 -90l-229 -219h-87zM749 1350q288 0 466 -192t178 -498q0 -304 -177 -497.5t-467 -193.5q-285 0 -464 194t-179 497.5t176.5 496.5t466.5 193zM749 1118q-184 0 -287.5 -128t-103.5 -329.5t103.5 -329.5t287.5 -128 q186 0 289.5 127t103.5 330q0 205 -106 331.5t-287 126.5z" glyph-name="uni01D1" horiz-adv-x="1500" unicode="Ǒ"/><glyph d="M515 1072l-230 218l75 91l198 -125l198 125l75 -91l-229 -218h-87zM575 966q218 0 360 -137.5t142 -360.5q0 -94 -31 -181t-90.5 -158t-157.5 -113.5t-223 -42.5q-224 0 -363.5 134.5t-139.5 360t139.5 362t363.5 136.5zM575 748q-121 0 -184 -81.5t-63 -198.5 q0 -114 63 -195.5t184 -81.5q118 0 182 81t64 196q0 116 -63.5 198t-182.5 82z" glyph-name="uni01D2" horiz-adv-x="1150" unicode="ǒ"/><glyph d="M678 1452l-231 219l75 90l198 -124l198 124l75 -90l-228 -219h-87zM1287 1319v-701q0 -649 -565 -649t-565 649v701h253v-670q0 -461 312 -461t312 461v670h253z" glyph-name="uni01D3" horiz-adv-x="1443" unicode="Ǔ"/><glyph d="M601 1072h-87l-231 218l75 91l198 -125l198 125l75 -91zM748 939h256v-939h-200l-43 130q-131 -155 -304 -156q-154 0 -247.5 90.5t-93.5 297.5v577h258l-2 -507q0 -97 33.5 -146t109.5 -49q67 0 120 37.5t113 114.5v550z" glyph-name="uni01D4" unicode="ǔ"/><glyph d="M430 1879v154h597v-154h-597zM551 1700q46 0 76 -31.5t30 -81.5q0 -46 -30 -79t-76 -33q-48 0 -77 31.5t-29 80.5q0 51 29 82t77 31zM893 1700q46 0 75 -31.5t29 -81.5q0 -46 -29 -79t-75 -33q-48 0 -77 31.5t-29 80.5q0 51 28.5 82t77.5 31zM1287 1319v-701 q0 -649 -565 -649t-565 649v701h253v-670q0 -461 312 -461t312 461v670h253z" glyph-name="uni01D5" horiz-adv-x="1443" unicode="Ǖ"/><glyph d="M864 1652v-154h-598v154h598zM282 1207q0 51 29 81.5t76 30.5q46 0 76 -31.5t30 -80.5q0 -46 -30 -79.5t-76 -33.5q-48 0 -76.5 32t-28.5 81zM623 1207q0 51 28 81.5t78 30.5q46 0 75 -31.5t29 -80.5q0 -46 -29 -79.5t-75 -33.5q-48 0 -77 32t-29 81zM748 939h256v-939 h-200l-43 130q-131 -155 -304 -156q-154 0 -247.5 90.5t-93.5 297.5v577h258l-2 -507q0 -97 33.5 -146t109.5 -49q67 0 120 37.5t113 114.5v550z" glyph-name="uni01D6" unicode="ǖ"/><glyph d="M623 1823l-41 92l369 222l73 -188zM551 1700q46 0 76 -31.5t30 -81.5q0 -46 -30 -79t-76 -33q-48 0 -77 31.5t-29 80.5q0 51 29 82t77 31zM893 1700q46 0 75 -31.5t29 -81.5q0 -46 -29 -79t-75 -33q-48 0 -77 31.5t-29 80.5q0 51 28.5 82t77.5 31zM1287 1319v-701 q0 -649 -565 -649t-565 649v701h253v-670q0 -461 312 -461t312 461v670h253z" glyph-name="uni01D7" horiz-adv-x="1443" unicode="Ǘ"/><glyph d="M860 1568l-401 -126l-41 92l369 222zM387 1094q-48 0 -76.5 31.5t-28.5 81.5q0 51 29 81.5t76 30.5q46 0 76 -31.5t30 -80.5q0 -46 -30 -79.5t-76 -33.5zM623 1207q0 51 28 81.5t78 30.5q46 0 75 -31.5t29 -80.5q0 -46 -29 -79.5t-75 -33.5q-48 0 -77 32t-29 81zM748 939 h256v-939h-200l-43 130q-131 -155 -304 -156q-154 0 -247.5 90.5t-93.5 297.5v577h258l-2 -507q0 -97 33.5 -146t109.5 -49q67 0 120 37.5t113 114.5v550z" glyph-name="uni01D8" unicode="ǘ"/><glyph d="M681 1833l-230 218l75 91l198 -125l198 125l75 -91l-229 -218h-87zM551 1700q46 0 76 -31.5t30 -81.5q0 -46 -30 -79t-76 -33q-48 0 -77 31.5t-29 80.5q0 51 29 82t77 31zM893 1700q46 0 75 -31.5t29 -81.5q0 -46 -29 -79t-75 -33q-48 0 -77 31.5t-29 80.5q0 51 28.5 82 t77.5 31zM1287 1319v-701q0 -649 -565 -649t-565 649v701h253v-670q0 -461 312 -461t312 461v670h253z" glyph-name="uni01D9" horiz-adv-x="1443" unicode="Ǚ"/><glyph d="M604 1452h-87l-230 219l75 90l198 -124l198 124l75 -90zM387 1094q-48 0 -76.5 31.5t-28.5 81.5q0 51 29 81.5t76 30.5q46 0 76 -31.5t30 -80.5q0 -46 -30 -79.5t-76 -33.5zM623 1207q0 51 28 81.5t78 30.5q46 0 75 -31.5t29 -80.5q0 -46 -29 -79.5t-75 -33.5 q-48 0 -77 32t-29 81zM748 939h256v-939h-200l-43 130q-131 -155 -304 -156q-154 0 -247.5 90.5t-93.5 297.5v577h258l-2 -507q0 -97 33.5 -146t109.5 -49q67 0 120 37.5t113 114.5v550z" glyph-name="uni01DA" unicode="ǚ"/><glyph d="M809 1823l-401 126l73 188l367 -222zM551 1700q46 0 76 -31.5t30 -81.5q0 -46 -30 -79t-76 -33q-48 0 -77 31.5t-29 80.5q0 51 29 82t77 31zM893 1700q46 0 75 -31.5t29 -81.5q0 -46 -29 -79t-75 -33q-48 0 -77 31.5t-29 80.5q0 51 28.5 82t77.5 31zM1287 1319v-701 q0 -649 -565 -649t-565 649v701h253v-670q0 -461 312 -461t312 461v670h253z" glyph-name="uni01DB" horiz-adv-x="1443" unicode="Ǜ"/><glyph d="M684 1534l-39 -92l-401 126l73 188zM282 1207q0 51 29 81.5t76 30.5q46 0 76 -31.5t30 -80.5q0 -46 -30 -79.5t-76 -33.5q-48 0 -76.5 32t-28.5 81zM623 1207q0 51 28 81.5t78 30.5q46 0 75 -31.5t29 -80.5q0 -46 -29 -79.5t-75 -33.5q-48 0 -77 32t-29 81zM748 939h256 v-939h-200l-43 130q-131 -155 -304 -156q-154 0 -247.5 90.5t-93.5 297.5v577h258l-2 -507q0 -97 33.5 -146t109.5 -49q67 0 120 37.5t113 114.5v550z" glyph-name="uni01DC" unicode="ǜ"/><glyph d="M1027 2033v-154h-597v154h597zM445 1587q0 51 29 82t77 31q46 0 76 -31.5t30 -81.5q0 -46 -30 -79t-76 -33q-48 0 -77 31.5t-29 80.5zM787 1587q0 51 28 82t78 31q46 0 75 -31.5t29 -81.5q0 -46 -29 -79t-75 -33q-48 0 -77 31.5t-29 80.5zM1113 0l-109 294h-574 l-109 -294h-266l513 1319h296l517 -1319h-268zM517 531h398l-200 532z" glyph-name="uni01DE" horiz-adv-x="1437" unicode="Ǟ"/><glyph d="M831 1652v-154h-597v154h597zM249 1207q0 51 29 81.5t77 30.5q46 0 76 -31.5t30 -80.5q0 -46 -30 -79.5t-76 -33.5q-48 0 -77 32t-29 81zM591 1207q0 51 28 81.5t77 30.5q46 0 75 -31.5t29 -80.5q0 -46 -29 -79.5t-75 -33.5q-48 0 -76.5 32t-28.5 81zM816 939h239v-939 h-190l-42 138q-97 -166 -311 -165q-201 0 -320.5 136.5t-119.5 358t119.5 360t315.5 138.5q205 0 309 -166v139zM568.5 195q112.5 0 178 75t65.5 199q0 123 -65.5 199t-178 76t-179 -76t-66.5 -199t66.5 -198.5t179 -75.5z" glyph-name="uni01DF" horiz-adv-x="1198" unicode="ǟ"/><glyph d="M792 1452h-87l-231 219l76 90l198 -124l197 124l76 -90zM1263 720v-490q-85 -123 -221 -190t-298 -67q-280 0 -459 193.5t-179 497.5t176.5 496.5t459.5 192.5q164 0 299 -66.5t224 -189.5l-185 -152q-56 79 -146.5 127t-197.5 48q-174 0 -276 -128t-102 -328 q0 -201 105 -329t290 -128q160 0 240 110v169h-240v234h510z" glyph-name="Gcaron" horiz-adv-x="1409" unicode="Ǧ"/><glyph d="M609 1072h-87l-230 218l75 91l198 -125l198 125l75 -91zM864 939h198v-948q0 -104 -28.5 -191.5t-86.5 -159.5t-156 -112t-228 -40q-314 0 -462 220l179 137q113 -142 266 -142q109 0 187.5 78.5t78.5 235.5v133q-102 -131 -300 -131q-203 0 -321.5 131.5t-118.5 339.5 q0 210 117.5 343t317.5 133q210 0 319 -157zM567 232q111 0 178 70t67 186q0 114 -66.5 185t-178.5 71q-111 0 -178.5 -71.5t-67.5 -184.5t67.5 -184.5t178.5 -71.5z" glyph-name="gcaron" horiz-adv-x="1186" unicode="ǧ"/><glyph d="M1113 1188l-401 -126l-41 92l368 222zM1196 172q147 0 287 96l114 -172q-172 -123 -401 -123q-282 0 -396 210q-109 -210 -368 -210q-162 0 -261 84.5t-99 227.5q0 145 103 224.5t279 79.5q126 0 246 -41q-7 90 -72 143t-179 53q-137 0 -283 -72l-84 210q193 84 369 84 q229 0 355 -186q108 186 360 186q249 0 354.5 -150t71.5 -422h-633q36 -222 237 -222zM1166 766q-172 0 -207 -206h408q9 89 -42 147.5t-159 58.5zM486 184q80 0 139 46t71 135q-85 31 -189 31q-169 0 -169 -104q0 -55 43.5 -81.5t104.5 -26.5z" glyph-name="aeacute" horiz-adv-x="1698" unicode="ǽ"/><glyph d="M1091 1568l-402 -126l-40 92l368 222zM1473 1196l-142 -143q99 -169 99 -393q0 -304 -175.5 -497.5t-466.5 -193.5q-236 0 -404 137l-130 -130l-148 149l140 140q-102 171 -103 395q0 304 177 497t468 193q234 0 405 -135l131 132zM399 660q0 -113 34 -206l586 585 q-97 75 -231 75q-184 0 -286.5 -127t-102.5 -327zM1176 660q0 113 -34 205l-584 -585q96 -73 230 -73q183 0 285.5 126t102.5 327z" glyph-name="Oslashacute" horiz-adv-x="1580" unicode="Ǿ"/><glyph d="M876 1188l-402 -126l-41 92l369 222zM969 790q106 -133 106 -322q0 -94 -30.5 -181t-90.5 -158t-158 -113.5t-223 -42.5q-189 0 -322 99l-87 -87l-77 75l87 87q-104 131 -104 321q0 225 140 361.5t363 136.5q186 0 320 -101l90 91l75 -77zM326 468q0 -75 31 -139l365 366 q-65 53 -149 53q-114 0 -180.5 -83t-66.5 -197zM573 191q111 0 178.5 83t67.5 194q0 79 -31 141l-365 -365q65 -53 150 -53z" glyph-name="oslashacute" horiz-adv-x="1146" unicode="ǿ"/><glyph d="M422 990q0 -55 52 -96t131 -66.5t170.5 -62t171 -78.5t131.5 -120.5t52 -184.5q0 -186 -146 -297.5t-361 -111.5q-159 0 -299 64t-240 180l186 160q154 -177 358 -177q104 0 171.5 44t67.5 118q0 61 -53 107t-131.5 72.5t-170.5 63.5t-170.5 78t-131.5 117t-53 178 q0 171 131.5 273t348.5 102q280 0 457 -184l-176 -155q-142 123 -288 123q-96 0 -152 -43.5t-56 -103.5zM626 -125q63 0 97.5 -43.5t34.5 -119.5q0 -201 -205 -236l-24 84q87 17 111 61h-14q-53 0 -86 35t-33 91q0 58 33 93t86 35z" glyph-name="Scommaaccent" horiz-adv-x="1227" unicode="Ș"/><glyph d="M478 -27q-119 0 -243 38t-179 90l103 181q48 -41 148.5 -77t182.5 -36q79 0 119.5 25.5t40.5 68.5q0 41 -41.5 66.5t-104 35.5t-136 29t-135.5 44.5t-104 84.5t-42 144q0 125 104 212t285 87q198 0 384 -113l-99 -172q-140 89 -285 89q-150 0 -150 -86q0 -41 42 -65.5 t105 -34t136.5 -29t136.5 -45t105 -86t42 -151.5q0 -133 -110 -216.5t-305 -83.5zM485 -125q63 0 97 -43.5t34 -119.5q0 -201 -205 -236l-24 84q87 17 111 61h-13q-53 0 -86.5 35t-33.5 91q0 58 32.5 93t87.5 35z" glyph-name="scommaaccent" horiz-adv-x="964" unicode="ș"/><glyph d="M67 1319h1071v-232h-411v-1087h-249v1087h-411v232zM606 -125q63 0 97 -43.5t34 -119.5q0 -201 -205 -236l-23 84q87 17 111 61h-14q-53 0 -86.5 35t-33.5 91q0 58 33.5 93t86.5 35z" glyph-name="uni021A" horiz-adv-x="1208" unicode="Ț"/><glyph d="M433 386q0 -70 18 -116t46.5 -66t69.5 -24t77.5 3.5t82.5 23.5l-3 -200q-84 -29 -161.5 -34t-147 18.5t-120.5 74t-81 138.5t-30 204v331h-141v200h141v293h249v-293h243l-19 -200h-224v-353zM481 -125q63 0 97.5 -43.5t34.5 -119.5q0 -201 -205 -236l-24 84 q87 17 111 61h-14q-53 0 -86 35t-33 91q0 58 32 93t87 35z" glyph-name="uni021B" horiz-adv-x="774" unicode="ț"/><glyph d="M1055 1094h-645v-307l496 -2v-218h-496v-342h645v-225h-427l-8 -87q31 -2 64 -11.5t68 -29t56 -55t20 -82.5q-7 -147 -171 -170q-65 -9 -127 5.5t-90 31.5l33 116q27 -17 75.5 -31.5t96.5 -8.5t51 47q9 94 -179 94l22 181h-373v1319h889v-225z" glyph-name="uni0228" horiz-adv-x="1177" unicode="Ȩ"/><glyph d="M961 96q-166 -116 -367 -123l-7 -60q31 -2 64 -11.5t68 -29t56.5 -55t19.5 -82.5q-7 -147 -170 -170q-65 -9 -127.5 5.5t-89.5 31.5l32 116q27 -17 76 -31.5t96.5 -8.5t51.5 47q9 94 -179 94l20 157q-200 20 -316.5 153.5t-116.5 341.5q0 215 122 355t347 140 q239 0 348 -153t68 -419h-622q15 -101 74 -161.5t161 -60.5q145 0 288 96zM546 778q-106 0 -158.5 -72.5t-52.5 -161.5h409q3 96 -44.5 165t-153.5 69z" glyph-name="uni0229" horiz-adv-x="1064" unicode="ȩ"/><glyph d="M461 1879v154h597v-154h-597zM582 1700q46 0 76 -31.5t30 -81.5q0 -46 -30 -79t-76 -33q-48 0 -77 31.5t-29 80.5q0 51 29 82t77 31zM923 1700q46 0 75 -31.5t29 -81.5q0 -46 -29 -79t-75 -33q-48 0 -77 31.5t-29 80.5q0 51 28.5 82t77.5 31zM749 1350q288 0 466 -192 t178 -498q0 -304 -177 -497.5t-467 -193.5q-285 0 -464 194t-179 497.5t176.5 496.5t466.5 193zM749 1118q-184 0 -287.5 -128t-103.5 -329.5t103.5 -329.5t287.5 -128q186 0 289.5 127t103.5 330q0 205 -106 331.5t-287 126.5z" glyph-name="uni022A" horiz-adv-x="1500" unicode="Ȫ"/><glyph d="M268 1498v154h597v-154h-597zM389 1319q46 0 76 -31.5t30 -80.5q0 -46 -30 -79.5t-76 -33.5q-48 0 -77 31.5t-29 81.5q0 51 29 81.5t77 30.5zM730 1319q46 0 75.5 -31.5t29.5 -80.5q0 -46 -29 -79.5t-76 -33.5q-48 0 -76.5 31.5t-28.5 81.5q0 51 28 81.5t77 30.5z M575 966q218 0 360 -137.5t142 -360.5q0 -94 -31 -181t-90.5 -158t-157.5 -113.5t-223 -42.5q-224 0 -363.5 134.5t-139.5 360t139.5 362t363.5 136.5zM575 748q-121 0 -184 -81.5t-63 -198.5q0 -114 63 -195.5t184 -81.5q118 0 182 81t64 196q0 116 -63.5 198t-182.5 82z " glyph-name="uni022B" horiz-adv-x="1150" unicode="ȫ"/><glyph d="M451 939v-959q0 -111 -27.5 -201t-78 -152t-105 -103t-126.5 -77l-111 184l11 5q10 5 27 17t36.5 29.5t41 43t37.5 56t27.5 72.5t11.5 88v997h256z" glyph-name="uni0237" horiz-adv-x="622" unicode="ȷ"/><glyph d="M1551 939v-108h-136v-210q0 -649 -565 -648.5t-565 648.5v210h-137v108h137v380h253v-380h624v380h253v-380h136zM1162 652v179h-624v-179q0 -461 312 -461t312 461z" glyph-name="uni0244" horiz-adv-x="1701" unicode="Ʉ"/><glyph d="M620 195q128 0 264 56l82 -205q-174 -73 -362 -73q-201 0 -331 97t-130 288v581h205l36 -115q101 142 302 142q160 0 250.5 -86t90.5 -225q0 -148 -104 -233.5t-278 -85.5q-131 0 -252 48v-49q0 -72 62.5 -106t164.5 -34zM611 773q-89 0 -149.5 -59t-67.5 -163 q92 -41 193 -41q80 0 132 37.5t52 95.5q0 61 -43.5 95.5t-116.5 34.5z" glyph-name="uni0250" horiz-adv-x="1099" unicode="ɐ"/><glyph d="M816 939h239v-939h-190l-42 138q-97 -166 -311 -165q-201 0 -320.5 136.5t-119.5 358t119.5 360t315.5 138.5q205 0 309 -166v139zM568.5 195q112.5 0 178 75t65.5 199q0 123 -65.5 199t-178 76t-179 -76t-66.5 -199t66.5 -198.5t179 -75.5z" glyph-name="uni0251" horiz-adv-x="1198" unicode="ɑ"/><glyph d="M993 468q0 -215 -121 -355t-346 -140q-241 0 -350 152.5t-68 418.5h622q-15 102 -73 162t-162 60q-145 0 -288 -95l-103 172q174 123 391 123q227 0 362.5 -136.5t135.5 -361.5zM730 394h-409q-3 -96 44.5 -165t153.5 -69t158.5 72.5t52.5 161.5z" glyph-name="uni0259" horiz-adv-x="1064" unicode="ə"/><glyph d="M1193 630v-108h-118v-522h-199l-43 131q-130 -157 -304 -157q-154 0 -247.5 90.5t-93.5 297.5v160h-116v108h116v309h257l-1 -309h375v309h256v-309h118zM819 389v133h-375v-90q0 -97 33 -146t110 -49q67 0 119.5 37.5t112.5 114.5z" glyph-name="uni0289" horiz-adv-x="1266" unicode="ʉ"/><glyph d="M369 1379h87l228 -220l-75 -89l-198 123l-198 -123l-75 89z" glyph-name="circumflex" horiz-adv-x="820" unicode="ˆ"/><glyph d="M369 1072l-231 218l75 91l198 -125l198 125l75 -91l-228 -218h-87z" glyph-name="caron" horiz-adv-x="820" unicode="ˇ"/><glyph d="M532 1319h157q-5 -106 -69 -174t-193 -68q-119 0 -187.5 62t-73.5 180h157q19 -102 104 -102q31 0 53 14q35 18 52 88z" glyph-name="breve" horiz-adv-x="853" unicode="˘"/><glyph d="M452 1365q63 0 102.5 -41.5t39.5 -108.5q0 -63 -38.5 -108t-103.5 -45q-63 0 -102 43.5t-39 109.5q0 68 39 109t102 41z" glyph-name="dotaccent" horiz-adv-x="904" unicode="˙"/><glyph d="M420 1444q84 0 137.5 -56.5t53.5 -146.5q0 -84 -54 -144.5t-137.5 -60.5t-136.5 58t-53 147q0 94 51.5 148.5t138.5 54.5zM420 1326q-36 0 -57.5 -24t-21.5 -61q0 -36 22.5 -61.5t56.5 -25.5q36 0 58 25.5t22 61.5q0 38 -23 61.5t-57 23.5z" glyph-name="ring" horiz-adv-x="843" unicode="˚"/><glyph d="M430 15h109q-67 -84 -95 -128t-28 -82q0 -60 55 -59q39 0 79 39l54 -80q-73 -79 -159 -82q-84 -2 -129 39t-43 111q0 63 48.5 128.5t108.5 113.5z" glyph-name="ogonek" horiz-adv-x="841" unicode="˛"/><glyph d="M336 1077h-152q0 113 67.5 181t154.5 68q63 0 132.5 -51t108.5 -51q61 0 61 95h152q0 -125 -60.5 -188t-149.5 -63q-53 0 -96.5 27.5t-77.5 54t-65 26.5q-75 0 -75 -99z" glyph-name="tilde" horiz-adv-x="1061" unicode="˜"/><glyph d="M201 1041l-95 26l46 307l193 -58zM442 1041l-97 26l46 307l194 -58z" glyph-name="hungarumlaut" horiz-adv-x="680" unicode="˝"/><glyph d="M-259 1062l-401 126l73 188l367 -222z" glyph-name="gravecomb" horiz-adv-x="0" unicode="̀"/><glyph d="M-538 1062l-41 92l369 222l73 -188z" glyph-name="acutecomb" horiz-adv-x="0" unicode="́"/><glyph d="M-452 1379h87l228 -220l-75 -89l-198 123l-198 -123l-75 89z" glyph-name="uni0302" horiz-adv-x="0" unicode="̂"/><glyph d="M-725 1077h-152q0 113 67.5 181t154.5 68q63 0 132 -51t108 -51q61 0 62 95h152q0 -125 -61 -188t-149 -63q-53 0 -96.5 27.5t-78 54t-64.5 26.5q-75 0 -75 -99z" glyph-name="tildecomb" horiz-adv-x="0" unicode="̃"/><glyph d="M-746 1118v153h598v-153h-598z" glyph-name="uni0304" horiz-adv-x="0" unicode="̄"/><glyph d="M-321 1319h157q-5 -106 -69 -174t-194 -68q-119 0 -187.5 62t-73.5 180h157q19 -102 104 -102q31 0 53 14q36 18 53 88z" glyph-name="uni0306" horiz-adv-x="0" unicode="̆"/><glyph d="M-452 1365q63 0 102 -41.5t39 -108.5q0 -63 -38 -108t-103 -45q-63 0 -102.5 43.5t-39.5 109.5q0 68 39.5 109t102.5 41z" glyph-name="uni0307" horiz-adv-x="0" unicode="̇"/><glyph d="M-625 1319q46 0 76 -31.5t30 -80.5q0 -46 -30 -79.5t-76 -33.5q-48 0 -76.5 31.5t-28.5 81.5q0 51 28.5 81.5t76.5 30.5zM-283 1319q46 0 75 -31.5t29 -80.5q0 -46 -29 -79.5t-75 -33.5q-48 0 -77 31.5t-29 81.5q0 51 28.5 81.5t77.5 30.5z" glyph-name="uni0308" horiz-adv-x="0" unicode="̈"/><glyph d="M-331 1051h-111q12 15 35 42.5t31.5 38.5t23 30t19.5 30t9.5 25t4.5 27q0 60 -55 60q-39 0 -78 -39l-55 80q73 79 159 82q84 3 129 -38.5t43 -111.5q-1 -105 -155 -226z" glyph-name="hookabovecomb" horiz-adv-x="0" unicode="̉"/><glyph d="M-423 1444q84 0 137.5 -56.5t53.5 -146.5q0 -84 -54 -144.5t-137.5 -60.5t-136.5 58t-53 147q0 94 51.5 148.5t138.5 54.5zM-423 1326q-36 0 -57.5 -24t-21.5 -61q0 -36 22.5 -61.5t56.5 -25.5q36 0 58 25.5t22 61.5q0 38 -23 61.5t-57 23.5z" glyph-name="uni030A" horiz-adv-x="0" unicode="̊"/><glyph d="M-480 1041l-95 26l46 307l193 -58zM-239 1041l-97 26l46 307l194 -58z" glyph-name="uni030B" horiz-adv-x="0" unicode="̋"/><glyph d="M-452 1072l-231 218l75 91l198 -125l198 125l75 -91l-228 -218h-87z" glyph-name="uni030C" horiz-adv-x="0" unicode="̌"/><glyph d="M-261 1207q0 -56 -33.5 -91.5t-89.5 -35.5q-61 0 -94.5 44.5t-33.5 121.5q0 96 53 156.5t152 77.5l25 -84q-90 -19 -112 -63h15q53 0 85.5 -35.5t32.5 -90.5z" glyph-name="uni0312" horiz-adv-x="0" unicode="̒"/><glyph d="M-452 -114q63 0 102 -41t39 -110q0 -63 -38 -108t-103 -45q-61 0 -101.5 43.5t-40.5 109.5q0 68 38.5 109.5t103.5 41.5z" glyph-name="dotbelowcomb" horiz-adv-x="0" unicode="̣"/><glyph d="M-393 -125q63 0 97.5 -43.5t34.5 -119.5q0 -201 -205 -236l-24 84q87 17 111 61h-14q-53 0 -86 35t-33 91q0 58 32 93t87 35z" glyph-name="uni0326" horiz-adv-x="0" unicode="̦"/><glyph d="M-463 20l88 -8l-11 -99q31 -2 64.5 -11.5t68.5 -29t56 -55t20 -82.5q-7 -147 -171 -170q-65 -9 -127.5 5.5t-89.5 31.5l33 116q27 -17 75.5 -31.5t96.5 -8.5t51 47q9 94 -179 94z" glyph-name="uni0327" horiz-adv-x="0" unicode="̧"/><glyph d="M-411 15h109q-67 -84 -95 -128t-28 -82q0 -60 55 -59q39 0 78 39l55 -80q-73 -79 -159 -82q-84 -2 -129 39t-43 111q0 63 48.5 128.5t108.5 113.5z" glyph-name="uni0328" horiz-adv-x="0" unicode="̨"/><glyph d="M-492 -171h86l229 -218l-74 -91l-200 123l-198 -123l-73 91z" glyph-name="uni032D" horiz-adv-x="0" unicode="̭"/><glyph d="M-744 -324v153h597v-153h-597z" glyph-name="uni0331" horiz-adv-x="0" unicode="̱"/><glyph d="M908 626q79 -36 125.5 -116t46.5 -181q0 -143 -86 -236t-224 -93h-127v-159h-107v159h-370v1161h370v158h107v-158h79q126 0 207 -85.5t81 -218.5q0 -159 -102 -231zM536 959h-150v-261h150v261zM689 959h-46v-261h48q53 0 89.5 35t36.5 94.5t-37.5 95.5t-90.5 36z M386 201h150v292h-150v-292zM737 201q58 0 101 42t43 105q0 67 -43.5 106t-107.5 39h-87v-292h94z" glyph-name="uni0E3F" horiz-adv-x="1179" unicode="฿"/><glyph d="M997 710q90 -39 144.5 -130.5t54.5 -205.5q0 -164 -99.5 -269t-258.5 -105h-672v1319h617q148 0 240.5 -96.5t92.5 -249.5q0 -174 -119 -263zM749 1094h-338v-311h338q63 0 107.5 43t44.5 111q0 70 -44.5 113.5t-107.5 43.5zM800 225q70 0 121.5 50.5t51.5 123.5 q0 79 -52 126.5t-126 47.5h-384v-348h389zM647 -114q63 0 102 -41t39 -110q0 -63 -38 -108t-103 -45q-61 0 -101.5 43.5t-40.5 109.5q0 68 38.5 109.5t103.5 41.5z" glyph-name="uni1E04" horiz-adv-x="1297" unicode="Ḅ"/><glyph d="M672 966q205 0 323 -137.5t118 -357.5t-118 -359t-317 -139q-210 0 -316 162l-46 -135h-188v1468h244v-640q104 138 300 138zM618 195q111 0 178.5 75.5t67.5 198.5t-67.5 199t-178.5 76t-178.5 -76t-67.5 -199t67.5 -198.5t178.5 -75.5zM645 -114q63 0 102.5 -41 t39.5 -110q0 -63 -38.5 -108t-103.5 -45q-61 0 -101.5 43.5t-40.5 109.5q0 68 38.5 109.5t103.5 41.5z" glyph-name="uni1E05" horiz-adv-x="1186" unicode="ḅ"/><glyph d="M761 1319q276 0 448.5 -184t172.5 -476q0 -287 -173 -473t-448 -186h-595v1319h595zM761 234q166 0 262.5 119.5t96.5 305.5q0 188 -97.5 307t-261.5 119h-343v-851h343zM730 -114q63 0 102.5 -41t39.5 -110q0 -63 -38.5 -108t-103.5 -45q-61 0 -101 43.5t-40 109.5 q0 68 38 109.5t103 41.5z" glyph-name="uni1E0C" horiz-adv-x="1488" unicode="Ḍ"/><glyph d="M812 1468h244v-1468h-186l-47 135q-106 -162 -316 -162q-200 0 -317.5 139t-117.5 359t117.5 357.5t322.5 137.5q196 0 300 -138v640zM567 195q111 0 178 75.5t67 198.5t-67 199t-178 76t-178.5 -76t-67.5 -199t67.5 -198.5t178.5 -75.5zM541 -114q63 0 102.5 -41 t39.5 -110q0 -63 -38.5 -108t-103.5 -45q-61 0 -101.5 43.5t-40.5 109.5q0 68 38.5 109.5t103.5 41.5z" glyph-name="uni1E0D" horiz-adv-x="1186" unicode="ḍ"/><glyph d="M761 1319q276 0 448.5 -184t172.5 -476q0 -287 -173 -473t-448 -186h-595v1319h595zM761 234q166 0 262.5 119.5t96.5 305.5q0 188 -97.5 307t-261.5 119h-343v-851h343zM445 -324v153h598v-153h-598z" glyph-name="uni1E0E" horiz-adv-x="1488" unicode="Ḏ"/><glyph d="M812 1468h244v-1468h-186l-47 135q-106 -162 -316 -162q-200 0 -317.5 139t-117.5 359t117.5 357.5t322.5 137.5q196 0 300 -138v640zM567 195q111 0 178 75.5t67 198.5t-67 199t-178 76t-178.5 -76t-67.5 -199t67.5 -198.5t178.5 -75.5zM256 -324v153h597v-153h-597z " glyph-name="uni1E0F" horiz-adv-x="1186" unicode="ḏ"/><glyph d="M761 1319q276 0 448.5 -184t172.5 -476q0 -287 -173 -473t-448 -186h-595v1319h595zM761 234q166 0 262.5 119.5t96.5 305.5q0 188 -97.5 307t-261.5 119h-343v-851h343zM689 -171h86l229 -218l-74 -91l-200 123l-198 -123l-73 91z" glyph-name="uni1E12" horiz-adv-x="1488" unicode="Ḓ"/><glyph d="M812 1468h244v-1468h-186l-47 135q-106 -162 -316 -162q-200 0 -317.5 139t-117.5 359t117.5 357.5t322.5 137.5q196 0 300 -138v640zM567 195q111 0 178 75.5t67 198.5t-67 199t-178 76t-178.5 -76t-67.5 -199t67.5 -198.5t178.5 -75.5zM500 -171h85l229 -218l-73 -91 l-200 123l-198 -123l-73 91z" glyph-name="uni1E13" horiz-adv-x="1186" unicode="ḓ"/><glyph d="M1041 1319h253v-1319h-253v543h-623v-543h-252v1319h252v-544h623v544zM754 -114q63 0 102.5 -41t39.5 -110q0 -63 -38.5 -108t-103.5 -45q-61 0 -101 43.5t-40 109.5q0 68 38 109.5t103 41.5z" glyph-name="uni1E24" horiz-adv-x="1459" unicode="Ḥ"/><glyph d="M674 964q154 0 247.5 -90.5t93.5 -296.5v-577h-257l1 536q0 96 -33 145t-110 49q-114 0 -232 -153v-577h-256v1449h256v-625q126 140 290 140zM266 643zM580 -114q63 0 102.5 -41t39.5 -110q0 -63 -38.5 -108t-103.5 -45q-61 0 -101 43.5t-40 109.5q0 68 38 109.5 t103 41.5z" glyph-name="uni1E25" horiz-adv-x="1124" unicode="ḥ"/><glyph d="M198 1823l-41 92l369 222l73 -188zM126 1700q46 0 76 -31.5t30 -81.5q0 -46 -30 -79t-76 -33q-48 0 -77 31.5t-29 80.5q0 51 29 82t77 31zM468 1700q46 0 75 -31.5t29 -81.5q0 -46 -29 -79t-75 -33q-48 0 -77 31.5t-29 80.5q0 51 28.5 82t77.5 31zM418 0h-252v1319h252 v-1319z" glyph-name="uni1E2E" horiz-adv-x="580" unicode="Ḯ"/><glyph d="M171 1442l-41 92l368 222l74 -188zM99 1319q46 0 76 -31.5t30 -80.5q0 -46 -30 -79.5t-76 -33.5q-48 0 -77 31.5t-29 81.5q0 51 29 81.5t77 30.5zM440 1319q46 0 75 -31.5t29 -80.5q0 -46 -29 -79.5t-75 -33.5q-48 0 -76.5 31.5t-28.5 81.5q0 51 28 81.5t77 30.5zM391 0 h-248v939h248v-939z" glyph-name="uni1E2F" horiz-adv-x="534" unicode="ḯ"/><glyph d="M418 234h637v-234h-889v1319h252v-1085zM637 -114q63 0 102 -41t39 -110q0 -63 -38.5 -108t-102.5 -45q-61 0 -101.5 43.5t-40.5 109.5q0 68 38.5 109.5t103.5 41.5z" glyph-name="uni1E36" horiz-adv-x="1155" unicode="Ḷ"/><glyph d="M500 213l39 -194q-123 -41 -216.5 -37t-149 77.5t-55.5 211.5v1156h249v-1127q0 -63 32.5 -82.5t100.5 -4.5zM338 -114q63 0 102.5 -41t39.5 -110q0 -63 -38.5 -108t-103.5 -45q-61 0 -101.5 43.5t-40.5 109.5q0 68 38.5 109.5t103.5 41.5z" glyph-name="uni1E37" horiz-adv-x="616" unicode="ḷ"/><glyph d="M418 234h637v-234h-889v1319h252v-1085zM596 -171h85l229 -218l-74 -91l-199 123l-198 -123l-74 91z" glyph-name="uni1E3C" horiz-adv-x="1155" unicode="Ḽ"/><glyph d="M500 213l39 -194q-123 -41 -216.5 -37t-149 77.5t-55.5 211.5v1156h249v-1127q0 -63 32.5 -82.5t100.5 -4.5zM297 -171h85l229 -218l-73 -91l-200 123l-198 -123l-73 91z" glyph-name="uni1E3D" horiz-adv-x="616" unicode="ḽ"/><glyph d="M1133 1568l-401 -126l-41 92l369 222zM1524 0h-249l-56 947l-299 -947h-196l-294 910l-56 -910h-253l86 1319h314l302 -962l302 962h314z" glyph-name="uni1E3E" horiz-adv-x="1650" unicode="Ḿ"/><glyph d="M1132 1188l-402 -126l-41 92l369 222zM1212 964q145 0 233.5 -90.5t88.5 -296.5v-577h-245l1 555q0 195 -133 194q-99 0 -203 -128q2 -15 2 -44v-577h-248l2 555q0 97 -30.5 145.5t-102.5 48.5q-96 0 -200 -126v-623h-256v939h200l37 -113q121 138 273 138 q207 0 284 -165q128 165 297 165zM244 642z" glyph-name="uni1E3F" horiz-adv-x="1650" unicode="ḿ"/><glyph d="M758 1442q-63 0 -102.5 43.5t-39.5 110.5q0 68 39.5 109t102.5 41t102 -42t39 -108q0 -63 -38 -108.5t-103 -45.5zM1137 1319h244v-1319h-244l-726 918v-918h-245v1319h245l726 -921v921z" glyph-name="uni1E44" horiz-adv-x="1546" unicode="Ṅ"/><glyph d="M541 1062q-63 0 -102.5 43.5t-39.5 109.5q0 68 39.5 109t102.5 41t102.5 -41.5t39.5 -108.5q0 -63 -38.5 -108t-103.5 -45zM669 964q152 0 246 -91t94 -296v-577h-258l2 536q0 96 -33.5 145t-110.5 49q-114 0 -232 -153v-577h-256v939h200l43 -130q131 155 305 155z" glyph-name="uni1E45" unicode="ṅ"/><glyph d="M1137 1319h244v-1319h-244l-726 918v-918h-245v1319h245l726 -921v921zM794 -114q63 0 102 -41t39 -110q0 -63 -38.5 -108t-102.5 -45q-61 0 -101.5 43.5t-40.5 109.5q0 68 38.5 109.5t103.5 41.5z" glyph-name="uni1E46" horiz-adv-x="1546" unicode="Ṇ"/><glyph d="M669 964q152 0 246 -91t94 -296v-577h-258l2 536q0 96 -33.5 145t-110.5 49q-114 0 -232 -153v-577h-256v939h200l43 -130q131 155 305 155zM589 -114q63 0 102 -41t39 -110q0 -63 -38 -108t-103 -45q-61 0 -101.5 43.5t-40.5 109.5q0 68 38.5 109.5t103.5 41.5z" glyph-name="uni1E47" unicode="ṇ"/><glyph d="M1137 1319h244v-1319h-244l-726 918v-918h-245v1319h245l726 -921v921zM753 -171h85l229 -218l-74 -91l-199 123l-198 -123l-74 91z" glyph-name="uni1E4A" horiz-adv-x="1546" unicode="Ṋ"/><glyph d="M669 964q152 0 246 -91t94 -296v-577h-258l2 536q0 96 -33.5 145t-110.5 49q-114 0 -232 -153v-577h-256v939h200l43 -130q131 155 305 155zM548 -171h85l229 -218l-74 -91l-199 123l-198 -123l-74 91z" glyph-name="uni1E4B" unicode="ṋ"/><glyph d="M678 1823l-41 92l368 222l74 -188zM568 1457h-152q0 113 67.5 181.5t154.5 68.5q63 0 132.5 -51.5t108.5 -51.5q61 0 61 96h152q0 -125 -60.5 -188t-149.5 -63q-41 0 -77.5 17t-58.5 36.5t-49.5 36.5t-53.5 17q-75 0 -75 -99zM749 1350q288 0 466 -192t178 -498 q0 -304 -177 -497.5t-467 -193.5q-285 0 -464 194t-179 497.5t176.5 496.5t466.5 193zM749 1118q-184 0 -287.5 -128t-103.5 -329.5t103.5 -329.5t287.5 -128q186 0 289.5 127t103.5 330q0 205 -106 331.5t-287 126.5z" glyph-name="uni1E4C" horiz-adv-x="1500" unicode="Ṍ"/><glyph d="M485 1442l-41 92l368 222l74 -188zM375 1077h-151q0 113 67 181t154 68q63 0 132.5 -51t108.5 -51q61 0 62 95h151q0 -125 -60.5 -188t-149.5 -63q-53 0 -96 27.5t-77.5 54t-64.5 26.5q-76 0 -76 -99zM575 966q218 0 360 -137.5t142 -360.5q0 -94 -31 -181t-90.5 -158 t-157.5 -113.5t-223 -42.5q-224 0 -363.5 134.5t-139.5 360t139.5 362t363.5 136.5zM575 748q-121 0 -184 -81.5t-63 -198.5q0 -114 63 -195.5t184 -81.5q118 0 182 81t64 196q0 116 -63.5 198t-182.5 82z" glyph-name="uni1E4D" horiz-adv-x="1150" unicode="ṍ"/><glyph d="M838 1823l-401 126l73 188l367 -222zM457 1498v154h598v-154h-598zM749 1350q288 0 466 -192t178 -498q0 -304 -177 -497.5t-467 -193.5q-285 0 -464 194t-179 497.5t176.5 496.5t466.5 193zM749 1118q-184 0 -287.5 -128t-103.5 -329.5t103.5 -329.5t287.5 -128 q186 0 289.5 127t103.5 330q0 205 -106 331.5t-287 126.5z" glyph-name="uni1E50" horiz-adv-x="1500" unicode="Ṑ"/><glyph d="M645 1442l-401 126l73 188l367 -222zM265 1118v153h597v-153h-597zM575 966q218 0 360 -137.5t142 -360.5q0 -94 -31 -181t-90.5 -158t-157.5 -113.5t-223 -42.5q-224 0 -363.5 134.5t-139.5 360t139.5 362t363.5 136.5zM575 748q-121 0 -184 -81.5t-63 -198.5 q0 -114 63 -195.5t184 -81.5q118 0 182 81t64 196q0 116 -63.5 198t-182.5 82z" glyph-name="uni1E51" horiz-adv-x="1150" unicode="ṑ"/><glyph d="M652 1823l-41 92l369 222l73 -188zM457 1498v154h598v-154h-598zM749 1350q288 0 466 -192t178 -498q0 -304 -177 -497.5t-467 -193.5q-285 0 -464 194t-179 497.5t176.5 496.5t466.5 193zM749 1118q-184 0 -287.5 -128t-103.5 -329.5t103.5 -329.5t287.5 -128 q186 0 289.5 127t103.5 330q0 205 -106 331.5t-287 126.5z" glyph-name="uni1E52" horiz-adv-x="1500" unicode="Ṓ"/><glyph d="M459 1442l-41 92l369 222l73 -188zM265 1118v153h597v-153h-597zM575 966q218 0 360 -137.5t142 -360.5q0 -94 -31 -181t-90.5 -158t-157.5 -113.5t-223 -42.5q-224 0 -363.5 134.5t-139.5 360t139.5 362t363.5 136.5zM575 748q-121 0 -184 -81.5t-63 -198.5 q0 -114 63 -195.5t184 -81.5q118 0 182 81t64 196q0 116 -63.5 198t-182.5 82z" glyph-name="uni1E53" horiz-adv-x="1150" unicode="ṓ"/><glyph d="M84 217l186 160q154 -177 358 -177q104 0 171.5 44t67.5 118q0 61 -53 107t-131.5 72.5t-170.5 63.5t-170.5 78t-131.5 117t-53 178q0 171 131.5 273t348.5 102q280 0 457 -184l-176 -155q-142 123 -288 123q-96 0 -152 -43.5t-56 -103.5q0 -55 52 -96t131 -66.5 t170.5 -62t171 -78.5t131.5 -120.5t52 -184.5q0 -186 -146 -297.5t-361 -111.5q-159 0 -298.5 64t-240.5 180zM626 -114q63 0 102.5 -41t39.5 -110q0 -63 -38.5 -108t-103.5 -45q-61 0 -101 43.5t-40 109.5q0 68 38 109.5t103 41.5z" glyph-name="uni1E62" horiz-adv-x="1227" unicode="Ṣ"/><glyph d="M478 -27q-119 0 -243 38t-179 90l103 181q48 -41 148.5 -77t182.5 -36q79 0 119.5 25.5t40.5 68.5q0 41 -41.5 66.5t-104 35.5t-136 29t-135.5 44.5t-104 84.5t-42 144q0 125 104 212t285 87q198 0 384 -113l-99 -172q-140 89 -285 89q-150 0 -150 -86q0 -41 42 -65.5 t105 -34t136.5 -29t136.5 -45t105 -86t42 -151.5q0 -133 -110 -216.5t-305 -83.5zM485 -114q63 0 102 -41t39 -110q0 -63 -38 -108t-103 -45q-61 0 -101.5 43.5t-40.5 109.5q0 68 38.5 109.5t103.5 41.5z" glyph-name="uni1E63" horiz-adv-x="964" unicode="ṣ"/><glyph d="M67 1319h1071v-232h-411v-1087h-249v1087h-411v232zM606 -114q63 0 102.5 -41t39.5 -110q0 -63 -38.5 -108t-103.5 -45q-61 0 -101.5 43.5t-40.5 109.5q0 68 38.5 109.5t103.5 41.5z" glyph-name="uni1E6C" horiz-adv-x="1208" unicode="Ṭ"/><glyph d="M433 386q0 -70 18 -116t46.5 -66t69.5 -24t77.5 3.5t82.5 23.5l-3 -200q-84 -29 -161.5 -34t-147 18.5t-120.5 74t-81 138.5t-30 204v331h-141v200h141v293h249v-293h243l-19 -200h-224v-353zM481 -114q63 0 102.5 -41t39.5 -110q0 -63 -38.5 -108t-103.5 -45 q-61 0 -101 43.5t-40 109.5q0 68 38 109.5t103 41.5z" glyph-name="uni1E6D" horiz-adv-x="774" unicode="ṭ"/><glyph d="M67 1319h1071v-232h-411v-1087h-249v1087h-411v232zM321 -324v153h597v-153h-597z" glyph-name="uni1E6E" horiz-adv-x="1208" unicode="Ṯ"/><glyph d="M724 7q-84 -29 -161.5 -34t-147 18.5t-120.5 74t-81 138.5t-30 204v331h-141v200h141v293h249v-293h243l-19 -200h-224v-353q0 -70 18 -116t46.5 -66t69.5 -24t77.5 3.5t82.5 23.5zM196 -171h598v-153h-598v153z" glyph-name="uni1E6F" horiz-adv-x="774" unicode="ṯ"/><glyph d="M67 1319h1071v-232h-411v-1087h-249v1087h-411v232zM565 -171h85l229 -218l-73 -91l-200 123l-198 -123l-73 91z" glyph-name="uni1E70" horiz-adv-x="1208" unicode="Ṱ"/><glyph d="M724 7q-84 -29 -161.5 -34t-147 18.5t-120.5 74t-81 138.5t-30 204v331h-141v200h141v293h249v-293h243l-19 -200h-224v-353q0 -70 18 -116t46.5 -66t69.5 -24t77.5 3.5t82.5 23.5zM526 -171l228 -218l-73 -91l-200 123l-198 -123l-73 91l230 218h86z" glyph-name="uni1E71" horiz-adv-x="774" unicode="ṱ"/><glyph d="M959 1534l-39 -92l-401 126l73 188zM1399 1319h285l-308 -1319h-248l-256 911l-283 -911h-244l-282 1319h270l157 -897l300 897h174l273 -889z" glyph-name="Wgrave" horiz-adv-x="1749" unicode="Ẁ"/><glyph d="M889 1154l-39 -92l-401 126l73 188zM1217 939h271l-316 -939h-245l-162 671l-164 -671h-249l-314 939h254l169 -604l191 605h222l186 -594z" glyph-name="wgrave" horiz-adv-x="1529" unicode="ẁ"/><glyph d="M1135 1568l-401 -126l-41 92l369 222zM1399 1319h285l-308 -1319h-248l-256 911l-283 -911h-244l-282 1319h270l157 -897l300 897h174l273 -889z" glyph-name="Wacute" horiz-adv-x="1749" unicode="Ẃ"/><glyph d="M1065 1188l-401 -126l-41 92l369 222zM1217 939h271l-316 -939h-245l-162 671l-164 -671h-249l-314 939h254l169 -604l191 605h222l186 -594z" glyph-name="wacute" horiz-adv-x="1529" unicode="ẃ"/><glyph d="M666 1475q-48 0 -77 31.5t-29 80.5q0 51 29 82t77 31q46 0 75.5 -31.5t29.5 -81.5q0 -46 -29.5 -79t-75.5 -33zM1007 1475q-48 0 -77 31.5t-29 80.5q0 51 28 82t78 31q46 0 75 -31.5t29 -81.5q0 -46 -29 -79t-75 -33zM1399 1319h285l-308 -1319h-248l-256 911l-283 -911 h-244l-282 1319h270l157 -897l300 897h174l273 -889z" glyph-name="Wdieresis" horiz-adv-x="1749" unicode="Ẅ"/><glyph d="M596 1094q-48 0 -77 31.5t-29 81.5q0 51 29 81.5t77 30.5q46 0 75.5 -31.5t29.5 -80.5q0 -46 -29.5 -79.5t-75.5 -33.5zM937 1094q-48 0 -77 31.5t-29 81.5q0 51 28 81.5t78 30.5q46 0 75 -31.5t29 -80.5q0 -46 -29 -79.5t-75 -33.5zM1217 939h271l-316 -939h-245 l-162 671l-164 -671h-249l-314 939h254l169 -604l191 605h222l186 -594z" glyph-name="wdieresis" horiz-adv-x="1529" unicode="ẅ"/><glyph d="M1222 1318v-142l-754 -952l754 13v-237h-1111v140l754 954l-754 -14v238h1111zM681 -114q63 0 102.5 -41t39.5 -110q0 -63 -38.5 -108t-103.5 -45q-61 0 -101.5 43.5t-40.5 109.5q0 68 38.5 109.5t103.5 41.5z" glyph-name="uni1E92" horiz-adv-x="1324" unicode="Ẓ"/><glyph d="M872 939v-236l-519 -486l519 19v-236h-812v236l507 486l-507 -19v236h812zM452 -114q63 0 102.5 -41t39.5 -110q0 -63 -38.5 -108t-103.5 -45q-61 0 -101 43.5t-40 109.5q0 68 38 109.5t103 41.5z" glyph-name="uni1E93" horiz-adv-x="1024" unicode="ẓ"/><glyph d="M817 778q162 -15 255.5 -108t93.5 -267t-96.5 -288.5t-316.5 -114.5h-195v212h179q171 0 171 182q0 84 -48.5 130t-139.5 46q-20 0 -97 -10l-2 -2l-49 188l240 345l-208 1q-87 2 -134.5 -49t-47.5 -142v-901h-256v899q0 205 107.5 312.5t310.5 107.5h510v-232z" glyph-name="uni1E9E" horiz-adv-x="1266" unicode="ẞ"/><glyph d="M1381 0h-268l-109 294h-574l-109 -294h-266l513 1319h296zM517 531h398l-200 532zM732 -114q63 0 102.5 -41t39.5 -110q0 -63 -38.5 -108t-103.5 -45q-61 0 -101 43.5t-40 109.5q0 68 38 109.5t103 41.5z" glyph-name="uni1EA0" horiz-adv-x="1437" unicode="Ạ"/><glyph d="M816 939h239v-939h-190l-42 138q-97 -166 -311 -165q-201 0 -320.5 136.5t-119.5 358t119.5 360t315.5 138.5q205 0 309 -166v139zM568.5 195q112.5 0 178 75t65.5 199q0 123 -65.5 199t-178 76t-179 -76t-66.5 -199t66.5 -198.5t179 -75.5zM555 -114q63 0 102 -41 t39 -110q0 -63 -38 -108t-103 -45q-61 0 -101.5 43.5t-40.5 109.5q0 68 38.5 109.5t103.5 41.5z" glyph-name="uni1EA1" horiz-adv-x="1198" unicode="ạ"/><glyph d="M724 1684q-39 0 -79 -39l-54 80q73 79 158 82q84 3 129 -38.5t44 -111.5q-2 -104 -156 -225h-111q12 15 35 42.5t31.5 38.5t23 30t20 30t9.5 24.5t4 27.5q1 59 -54 59zM1113 0l-109 294h-574l-109 -294h-266l513 1319h296l517 -1319h-268zM517 531h398l-200 532z" glyph-name="uni1EA2" horiz-adv-x="1437" unicode="Ả"/><glyph d="M527 1304q-39 0 -78 -39l-55 80q73 79 159 82q84 3 129 -38.5t43 -111.5q-2 -104 -155 -226h-111q12 15 35 42.5t31.5 38.5t23 30t19.5 30t9.5 25t4.5 27q0 60 -55 60zM816 939h239v-939h-190l-42 138q-97 -166 -311 -165q-201 0 -320.5 136.5t-119.5 358t119.5 360 t315.5 138.5q205 0 309 -166v139zM568.5 195q112.5 0 178 75t65.5 199q0 123 -65.5 199t-178 76t-179 -76t-66.5 -199t66.5 -198.5t179 -75.5z" glyph-name="uni1EA3" horiz-adv-x="1198" unicode="ả"/><glyph d="M1021 1949l-401 -126l-41 92l368 222zM719 1574l-198 -123l-76 88l231 221h87l229 -221l-76 -88zM1113 0l-109 294h-574l-109 -294h-266l513 1319h296l517 -1319h-268zM517 531h398l-200 532z" glyph-name="uni1EA4" horiz-adv-x="1437" unicode="Ấ"/><glyph d="M824 1568l-401 -126l-41 92l369 222zM522 1193l-198 -123l-75 89l231 220h87l228 -220l-75 -89zM816 939h239v-939h-190l-42 138q-97 -166 -311 -165q-201 0 -320.5 136.5t-119.5 358t119.5 360t315.5 138.5q205 0 309 -166v139zM568.5 195q112.5 0 178 75t65.5 199 q0 123 -65.5 199t-178 76t-179 -76t-66.5 -199t66.5 -198.5t179 -75.5z" glyph-name="uni1EA5" horiz-adv-x="1198" unicode="ấ"/><glyph d="M845 1915l-39 -92l-402 126l74 188zM676 1760h87l229 -221l-76 -88l-197 123l-198 -123l-76 88zM1113 0l-109 294h-574l-109 -294h-266l513 1319h296l517 -1319h-268zM517 531h398l-200 532z" glyph-name="uni1EA6" horiz-adv-x="1437" unicode="Ầ"/><glyph d="M649 1534l-40 -92l-401 126l74 188zM480 1379h87l228 -220l-75 -89l-198 123l-198 -123l-75 89zM816 939h239v-939h-190l-42 138q-97 -166 -311 -165q-201 0 -320.5 136.5t-119.5 358t119.5 360t315.5 138.5q205 0 309 -166v139zM568.5 195q112.5 0 178 75t65.5 199 q0 123 -65.5 199t-178 76t-179 -76t-66.5 -199t66.5 -198.5t179 -75.5z" glyph-name="uni1EA7" horiz-adv-x="1198" unicode="ầ"/><glyph d="M724 2065q-39 0 -79 -39l-54 80q73 79 158 82q84 3 129 -38.5t44 -111.5q-2 -104 -156 -226h-111q12 15 35 42.5t31.5 39t23 30t20 29.5t9.5 25t4 27q1 60 -54 60zM719 1574l-198 -123l-76 88l231 221h87l229 -221l-76 -88zM1113 0l-109 294h-574l-109 -294h-266 l513 1319h296l517 -1319h-268zM517 531h398l-200 532z" glyph-name="uni1EA8" horiz-adv-x="1437" unicode="Ẩ"/><glyph d="M527 1684q-39 0 -78 -39l-55 80q73 79 159 82q84 3 129 -38.5t43 -111.5q-2 -104 -155 -225h-111q12 15 35 42.5t31.5 38.5t23 30t19.5 30t9.5 24.5t4.5 27.5q0 59 -55 59zM522 1193l-198 -123l-75 89l231 220h87l228 -220l-75 -89zM816 939h239v-939h-190l-42 138 q-97 -166 -311 -165q-201 0 -320.5 136.5t-119.5 358t119.5 360t315.5 138.5q205 0 309 -166v139zM568.5 195q112.5 0 178 75t65.5 199q0 123 -65.5 199t-178 76t-179 -76t-66.5 -199t66.5 -198.5t179 -75.5z" glyph-name="uni1EA9" horiz-adv-x="1198" unicode="ẩ"/><glyph d="M613 1937q-75 0 -75 -99h-152q0 113 67.5 181t154.5 68q63 0 132 -51t108 -51q61 0 62 95h152q0 -125 -61 -187.5t-149 -62.5q-53 0 -96.5 27t-77.5 53.5t-65 26.5zM676 1760h87l229 -221l-76 -88l-197 123l-198 -123l-76 88zM1113 0l-109 294h-574l-109 -294h-266 l513 1319h296l517 -1319h-268zM517 531h398l-200 532z" glyph-name="uni1EAA" horiz-adv-x="1437" unicode="Ẫ"/><glyph d="M416 1556q-75 0 -75 -99h-152q0 113 67.5 181.5t154.5 68.5q63 0 132.5 -51.5t108.5 -51.5q61 0 61 96h152q0 -125 -60.5 -188t-149.5 -63q-41 0 -77.5 17t-58.5 36.5t-49.5 36.5t-53.5 17zM480 1379h87l228 -220l-75 -89l-198 123l-198 -123l-75 89zM816 939h239v-939 h-190l-42 138q-97 -166 -311 -165q-201 0 -320.5 136.5t-119.5 358t119.5 360t315.5 138.5q205 0 309 -166v139zM568.5 195q112.5 0 178 75t65.5 199q0 123 -65.5 199t-178 76t-179 -76t-66.5 -199t66.5 -198.5t179 -75.5z" glyph-name="uni1EAB" horiz-adv-x="1198" unicode="ẫ"/><glyph d="M719 1574l-198 -123l-76 88l231 221h87l229 -221l-76 -88zM1381 0h-268l-109 294h-574l-109 -294h-266l513 1319h296zM517 531h398l-200 532zM732 -114q63 0 102.5 -41t39.5 -110q0 -63 -38.5 -108t-103.5 -45q-61 0 -101 43.5t-40 109.5q0 68 38 109.5t103 41.5z" glyph-name="uni1EAC" horiz-adv-x="1437" unicode="Ậ"/><glyph d="M522 1193l-198 -123l-75 89l231 220h87l228 -220l-75 -89zM816 939h239v-939h-190l-42 138q-97 -166 -311 -165q-201 0 -320.5 136.5t-119.5 358t119.5 360t315.5 138.5q205 0 309 -166v139zM568.5 195q112.5 0 178 75t65.5 199q0 123 -65.5 199t-178 76t-179 -76 t-66.5 -199t66.5 -198.5t179 -75.5zM555 -114q63 0 102 -41t39 -110q0 -63 -38 -108t-103 -45q-61 0 -101.5 43.5t-40.5 109.5q0 68 38.5 109.5t103.5 41.5z" glyph-name="uni1EAD" horiz-adv-x="1198" unicode="ậ"/><glyph d="M1021 1949l-401 -126l-41 92l368 222zM719 1457q-119 0 -187.5 62.5t-74.5 180.5h157q19 -102 105 -103q31 0 51 10.5t32 33.5t14.5 29t7.5 30h157q-5 -106 -68.5 -174.5t-193.5 -68.5zM1113 0l-109 294h-574l-109 -294h-266l513 1319h296l517 -1319h-268zM517 531h398 l-200 532z" glyph-name="uni1EAE" horiz-adv-x="1437" unicode="Ắ"/><glyph d="M824 1568l-401 -126l-41 92l369 222zM522 1077q-119 0 -187.5 62t-73.5 180h157q19 -102 104 -102q31 0 51.5 10t32.5 33t14.5 29t7.5 30h157q-5 -106 -69 -174t-194 -68zM816 939h239v-939h-190l-42 138q-97 -166 -311 -165q-201 0 -320.5 136.5t-119.5 358t119.5 360 t315.5 138.5q205 0 309 -166v139zM568.5 195q112.5 0 178 75t65.5 199q0 123 -65.5 199t-178 76t-179 -76t-66.5 -199t66.5 -198.5t179 -75.5z" glyph-name="uni1EAF" horiz-adv-x="1198" unicode="ắ"/><glyph d="M845 1915l-39 -92l-402 126l74 188zM719 1597q31 0 51 10.5t32 33.5t14.5 29t7.5 30h157q-5 -106 -69 -174.5t-193 -68.5q-119 0 -187.5 62.5t-74.5 180.5h157q20 -103 105 -103zM1113 0l-109 294h-574l-109 -294h-266l513 1319h296l517 -1319h-268zM517 531h398 l-200 532z" glyph-name="uni1EB0" horiz-adv-x="1437" unicode="Ằ"/><glyph d="M649 1534l-40 -92l-401 126l74 188zM522 1217q31 0 51.5 10t32.5 33t14.5 29t7.5 30h157q-5 -106 -69 -174t-194 -68q-119 0 -187.5 62t-73.5 180h157q19 -102 104 -102zM816 939h239v-939h-190l-42 138q-97 -166 -311 -165q-201 0 -320.5 136.5t-119.5 358t119.5 360 t315.5 138.5q205 0 309 -166v139zM568.5 195q112.5 0 178 75t65.5 199q0 123 -65.5 199t-178 76t-179 -76t-66.5 -199t66.5 -198.5t179 -75.5z" glyph-name="uni1EB1" horiz-adv-x="1198" unicode="ằ"/><glyph d="M724 2065q-39 0 -79 -39l-54 80q73 79 158 82q84 3 129 -38.5t44 -111.5q-2 -104 -156 -226h-111q12 15 35 42.5t31.5 39t23 30t20 29.5t9.5 25t4 27q1 60 -54 60zM719 1457q-119 0 -187.5 62.5t-74.5 180.5h157q19 -102 105 -103q31 0 51 10.5t32 33.5t14.5 29t7.5 30 h157q-5 -106 -68.5 -174.5t-193.5 -68.5zM1113 0l-109 294h-574l-109 -294h-266l513 1319h296l517 -1319h-268zM517 531h398l-200 532z" glyph-name="uni1EB2" horiz-adv-x="1437" unicode="Ẳ"/><glyph d="M527 1684q-39 0 -78 -39l-55 80q73 79 159 82q84 3 129 -38.5t43 -111.5q-2 -104 -155 -225h-111q12 15 35 42.5t31.5 38.5t23 30t19.5 30t9.5 24.5t4.5 27.5q0 59 -55 59zM522 1077q-119 0 -187.5 62t-73.5 180h157q19 -102 104 -102q31 0 51.5 10t32.5 33t14.5 29 t7.5 30h157q-5 -106 -69 -174t-194 -68zM816 939h239v-939h-190l-42 138q-97 -166 -311 -165q-201 0 -320.5 136.5t-119.5 358t119.5 360t315.5 138.5q205 0 309 -166v139zM568.5 195q112.5 0 178 75t65.5 199q0 123 -65.5 199t-178 76t-179 -76t-66.5 -199t66.5 -198.5 t179 -75.5z" glyph-name="uni1EB3" horiz-adv-x="1198" unicode="ẳ"/><glyph d="M613 1937q-75 0 -75 -99h-152q0 113 67.5 181t154.5 68q63 0 132 -51t108 -51q61 0 62 95h152q0 -125 -61 -187.5t-149 -62.5q-53 0 -96.5 27t-77.5 53.5t-65 26.5zM719 1597q31 0 51 10.5t32 33.5t14.5 29t7.5 30h157q-5 -106 -69 -174.5t-193 -68.5q-119 0 -187.5 62.5 t-74.5 180.5h157q20 -103 105 -103zM1113 0l-109 294h-574l-109 -294h-266l513 1319h296l517 -1319h-268zM517 531h398l-200 532z" glyph-name="uni1EB4" horiz-adv-x="1437" unicode="Ẵ"/><glyph d="M416 1556q-75 0 -75 -99h-152q0 113 67.5 181.5t154.5 68.5q63 0 132.5 -51.5t108.5 -51.5q61 0 61 96h152q0 -125 -60.5 -188t-149.5 -63q-41 0 -77.5 17t-58.5 36.5t-49.5 36.5t-53.5 17zM522 1217q31 0 51.5 10t32.5 33t14.5 29t7.5 30h157q-5 -106 -69 -174t-194 -68 q-119 0 -187.5 62t-73.5 180h157q19 -102 104 -102zM816 939h239v-939h-190l-42 138q-97 -166 -311 -165q-201 0 -320.5 136.5t-119.5 358t119.5 360t315.5 138.5q205 0 309 -166v139zM568.5 195q112.5 0 178 75t65.5 199q0 123 -65.5 199t-178 76t-179 -76t-66.5 -199 t66.5 -198.5t179 -75.5z" glyph-name="uni1EB5" horiz-adv-x="1198" unicode="ẵ"/><glyph d="M719 1457q-119 0 -187.5 62.5t-74.5 180.5h157q19 -102 105 -103q31 0 51 10.5t32 33.5t14.5 29t7.5 30h157q-5 -106 -68.5 -174.5t-193.5 -68.5zM1381 0h-268l-109 294h-574l-109 -294h-266l513 1319h296zM517 531h398l-200 532zM732 -114q63 0 102.5 -41t39.5 -110 q0 -63 -38.5 -108t-103.5 -45q-61 0 -101 43.5t-40 109.5q0 68 38 109.5t103 41.5z" glyph-name="uni1EB6" horiz-adv-x="1437" unicode="Ặ"/><glyph d="M522 1077q-119 0 -187.5 62t-73.5 180h157q19 -102 104 -102q31 0 51.5 10t32.5 33t14.5 29t7.5 30h157q-5 -106 -69 -174t-194 -68zM816 939h239v-939h-190l-42 138q-97 -166 -311 -165q-201 0 -320.5 136.5t-119.5 358t119.5 360t315.5 138.5q205 0 309 -166v139z M568.5 195q112.5 0 178 75t65.5 199q0 123 -65.5 199t-178 76t-179 -76t-66.5 -199t66.5 -198.5t179 -75.5zM555 -114q63 0 102 -41t39 -110q0 -63 -38 -108t-103 -45q-61 0 -101.5 43.5t-40.5 109.5q0 68 38.5 109.5t103.5 41.5z" glyph-name="uni1EB7" horiz-adv-x="1198" unicode="ặ"/><glyph d="M1055 1094h-645v-307l496 -2v-218h-496v-342h645v-225h-889v1319h889v-225zM585 -114q63 0 102.5 -41t39.5 -110q0 -63 -38.5 -108t-103.5 -45q-61 0 -101 43.5t-40 109.5q0 68 38 109.5t103 41.5z" glyph-name="uni1EB8" horiz-adv-x="1177" unicode="Ẹ"/><glyph d="M72 471q0 215 122 355t347 140q239 0 348 -153t68 -419h-622q15 -101 74 -161.5t161 -60.5q145 0 288 96l103 -172q-174 -123 -391 -123q-227 0 -362.5 136.5t-135.5 361.5zM335 544h409q3 96 -44.5 165t-153.5 69t-158.5 -72.5t-52.5 -161.5zM553 -114q63 0 102.5 -41 t39.5 -110q0 -63 -38.5 -108t-103.5 -45q-61 0 -101.5 43.5t-40.5 109.5q0 68 38.5 109.5t103.5 41.5z" glyph-name="uni1EB9" horiz-adv-x="1064" unicode="ẹ"/><glyph d="M606 1684q-39 0 -79 -39l-54 80q73 79 158 82q84 3 129.5 -38.5t43.5 -111.5q-2 -104 -155 -225h-111q12 15 35 42.5t31.5 38.5t23 30t19.5 30t9 24.5t4 27.5q1 59 -54 59zM1055 1094h-645v-307l496 -2v-218h-496v-342h645v-225h-889v1319h889v-225z" glyph-name="uni1EBA" horiz-adv-x="1177" unicode="Ẻ"/><glyph d="M577 1051h-111q12 15 35 42.5t31.5 38.5t23 30t19.5 30t9.5 25t4.5 27q0 60 -55 60q-39 0 -78 -39l-55 80q73 79 159 82q84 3 129 -38.5t43 -111.5q-1 -105 -155 -226zM72 471q0 215 122 355t347 140q239 0 348 -153t68 -419h-622q15 -101 74 -161.5t161 -60.5 q145 0 288 96l103 -172q-174 -123 -391 -123q-227 0 -362.5 136.5t-135.5 361.5zM335 544h409q3 96 -44.5 165t-153.5 69t-158.5 -72.5t-52.5 -161.5z" glyph-name="uni1EBB" horiz-adv-x="1064" unicode="ẻ"/><glyph d="M474 1556q-75 0 -75 -99h-152q0 113 67.5 181.5t154.5 68.5q63 0 132.5 -51.5t108.5 -51.5q61 0 61 96h152q0 -125 -60.5 -188t-149.5 -63q-41 0 -77.5 17t-58.5 36.5t-49.5 36.5t-53.5 17zM1055 1094h-645v-307l496 -2v-218h-496v-342h645v-225h-889v1319h889v-225z" glyph-name="uni1EBC" horiz-adv-x="1177" unicode="Ẽ"/><glyph d="M348 1077h-152q0 113 67.5 181t154.5 68q63 0 132.5 -51t108.5 -51q61 0 61 95h152q0 -125 -60.5 -188t-149.5 -63q-53 0 -96.5 27.5t-77.5 54t-65 26.5q-75 0 -75 -99zM72 471q0 215 122 355t347 140q239 0 348 -153t68 -419h-622q15 -101 74 -161.5t161 -60.5 q145 0 288 96l103 -172q-174 -123 -391 -123q-227 0 -362.5 136.5t-135.5 361.5zM335 544h409q3 96 -44.5 165t-153.5 69t-158.5 -72.5t-52.5 -161.5z" glyph-name="uni1EBD" horiz-adv-x="1064" unicode="ẽ"/><glyph d="M903 1949l-401 -126l-41 92l368 222zM601 1574l-198 -123l-75 88l230 221h87l229 -221l-75 -88zM1055 1094h-645v-307l496 -2v-218h-496v-342h645v-225h-889v1319h889v-225z" glyph-name="uni1EBE" horiz-adv-x="1177" unicode="Ế"/><glyph d="M430 1442l-41 92l369 222l73 -188zM486 1379h87l229 -220l-75 -89l-198 123l-198 -123l-75 89zM72 471q0 215 122 355t347 140q239 0 348 -153t68 -419h-622q15 -101 74 -161.5t161 -60.5q145 0 288 96l103 -172q-174 -123 -391 -123q-227 0 -362.5 136.5t-135.5 361.5z M335 544h409q3 96 -44.5 165t-153.5 69t-158.5 -72.5t-52.5 -161.5z" glyph-name="uni1EBF" horiz-adv-x="1064" unicode="ế"/><glyph d="M727 1915l-39 -92l-401 126l73 188zM558 1760h87l229 -221l-75 -88l-198 123l-198 -123l-75 88zM1055 1094h-645v-307l496 -2v-218h-496v-342h645v-225h-889v1319h889v-225z" glyph-name="uni1EC0" horiz-adv-x="1177" unicode="Ề"/><glyph d="M616 1442l-401 126l73 188l367 -222zM486 1379h87l229 -220l-75 -89l-198 123l-198 -123l-75 89zM72 471q0 215 122 355t347 140q239 0 348 -153t68 -419h-622q15 -101 74 -161.5t161 -60.5q145 0 288 96l103 -172q-174 -123 -391 -123q-227 0 -362.5 136.5t-135.5 361.5 zM335 544h409q3 96 -44.5 165t-153.5 69t-158.5 -72.5t-52.5 -161.5z" glyph-name="uni1EC1" horiz-adv-x="1064" unicode="ề"/><glyph d="M606 2065q-39 0 -79 -39l-54 80q73 79 158 82q84 3 129.5 -38.5t43.5 -111.5q-2 -104 -155 -226h-111q12 15 35 42.5t31.5 39t23 30t19.5 29.5t9 25t4 27q1 60 -54 60zM601 1574l-198 -123l-75 88l230 221h87l229 -221l-75 -88zM1055 1094h-645v-307l496 -2v-218h-496 v-342h645v-225h-889v1319h889v-225z" glyph-name="uni1EC2" horiz-adv-x="1177" unicode="Ể"/><glyph d="M577 1432h-111q12 15 35 42.5t31.5 38.5t23 30t19.5 30t9.5 24.5t4.5 27.5q0 60 -55 59q-39 0 -78 -39l-55 80q73 79 159 82q84 3 129 -38.5t43 -111.5q-1 -104 -155 -225zM486 1379h87l229 -220l-75 -89l-198 123l-198 -123l-75 89zM72 471q0 215 122 355t347 140 q239 0 348 -153t68 -419h-622q15 -101 74 -161.5t161 -60.5q145 0 288 96l103 -172q-174 -123 -391 -123q-227 0 -362.5 136.5t-135.5 361.5zM335 544h409q3 96 -44.5 165t-153.5 69t-158.5 -72.5t-52.5 -161.5z" glyph-name="uni1EC3" horiz-adv-x="1064" unicode="ể"/><glyph d="M495 1937q-75 0 -75 -99h-152q0 113 67.5 181t154.5 68q63 0 132 -51t108 -51q61 0 62 95h152q0 -125 -60.5 -187.5t-149.5 -62.5q-53 0 -96.5 27t-77.5 53.5t-65 26.5zM558 1760h87l229 -221l-75 -88l-198 123l-198 -123l-75 88zM1055 1094h-645v-307l496 -2v-218h-496 v-342h645v-225h-889v1319h889v-225z" glyph-name="uni1EC4" horiz-adv-x="1177" unicode="Ễ"/><glyph d="M348 1457h-152q0 113 67.5 181.5t154.5 68.5q63 0 132.5 -51.5t108.5 -51.5q61 0 61 96h152q0 -125 -60.5 -188t-149.5 -63q-41 0 -77.5 17t-59 36.5t-49.5 36.5t-53 17q-75 0 -75 -99zM486 1379h87l229 -220l-75 -89l-198 123l-198 -123l-75 89zM72 471q0 215 122 355 t347 140q239 0 348 -153t68 -419h-622q15 -101 74 -161.5t161 -60.5q145 0 288 96l103 -172q-174 -123 -391 -123q-227 0 -362.5 136.5t-135.5 361.5zM335 544h409q3 96 -44.5 165t-153.5 69t-158.5 -72.5t-52.5 -161.5z" glyph-name="uni1EC5" horiz-adv-x="1064" unicode="ễ"/><glyph d="M601 1574l-198 -123l-75 88l230 221h87l229 -221l-75 -88zM1055 1094h-645v-307l496 -2v-218h-496v-342h645v-225h-889v1319h889v-225zM585 -114q63 0 102.5 -41t39.5 -110q0 -63 -38.5 -108t-103.5 -45q-61 0 -101 43.5t-40 109.5q0 68 38 109.5t103 41.5z" glyph-name="uni1EC6" horiz-adv-x="1177" unicode="Ệ"/><glyph d="M486 1379h87l229 -220l-75 -89l-198 123l-198 -123l-75 89zM72 471q0 215 122 355t347 140q239 0 348 -153t68 -419h-622q15 -101 74 -161.5t161 -60.5q145 0 288 96l103 -172q-174 -123 -391 -123q-227 0 -362.5 136.5t-135.5 361.5zM335 544h409q3 96 -44.5 165 t-153.5 69t-158.5 -72.5t-52.5 -161.5zM553 -114q63 0 102.5 -41t39.5 -110q0 -63 -38.5 -108t-103.5 -45q-61 0 -101.5 43.5t-40.5 109.5q0 68 38.5 109.5t103.5 41.5z" glyph-name="uni1EC7" horiz-adv-x="1064" unicode="ệ"/><glyph d="M341 1432h-111q12 15 35 42.5t31.5 38.5t23.5 30t20 30t9 24.5t4 27.5q0 60 -54 59q-39 0 -79 -39l-54 80q73 79 158 82q84 3 129 -38.5t44 -111.5q-2 -104 -156 -225zM418 0h-252v1319h252v-1319z" glyph-name="uni1EC8" horiz-adv-x="580" unicode="Ỉ"/><glyph d="M314 1051h-111q12 15 35 42.5t31.5 38.5t23 30t19.5 30t9.5 25t4.5 27q0 60 -55 60q-39 0 -78 -39l-55 80q73 79 159 82q84 3 129 -38.5t43 -111.5q-1 -105 -155 -226zM391 0h-248v939h248v-939z" glyph-name="uni1EC9" horiz-adv-x="534" unicode="ỉ"/><glyph d="M418 0h-252v1319h252v-1319zM297 -114q63 0 102.5 -41t39.5 -110q0 -63 -38.5 -108t-103.5 -45q-61 0 -101.5 43.5t-40.5 109.5q0 68 38.5 109.5t103.5 41.5z" glyph-name="uni1ECA" horiz-adv-x="580" unicode="Ị"/><glyph d="M256 1469q61 0 100.5 -40.5t39.5 -107.5q0 -63 -38.5 -107.5t-101.5 -44.5q-61 0 -100.5 42.5t-39.5 109.5q0 68 38.5 108t101.5 40zM382 0h-247v939h247v-939zM256 -114q63 0 102.5 -41t39.5 -110q0 -63 -38.5 -108t-103.5 -45q-61 0 -101.5 43.5t-40.5 109.5 q0 68 38.5 109.5t103.5 41.5z" glyph-name="uni1ECB" horiz-adv-x="530" unicode="ị"/><glyph d="M749 1350q288 0 466 -192t178 -498q0 -304 -177 -497.5t-467 -193.5q-285 0 -464 194t-179 497.5t176.5 496.5t466.5 193zM749 1118q-184 0 -287.5 -128t-103.5 -329.5t103.5 -329.5t287.5 -128q186 0 289.5 127t103.5 330q0 205 -106 331.5t-287 126.5zM749 -114 q63 0 102.5 -41t39.5 -110q0 -63 -38.5 -108t-103.5 -45q-61 0 -101 43.5t-40 109.5q0 68 38 109.5t103 41.5z" glyph-name="uni1ECC" horiz-adv-x="1500" unicode="Ọ"/><glyph d="M575 966q218 0 360 -137.5t142 -360.5q0 -94 -31 -181t-90.5 -158t-157.5 -113.5t-223 -42.5q-224 0 -363.5 134.5t-139.5 360t139.5 362t363.5 136.5zM575 748q-121 0 -184 -81.5t-63 -198.5q0 -114 63 -195.5t184 -81.5q118 0 182 81t64 196q0 116 -63.5 198t-182.5 82 zM575 -114q63 0 102.5 -41t39.5 -110q0 -63 -38.5 -108t-103.5 -45q-61 0 -101.5 43.5t-40.5 109.5q0 68 38.5 109.5t103.5 41.5z" glyph-name="uni1ECD" horiz-adv-x="1150" unicode="ọ"/><glyph d="M797 1432h-111q12 15 35 42.5t31.5 38.5t23 30t19.5 30t9.5 24.5t4.5 27.5q0 60 -55 59q-39 0 -78 -39l-55 80q73 79 159 82q84 3 129 -38.5t43 -111.5q-1 -104 -155 -225zM749 1350q288 0 466 -192t178 -498q0 -304 -177 -497.5t-467 -193.5q-285 0 -464 194t-179 497.5 t176.5 496.5t466.5 193zM749 1118q-184 0 -287.5 -128t-103.5 -329.5t103.5 -329.5t287.5 -128q186 0 289.5 127t103.5 330q0 205 -106 331.5t-287 126.5z" glyph-name="uni1ECE" horiz-adv-x="1500" unicode="Ỏ"/><glyph d="M604 1051h-111q12 15 35 42.5t31.5 38.5t23 30t20 30t9.5 25t4 27q0 60 -55 60q-39 0 -78 -39l-55 80q73 79 159 82q84 3 129 -38.5t43 -111.5q-1 -105 -155 -226zM575 966q218 0 360 -137.5t142 -360.5q0 -94 -31 -181t-90.5 -158t-157.5 -113.5t-223 -42.5 q-224 0 -363.5 134.5t-139.5 360t139.5 362t363.5 136.5zM575 748q-121 0 -184 -81.5t-63 -198.5q0 -114 63 -195.5t184 -81.5q118 0 182 81t64 196q0 116 -63.5 198t-182.5 82z" glyph-name="uni1ECF" horiz-adv-x="1150" unicode="ỏ"/><glyph d="M650 1823l-41 92l369 222l73 -188zM707 1760h87l228 -221l-75 -88l-198 123l-198 -123l-75 88zM749 1350q288 0 466 -192t178 -498q0 -304 -177 -497.5t-467 -193.5q-285 0 -464 194t-179 497.5t176.5 496.5t466.5 193zM749 1118q-184 0 -287.5 -128t-103.5 -329.5 t103.5 -329.5t287.5 -128q186 0 289.5 127t103.5 330q0 205 -106 331.5t-287 126.5z" glyph-name="uni1ED0" horiz-adv-x="1500" unicode="Ố"/><glyph d="M457 1442l-41 92l369 222l73 -188zM514 1379h87l228 -220l-75 -89l-198 123l-198 -123l-75 89zM575 966q218 0 360 -137.5t142 -360.5q0 -94 -31 -181t-90.5 -158t-157.5 -113.5t-223 -42.5q-224 0 -363.5 134.5t-139.5 360t139.5 362t363.5 136.5zM575 748 q-121 0 -184 -81.5t-63 -198.5q0 -114 63 -195.5t184 -81.5q118 0 182 81t64 196q0 116 -63.5 198t-182.5 82z" glyph-name="uni1ED1" horiz-adv-x="1150" unicode="ố"/><glyph d="M836 1823l-401 126l74 188l367 -222zM707 1760h87l228 -221l-75 -88l-198 123l-198 -123l-75 88zM749 1350q288 0 466 -192t178 -498q0 -304 -177 -497.5t-467 -193.5q-285 0 -464 194t-179 497.5t176.5 496.5t466.5 193zM749 1118q-184 0 -287.5 -128t-103.5 -329.5 t103.5 -329.5t287.5 -128q186 0 289.5 127t103.5 330q0 205 -106 331.5t-287 126.5z" glyph-name="uni1ED2" horiz-adv-x="1500" unicode="Ồ"/><glyph d="M643 1442l-401 126l74 188l367 -222zM514 1379h87l228 -220l-75 -89l-198 123l-198 -123l-75 89zM575 966q218 0 360 -137.5t142 -360.5q0 -94 -31 -181t-90.5 -158t-157.5 -113.5t-223 -42.5q-224 0 -363.5 134.5t-139.5 360t139.5 362t363.5 136.5zM575 748 q-121 0 -184 -81.5t-63 -198.5q0 -114 63 -195.5t184 -81.5q118 0 182 81t64 196q0 116 -63.5 198t-182.5 82z" glyph-name="uni1ED3" horiz-adv-x="1150" unicode="ồ"/><glyph d="M797 1812h-111q12 15 35 42.5t31.5 39t23 30t19.5 29.5t9.5 25t4.5 27q0 60 -55 60q-39 0 -78 -39l-55 80q73 79 159 82q84 3 129 -38.5t43 -111.5q-1 -105 -155 -226zM707 1760h87l228 -221l-75 -88l-198 123l-198 -123l-75 88zM749 1350q288 0 466 -192t178 -498 q0 -304 -177 -497.5t-467 -193.5q-285 0 -464 194t-179 497.5t176.5 496.5t466.5 193zM749 1118q-184 0 -287.5 -128t-103.5 -329.5t103.5 -329.5t287.5 -128q186 0 289.5 127t103.5 330q0 205 -106 331.5t-287 126.5z" glyph-name="uni1ED4" horiz-adv-x="1500" unicode="Ổ"/><glyph d="M604 1432h-111q12 15 35 42.5t31.5 38.5t23 30t20 30t9.5 24.5t4 27.5q0 60 -55 59q-39 0 -78 -39l-55 80q73 79 159 82q84 3 129 -38.5t43 -111.5q-1 -104 -155 -225zM514 1379h87l228 -220l-75 -89l-198 123l-198 -123l-75 89zM575 966q218 0 360 -137.5t142 -360.5 q0 -94 -31 -181t-90.5 -158t-157.5 -113.5t-223 -42.5q-224 0 -363.5 134.5t-139.5 360t139.5 362t363.5 136.5zM575 748q-121 0 -184 -81.5t-63 -198.5q0 -114 63 -195.5t184 -81.5q118 0 182 81t64 196q0 116 -63.5 198t-182.5 82z" glyph-name="uni1ED5" horiz-adv-x="1150" unicode="ổ"/><glyph d="M568 1838h-152q0 113 67.5 181t154.5 68q63 0 132.5 -51t108.5 -51q61 0 61 95h152q0 -125 -60.5 -187.5t-149.5 -62.5q-53 0 -96.5 27t-77.5 53.5t-65 26.5q-75 0 -75 -99zM707 1760h87l228 -221l-75 -88l-198 123l-198 -123l-75 88zM749 1350q288 0 466 -192t178 -498 q0 -304 -177 -497.5t-467 -193.5q-285 0 -464 194t-179 497.5t176.5 496.5t466.5 193zM749 1118q-184 0 -287.5 -128t-103.5 -329.5t103.5 -329.5t287.5 -128q186 0 289.5 127t103.5 330q0 205 -106 331.5t-287 126.5z" glyph-name="uni1ED6" horiz-adv-x="1500" unicode="Ỗ"/><glyph d="M375 1457h-151q0 113 67 181.5t154 68.5q63 0 132.5 -51.5t108.5 -51.5q61 0 62 96h151q0 -125 -60.5 -188t-149.5 -63q-41 0 -77.5 17t-58.5 36.5t-49.5 36.5t-52.5 17q-76 0 -76 -99zM514 1379h87l228 -220l-75 -89l-198 123l-198 -123l-75 89zM575 966 q218 0 360 -137.5t142 -360.5q0 -94 -31 -181t-90.5 -158t-157.5 -113.5t-223 -42.5q-224 0 -363.5 134.5t-139.5 360t139.5 362t363.5 136.5zM575 748q-121 0 -184 -81.5t-63 -198.5q0 -114 63 -195.5t184 -81.5q118 0 182 81t64 196q0 116 -63.5 198t-182.5 82z" glyph-name="uni1ED7" horiz-adv-x="1150" unicode="ỗ"/><glyph d="M707 1760h87l228 -221l-75 -88l-198 123l-198 -123l-75 88zM749 1350q288 0 466 -192t178 -498q0 -304 -177 -497.5t-467 -193.5q-285 0 -464 194t-179 497.5t176.5 496.5t466.5 193zM749 1118q-184 0 -287.5 -128t-103.5 -329.5t103.5 -329.5t287.5 -128 q186 0 289.5 127t103.5 330q0 205 -106 331.5t-287 126.5zM749 -114q63 0 102.5 -41t39.5 -110q0 -63 -38.5 -108t-103.5 -45q-61 0 -101 43.5t-40 109.5q0 68 38 109.5t103 41.5z" glyph-name="uni1ED8" horiz-adv-x="1500" unicode="Ộ"/><glyph d="M514 1379h87l228 -220l-75 -89l-198 123l-198 -123l-75 89zM575 966q218 0 360 -137.5t142 -360.5q0 -94 -31 -181t-90.5 -158t-157.5 -113.5t-223 -42.5q-224 0 -363.5 134.5t-139.5 360t139.5 362t363.5 136.5zM575 748q-121 0 -184 -81.5t-63 -198.5q0 -114 63 -195.5 t184 -81.5q118 0 182 81t64 196q0 116 -63.5 198t-182.5 82zM575 -114q63 0 102.5 -41t39.5 -110q0 -63 -38.5 -108t-103.5 -45q-61 0 -101.5 43.5t-40.5 109.5q0 68 38.5 109.5t103.5 41.5z" glyph-name="uni1ED9" horiz-adv-x="1150" unicode="ộ"/><glyph d="M1053 1568l-401 -126l-41 92l369 222zM1244 1159h-29q177 -191 178 -499q0 -304 -177 -497.5t-467 -193.5q-285 0 -464 194t-179 497.5t176.5 497.5t466.5 194h2q75 0 216 -8.5t180 -10.5q114 -5 90 135h191q14 -75 10.5 -143.5t-54 -117t-140.5 -48.5zM749 203 q186 0 289.5 127t103.5 330q0 205 -106 331.5t-287 126.5q-184 0 -287.5 -128t-103.5 -329.5t103.5 -329.5t287.5 -128z" glyph-name="uni1EDA" horiz-adv-x="1508" unicode="Ớ"/><glyph d="M896 1188l-401 -126l-41 92l369 222zM1166 1089q15 -48 10 -97.5t-23 -90.5t-64 -67.5t-113 -27.5q119 -137 119.5 -338.5t-130 -348t-373.5 -146.5q-222 0 -362 135.5t-140 359.5q0 225 140 361.5t362 136.5q60 0 292 -12q114 -5 91 135h191zM592 191q111 0 179.5 83 t68.5 194q0 114 -67.5 197t-180.5 83q-114 0 -180 -83t-66 -197q0 -113 66.5 -195t179.5 -82z" glyph-name="uni1EDB" horiz-adv-x="1187" unicode="ớ"/><glyph d="M877 1534l-39 -92l-401 126l73 188zM1244 1159h-29q177 -191 178 -499q0 -304 -177 -497.5t-467 -193.5q-285 0 -464 194t-179 497.5t176.5 497.5t466.5 194h2q75 0 216 -8.5t180 -10.5q114 -5 90 135h191q14 -75 10.5 -143.5t-54 -117t-140.5 -48.5zM749 203 q186 0 289.5 127t103.5 330q0 205 -106 331.5t-287 126.5q-184 0 -287.5 -128t-103.5 -329.5t103.5 -329.5t287.5 -128z" glyph-name="uni1EDC" horiz-adv-x="1508" unicode="Ờ"/><glyph d="M720 1154l-39 -92l-401 126l73 188zM1166 1089q15 -48 10 -97.5t-23 -90.5t-64 -67.5t-113 -27.5q119 -137 119.5 -338.5t-130 -348t-373.5 -146.5q-222 0 -362 135.5t-140 359.5q0 225 140 361.5t362 136.5q60 0 292 -12q114 -5 91 135h191zM592 191q111 0 179.5 83 t68.5 194q0 114 -67.5 197t-180.5 83q-114 0 -180 -83t-66 -197q0 -113 66.5 -195t179.5 -82z" glyph-name="uni1EDD" horiz-adv-x="1187" unicode="ờ"/><glyph d="M756 1684q-39 0 -78 -39l-55 80q73 79 159 82q84 3 129 -38.5t43 -111.5q-2 -104 -155 -225h-111q12 15 35 42.5t31.5 38.5t23 30t19.5 30t9.5 24.5t4.5 27.5q0 59 -55 59zM1244 1159h-29q177 -191 178 -499q0 -304 -177 -497.5t-467 -193.5q-285 0 -464 194t-179 497.5 t176.5 497.5t466.5 194h2q75 0 216 -8.5t180 -10.5q114 -5 90 135h191q14 -75 10.5 -143.5t-54 -117t-140.5 -48.5zM749 203q186 0 289.5 127t103.5 330q0 205 -106 331.5t-287 126.5q-184 0 -287.5 -128t-103.5 -329.5t103.5 -329.5t287.5 -128z" glyph-name="uni1EDE" horiz-adv-x="1508" unicode="Ở"/><glyph d="M599 1304q-39 0 -78 -39l-55 80q73 79 159 82q84 3 129 -38.5t43 -111.5q-2 -104 -155 -226h-111q12 15 35 42.5t31.5 38.5t23 30t19.5 30t9.5 25t4.5 27q0 60 -55 60zM1166 1089q15 -48 10 -97.5t-23 -90.5t-64 -67.5t-113 -27.5q119 -137 119.5 -338.5t-130 -348 t-373.5 -146.5q-222 0 -362 135.5t-140 359.5q0 225 140 361.5t362 136.5q60 0 292 -12q114 -5 91 135h191zM592 191q111 0 179.5 83t68.5 194q0 114 -67.5 197t-180.5 83q-114 0 -180 -83t-66 -197q0 -113 66.5 -195t179.5 -82z" glyph-name="uni1EDF" horiz-adv-x="1187" unicode="ở"/><glyph d="M645 1556q-75 0 -75 -99h-152q0 113 67.5 181.5t154.5 68.5q63 0 132 -51.5t109 -51.5q61 0 61 96h152q0 -125 -60.5 -188t-149.5 -63q-41 0 -77.5 17t-59 36.5t-49.5 36.5t-53 17zM1244 1159h-29q177 -191 178 -499q0 -304 -177 -497.5t-467 -193.5q-285 0 -464 194 t-179 497.5t176.5 497.5t466.5 194h2q75 0 216 -8.5t180 -10.5q114 -5 90 135h191q14 -75 10.5 -143.5t-54 -117t-140.5 -48.5zM749 203q186 0 289.5 127t103.5 330q0 205 -106 331.5t-287 126.5q-184 0 -287.5 -128t-103.5 -329.5t103.5 -329.5t287.5 -128z" glyph-name="uni1EE0" horiz-adv-x="1508" unicode="Ỡ"/><glyph d="M488 1176q-75 0 -75 -99h-152q0 113 67.5 181t154.5 68q63 0 132 -51t109 -51q61 0 61 95h152q0 -125 -60.5 -188t-149.5 -63q-53 0 -96.5 27.5t-77.5 54t-65 26.5zM1166 1089q15 -48 10 -97.5t-23 -90.5t-64 -67.5t-113 -27.5q119 -137 119.5 -338.5t-130 -348 t-373.5 -146.5q-222 0 -362 135.5t-140 359.5q0 225 140 361.5t362 136.5q60 0 292 -12q114 -5 91 135h191zM592 191q111 0 179.5 83t68.5 194q0 114 -67.5 197t-180.5 83q-114 0 -180 -83t-66 -197q0 -113 66.5 -195t179.5 -82z" glyph-name="uni1EE1" horiz-adv-x="1187" unicode="ỡ"/><glyph d="M1244 1159h-29q177 -191 178 -499q0 -304 -177 -497.5t-467 -193.5q-285 0 -464 194t-179 497.5t176.5 497.5t466.5 194h2q75 0 216 -8.5t180 -10.5q114 -5 90 135h191q14 -75 10.5 -143.5t-54 -117t-140.5 -48.5zM749 203q186 0 289.5 127t103.5 330q0 205 -106 331.5 t-287 126.5q-184 0 -287.5 -128t-103.5 -329.5t103.5 -329.5t287.5 -128zM754 -114q63 0 102.5 -41t39.5 -110q0 -63 -38.5 -108t-103.5 -45q-61 0 -101 43.5t-40 109.5q0 68 38 109.5t103 41.5z" glyph-name="uni1EE2" horiz-adv-x="1508" unicode="Ợ"/><glyph d="M1166 1089q15 -48 10 -97.5t-23 -90.5t-64 -67.5t-113 -27.5q119 -137 119.5 -338.5t-130 -348t-373.5 -146.5q-222 0 -362 135.5t-140 359.5q0 225 140 361.5t362 136.5q60 0 292 -12q114 -5 91 135h191zM592 191q111 0 179.5 83t68.5 194q0 114 -67.5 197t-180.5 83 q-114 0 -180 -83t-66 -197q0 -113 66.5 -195t179.5 -82zM592 -114q63 0 102.5 -41t39.5 -110q0 -63 -38.5 -108t-103.5 -45q-61 0 -101 43.5t-40 109.5q0 68 38 109.5t103 41.5z" glyph-name="uni1EE3" horiz-adv-x="1187" unicode="ợ"/><glyph d="M1287 1319v-701q0 -649 -565 -649t-565 649v701h253v-670q0 -461 312 -461t312 461v670h253zM722 -114q63 0 102.5 -41t39.5 -110q0 -63 -38.5 -108t-103.5 -45q-61 0 -101.5 43.5t-40.5 109.5q0 68 38.5 109.5t103.5 41.5z" glyph-name="uni1EE4" horiz-adv-x="1443" unicode="Ụ"/><glyph d="M748 939h256v-939h-200l-43 130q-131 -155 -304 -156q-154 0 -247.5 90.5t-93.5 297.5v577h258l-2 -507q0 -97 33.5 -146t109.5 -49q67 0 120 37.5t113 114.5v550zM532 -114q63 0 102.5 -41t39.5 -110q0 -63 -38.5 -108t-103.5 -45q-61 0 -101 43.5t-40 109.5 q0 68 38 109.5t103 41.5z" glyph-name="uni1EE5" unicode="ụ"/><glyph d="M766 1432h-111q12 15 35 42.5t31.5 38.5t23 30t20 30t9.5 24.5t4 27.5q0 60 -54 59q-39 0 -79 -39l-54 80q73 79 158 82q84 3 129 -38.5t44 -111.5q-2 -104 -156 -225zM1287 1319v-701q0 -649 -565 -649t-565 649v701h253v-670q0 -461 312 -461t312 461v670h253z" glyph-name="uni1EE6" horiz-adv-x="1443" unicode="Ủ"/><glyph d="M560 1304q-39 0 -79 -39l-54 80q73 79 158 82q84 3 129 -38.5t44 -111.5q-2 -104 -156 -226h-110q12 15 35 42.5t31.5 38.5t23 30t19.5 30t9 25t4 27q1 60 -54 60zM748 939h256v-939h-200l-43 130q-131 -155 -304 -156q-154 0 -247.5 90.5t-93.5 297.5v577h258l-2 -507 q0 -97 33.5 -146t109.5 -49q67 0 120 37.5t113 114.5v550z" glyph-name="uni1EE7" unicode="ủ"/><glyph d="M1044 1568l-401 -126l-41 92l369 222zM1594 1454q9 -53 2 -107.5t-25 -100t-65 -73.5t-115 -28l-92 2v-526q0 -309 -137.5 -478.5t-427.5 -169.5q-567 0 -567 648v698h253v-667q0 -461 314 -461q312 0 312 461v667h266q114 -5 91 135h191z" glyph-name="uni1EE8" horiz-adv-x="1539" unicode="Ứ"/><glyph d="M891 1188l-401 -126l-41 92l368 222zM1285 1073q9 -53 2 -107.5t-25 -99.5t-65 -73t-117 -28l-58 1v-766h-199l-43 131q-130 -157 -306 -157q-154 0 -247.5 90.5t-93.5 297.5v577h260l-2 -507q0 -97 32.5 -146t108.5 -49q67 0 121 37.5t113 114.5v550h253q97 5 75 134 h191z" glyph-name="uni1EE9" horiz-adv-x="1324" unicode="ứ"/><glyph d="M869 1534l-40 -92l-401 126l74 188zM1594 1454q9 -53 2 -107.5t-25 -100t-65 -73.5t-115 -28l-92 2v-526q0 -309 -137.5 -478.5t-427.5 -169.5q-567 0 -567 648v698h253v-667q0 -461 314 -461q312 0 312 461v667h266q114 -5 91 135h191z" glyph-name="uni1EEA" horiz-adv-x="1539" unicode="Ừ"/><glyph d="M715 1154l-39 -92l-401 126l73 188zM1285 1073q9 -53 2 -107.5t-25 -99.5t-65 -73t-117 -28l-58 1v-766h-199l-43 131q-130 -157 -306 -157q-154 0 -247.5 90.5t-93.5 297.5v577h260l-2 -507q0 -97 32.5 -146t108.5 -49q67 0 121 37.5t113 114.5v550h253q97 5 75 134h191 z" glyph-name="uni1EEB" horiz-adv-x="1324" unicode="ừ"/><glyph d="M748 1684q-39 0 -79 -39l-55 80q73 79 159 82q84 3 129 -38.5t43 -111.5q-2 -104 -155 -225h-111q12 15 35 42.5t31.5 38.5t23 30t20 30t9.5 24.5t4 27.5q1 59 -54 59zM1594 1454q9 -53 2 -107.5t-25 -100t-65 -73.5t-115 -28l-92 2v-526q0 -309 -137.5 -478.5 t-427.5 -169.5q-567 0 -567 648v698h253v-667q0 -461 314 -461q312 0 312 461v667h266q114 -5 91 135h191z" glyph-name="uni1EEC" horiz-adv-x="1539" unicode="Ử"/><glyph d="M594 1304q-39 0 -79 -39l-54 80q73 79 159 82q84 3 129 -38.5t43 -111.5q-2 -104 -155 -226h-111q12 15 35 42.5t31.5 38.5t23 30t19.5 30t9.5 25t4.5 27q0 60 -55 60zM1285 1073q9 -53 2 -107.5t-25 -99.5t-65 -73t-117 -28l-58 1v-766h-199l-43 131 q-130 -157 -306 -157q-154 0 -247.5 90.5t-93.5 297.5v577h260l-2 -507q0 -97 32.5 -146t108.5 -49q67 0 121 37.5t113 114.5v550h253q97 5 75 134h191z" glyph-name="uni1EED" horiz-adv-x="1324" unicode="ử"/><glyph d="M637 1556q-75 0 -76 -99h-151q0 113 67 181.5t154 68.5q63 0 132.5 -51.5t108.5 -51.5q61 0 62 96h151q0 -125 -60.5 -188t-148.5 -63q-41 0 -78 17t-59 36.5t-49 36.5t-53 17zM1594 1454q9 -53 2 -107.5t-25 -100t-65 -73.5t-115 -28l-92 2v-526q0 -309 -137.5 -478.5 t-427.5 -169.5q-567 0 -567 648v698h253v-667q0 -461 314 -461q312 0 312 461v667h266q114 -5 91 135h191z" glyph-name="uni1EEE" horiz-adv-x="1539" unicode="Ữ"/><glyph d="M483 1176q-75 0 -75 -99h-152q0 113 67.5 181t154.5 68q63 0 132 -51t109 -51q61 0 61 95h152q0 -125 -60.5 -188t-149.5 -63q-53 0 -96.5 27.5t-77.5 54t-65 26.5zM1285 1073q9 -53 2 -107.5t-25 -99.5t-65 -73t-117 -28l-58 1v-766h-199l-43 131q-130 -157 -306 -157 q-154 0 -247.5 90.5t-93.5 297.5v577h260l-2 -507q0 -97 32.5 -146t108.5 -49q67 0 121 37.5t113 114.5v550h253q97 5 75 134h191z" glyph-name="uni1EEF" horiz-adv-x="1324" unicode="ữ"/><glyph d="M1594 1454q9 -53 2 -107.5t-25 -100t-65 -73.5t-115 -28l-92 2v-526q0 -309 -137.5 -478.5t-427.5 -169.5q-567 0 -567 648v698h253v-667q0 -461 314 -461q312 0 312 461v667h266q114 -5 91 135h191zM734 -114q63 0 102.5 -41t39.5 -110q0 -63 -38.5 -108t-103.5 -45 q-61 0 -101.5 43.5t-40.5 109.5q0 68 38.5 109.5t103.5 41.5z" glyph-name="uni1EF0" horiz-adv-x="1539" unicode="Ự"/><glyph d="M1285 1073q9 -53 2 -107.5t-25 -99.5t-65 -73t-117 -28l-58 1v-766h-199l-43 131q-130 -157 -306 -157q-154 0 -247.5 90.5t-93.5 297.5v577h260l-2 -507q0 -97 32.5 -146t108.5 -49q67 0 121 37.5t113 114.5v550h253q97 5 75 134h191zM476 -114q63 0 102.5 -41 t39.5 -110q0 -63 -38.5 -108t-103.5 -45q-61 0 -101 43.5t-40 109.5q0 68 38 109.5t103 41.5z" glyph-name="uni1EF1" horiz-adv-x="1324" unicode="ự"/><glyph d="M727 1524l-39 -92l-401 126l73 188zM876 1319h286l-432 -812v-507h-264v517l-427 802h285l277 -614z" glyph-name="Ygrave" horiz-adv-x="1204" unicode="Ỳ"/><glyph d="M606 1154l-39 -92l-401 126l73 188zM674 939h249l-355 -1048q-22 -70 -45 -122t-55.5 -101t-73.5 -78t-94 -46.5t-122 -16t-152 23.5l17 239q60 -24 105 -27.5t74 8.5t52 47t37.5 69t34.5 93q5 14 7 20l-331 939h256l200 -656z" glyph-name="ygrave" horiz-adv-x="947" unicode="ỳ"/><glyph d="M466 0v517l-427 802h285l277 -614l275 614h286l-432 -812v-507h-264zM599 -114q63 0 102.5 -41t39.5 -110q0 -63 -38.5 -108t-103.5 -45q-61 0 -101.5 43.5t-40.5 109.5q0 68 38.5 109.5t103.5 41.5z" glyph-name="uni1EF4" horiz-adv-x="1204" unicode="Ỵ"/><glyph d="M568 -109q-22 -70 -45 -122t-55.5 -101t-73.5 -78t-94 -46.5t-122 -16t-152 23.5l17 239q60 -24 105 -27.5t74 8.5t52 47t37.5 69t34.5 93q5 14 7 20l-331 939h256l200 -656l196 656h249zM447 -587q63 0 102.5 -41t39.5 -109q0 -63 -38.5 -108.5t-103.5 -45.5 q-61 0 -101.5 43.5t-40.5 110.5q0 68 38.5 109t103.5 41z" glyph-name="uni1EF5" horiz-adv-x="947" unicode="ỵ"/><glyph d="M606 1674q-39 0 -79 -39l-54 80q73 79 158 82q84 3 129.5 -38.5t43.5 -111.5q-2 -104 -155 -225h-111q12 15 35 42.5t31.5 38.5t23 29.5t19.5 30t9 25t4 27.5q1 59 -54 59zM876 1319h286l-432 -812v-507h-264v517l-427 802h285l277 -614z" glyph-name="uni1EF6" horiz-adv-x="1204" unicode="Ỷ"/><glyph d="M485 1304q-39 0 -79 -39l-54 80q73 79 158 82q84 3 129 -38.5t44 -111.5q-2 -104 -156 -226h-111q12 15 35 42.5t32 38.5t23.5 30t19.5 30t9 25t4 27q1 60 -54 60zM674 939h249l-355 -1048q-22 -70 -45 -122t-55.5 -101t-73.5 -78t-94 -46.5t-122 -16t-152 23.5l17 239 q60 -24 105 -27.5t74 8.5t52 47t37.5 69t34.5 93q5 14 7 20l-331 939h256l200 -656z" glyph-name="uni1EF7" horiz-adv-x="947" unicode="ỷ"/><glyph d="M474 1546q-75 0 -75 -99h-152q0 113 67.5 181t154.5 68q63 0 132.5 -51t108.5 -51q61 0 61 96h152q0 -125 -60.5 -188t-149.5 -63q-41 0 -77.5 17t-58.5 36.5t-49.5 36.5t-53.5 17zM876 1319h286l-432 -812v-507h-264v517l-427 802h285l277 -614z" glyph-name="uni1EF8" horiz-adv-x="1204" unicode="Ỹ"/><glyph d="M353 1176q-75 0 -75 -99h-152q0 113 67.5 181t154.5 68q63 0 132.5 -51t108.5 -51q61 0 61 95h152q0 -125 -60.5 -188t-149.5 -63q-53 0 -96.5 27.5t-77.5 54t-65 26.5zM674 939h249l-355 -1048q-22 -70 -45 -122t-55.5 -101t-73.5 -78t-94 -46.5t-122 -16t-152 23.5 l17 239q60 -24 105 -27.5t74 8.5t52 47t37.5 69t34.5 93q5 14 7 20l-331 939h256l200 -656z" glyph-name="uni1EF9" horiz-adv-x="947" unicode="ỹ"/><glyph glyph-name="uni2009" horiz-adv-x="310" unicode=" "/><glyph d="M896 708v-218h-795v218h795z" glyph-name="endash" horiz-adv-x="993" unicode="–"/><glyph d="M1603 715v-220h-1502v220h1502z" glyph-name="emdash" horiz-adv-x="1701" unicode="—"/><glyph d="M135 995q-58 0 -91.5 39t-33.5 113q0 188 166 321l51 -50q-116 -106 -114 -187q14 3 27 3q48 0 80.5 -34t32.5 -89q0 -49 -33.5 -82.5t-84.5 -33.5z" glyph-name="quoteleft" horiz-adv-x="291" unicode="‘"/><glyph d="M157 1468q56 0 90.5 -39.5t34.5 -112.5q0 -189 -166 -321l-51 49q116 106 114 188q-14 -3 -27 -3q-48 0 -80.5 34t-32.5 87q0 51 32.5 84.5t85.5 33.5z" glyph-name="quoteright" horiz-adv-x="291" unicode="’"/><glyph d="M213 283q79 -2 121.5 -56.5t37.5 -142.5q-10 -232 -218 -391q-51 58 -67 70q159 128 145 211q-19 -3 -29 -3q-63 3 -104 51t-38 118q3 63 43.5 104t108.5 39z" glyph-name="quotesinglbase" horiz-adv-x="1024" unicode="‚"/><glyph d="M258 995q-56 0 -90.5 39t-34.5 113q0 188 166 321q29 -29 53 -50q-118 -104 -116 -187q14 3 27 3q49 0 80.5 -34t31.5 -89q0 -49 -32 -82.5t-85 -33.5zM548 995q-56 0 -90.5 39t-34.5 113q0 188 166 321q29 -29 53 -50q-118 -104 -116 -187q14 3 27 3q49 0 81 -34t32 -89 q0 -49 -32.5 -82.5t-85.5 -33.5z" glyph-name="quotedblleft" horiz-adv-x="759" unicode="“"/><glyph d="M210 1468q58 0 91.5 -39.5t33.5 -112.5q0 -189 -166 -321l-51 49q116 106 114 188q-14 -3 -27 -3q-48 0 -80.5 34t-32.5 87q0 51 33.5 84.5t84.5 33.5zM500 1468q58 0 91.5 -39.5t33.5 -112.5q0 -189 -166 -321l-51 49q116 106 114 188q-14 -3 -27 -3q-48 0 -80.5 34 t-32.5 87q0 51 33.5 84.5t84.5 33.5z" glyph-name="quotedblright" horiz-adv-x="759" unicode="”"/><glyph d="M213 283q79 -2 121.5 -56.5t37.5 -142.5q-10 -232 -218 -391q-51 58 -67 70q159 128 145 211l-29 -3q-63 3 -104 51t-38 118q3 63 43.5 104t108.5 39z" glyph-name="quotedblbase" horiz-adv-x="380" unicode="„"/><glyph d="M710 1266h85v-256h-85l-149 24l26 -232v-229h-256v229l26 232l-149 -24h-85v256h85l147 -25l-24 141v86h256v-86l-24 -141z" glyph-name="dagger" horiz-adv-x="921" unicode="†"/><glyph d="M795 896h-85l-147 24l24 -167v-91l-27 -199l150 25h85v-256h-85l-147 24l24 -189v-171h-256v171l26 189l-149 -24h-85v256h85l149 -25l-26 199v91l24 167l-147 -24h-85v256h85l147 -26l-24 142v200h256v-200l-24 -142l147 26h85v-256z" glyph-name="daggerdbl" horiz-adv-x="921" unicode="‡"/><glyph d="M305 940q90 0 146 -59.5t56 -155.5q0 -89 -56.5 -152.5t-145.5 -63.5q-90 0 -145.5 61t-55.5 155q0 97 54.5 156t146.5 59z" glyph-name="bullet" horiz-adv-x="614" unicode="•"/><glyph d="M237 215q49 0 82 -34t33 -87q0 -51 -32 -88t-83 -37t-83.5 35t-32.5 89.5t31.5 88t84.5 33.5zM599 215q51 0 83.5 -34t32.5 -87q0 -51 -32.5 -88t-83.5 -37t-82.5 35t-31.5 89.5t30.5 88t83.5 33.5zM961 215q49 0 81.5 -34t32.5 -87q0 -51 -31.5 -88t-82.5 -37t-83.5 35 t-32.5 89.5t31.5 88t84.5 33.5z" glyph-name="ellipsis" horiz-adv-x="1196" unicode="…"/><glyph d="M449 -20l-154 87l683 1160l152 -89zM373.5 1193q124.5 0 206.5 -73.5t82 -194.5q0 -102 -72.5 -183.5t-215.5 -81.5q-125 0 -204.5 72t-79.5 193t79.5 194.5t204 73.5zM373.5 1031q-42.5 0 -65.5 -31t-23 -75q0 -43 23 -72.5t65.5 -29.5t66 30.5t23.5 71.5q0 44 -23.5 75 t-66 31zM1044.5 519q124.5 0 205.5 -74.5t81 -195.5q0 -102 -71.5 -182.5t-215.5 -80.5q-125 0 -204 71t-79 192q0 123 79.5 196.5t204 73.5zM1667 519q125 0 206 -74.5t81 -195.5q0 -102 -71.5 -182.5t-215.5 -80.5q-123 0 -203 72t-80 191q0 123 80 196.5t203 73.5z M1044.5 355q-42.5 0 -65 -31.5t-22.5 -74.5q0 -41 22.5 -71t64.5 -30q41 0 66 31t25 70q0 43 -24 74.5t-66.5 31.5zM1667 355q-41 0 -64 -31.5t-23 -74.5q0 -41 23 -71t64 -30q43 0 68 31t25 70q0 43 -25 74.5t-68 31.5z" glyph-name="perthousand" horiz-adv-x="2041" unicode="‰"/><glyph d="M638 729l-251 -255l251 -257l-165 -157l-347 413l347 413z" glyph-name="guilsinglleft" horiz-adv-x="808" unicode="‹"/><glyph d="M340 886l344 -413l-344 -413l-168 157l251 257l-251 255z" glyph-name="guilsinglright" horiz-adv-x="808" unicode="›"/><glyph d="M567 1485q220 0 350.5 -125.5t130.5 -313.5q0 -191 -106 -309.5t-290 -152.5l-15 -181h-159l-43 459v218h241v-218l-5 -63q159 70 158 247q0 104 -76.5 163t-185.5 59q-155 0 -273 -162l-198 128q60 104 184.5 177.5t286.5 73.5zM555 259q60 0 97 -39t37 -102 q0 -58 -37.5 -101.5t-97 -43.5t-97 41.5t-37.5 103.5q0 65 37 103t98 38z" glyph-name="uni203D" horiz-adv-x="1155" unicode="‽"/><glyph d="M551 1388l145 -81l-856 -1331l-147 75z" glyph-name="fraction" horiz-adv-x="366" unicode="⁄"/><glyph d="M346 809q-118 0 -186 86t-68 217.5t69 218t187 86.5q119 0 187.5 -84.5t68.5 -218t-69.5 -219.5t-188.5 -86zM348 1282q-96 0 -95 -169q0 -167 93 -168q99 0 99 164q0 173 -97 173z" glyph-name="uni2070" horiz-adv-x="696" unicode="⁰"/><glyph d="M601 1070v-138h-77v-111h-145v111h-244l-53 138l297 331h145v-334zM225 1050l154 8v164z" glyph-name="uni2074" horiz-adv-x="679" unicode="⁴"/><glyph d="M311 1190q89 0 148.5 -54t59.5 -139q0 -79 -53 -132.5t-169 -53.5q-126 0 -215 85l85 96q56 -51 118 -52q41 0 60 19t19 46q0 29 -19 49.5t-51 20.5q-24 0 -47 -19l-119 74l26 271h320v-152l-192 12l-7 -75q24 4 36 4z" glyph-name="uni2075" horiz-adv-x="616" unicode="⁵"/><glyph d="M357 1196q82 0 141.5 -50t59.5 -141q0 -84 -59 -139t-164 -55q-126 0 -184.5 81t-58.5 212q0 138 67.5 225.5t185.5 87.5q113 0 186 -62l-104 -101q-38 26 -84 26q-75 0 -90 -108q37 24 104 24zM333 949q27 0 41.5 10t17 19.5t2.5 26.5q0 24 -18.5 39.5t-44.5 15.5l-7 2 h-11h-14.5t-17 -3t-18 -8t-16.5 -13q11 -89 86 -89z" glyph-name="uni2076" horiz-adv-x="651" unicode="⁶"/><glyph d="M111 1401h403v-135l-193 -445h-176l213 437l-247 -14v157z" glyph-name="uni2077" horiz-adv-x="593" unicode="⁷"/><glyph d="M432 1125q90 -48 90 -139q0 -72 -59 -124.5t-164 -52.5q-96 0 -156.5 48t-60.5 128q0 92 87 140q-75 41 -75 124q0 75 57 121.5t151 46.5q90 0 148.5 -46.5t58.5 -121.5q0 -80 -77 -124zM299 1302q-72 0 -72 -68q0 -27 19.5 -45t52.5 -18q34 0 54.5 18t20.5 45 q0 68 -75 68zM299 934q41 0 62 18.5t21 47.5q0 27 -23 47t-60 20q-36 0 -57.5 -20t-21.5 -47q0 -29 20 -47.5t59 -18.5z" glyph-name="uni2078" horiz-adv-x="604" unicode="⁸"/><glyph d="M317 1417q125 0 184 -81.5t59 -212.5q0 -138 -68.5 -225t-184.5 -87q-114 0 -184 63l99 101q36 -27 89 -28q72 0 87 106q-39 -22 -103 -22q-82 0 -141.5 51t-59.5 142q0 84 59.5 138.5t163.5 54.5zM319 1167h5q7 -2 13 -1.5t15.5 1t17 2.5t17 8t16.5 14q-7 87 -84 87 q-63 0 -63 -54q0 -24 18.5 -40.5t44.5 -16.5z" glyph-name="uni2079" horiz-adv-x="641" unicode="⁹"/><glyph d="M739 177q143 0 217 140l176 -122q-143 -229 -384 -229q-171 0 -295 115t-168 308h-135l24 133h92q-2 19 -1 58q0 34 1 51h-116l24 134h109q41 196 165.5 313.5t299.5 117.5q242 0 384 -228l-173 -120q-79 135 -217 135q-87 0 -146.5 -59t-86.5 -159h336l-26 -134h-331 q-2 -17 -2 -51q0 -39 2 -58h312l-25 -133h-265q60 -212 229 -212z" glyph-name="Euro" horiz-adv-x="1249" unicode="€"/><glyph d="M1232 782v-77h-114q-10 -167 -123 -266t-311 -99h-201v-340h-230v705h-87v77h87v379h431q196 0 309 -104.5t125 -274.5h114zM483 923v-141h387q-14 70 -75 105.5t-146 35.5h-166zM649 567q87 0 146.5 35.5t74.5 102.5h-387v-138h166z" glyph-name="uni20B1" horiz-adv-x="1338" unicode="₱"/><glyph d="M730 379h-204v-101h213v-128h-213v-150h-231v150h-129v128h129v101h-129v229h129v553h435q208 0 320 -108t112 -290.5t-111 -283t-321 -100.5zM526 923v-315h169q222 0 221 158q0 157 -221 157h-169z" glyph-name="uni20BD" horiz-adv-x="1269" unicode="₽"/><glyph d="M908 626q79 -36 125.5 -116t46.5 -181q0 -143 -86 -236t-224 -93h-57v-159h-107v159h-72v-159h-111v159h-257v1161h257v158h111v-158h72v158h107v-158h9q126 0 207 -85.5t81 -218.5q0 -159 -102 -231zM689 959h-303v-261h305q53 0 89.5 35t36.5 94.5t-37.5 95.5t-90.5 36 zM737 201q58 0 101 42t43 105q0 67 -43.5 106t-107.5 39h-344v-292h351z" glyph-name="uni20BF" horiz-adv-x="1179" unicode="₿"/><glyph d="M1775 531q-186 0 -302 111t-116 298.5t115 300t303 112.5q181 0 298 -113.5t117 -299.5q0 -169 -107 -289t-308 -120zM915 428v891h244v-1319h-246l-505 887v-887h-244v1319h246zM1783.5 1135q-78.5 0 -123.5 -58t-45 -137q0 -77 45 -134t123 -57q77 0 125 57.5t48 133.5 q0 79 -47 137t-125.5 58zM1410 0v218h730v-218h-730z" glyph-name="afii61352" horiz-adv-x="2286" unicode="№"/><glyph d="M706.5 1251q249.5 0 418.5 -164t169 -423q0 -263 -169 -426t-418.5 -163t-419 164t-169.5 425q0 259 169.5 423t419 164zM707 208q193 0 322.5 125.5t129.5 330.5q0 203 -130.5 328.5t-321.5 125.5q-195 0 -325.5 -125.5t-130.5 -328.5q0 -205 130.5 -330.5t325.5 -125.5 zM707 922q121 0 179 -48t58 -132q0 -177 -237 -177h-40v-171h-126v528h166zM707 672q38 0 57 3.5t34.5 19t15.5 46.5q0 43 -27.5 56.5t-79.5 13.5h-40v-139h40z" glyph-name="uni2117" horiz-adv-x="1431" unicode="℗"/><glyph d="M70 1188v131h428v-131h-141v-396h-144v396h-143zM1106 792h-140l-15 305l-67 -305h-116l-65 293l-17 -293h-142l35 527h179l68 -329l68 329h178z" glyph-name="trademark" horiz-adv-x="1211" unicode="™"/><glyph d="M360 631v-339q0 -22 15 -38q160 -160 424 -160q299 0 462 181h82q-92 -113 -236 -176t-312 -63q-285 0 -488 181q-201 179 -201 438q0 258 201.5 440.5t487.5 182.5q290 0 492 -182q203 -184 203 -441v-17h-1121q-9 0 -9 -7zM369 695h858q7 0 7 12v317q0 24 -15 41 q-159 159 -420 159q-256 0 -422 -166q-17 -12 -17 -41v-310q0 -12 9 -12z" glyph-name="estimated" horiz-adv-x="1597" unicode="℮"/><glyph d="M1138 1388l145 -81l-856 -1331l-147 75zM386 736h-162v423l-99 -34l-45 133l208 58h98v-580zM1386 304q90 -48 90 -138q0 -72 -58.5 -125t-164.5 -53q-96 0 -156.5 48t-60.5 128q0 92 87 140q-75 41 -75 124q0 75 57 121.5t151 46.5q90 0 148.5 -46.5t58.5 -121.5 q0 -80 -77 -124zM1253 481q-72 0 -72 -68q0 -27 19.5 -45t52.5 -18q34 0 54.5 18t20.5 45q0 68 -75 68zM1253 113q41 0 62 18.5t21 47.5q0 27 -23 47t-60 20q-36 0 -57.5 -19.5t-21.5 -47.5q0 -29 20 -47.5t59 -18.5z" glyph-name="oneeighth" horiz-adv-x="1558" unicode="⅛"/><glyph d="M1208 1388l145 -81l-856 -1331l-147 75zM502 908q0 -75 -54 -129.5t-182 -54.5q-116 0 -187 66l102 96q36 -26 85 -26q41 0 56.5 19t15.5 36q0 12 -4.5 23t-21.5 22t-46 11q-3 0 -20 2t-31 0l-39 114l102 84l-164 -10v155h374v-133l-128 -118q67 -15 104.5 -58.5 t37.5 -98.5zM1456 304q90 -48 90 -138q0 -72 -59 -125t-164 -53q-96 0 -156.5 48t-60.5 128q0 92 87 140q-75 41 -75 124q0 75 57 121.5t151 46.5q90 0 148.5 -46.5t58.5 -121.5q0 -80 -77 -124zM1323 481q-72 0 -72 -68q0 -27 19.5 -45t52.5 -18q34 0 54.5 18t20.5 45 q0 68 -75 68zM1323 113q41 0 62 18.5t21 47.5q0 27 -23 47t-60 20q-36 0 -57.5 -19.5t-21.5 -47.5q0 -29 20 -47.5t59 -18.5z" glyph-name="threeeighths" horiz-adv-x="1628" unicode="⅜"/><glyph d="M1167 1388l145 -81l-856 -1331l-147 75zM519 911q0 -79 -53 -132.5t-169 -53.5q-126 0 -215 86l85 95q56 -51 118 -51q41 0 60 19t19 46q0 29 -19 49.5t-51 20.5q-24 0 -47 -19l-119 73l26 272h320v-152l-192 12l-7 -75q24 3 36 3q89 0 148.5 -54t59.5 -139zM1415 304 q90 -48 90 -138q0 -72 -58.5 -125t-164.5 -53q-96 0 -156.5 48t-60.5 128q0 92 87 140q-75 41 -75 124q0 75 57 121.5t151 46.5q90 0 148.5 -46.5t58.5 -121.5q0 -80 -77 -124zM1282 481q-72 0 -72 -68q0 -27 19.5 -45t52.5 -18q34 0 54.5 18t20.5 45q0 68 -75 68zM1282 113 q41 0 62 18.5t21 47.5q0 27 -23 47t-60 20q-36 0 -57.5 -19.5t-21.5 -47.5q0 -29 20 -47.5t59 -18.5z" glyph-name="fiveeighths" horiz-adv-x="1587" unicode="⅝"/><glyph d="M1075 1388l145 -81l-856 -1331l-147 75zM321 736h-176l213 436l-247 -13v157h403v-135zM1323 304q90 -48 90 -138q0 -72 -59 -125t-164 -53q-96 0 -156.5 48t-60.5 128q0 92 87 140q-75 41 -75 124q0 75 57 121.5t151 46.5q90 0 148 -46.5t58 -121.5q1 -80 -76 -124z M1190 481q-72 0 -72 -68q0 -27 19.5 -45t52.5 -18q34 0 54.5 18t20.5 45q0 68 -75 68zM1190 113q41 0 62 18.5t21 47.5q0 27 -23 47t-60 20q-36 0 -57.5 -19.5t-21.5 -47.5q0 -29 20 -47.5t59 -18.5z" glyph-name="seveneighths" horiz-adv-x="1495" unicode="⅞"/><glyph d="M691 966h-136v-771h136v-195h-525v195h136v771h-136v195h525v-195z" glyph-name="uni2160" horiz-adv-x="853" unicode="Ⅰ"/><glyph d="M1184 966h-136v-771h136v-195h-1018v195h136v771h-136v195h1018v-195zM795 195v771h-240v-771h240z" glyph-name="uni2161" horiz-adv-x="1348" unicode="Ⅱ"/><glyph d="M1679 966h-136v-771h136v-195h-1513v195h136v771h-136v195h1513v-195zM555 195h240v771h-240v-771zM1290 195v771h-242v-771h242z" glyph-name="uni2162" horiz-adv-x="1841" unicode="Ⅲ"/><glyph d="M1550 1161h295l-435 -1161h-309l-362 966h-184v-771h136v-195h-525v195h136v771h-136v195h791l297 -912z" glyph-name="uni2163" horiz-adv-x="1901" unicode="Ⅳ"/><glyph d="M1232 1161l-433 -1161h-309l-435 1161h291l297 -912l296 912h293z" glyph-name="uni2164" horiz-adv-x="1288" unicode="Ⅴ"/><glyph d="M1734 966h-137v-771h137v-195h-526v195h137v771h-186l-360 -966h-309l-435 1161h293l295 -912l297 912h794v-195z" glyph-name="uni2165" horiz-adv-x="1897" unicode="Ⅵ"/><glyph d="M2229 966h-137v-771h137v-195h-1021v195h137v771h-186l-360 -966h-309l-435 1161h293l295 -912l297 912h1289v-195zM1840 195v771h-243v-771h243z" glyph-name="uni2166" horiz-adv-x="2391" unicode="Ⅶ"/><glyph d="M2722 966h-136v-771h136v-195h-1514v195h137v771h-186l-360 -966h-309l-435 1161h293l295 -912l297 912h1782v-195zM1597 195h243v771h-243v-771zM2333 195v771h-241v-771h241z" glyph-name="uni2167" horiz-adv-x="2884" unicode="Ⅷ"/><glyph d="M1254 575l381 -575h-273l-237 360l-226 -360h-733v195h136v771h-136v195h716l238 -386l228 386h273zM751 195l242 380l-256 391h-182v-771h196z" glyph-name="uni2168" horiz-adv-x="1677" unicode="Ⅸ"/><glyph d="M55 0l365 575l-384 586h271l237 -386l231 386h271l-367 -586l381 -575h-273l-236 360l-225 -360h-271z" glyph-name="uni2169" horiz-adv-x="1104" unicode="Ⅹ"/><glyph d="M1509 966h-137v-771h137v-195h-736l-223 360l-238 -360h-273l381 575l-367 586h271l231 -386l237 386h717v-195zM1120 195v771h-185l-256 -391l243 -380h198z" glyph-name="uni216A" horiz-adv-x="1672" unicode="Ⅺ"/><glyph d="M2050 966h-137v-771h137v-195h-1263l-236 360l-225 -360h-271l365 575l-384 586h271l237 -386l231 386h1275v-195zM932 195h234v771h-241l-246 -391zM1661 195v771h-243v-771h243z" glyph-name="uni216B" horiz-adv-x="2211" unicode="Ⅻ"/><glyph d="M418 234h580v-234h-832v1161h252v-927z" glyph-name="uni216C" horiz-adv-x="1097" unicode="Ⅼ"/><glyph d="M1128 963l-201 -146q-104 142 -255 142q-147 0 -232 -106.5t-85 -270.5t85.5 -271.5t231.5 -107.5q77 0 143.5 40t109.5 103l205 -143q-79 -108 -198.5 -168.5t-259.5 -60.5q-246 0 -406 171t-160 437q0 265 158 435.5t408 170.5q142 0 261.5 -58.5t194.5 -166.5z" glyph-name="uni216D" horiz-adv-x="1206" unicode="Ⅽ"/><glyph d="M693 1161q263 0 425 -162.5t162 -421.5q0 -254 -163 -415.5t-424 -161.5h-527v1161h527zM693 230q152 0 240 97.5t88 249.5q0 155 -89 254t-239 99h-277v-700h277z" glyph-name="uni216E" horiz-adv-x="1385" unicode="Ⅾ"/><glyph d="M1531 0h-249l-57 812l-302 -812h-196l-297 778l-56 -778h-253l86 1161h314l305 -811l306 811h314z" glyph-name="uni216F" horiz-adv-x="1657" unicode="Ⅿ"/><glyph d="M1389 756v-198h-967l194 -184l-126 -138l-301 302l-119 121l420 426l126 -133l-201 -196h974z" glyph-name="arrowleft" horiz-adv-x="1459" unicode="←"/><glyph d="M935 899l-138 -126l-184 195v-968h-198v975l-197 -202l-133 126l427 420l121 -119z" glyph-name="arrowup" horiz-adv-x="1022" unicode="↑"/><glyph d="M1389 659l-119 -121l-299 -302l-126 138l193 184h-968v198h976l-201 196l126 133z" glyph-name="arrowright" horiz-adv-x="1457" unicode="→"/><glyph d="M819 546l138 -126l-421 -420l-427 420l132 126l196 -201v974h200v-966z" glyph-name="arrowdown" horiz-adv-x="1068" unicode="↓"/><glyph d="M1638 659l-119 -121l-299 -302l-128 138l195 184h-865l194 -184l-126 -138l-301 302l-119 121l420 426l126 -133l-201 -196h879l-202 196l128 133z" glyph-name="arrowboth" horiz-adv-x="1711" unicode="↔"/><glyph d="M799 422l138 -127l-304 -298l2 -2l-121 -118l-427 418l133 127l196 -202v881l-196 -202l-133 127l427 418l121 -118l-2 -2l304 -298l-138 -127l-185 195v-867z" glyph-name="arrowupdn" horiz-adv-x="1025" unicode="↕"/><glyph d="M1121 261l-140 -140l-686 685l9 -277h-186l1 596l598 5v-183l-285 4z" glyph-name="uni2196" horiz-adv-x="1170" unicode="↖"/><glyph d="M1055 529h-186l8 277l-684 -685l-142 140l690 690l-284 -4v183l596 -5z" glyph-name="uni2197" horiz-adv-x="1170" unicode="↗"/><glyph d="M879 756h183l-7 -597l-594 -2v186l276 -8l-686 686l142 140l689 -692z" glyph-name="uni2198" horiz-adv-x="1179" unicode="↘"/><glyph d="M1126 1021l-684 -686l277 8v-186l-596 2l-5 597h182l-3 -285l689 690z" glyph-name="uni2199" horiz-adv-x="1179" unicode="↙"/><glyph d="M575 1234q207 0 322 -160.5t115 -423.5q0 -189 -52 -337.5t-168 -243.5t-285 -95q-188 0 -287 115.5t-101 289.5q-2 184 120.5 291t281.5 107q166 0 252 -134v2q0 381 -208 381q-106 0 -198 -75l-143 155q63 56 157.5 92t193.5 36zM529 184q172 0 224 234q-27 72 -80 118 t-122 46q-84 0 -132.5 -60.5t-53.5 -142.5q-5 -77 33.5 -136t130.5 -59z" glyph-name="partialdiff" horiz-adv-x="1129" unicode="∂"/><glyph d="M1099 894l-109 -109q102 -131 102 -317q0 -201 -130.5 -348t-372.5 -147q-186 0 -316 95l-107 -107l-94 94l107 107q-92 128 -92 306q0 225 140 361.5t362 136.5q174 0 304 -90l112 112zM304 468q0 -82 31 -151l418 419q-68 55 -164 54q-131 0 -208 -95.5t-77 -226.5z M874 468q0 90 -38 163l-421 -421q73 -61 174 -62q130 0 207.5 95t77.5 225z" glyph-name="emptyset" horiz-adv-x="1172" unicode="∅"/><glyph d="M1005 1321v-237h-68v-1084h-256v1084h-230v-1084h-258v1084h-67v237h879z" glyph-name="product" unicode="∏"/><glyph d="M882 1161v-245l-489 21l286 -490l-286 -496l489 20v-242h-744v211l290 505l-290 502v214h744z" glyph-name="summation" horiz-adv-x="979" unicode="∑"/><glyph d="M843 816v-222h-705v222h705z" glyph-name="minus" horiz-adv-x="983" unicode="−"/><glyph d="M940 887q137 0 222.5 -84t85.5 -218q0 -130 -83 -213.5t-213 -83.5q-167 0 -276 151q-113 -150 -273 -151q-128 0 -212.5 84.5t-84.5 216t87 215t223 83.5q169 0 267 -145q97 145 257 145zM394 452q114 0 200 139q-34 73 -75 103.5t-103 30.5q-73 0 -116.5 -36.5 t-43.5 -99.5t39 -100t99 -37zM956 452q65 0 104 37t39 98q0 63 -42.5 100.5t-117.5 37.5q-60 0 -94 -30.5t-80 -112.5q77 -130 191 -130z" glyph-name="infinity" horiz-adv-x="1355" unicode="∞"/><glyph d="M-48 -512v230h58q79 0 120.5 41t41.5 120v1002q0 215 111 326.5t326 111.5h38v-230h-56q-79 0 -121 -41t-42 -120v-1001q0 -215 -111.5 -327t-326.5 -112h-38z" glyph-name="integral" horiz-adv-x="716" unicode="∫"/><glyph d="M331 744h-167q0 123 74 195.5t175 72.5q75 0 158 -55.5t129 -55.5q79 0 78 104h164q0 -135 -69 -203t-170 -68q-61 0 -112.5 30t-93 59.5t-79.5 29.5q-87 0 -87 -109zM331 416h-167q0 121 75 194.5t174 73.5q75 0 158 -55.5t129 -55.5q79 0 78 103h164q0 -135 -69 -202.5 t-170 -67.5q-79 0 -160.5 59t-124.5 59q-87 0 -87 -108z" glyph-name="approxequal" horiz-adv-x="1105" unicode="≈"/><glyph d="M864 765h-221l-83 -149h304v-198h-415l-147 -259l-113 65l110 194h-135v198h246l83 149h-329v199h442l133 237l114 -64l-97 -173h108v-199z" glyph-name="notequal" horiz-adv-x="1061" unicode="≠"/><glyph d="M783 509l-46 -181l-585 160v242l585 188l40 -186l-461 -119zM800 256l2 -162h-650v162h648z" glyph-name="lessequal" horiz-adv-x="919" unicode="≤"/><glyph d="M181 918l585 -188v-242l-585 -160l-46 181l467 104l-462 119zM116 94l2 162h648v-162h-650z" glyph-name="greaterequal" horiz-adv-x="919" unicode="≥"/><glyph d="M633 1161l417 -591l-417 -570h-95l-417 570l417 591h95zM597 253l209 319l-210 336h-21l-210 -336l208 -319h24z" glyph-name="lozenge" horiz-adv-x="1169" unicode="◊"/><glyph d="M628 386l-299 -140l43 324l-224 239l321 68l159 284l159 -284l321 -68l-224 -239l43 -324z" glyph-name="uni2605" horiz-adv-x="1257" unicode="★"/><glyph d="M628 386l-299 -140l43 324l-224 239l321 68l159 284l159 -284l321 -68l-224 -239l43 -324zM628 546l130 -61l-17 141l97 104l-140 29l-70 125l-68 -125l-140 -29l95 -104l-17 -141z" glyph-name="uni2606" horiz-adv-x="1257" unicode="☆"/><glyph d="M1524 213l38 -194q-160 -65 -275.5 -23t-139.5 197q-147 -224 -463 -224q-258 0 -418 194t-160 497.5t158.5 496.5t419.5 193q307 0 458 -215v184h249v-1019q0 -63 32.5 -82.5t100.5 -4.5zM749 203q186 0 289.5 127t103.5 330q0 205 -106 331.5t-287 126.5 q-184 0 -287.5 -128t-103.5 -329.5t103.5 -329.5t287.5 -128z" glyph-name="uni2C6D" horiz-adv-x="1640" unicode="Ɑ"/><glyph d="M67 1319h1071v-232h-1071v232zM67 696v232h1071v-232h-411v-696h-249v696h-411z" glyph-name="uni3012" horiz-adv-x="1208" unicode="〒"/><glyph d="M1014 973q51 -171 51 -398q0 -58 -14 -118q-3 -9 -8 -1q-9 19 -21.5 35t-21.5 24l-10 7q2 -3 5 -9t11.5 -25t12 -36t5.5 -43.5t-7 -48.5q-17 -48 -58 -84q-7 -3 -7 4q-2 17 -7.5 30.5t-10.5 20.5l-6 5q0 -5 -0.5 -12.5t-8.5 -31.5t-19 -46t-36.5 -51t-59.5 -52 q-3 -2 -6.5 -4t-5.5 -2q-5 -3 -8.5 -1t-0.5 7q5 12 8 23t1 17v5q-5 -9 -15.5 -24.5t-50.5 -45t-88 -43.5q-48 14 -87 42t-54 50l-16 21q-5 -19 7 -45q2 -5 0 -7.5t-7 1.5q-3 2 -7.5 4t-5.5 2q-55 36 -85.5 84t-34.5 78l-5 31q-19 -19 -24 -56q0 -7 -7 -4q-41 34 -56 84 q-10 43 -4 78.5t18 59.5l13 24q-34 -26 -53 -66q-9 -10 -10 1q-14 60 -13 118q0 101 12.5 201t26.5 149l12 48q3 15 12 17q114 31 210 43l13 34q2 2 4 1q44 -15 61 -10q38 9 75 75q2 3 5 0q38 -67 75 -75q22 -5 62 10q3 0 3 -1l14 -34q68 -9 210 -43q9 -3 12 -17zM428 975 q-2 0 3.5 -26.5t10.5 -54.5l5 -27q41 39 96 39h3q15 0 27 -5q24 -7 40.5 -24t21.5 -30l3 -12q2 3 3.5 7.5t4.5 18t1 23.5q20 12 40 18t36 5t31.5 -4.5t25.5 -9.5t18.5 -11.5t13.5 -11.5l4 -3l15 111l-58 -44l-29 87l-58 -58l-56 100l-60 -97l-51 58l-31 -92zM364 823 q20 -2 30 -21q15 15 41 26q-5 10 -16 17.5t-20 11.5l-10 1l22 14q-56 14 -85 -39q-14 -29 -9.5 -53t16.5 -39l12 -14q3 17 15 36q9 15 9.5 29.5t-2.5 23.5zM916 727q5 5 11.5 14.5t15.5 38.5t-8 53q-14 24 -35 33.5t-36 7.5l-14 -2l22 -14q-34 -9 -46 -30q24 -10 43 -26 q5 9 11.5 14t12.5 7h5q-15 -24 3 -58zM829 561q9 0 17.5 -5t13.5 -10l4 -5q0 58 -40 82q2 7 4.5 17t1.5 39t-9.5 51.5t-36.5 43.5t-72 26l15 21q-63 7 -97 -46q-15 24 -40 35t-40 11h-18q15 -14 16 -21q-70 -9 -98 -53t-22 -85l7 -39q-17 -10 -27 -30.5t-12 -36.5v-15 q15 20 34 20q-3 -5 -7.5 -13.5t-8.5 -39t11 -61.5l20 -37q20 24 45 42q-19 31 -19 58q0 48 43 87q-24 -41 -19 -82q12 -39 32 -39q10 0 46 25.5t41 39.5q10 27 2 50q-12 10 -28 17.5t-27 9.5l-10 3q7 20 22 29q7 3 28.5 -2.5t28.5 -5.5t28 6t28 2.5t12 -11.5t7 -13l2 -5 q-39 -7 -64 -30q-3 -5 -2 -21.5t6 -28.5q3 -14 39 -39.5t48 -25.5q7 0 17 13t14 26q5 41 -19 82q41 -38 41 -87q0 -12 -4.5 -26.5t-7.5 -22.5l-5 -9l44 -42q10 14 19 37q12 36 12 61.5t-9 39.5zM493 707l-25 15q60 -3 93 -15q-3 -17 -13 -36t-19 -29l-7 -12l4 30h-11 q-12 0 -21 9t-9.5 19t8.5 19zM737 630q-27 32 -37 77q15 5 38 9t40 4l16 2l-24 -14q5 -10 5 -17q0 -29 -31 -29q-2 0 -5 1t-5 1zM688 369q14 12 22.5 29t9.5 27v10q-17 24 -47.5 48t-42.5 24t-43 -24t-46 -48q-5 -39 27 -60v14q31 -24 62 -24q14 0 34 7q22 10 22 27 q3 -7 4 -14.5t-1 -12.5z" glyph-name="uniF8FF" horiz-adv-x="1271" unicode=""/><glyph d="M749 1350q288 0 466 -192t178 -498q0 -304 -177 -497.5t-467 -193.5q-285 0 -464 194t-179 497.5t176.5 496.5t466.5 193zM463 959l138 -87q65 92 148 92q44 0 80 -29.5t36 -84.5q0 -142 -215 -142l31 -225h131l17 104q102 24 158.5 90.5t56.5 170.5q0 114 -80 190 t-215 76q-101 0 -175.5 -45t-110.5 -110zM742 367q-32 0 -52.5 -21.5t-20.5 -57t21.5 -59.5t53.5 -24q34 0 55.5 24.5t21.5 59t-22.5 56.5t-56.5 22z" glyph-name="uniFFFD" horiz-adv-x="1500" unicode="�"/><glyph d="M1002 0q-34 171 -68 300h-550q-34 -130 -65 -300h-264q179 763 457 1319h297q155 -321 262 -629t197 -690h-266zM449 538h416q-85 270 -206 547q-128 -281 -210 -547z" glyph-name="A.salt" horiz-adv-x="1322"/><glyph d="M966 1568l-401 -126l-41 92l369 222zM1002 0q-34 171 -68 300h-550q-34 -130 -65 -300h-264q179 763 457 1319h297q155 -321 262 -629t197 -690h-266zM449 538h416q-85 270 -206 547q-128 -281 -210 -547z" glyph-name="Aacute.salt" horiz-adv-x="1322"/><glyph d="M664 1457q-119 0 -187.5 62.5t-73.5 180.5h157q19 -102 104 -103q31 0 51.5 10.5t32 33.5l14.5 29t8 30h157q-5 -106 -69 -174.5t-194 -68.5zM1002 0q-34 171 -68 300h-550q-34 -130 -65 -300h-264q179 763 457 1319h297q155 -321 262 -629t197 -690h-266zM449 538h416 q-85 270 -206 547q-128 -281 -210 -547z" glyph-name="Abreve.salt" horiz-adv-x="1322"/><glyph d="M710 1452h-87l-230 219l75 90l198 -124l198 124l75 -90zM1002 0q-34 171 -68 300h-550q-34 -130 -65 -300h-264q179 763 457 1319h297q155 -321 262 -629t197 -690h-266zM449 538h416q-85 270 -206 547q-128 -281 -210 -547z" glyph-name="uni01CD.salt" horiz-adv-x="1322"/><glyph d="M664 1574l-198 -123l-75 88l230 221h87l229 -221l-75 -88zM1002 0q-34 171 -68 300h-550q-34 -130 -65 -300h-264q179 763 457 1319h297q155 -321 262 -629t197 -690h-266zM449 538h416q-85 270 -206 547q-128 -281 -210 -547z" glyph-name="Acircumflex.salt" horiz-adv-x="1322"/><glyph d="M497 1475q-48 0 -77 31.5t-29 80.5q0 51 29 82t77 31q46 0 75.5 -31.5t29.5 -81.5q0 -46 -29.5 -79t-75.5 -33zM838 1475q-48 0 -77 31.5t-29 80.5q0 51 28 82t78 31q46 0 75 -31.5t29 -81.5q0 -46 -29 -79t-75 -33zM1002 0q-34 171 -68 300h-550q-34 -130 -65 -300h-264 q179 763 457 1319h297q155 -321 262 -629t197 -690h-266zM449 538h416q-85 270 -206 547q-128 -281 -210 -547z" glyph-name="Adieresis.salt" horiz-adv-x="1322"/><glyph d="M790 1534l-39 -92l-401 126l73 188zM1002 0q-34 171 -68 300h-550q-34 -130 -65 -300h-264q179 763 457 1319h297q155 -321 262 -629t197 -690h-266zM449 538h416q-85 270 -206 547q-128 -281 -210 -547z" glyph-name="Agrave.salt" horiz-adv-x="1322"/><glyph d="M969 1652v-154h-597v154h597zM1002 0q-34 171 -68 300h-550q-34 -130 -65 -300h-264q179 763 457 1319h297q155 -321 262 -629t197 -690h-266zM449 538h416q-85 270 -206 547q-128 -281 -210 -547z" glyph-name="Amacron.salt" horiz-adv-x="1322"/><glyph d="M1044 -268q39 0 79 39l55 -80q-73 -79 -159 -82q-84 -2 -129 39t-43 111q0 63 47.5 128t107.5 113q-32 160 -68 300h-550q-34 -130 -65 -300h-264q179 763 457 1319h297q155 -321 262 -629t197 -690h-157q-44 -56 -65.5 -85t-38.5 -63.5t-17 -59.5q-1 -60 54 -60z M449 538h416q-85 270 -206 547q-128 -281 -210 -547z" glyph-name="Aogonek.salt" horiz-adv-x="1322"/><glyph d="M664 1417q-84 0 -137 58t-53 146q0 94 51.5 148.5t138.5 54.5q84 0 137.5 -56t53.5 -147q0 -84 -53.5 -144t-137.5 -60zM664 1707q-36 0 -57.5 -24t-21.5 -62q0 -36 22.5 -61.5t56.5 -25.5q36 0 58 25.5t22 61.5q0 38 -23 62t-57 24zM1002 0q-34 171 -68 300h-550 q-34 -130 -65 -300h-264q179 763 457 1319h297q155 -321 262 -629t197 -690h-266zM449 538h416q-85 270 -206 547q-128 -281 -210 -547z" glyph-name="Aring.salt" horiz-adv-x="1322"/><glyph d="M538 1556q-75 0 -75 -99h-152q0 113 67 181.5t154 68.5q63 0 132.5 -51.5t108.5 -51.5q61 0 62 96h151q0 -125 -60.5 -188t-148.5 -63q-41 0 -78 17t-59 36.5t-49 36.5t-53 17zM1002 0q-34 171 -68 300h-550q-34 -130 -65 -300h-264q179 763 457 1319h297 q155 -321 262 -629t197 -690h-266zM449 538h416q-85 270 -206 547q-128 -281 -210 -547z" glyph-name="Atilde.salt" horiz-adv-x="1322"/><glyph d="M1393 722v-53q0 -312 -173.5 -504t-468.5 -192t-470 190t-175 501q0 316 180 502.5t470 186.5q201 0 345.5 -89.5t202.5 -224.5l-227 -100q-118 203 -324 203q-181 0 -286 -134t-105 -351q0 -208 99 -338.5t285 -130.5q154 0 248.5 87t126.5 235h-385v212h657z" glyph-name="G.salt" horiz-adv-x="1500"/><glyph d="M746 1457q-119 0 -187.5 62.5t-73.5 180.5h157q19 -102 104 -103q31 0 51 10.5t32 33.5t15 29t8 30h157q-5 -106 -69 -174.5t-194 -68.5zM1393 722v-53q0 -312 -173.5 -504t-468.5 -192t-470 190t-175 501q0 316 180 502.5t470 186.5q201 0 345.5 -89.5t202.5 -224.5 l-227 -100q-118 203 -324 203q-181 0 -286 -134t-105 -351q0 -208 99 -338.5t285 -130.5q154 0 248.5 87t126.5 235h-385v212h657z" glyph-name="Gbreve.salt" horiz-adv-x="1500"/><glyph d="M792 1452h-87l-231 219l76 90l198 -124l197 124l76 -90zM1393 722v-53q0 -312 -173.5 -504t-468.5 -192t-470 190t-175 501q0 316 180 502.5t470 186.5q201 0 345.5 -89.5t202.5 -224.5l-227 -100q-118 203 -324 203q-181 0 -286 -134t-105 -351q0 -208 99 -338.5 t285 -130.5q154 0 248.5 87t126.5 235h-385v212h657z" glyph-name="Gcaron.salt" horiz-adv-x="1500"/><glyph d="M1393 722v-53q0 -312 -173.5 -504t-468.5 -192t-470 190t-175 501q0 316 180 502.5t470 186.5q201 0 345.5 -89.5t202.5 -224.5l-227 -100q-118 203 -324 203q-181 0 -286 -134t-105 -351q0 -208 99 -338.5t285 -130.5q154 0 248.5 87t126.5 235h-385v212h657zM748 -125 q63 0 97 -43.5t34 -119.5q0 -201 -205 -236l-24 84q87 17 111 61h-13q-53 0 -86.5 35t-33.5 91q0 58 32.5 93t87.5 35z" glyph-name="Gcommaaccent.salt" horiz-adv-x="1500"/><glyph d="M748 1442q-63 0 -102.5 43.5t-39.5 110.5q0 68 39 109t102.5 41t102.5 -42t39 -108q0 -63 -38 -108.5t-103 -45.5zM1393 722v-53q0 -312 -173.5 -504t-468.5 -192t-470 190t-175 501q0 316 180 502.5t470 186.5q201 0 345.5 -89.5t202.5 -224.5l-227 -100 q-118 203 -324 203q-181 0 -286 -134t-105 -351q0 -208 99 -338.5t285 -130.5q154 0 248.5 87t126.5 235h-385v212h657z" glyph-name="Gdotaccent.salt" horiz-adv-x="1500"/><glyph d="M416 0h-252v1319h252v-1319zM188 -319l172 136q53 -68 107 -103t125 -35q106 0 177 76t71 235v1329h252v-1358q0 -106 -25.5 -192t-79 -157t-149.5 -111t-224 -40q-145 0 -256.5 62t-169.5 158z" glyph-name="IJ.aalt" horiz-adv-x="1256"/><glyph d="M519 1319v-1339q0 -203 -101 -342.5t-251 -212.5l-104 225q189 109 190 311v1358h266z" glyph-name="J.salt" horiz-adv-x="682"/><glyph d="M1621 0h-252q-19 314 -58.5 535t-102.5 443l-259 -978h-164l-253 956q-60 -174 -105 -444t-60 -512h-251q7 265 78.5 629t186.5 690h285l203 -792l201 792h283q116 -324 183.5 -674t84.5 -645z" glyph-name="M.salt" horiz-adv-x="1737"/><glyph d="M1171 1568l-401 -126l-41 92l368 222zM1621 0h-252q-19 314 -58.5 535t-102.5 443l-259 -978h-164l-253 956q-60 -174 -105 -444t-60 -512h-251q7 265 78.5 629t186.5 690h285l203 -792l201 792h283q116 -324 183.5 -674t84.5 -645z" glyph-name="uni1E3E.salt" horiz-adv-x="1737"/><glyph d="M1065 1319h256v-1319h-259q0 72 -22.5 139.5t-53 117.5t-88.5 110t-102.5 98t-121.5 100q-172 137 -252 217v-782h-256v1319h259q0 -85 29 -162t90.5 -149.5t120.5 -127t152 -129.5q164 -131 248 -213v781z" glyph-name="N.salt" horiz-adv-x="1486"/><glyph d="M1065 1568l-401 -126l-41 92l369 222zM1065 1319h256v-1319h-259q0 72 -22.5 139.5t-53 117.5t-88.5 110t-102.5 98t-121.5 100q-172 137 -252 217v-782h-256v1319h259q0 -85 29 -162t90.5 -149.5t120.5 -127t152 -129.5q164 -131 248 -213v781z" glyph-name="Nacute.salt" horiz-adv-x="1486"/><glyph d="M809 1452h-87l-230 219l75 90l198 -124l198 124l75 -90zM1065 1319h256v-1319h-259q0 72 -22.5 139.5t-53 117.5t-88.5 110t-102.5 98t-121.5 100q-172 137 -252 217v-782h-256v1319h259q0 -85 29 -162t90.5 -149.5t120.5 -127t152 -129.5q164 -131 248 -213v781z" glyph-name="Ncaron.salt" horiz-adv-x="1486"/><glyph d="M1065 1319h256v-1319h-259q0 72 -22.5 139.5t-53 117.5t-88.5 110t-102.5 98t-121.5 100q-172 137 -252 217v-782h-256v1319h259q0 -85 29 -162t90.5 -149.5t120.5 -127t152 -129.5q164 -131 248 -213v781zM766 -125q63 0 97.5 -43.5t34.5 -119.5q0 -201 -205 -236 l-24 84q87 17 111 61h-14q-53 0 -86 35t-33 91q0 58 33 93t86 35z" glyph-name="Ncommaaccent.salt" horiz-adv-x="1486"/><glyph d="M1294 -191l123 -126q-60 -73 -139.5 -124t-156.5 -51t-144 26t-107.5 56.5t-101.5 56t-131 25.5q-73 0 -151 -47l-73 -53l-131 131l378 271q-251 32 -402.5 220t-151.5 466q0 304 176.5 497t468.5 193q287 0 464.5 -192t177.5 -498q0 -201 -81 -360.5t-228 -244.5 l-287 -207q34 -15 94 -50t109.5 -55.5t98.5 -20.5q99 0 195 87zM362 660q0 -201 103 -327t286 -126t285 126t102 327.5t-105 327.5t-282 126q-183 0 -286 -127t-103 -327z" glyph-name="Q.salt" horiz-adv-x="1525"/><glyph d="M860 447q12 -15 34 -49t35 -50.5t39.5 -40.5t54.5 -36t75 -21t105 -9v-241q-119 0 -206 20.5t-136.5 54t-85.5 74t-65 83.5t-61.5 80.5t-89.5 66.5t-137 39v-418h-256v1318h471q280 0 420.5 -119t140.5 -329q0 -344 -338 -423zM637 1089h-215v-444h215q147 0 222.5 48 t75.5 174t-77.5 174t-220.5 48z" glyph-name="R.salt" horiz-adv-x="1266"/><glyph d="M1285 1318q-169 -741 -464 -1318h-304q-305 602 -462 1318h288q53 -265 140 -572t186 -519q181 399 328 1091h288z" glyph-name="V.salt" horiz-adv-x="1341"/><glyph d="M1574 1318q-7 -265 -79 -628.5t-186 -689.5h-278l-210 734l-208 -734h-278q-227 635 -267 1318h267q14 -256 41.5 -424.5t101.5 -502.5l263 928h162l261 -928q51 171 91 447t52 480h267z" glyph-name="W.salt" horiz-adv-x="1643"/><glyph d="M722 1442l-41 92l369 222l73 -188zM1574 1318q-7 -265 -79 -628.5t-186 -689.5h-278l-210 734l-208 -734h-278q-227 635 -267 1318h267q14 -256 41.5 -424.5t101.5 -502.5l263 928h162l261 -928q51 171 91 447t52 480h267z" glyph-name="Wacute.salt" horiz-adv-x="1643"/><glyph d="M778 1760h87l229 -221l-75 -88l-198 123l-198 -123l-75 88zM1574 1318q-7 -265 -79 -628.5t-186 -689.5h-278l-210 734l-208 -734h-278q-227 635 -267 1318h267q14 -256 41.5 -424.5t101.5 -502.5l263 928h162l261 -928q51 171 91 447t52 480h267z" glyph-name="Wcircumflex.salt" horiz-adv-x="1643"/><glyph d="M654 1700q46 0 75.5 -31.5t29.5 -81.5q0 -46 -29.5 -79t-75.5 -33q-48 0 -77 31.5t-29 80.5q0 51 29 82t77 31zM995 1700q46 0 75 -31.5t29 -81.5q0 -46 -29 -79t-75 -33q-48 0 -77 31.5t-29 80.5q0 51 28.5 82t77.5 31zM1574 1318q-7 -265 -79 -628.5t-186 -689.5h-278 l-210 734l-208 -734h-278q-227 635 -267 1318h267q14 -256 41.5 -424.5t101.5 -502.5l263 928h162l261 -928q51 171 91 447t52 480h267z" glyph-name="Wdieresis.salt" horiz-adv-x="1643"/><glyph d="M908 1442l-401 126l73 188l367 -222zM1574 1318q-7 -265 -79 -628.5t-186 -689.5h-278l-210 734l-208 -734h-278q-227 635 -267 1318h267q14 -256 41.5 -424.5t101.5 -502.5l263 928h162l261 -928q51 171 91 447t52 480h267z" glyph-name="Wgrave.salt" horiz-adv-x="1643"/><glyph d="M934 1318h271q-75 -247 -170.5 -418t-286.5 -395v-505h-256v512q-177 229 -273 394.5t-180 411.5h272q60 -201 132 -349t178 -280q109 128 179.5 273.5t133.5 355.5z" glyph-name="Y.salt" horiz-adv-x="1247"/><glyph d="M923 1568l-401 -126l-41 92l369 222zM934 1318h271q-75 -247 -170.5 -418t-286.5 -395v-505h-256v512q-177 229 -273 394.5t-180 411.5h272q60 -201 132 -349t178 -280q109 128 179.5 273.5t133.5 355.5z" glyph-name="Yacute.salt" horiz-adv-x="1247"/><glyph d="M621 1574l-198 -123l-75 88l231 221h87l228 -221l-75 -88zM934 1318h271q-75 -247 -170.5 -418t-286.5 -395v-505h-256v512q-177 229 -273 394.5t-180 411.5h272q60 -201 132 -349t178 -280q109 128 179.5 273.5t133.5 355.5z" glyph-name="Ycircumflex.salt" horiz-adv-x="1247"/><glyph d="M454 1475q-48 0 -77 31.5t-29 80.5q0 51 29 82t77 31q46 0 76 -31.5t30 -81.5q0 -46 -30 -79t-76 -33zM795 1475q-48 0 -77 31.5t-29 80.5q0 51 28.5 82t77.5 31q46 0 75 -31.5t29 -81.5q0 -46 -29 -79t-75 -33zM934 1318h271q-75 -247 -170.5 -418t-286.5 -395v-505 h-256v512q-177 229 -273 394.5t-180 411.5h272q60 -201 132 -349t178 -280q109 128 179.5 273.5t133.5 355.5z" glyph-name="Ydieresis.salt" horiz-adv-x="1247"/><glyph d="M748 1534l-40 -92l-401 126l74 188zM934 1318h271q-75 -247 -170.5 -418t-286.5 -395v-505h-256v512q-177 229 -273 394.5t-180 411.5h272q60 -201 132 -349t178 -280q109 128 179.5 273.5t133.5 355.5z" glyph-name="Ygrave.salt" horiz-adv-x="1247"/><glyph d="M495 1556q-75 0 -75 -99h-152q0 113 67.5 181.5t154.5 68.5q63 0 132 -51.5t108 -51.5q61 0 62 96h152q0 -125 -60.5 -188t-149.5 -63q-41 0 -77.5 17t-59 36.5t-49.5 36.5t-53 17zM934 1318h271q-75 -247 -170.5 -418t-286.5 -395v-505h-256v512q-177 229 -273 394.5 t-180 411.5h272q60 -201 132 -349t178 -280q109 128 179.5 273.5t133.5 355.5z" glyph-name="uni1EF8.salt" horiz-adv-x="1247"/><glyph d="M510 966q196 0 327.5 -118t131.5 -326v-522h-206l-34 111q-99 -138 -301 -138q-162 0 -252.5 85t-90.5 222q0 147 101 224.5t271 77.5q140 0 263 -55v38q0 87 -62 133t-163 46q-130 0 -263 -58l-82 207q174 73 360 73zM860 461q2 2 2 5zM502 166q85 0 142 49.5t71 141.5 q-92 51 -193 51q-84 0 -132.5 -31t-48.5 -89q0 -56 41 -89t120 -33z" glyph-name="a.salt" horiz-adv-x="1105"/><glyph d="M268 1365q63 0 102.5 -41.5t39.5 -108.5q0 -63 -38.5 -108t-103.5 -45q-63 0 -102.5 43.5t-39.5 109.5q0 68 39.5 109t102.5 41zM391 0h-248v939h248v-939z" glyph-name="i.locl" horiz-adv-x="534"/><glyph d="M364 0h-248v1427h248v-1427z" glyph-name="l.salt" horiz-adv-x="498"/><glyph d="M140 1574l-41 92l369 222l73 -188zM364 0h-248v1427h248v-1427z" glyph-name="lacute.salt" horiz-adv-x="498"/><glyph d="M529 1004l-92 37l102 416l186 -80zM364 0h-248v1427h248v-1427z" glyph-name="lcaron.salt" horiz-adv-x="498"/><glyph d="M364 1427v-1427h-248v1427h248zM242 -125q63 0 97.5 -43.5t34.5 -119.5q0 -201 -205 -236l-24 84q87 17 111 61h-14q-53 0 -86 35t-33 91q0 58 32 93t87 35z" glyph-name="lcommaaccent.salt" horiz-adv-x="498"/><glyph d="M645 971v-200l-136 -61v-710h-250v599l-143 -65v200l143 65v628h250v-517z" glyph-name="lslash.salt" horiz-adv-x="779"/><glyph d="M416 -24q-106 0 -211.5 33.5t-155.5 77.5l89 154q43 -36 128.5 -67t158.5 -31q68 0 105 23t37 63q0 43 -50.5 65t-123 34.5t-144.5 33t-122 74.5t-50 143q0 108 90.5 182.5t245.5 74.5q176 0 329 -97l-82 -147q-119 79 -247 79q-133 0 -133 -77q0 -43 51 -65t123 -35 t144.5 -33.5t123.5 -76t51 -147.5q0 -116 -95.5 -188.5t-261.5 -72.5z" glyph-name="glyph630" horiz-adv-x="836"/><glyph d="M797 435q147 -36 241 -158t94 -311q0 -210 -119.5 -339t-299.5 -129q-189 0 -356 108l141 179q92 -61 186 -61q89 0 149.5 67t60.5 183q0 130 -62 199t-156 69q-43 0 -99 -18l-74 179l277 321l-374 -4v-720h-244v719h-111v220h111v102q0 140 43.5 238t117 141.5t171 50.5 t204.5 -37l-2 -200q-290 109 -290 -172v-123h638v-214z" glyph-name="germandbls.salt" horiz-adv-x="1148"/><glyph d="M1063 939q-65 -263 -149.5 -479t-215.5 -460h-307q-133 242 -217 457t-148 482h256q43 -207 114.5 -418.5t146.5 -356.5q164 333 264 775h256z" glyph-name="v.ss02" horiz-adv-x="1088"/><glyph d="M1190 939h262q-72 -317 -141.5 -530t-163.5 -409h-258l-147 678l-146 -678h-260q-92 203 -180 469.5t-122 469.5h263q41 -314 136 -628l175 628h268l172 -622q98 318 142 622z" glyph-name="w.salt" horiz-adv-x="1489"/><glyph d="M1044 1188l-401 -126l-41 92l369 222zM1190 939h262q-72 -317 -141.5 -530t-163.5 -409h-258l-147 678l-146 -678h-260q-92 203 -180 469.5t-122 469.5h263q41 -314 136 -628l175 628h268l172 -622q98 318 142 622z" glyph-name="wacute.salt" horiz-adv-x="1489"/><glyph d="M742 1193l-198 -123l-75 89l231 220h87l228 -220l-75 -89zM1190 939h262q-72 -317 -141.5 -530t-163.5 -409h-258l-147 678l-146 -678h-260q-92 203 -180 469.5t-122 469.5h263q41 -314 136 -628l175 628h268l172 -622q98 318 142 622z" glyph-name="wcircumflex.salt" horiz-adv-x="1489"/><glyph d="M575 1094q-48 0 -77 31.5t-29 81.5q0 51 29 81.5t77 30.5q46 0 76 -31.5t30 -80.5q0 -46 -30 -79.5t-76 -33.5zM916 1094q-48 0 -76.5 31.5t-28.5 81.5q0 51 28 81.5t77 30.5q46 0 75.5 -31.5t29.5 -80.5q0 -46 -29.5 -79.5t-75.5 -33.5zM1190 939h262 q-72 -317 -141.5 -530t-163.5 -409h-258l-147 678l-146 -678h-260q-92 203 -180 469.5t-122 469.5h263q41 -314 136 -628l175 628h268l172 -622q98 318 142 622z" glyph-name="wdieresis.salt" horiz-adv-x="1489"/><glyph d="M869 1154l-40 -92l-401 126l74 188zM1190 939h262q-72 -317 -141.5 -530t-163.5 -409h-258l-147 678l-146 -678h-260q-92 203 -180 469.5t-122 469.5h263q41 -314 136 -628l175 628h268l172 -622q98 318 142 622z" glyph-name="wgrave.salt" horiz-adv-x="1489"/><glyph d="M676 939h249l-490 -1451h-256l176 512l-329 939h254l200 -656z" glyph-name="y.salt" horiz-adv-x="948"/><glyph d="M783 1188l-401 -126l-41 92l369 222zM676 939h249l-490 -1451h-256l176 512l-329 939h254l200 -656z" glyph-name="yacute.salt" horiz-adv-x="948"/><glyph d="M481 1193l-198 -123l-75 89l231 220h87l228 -220l-75 -89zM676 939h249l-490 -1451h-256l176 512l-329 939h254l200 -656z" glyph-name="ycircumflex.salt" horiz-adv-x="948"/><glyph d="M314 1094q-48 0 -77 31.5t-29 81.5q0 51 29 81.5t77 30.5q46 0 76 -31.5t30 -80.5q0 -46 -30 -79.5t-76 -33.5zM655 1094q-48 0 -76.5 31.5t-28.5 81.5q0 51 28 81.5t77 30.5q46 0 75 -31.5t29 -80.5q0 -46 -29 -79.5t-75 -33.5zM676 939h249l-490 -1451h-256l176 512 l-329 939h254l200 -656z" glyph-name="ydieresis.salt" horiz-adv-x="948"/><glyph d="M676 939h249l-490 -1451h-256l176 512l-329 939h254l200 -656zM739 -241q63 0 102.5 -41t39.5 -109q0 -63 -38.5 -108t-103.5 -45q-61 0 -101.5 43.5t-40.5 109.5q0 68 38.5 109t103.5 41z" glyph-name="uni1EF5.salt" horiz-adv-x="948"/><glyph d="M608 1154l-40 -92l-401 126l74 188zM676 939h249l-490 -1451h-256l176 512l-329 939h254l200 -656z" glyph-name="ygrave.salt" horiz-adv-x="948"/><glyph d="M486 1304q-39 0 -78 -39l-55 80q73 79 159 82q84 3 129 -38.5t43 -111.5q-2 -104 -155 -226h-111q12 15 35 42.5t31.5 38.5t23 30t19.5 30t9.5 25t4.5 27q0 60 -55 60zM676 939h249l-490 -1451h-256l176 512l-329 939h254l200 -656z" glyph-name="uni1EF7.salt" horiz-adv-x="948"/><glyph d="M375 1176q-75 0 -75 -99h-152q0 113 67.5 181t154.5 68q63 0 132.5 -51t108.5 -51q61 0 61 95h152q0 -125 -60.5 -188t-149.5 -63q-53 0 -96.5 27.5t-77.5 54t-65 26.5zM676 939h249l-490 -1451h-256l176 512l-329 939h254l200 -656z" glyph-name="uni1EF9.salt" horiz-adv-x="948"/><glyph d="M418 1319v-1104h753v-215h-1005v1319h252zM1749 0h-268l-143 401h-768l367 918h295zM899 620h362l-177 496z" glyph-name="L_A.dlig" horiz-adv-x="1805"/><glyph d="M1065 418q-212 0 -342.5 125.5t-130.5 340.5q0 217 130.5 343t342.5 126q208 0 341 -127t133 -342q0 -196 -121 -331t-353 -135zM418 1319v-1072h1099v-247h-1351v1319h252zM1065 1130q-99 0 -155.5 -69t-56.5 -175q0 -102 56.5 -171.5t155.5 -69.5q96 2 154.5 72 t58.5 169q0 106 -57 175t-156 69z" glyph-name="L_O.dlig" horiz-adv-x="1646"/><glyph d="M1657 964q154 0 248 -90.5t94 -296.5v-577h-258l2 536q0 96 -33.5 145t-110.5 49q-114 0 -232 -153v-577h-258v1227q-195 70 -271 -17q-56 -63 -33 -175.5t117 -218.5q3 -5 10.5 -14.5t13.5 -17t11 -14.5l-184 -121q-80 102 -215 102q-116 0 -173 -79.5t-57 -203.5 q0 -121 58 -200.5t172 -79.5q123 0 215 102l186 -121q-135 -196 -399 -196q-225 0 -355 133t-130 362q0 230 130 363t355 135q31 0 46 -2q-73 208 43 362q67 89 164.5 118t179.5 15.5t194.5 -37.5t174.5 -24h5v-574q126 140 290 140zM1251 643z" glyph-name="c_h.dlig" horiz-adv-x="2107"/><glyph d="M1758 -2l-301 377h-73v-375h-252v1219q-212 84 -294 -9q-56 -63 -33 -175.5t117 -218.5q3 -5 10.5 -14.5t13.5 -17t11 -14.5l-184 -121q-80 102 -215 102q-116 0 -173 -79.5t-57 -203.5q0 -121 58 -200.5t172 -79.5q123 0 215 102l186 -121q-135 -196 -399 -196 q-225 0 -355 133t-130 362q0 230 130 363t355 135q32 0 48 -2q-68 212 41 362q49 68 114 101.5t139 33.5t138 -10.5t148.5 -28t134.5 -23.5h61v-790h79l257 330h321l-372 -449l423 -492h-334z" glyph-name="c_k.dlig" horiz-adv-x="2100"/><glyph d="M1348 966q205 0 331.5 -137.5t126.5 -360.5q0 -220 -119 -357.5t-328 -137.5q-189 0 -311 133l-41 -106h-190v1239q-126 34 -217 37.5t-142.5 -49.5t-51.5 -165v-123h258v-219h-258v-720h-251v720h-104v219h104v140q0 114 34.5 194t99 123.5t145.5 63.5t188 14.5t212 -23 t229 -50.5v-549q118 114 285 114zM1306 201q114 0 180.5 72.5t66.5 194.5q0 130 -65.5 199.5t-181.5 69.5q-113 0 -178 -72.5t-65 -196.5q0 -123 65 -195t178 -72z" glyph-name="f_b.dlig" horiz-adv-x="1879"/><glyph d="M1353 964q154 0 248 -90.5t94 -296.5v-577h-258l2 536q0 96 -33.5 145t-110.5 49q-114 0 -232 -153v-577h-257v1242q-123 32 -212 34t-138.5 -51t-49.5 -163v-123h258v-219h-258v-720h-251v720h-104v219h104v140q0 114 34.5 194t99 123.5t145.5 63.5t188 14.5t212 -23 t229 -50.5v-577q126 140 290 140zM947 643z" glyph-name="f_h.dlig" horiz-adv-x="1803"/><glyph d="M1036 939v-939h-248v720h-382v-720h-251v720h-104v219h104v117q0 142 58 236t150.5 131.5t206 41t223.5 -25t207 -75.5l-87 -203q-94 41 -181 59.5t-162 14.5t-119.5 -49.5t-44.5 -129.5v-117h630z" glyph-name="f_i.dlig" horiz-adv-x="1172"/><glyph d="M1053 939v-959q0 -111 -27.5 -201t-77.5 -152t-105 -103t-126 -77l-111 184l10 5q10 5 27 17t37 29.5t41 43t37.5 56t27.5 72.5t11 88v778h-391v-720h-251v720h-104v219h104v117q0 142 58 236t150.5 131.5t206 41t223.5 -25t207 -75.5l-87 -203q-94 41 -181 59.5 t-162 14.5t-119.5 -49.5t-44.5 -129.5v-117h647z" glyph-name="f_j.dlig" horiz-adv-x="1189"/><glyph d="M1196 213l38 -194q-121 -41 -215 -37t-149.5 77.5t-55.5 211.5v970q-125 34 -216 35.5t-141.5 -51.5t-50.5 -163v-123h258v-219h-258v-720h-251v720h-104v219h104v140q0 114 34.5 194t99 123.5t145.5 63.5t188 14.5t212 -23t229 -50.5v-1101q0 -63 32.5 -82.5t100.5 -4.5 z" glyph-name="f_l.dlig" horiz-adv-x="1312"/><glyph d="M1251 966q94 0 188 -55l-111 -228q-61 34 -115 34q-75 0 -120 -72.5t-52 -168.5v-476h-244v720h-391v-720h-251v720h-104v219h104v117q0 142 58 236t150.5 131.5t206 41t223.5 -25t207 -75.5l-87 -203q-94 41 -181 59.5t-162 14.5t-119.5 -49.5t-44.5 -129.5v-117h579 l41 -127q82 154 225 154z" glyph-name="f_r.dlig" horiz-adv-x="1471"/><glyph d="M973 386q0 -70 18 -116t46 -66t69 -24t78.5 3.5t83.5 23.5l-3 -200q-84 -29 -161.5 -34t-147 18.5t-121.5 74t-81.5 138.5t-29.5 204v331h-318v-739h-251v739h-104v200h104v172q0 186 119 285t307.5 89t391.5 -123v-423h240l-18 -200h-222v-353zM406 939h318v303 q-80 24 -151 25t-119 -40t-48 -114v-174z" glyph-name="f_t.dlig" horiz-adv-x="1315"/><glyph d="M1613 964q154 0 247.5 -90.5t93.5 -296.5v-577h-258l2 536q0 195 -136 194q-126 0 -250 -153v-577h-245v1062q0 217 -147 216q-97 0 -137.5 -86t-14.5 -192t96 -164l-99 -179q-46 48 -124 80.5t-158 32.5q-72 0 -113 -27.5t-41 -61.5q0 -32 42 -53.5t105 -32t137.5 -31 t137.5 -47.5t105 -87.5t42 -146.5q0 -142 -109.5 -226t-302.5 -84q-270 0 -430 146l108 181q58 -51 151 -91t183 -40q75 0 116 27.5t41 65t-41.5 61t-105 35t-136 31t-135.5 45t-105 82.5t-42 139q0 135 103.5 223t286.5 88q39 0 78 -5q-14 72 -14.5 143.5t27.5 139 t74 118.5t124.5 82.5t177.5 31.5q89 0 156.5 -26.5t104 -70.5t63 -99.5t31.5 -113.5t10.5 -113.5t-0.5 -100.5v-135q134 147 301 147zM1196 643z" glyph-name="s_h.dlig" horiz-adv-x="2063"/><glyph d="M1620 966q196 0 313.5 -140t117.5 -358q0 -220 -117.5 -357.5t-322.5 -137.5q-181 0 -300 114v-599h-244v1451q0 217 -142 216q-75 0 -116 -54.5t-28 -131t83 -133.5l-99 -179q-46 48 -124 80.5t-158 32.5q-72 0 -113 -27.5t-41 -61.5q0 -32 42 -53.5t105 -32t137.5 -31 t137.5 -47.5t105 -87.5t42 -146.5q0 -142 -109.5 -226t-302.5 -84q-270 0 -430 146l108 181q58 -51 151 -91t183 -40q75 0 116 27.5t41 65t-41.5 61t-105 35t-136 31t-135.5 45t-105 82.5t-42 139q0 135 103.5 223t286.5 88q49 0 88 -7q-19 155 83.5 274.5t302.5 119.5 q101 0 171.5 -35.5t107.5 -85t55.5 -125.5t22 -131.5t1.5 -128.5q129 119 308 119zM1551 205q113 0 178.5 71.5t65.5 193t-65.5 193t-178.5 71.5q-111 0 -175.5 -71.5t-64.5 -193.5q0 -123 64.5 -193.5t175.5 -70.5z" glyph-name="s_p.dlig" horiz-adv-x="2123"/><glyph d="M1350 386q0 -70 18 -116t46 -66t69 -24t78.5 3.5t83.5 23.5l-3 -200q-84 -29 -161.5 -34t-146.5 18.5t-120.5 74t-81 138.5t-29.5 204v331h-123v200h123v181q-14 5 -43 16t-42.5 16t-40 13.5t-40.5 11t-36 6t-35.5 1t-31 -7.5t-32 -16t-25.5 -27q-51 -72 -31 -147 t94 -133q5 -3 24 -17l-99 -179q-46 48 -124 80.5t-161 32.5q-67 0 -109 -26.5t-42 -67.5q0 -36 59 -56.5t142.5 -36t166.5 -42t142 -94.5t59 -174q0 -133 -111 -216.5t-304 -83.5q-125 0 -238.5 39t-188.5 107l108 181q56 -53 151 -92t180 -39q79 0 119.5 27.5t40.5 71.5 q0 36 -41.5 58t-105 31.5t-136 29t-135.5 46t-105 87t-42 147.5q0 125 104.5 212t285.5 87q43 0 81 -5q-68 166 35 292q67 84 170.5 103.5t195 -4.5t208.5 -55t180 -31v-327h244l-19 -200h-225v-353z" glyph-name="s_t.dlig" horiz-adv-x="1693"/></font>
</defs>
</svg>
