<svg xmlns="http://www.w3.org/2000/svg">
<defs>
<font horiz-adv-x="0" id="ywftsvg"><font-face ascent="1638" bbox="-901 -778 2360 2196.09" cap-height="1319" descent="-410" font-family="" font-stretch="normal" font-weight="500" panose-1="2 11 0 3 5 4 1 2 5 4" underline-position="0" underline-thickness="0" unicode-range="U+0020-FFFD" units-per-em="2048" x-height="939"/><missing-glyph d="M1000 973q51 -171 51 -398q0 -58 -13 -118q-3 -9 -9 -1q-9 19 -21.5 35t-21.5 24l-10 7q2 -3 5.5 -9t12 -25t12 -36t5 -43.5t-6.5 -48.5q-17 -48 -59 -84q-7 -3 -6 4q-2 17 -8 30.5t-11 20.5l-5 5q0 -5 -1 -12.5t-8.5 -31.5t-18.5 -46t-37 -51t-60 -52q-2 0 -4.5 -1.5 t-4 -3t-3.5 -1.5q-5 -3 -8.5 -1t0.5 7q5 12 7.5 23t0.5 17v5q-5 -9 -15 -24.5t-50.5 -45t-87.5 -43.5q-48 14 -87.5 42t-54.5 50l-15 21q-5 -19 6 -45q2 -5 0.5 -7.5t-6.5 1.5q-3 2 -7.5 4t-6.5 2q-55 36 -85.5 84t-33.5 78l-6 31q-19 -19 -24 -56q0 -7 -6 -4q-41 34 -57 84 q-10 43 -4 78.5t18 59.5l14 24q-34 -26 -53 -66q-9 -10 -10 1q-14 60 -14 118q0 101 12.5 201t26.5 149l12 48q3 15 12 17q114 31 210 43l14 34q2 2 3 1q44 -15 61 -10q38 9 76 75q2 3 5 0q38 -67 75 -75q22 -5 61 10q3 0 4 -1l13 -34q68 -9 210 -43q9 -3 12 -17zM415 975 q-2 0 3 -26.5t10 -54.5l5 -27q41 39 96 39h3q14 0 28 -5q24 -7 40 -24t21 -30l4 -12q2 3 3.5 7.5t4 18t0.5 23.5q20 12 40 18t36 5t31.5 -4.5t26 -9.5t19 -11.5t13.5 -11.5l3 -3l15 111l-58 -44l-29 87l-58 -58l-56 100l-60 -97l-51 58l-31 -92zM350 823q20 -2 31 -21 q15 15 41 26q-5 10 -16.5 17.5t-19.5 11.5l-11 1l23 14q-56 14 -86 -39q-14 -29 -9.5 -53t16.5 -39l12 -14q3 17 15 36q9 15 10 29.5t-3 23.5zM903 727q5 5 11 14.5t15.5 38.5t-7.5 53q-14 24 -35.5 33.5t-36.5 7.5l-14 -2l22 -14q-34 -9 -46 -30q24 -10 43 -26q5 9 12 14 t12 7h5q-15 -24 3 -58zM816 561q9 0 17 -5t14 -10l3 -5q0 58 -39 82q2 7 4 17t1.5 39t-9 51.5t-37 43.5t-72.5 26l15 21q-63 7 -97 -46q-15 24 -40 35t-40 11h-17q15 -14 15 -21q-70 -9 -98 -53t-21 -85l7 -39q-17 -10 -27.5 -30.5t-12.5 -36.5v-15q15 20 34 20 q-3 -5 -7.5 -13.5t-8.5 -39t11 -61.5l21 -37q20 24 44 42q-19 31 -19 58q0 48 43 87q-24 -41 -19 -82q12 -39 33 -39q10 0 46 25.5t41 39.5q10 27 1 50q-12 10 -28 17.5t-
<glyph d="M1198 1319q-97 34 -177.5 34t-132.5 -62t-52 -178v-174h345v-123h-345v-816h-131v816h-398v-816h-131v816h-97v123h97v157q0 138 66.5 225t159.5 109t194.5 -1t171.5 -89q46 68 122 99.5t154.5 28t153.5 -33.5v-115zM307 939h398v164q0 72 15 128q-77 80 -174 96 t-168 -43.5t-71 -182.5v-162z" glyph-name="f_f.liga" horiz-adv-x="1240" unicode="ff"/><glyph d="M1428 939v-939h-133v816h-459v-816h-131v816h-398v-816h-131v816h-97v123h97v157q0 109 42.5 188.5t110 114.5t145 42.5t154.5 -19t133 -75.5q58 87 173.5 113.5t240.5 1.5t247 -85l-50 -104q-111 51 -207.5 71.5t-169.5 8.5t-116 -67t-43 -149v-198h592zM307 939h398 v193q0 56 10 102q-77 79 -172.5 94t-165.5 -45.5t-70 -181.5v-162z" glyph-name="f_f_i.liga" horiz-adv-x="1565" unicode="ffi"/><glyph d="M1626 116l23 -109q-155 -55 -229.5 -3.5t-76.5 170.5v1133q-114 36 -199.5 48t-159 -1.5t-111.5 -73.5t-38 -167v-174h343v-123h-343v-816h-130v816h-400v-816h-129v816h-97v123h97v157q0 111 42.5 190t111 113.5t147 41t155 -20t131.5 -77.5q154 234 712 50v-1202 q0 -63 33.5 -80t117.5 5zM305 939h400v172q0 72 12 120q-77 80 -173.5 96t-167.5 -43.5t-71 -182.5v-162z" glyph-name="f_f_l.liga" horiz-adv-x="1740" unicode="ffl"/><glyph d="M1000 973q51 -171 51 -398q0 -58 -13 -118q-3 -9 -9 -1q-9 19 -21.5 35t-21.5 24l-10 7q2 -3 5.5 -9t12 -25t12 -36t5 -43.5t-6.5 -48.5q-17 -48 -59 -84q-7 -3 -6 4q-2 17 -8 30.5t-11 20.5l-5 5q0 -5 -1 -12.5t-8.5 -31.5t-18.5 -46t-37 -51t-60 -52q-2 0 -4.5 -1.5 t-4 -3t-3.5 -1.5q-5 -3 -8.5 -1t0.5 7q5 12 7.5 23t0.5 17v5q-5 -9 -15 -24.5t-50.5 -45t-87.5 -43.5q-48 14 -87.5 42t-54.5 50l-15 21q-5 -19 6 -45q2 -5 0.5 -7.5t-6.5 1.5q-3 2 -7.5 4t-6.5 2q-55 36 -85.5 84t-33.5 78l-6 31q-19 -19 -24 -56q0 -7 -6 -4q-41 34 -57 84 q-10 43 -4 78.5t18 59.5l14 24q-34 -26 -53 -66q-9 -10 -10 1q-14 60 -14 118q0 101 12.5 201t26.5 149l12 48q3 15 12 17q114 31 210 43l14 34q2 2 3 1q44 -15 61 -10q38 9 76 75q2 3 5 0q38 -67 75 -75q22 -5 61 10q3 0 4 -1l13 -34q68 -9 210 -43q9 -3 12 -17zM415 975 q-2 0 3 -26.5t10 -54.5l5 -27q41 39 96 39h3q14 0 28 -5q24 -7 40 -24t21 -30l4 -12q2 3 3.5 7.5t4 18t0.5 23.5q20 12 40 18t36 5t31.5 -4.5t26 -9.5t19 -11.5t13.5 -11.5l3 -3l15 111l-58 -44l-29 87l-58 -58l-56 100l-60 -97l-51 58l-31 -92zM350 823q20 -2 31 -21 q15 15 41 26q-5 10 -16.5 17.5t-19.5 11.5l-11 1l23 14q-56 14 -86 -39q-14 -29 -9.5 -53t16.5 -39l12 -14q3 17 15 36q9 15 10 29.5t-3 23.5zM903 727q5 5 11 14.5t15.5 38.5t-7.5 53q-14 24 -35.5 33.5t-36.5 7.5l-14 -2l22 -14q-34 -9 -46 -30q24 -10 43 -26q5 9 12 14 t12 7h5q-15 -24 3 -58zM816 561q9 0 17 -5t14 -10l3 -5q0 58 -39 82q2 7 4 17t1.5 39t-9 51.5t-37 43.5t-72.5 26l15 21q-63 7 -97 -46q-15 24 -40 35t-40 11h-17q15 -14 15 -21q-70 -9 -98 -53t-21 -85l7 -39q-17 -10 -27.5 -30.5t-12.5 -36.5v-15q15 20 34 20 q-3 -5 -7.5 -13.5t-8.5 -39t11 -61.5l21 -37q20 24 44 42q-19 31 -19 58q0 48 43 87q-24 -41 -19 -82q12 -39 33 -39q10 0 46 25.5t41 39.5q10 27 1 50q-12 10 -28 17.5t-26 9.5l-10 3q7 20 22 29q7 3 28 -2.5t28 -5.5t28.5 6t28 2.5t11.5 -11.5t7 -13l2 -5q-39 -7 -63 -30 q-3 -5 -2.5 -21.5t5.5 -28.5q3 -14 39 -39.5t48 -25.5q7 0 17.5 13t13.5 26q5 41 -19 82q41 -38 41 -87q0 -12 -4 -26.5t-8 -22.5l-5 -9l44 -42q10 14 19 37q12 36 12 61.5t-8 39.5zM480 707l-26 15q60 -3 94 -15q-3 -17 -13.5 -36t-19.5 -29l-6 -12l3 30h-10q-12 0 -21.5 9 t-9.5 19t9 19zM724 630q-27 32 -38 77q15 5 38.5 9t40.5 4l15 2l-24 -14q5 -10 5 -17q0 -29 -31 -29q-2 0 -5 1t-5 1zM674 369q14 12 22.5 29t10.5 27v10q-17 24 -48 48t-43 24t-42.5 -24t-46.5 -48q-5 -39 28 -60v14q31 -24 61 -24q14 0 34 7q22 10 22 27q3 -7 4.5 -14.5 t-0.5 -12.5z" glyph-name=".notdef" horiz-adv-x="1242"/><glyph glyph-name="glyph1"/><glyph glyph-name="glyph2" horiz-adv-x="682"/><glyph glyph-name="space" horiz-adv-x="479" unicode=" "/><glyph d="M297 391h-77l-20 573l-11 504h135l-7 -504zM258 177q43 0 69 -29t26 -73t-26.5 -74t-69 -30t-70 29t-27.5 75t27 74t71 28z" glyph-name="exclam" horiz-adv-x="513" unicode="!"/><glyph d="M157 1056h-78l-28 412h128zM372 1056h-80l-27 412h128z" glyph-name="quotedbl" horiz-adv-x="445" unicode="&quot;"/><glyph d="M1050 730h-176l-72 -305h178v-108h-203l-76 -317h-114l75 317l-316 2l-75 -319h-116l75 319h-153l2 106h177l73 307h-181l2 106h203l77 323h114l-75 -323h316l77 323h114l-77 -323h151v-108zM688 425l71 305l-315 2l-72 -307h316z" glyph-name="numbersign" horiz-adv-x="1128" unicode="#"/><glyph d="M847 374q0 -111 -80.5 -180t-203.5 -83v-111h-89v109q-94 7 -177.5 46.5t-137.5 102.5l78 78q84 -108 237 -118v335q-61 20 -99.5 36.5t-83 45.5t-65.5 71t-21 98q0 104 74 167t195 73v117h89v-117q159 -14 253 -122l-82 -74q-56 75 -171 91v-304q65 -20 104.5 -37.5 t86 -47t70 -74t23.5 -102.5zM326 814q0 -53 38.5 -87t109.5 -61v273q-67 -9 -107.5 -42.5t-40.5 -82.5zM563 220q72 10 116.5 47.5t44.5 96.5q0 60 -42 95.5t-119 64.5v-304z" glyph-name="dollar" horiz-adv-x="1013" unicode="$"/><glyph d="M454 -22l-99 54l637 1169l97 -54zM398 1191q123 0 200.5 -72.5t77.5 -193.5q0 -111 -74.5 -188.5t-203.5 -77.5q-125 0 -202.5 73.5t-77.5 192.5t77.5 192.5t202.5 73.5zM398 1092q-75 0 -118.5 -47t-43.5 -120q0 -72 43.5 -119t118.5 -47q73 0 116.5 47t43.5 119 t-43.5 119.5t-116.5 47.5zM1063 510q123 0 200.5 -73t77.5 -193q0 -111 -73 -188.5t-205 -77.5q-125 0 -202.5 73.5t-77.5 193t77.5 192.5t202.5 73zM1063 411q-75 0 -118.5 -47.5t-43.5 -119.5t43.5 -118.5t118.5 -46.5q73 0 117 46.5t44 118.5t-44 119.5t-117 47.5z" glyph-name="percent" horiz-adv-x="1460" unicode="%"/><glyph d="M1137 73l-93 -88l-192 206q-176 -218 -410 -218q-147 0 -252.5 102t-105.5 242q0 109 69 209t190 208l-17 17q-53 61 -78.5 94.5t-54.5 100t-29 133.5q0 121 91 197.5t204 76.5q126 0 211.5 -83.5t87.5 -197.5q0 -55 -16.5 -102t-56.5 -92t-69 -71.5t-92 -79.5l311 -331 q60 106 104 249l121 -37q-51 -172 -135 -309zM290 1075q0 -39 16.5 -79t32.5 -61.5t47.5 -57.5t40.5 -46l13 -15q3 3 52 41.5t59 49.5t37.5 42.5t36 60t8.5 62.5q0 75 -47 120t-127 45q-75 0 -122 -42.5t-47 -119.5zM452 101q169 0 313 182l-340 362q-208 -188 -208 -328 q0 -87 67 -151.5t168 -64.5z" glyph-name="ampersand" horiz-adv-x="1194" unicode="&amp;"/><glyph d="M157 1056h-78l-28 412h128z" glyph-name="quotesingle" horiz-adv-x="228" unicode="'"/><glyph d="M507 1405q-133 -147 -204 -370.5t-71 -459t67.5 -452.5t198.5 -364l-83 -63q-304 324 -304 883q0 268 78.5 497.5t232.5 391.5z" glyph-name="parenleft" horiz-adv-x="592" unicode="("/><glyph d="M82 1405l85 63q152 -162 231.5 -392.5t79.5 -496.5q0 -556 -306 -883l-82 63q131 147 199 364t68 452.5t-71 459t-204 370.5z" glyph-name="parenright" horiz-adv-x="583" unicode=")"/><glyph d="M176 811l164 193l-224 71l44 103l202 -96l-16 241h113l-15 -241l201 96l41 -103l-220 -71l164 -193l-89 -67l-138 207l-138 -207z" glyph-name="asterisk" horiz-adv-x="803" unicode="*"/><glyph d="M947 596v-123h-343v-362h-128v362h-339l-2 124h341v343h128v-344h343z" glyph-name="plus" horiz-adv-x="1083" unicode="+"/><glyph d="M179 195q53 0 84 -37t31 -105q0 -179 -156 -304q-3 3 -22.5 22t-25.5 24q109 101 111 181q-14 -3 -27 -3q-44 0 -74 31.5t-30 80.5q0 46 30.5 78t78.5 32z" glyph-name="comma" horiz-adv-x="423" unicode=","/><glyph d="M688 580v-117h-555v117h555z" glyph-name="hyphen" horiz-adv-x="820" unicode="-"/><glyph d="M228.5 198q47.5 0 77 -31.5t29.5 -81.5q0 -48 -29.5 -80t-76.5 -32q-46 0 -75 31.5t-29 80.5q0 51 28 82t75.5 31z" glyph-name="period" horiz-adv-x="459" unicode="."/><glyph d="M207 -142h-139l601 1408h138z" glyph-name="slash" horiz-adv-x="902" unicode="/"/><glyph d="M623 -24q-224 0 -356 172.5t-132 433.5t131.5 434.5t356.5 173.5t357.5 -171.5t132.5 -434.5q0 -259 -132.5 -433.5t-357.5 -174.5zM623 1070q-162 0 -258.5 -136.5t-96.5 -351.5q0 -205 92 -345t263 -140q159 0 258 133.5t99 349.5q0 207 -93 348.5t-264 141.5z" glyph-name="zero" horiz-adv-x="1245" unicode="0"/><glyph d="M422 1161h87v-1161h-135v1019l-231 -84l-41 116z" glyph-name="one" horiz-adv-x="730" unicode="1"/><glyph d="M329 121l623 7v-128h-819v119l401 330q73 61 110 93.5t82 83t64 98t19 102.5q0 109 -80 176.5t-205 67.5q-104 0 -183.5 -49.5t-111.5 -127.5l-103 73q51 104 157 164t246 60q181 0 297 -98.5t116 -251.5q0 -133 -84.5 -244t-234.5 -232z" glyph-name="two" horiz-adv-x="1104" unicode="2"/><glyph d="M521 695q184 0 295.5 -99t111.5 -256t-110.5 -260.5t-310.5 -103.5q-140 0 -243.5 57t-145.5 151l100 70q31 -73 107 -117.5t182 -44.5q131 0 209 71t78 182t-78.5 181t-208.5 70q-80 0 -150 -16l-52 94l405 364l-577 -5v128h741v-122l-371 -344h18z" glyph-name="three" horiz-adv-x="1070" unicode="3"/><glyph d="M993 457v-122h-152v-335h-124v335h-584l-25 122l609 704h124v-704h152zM261 457h456v528z" glyph-name="four" horiz-adv-x="1111" unicode="4"/><glyph d="M529 742q181 0 293.5 -104t112.5 -274q0 -169 -109 -278.5t-300 -109.5q-147 0 -252 62.5t-153 164.5l94 73q38 -85 118 -133.5t188 -48.5q131 0 208 76t77 194q0 123 -74.5 197t-217.5 74q-135 0 -220 -75l-108 65l43 536h635v-128l-521 5l-29 -337q94 41 215 41z" glyph-name="five" horiz-adv-x="1066" unicode="5"/><glyph d="M601 754q166 0 275.5 -103t109.5 -281q0 -167 -102 -279.5t-307 -112.5q-222 0 -333 166.5t-111 434.5q0 261 124.5 436.5t343.5 175.5q99 0 189.5 -35.5t144.5 -88.5l-77 -91q-113 97 -254 97q-113 0 -190.5 -71.5t-110.5 -171.5t-38 -221q131 145 336 145zM575 94 q138 0 208 77.5t70 198.5q0 118 -70.5 198.5t-185.5 80.5q-101 0 -187.5 -49.5t-141.5 -128.5q34 -377 307 -377z" glyph-name="six" horiz-adv-x="1122" unicode="6"/><glyph d="M85 1161h792v-122l-498 -1039h-147l507 1038l-654 -9v132z" glyph-name="seven" horiz-adv-x="948" unicode="7"/><glyph d="M778 608q101 -43 161.5 -118t60.5 -176q0 -142 -114.5 -240t-325.5 -98q-196 0 -318.5 91.5t-122.5 246.5q0 102 60 176.5t159 115.5q-181 85 -181 264q0 145 111 232.5t290 87.5t292 -87.5t113 -230.5q0 -84 -49 -153.5t-136 -110.5zM558 1075q-130 0 -201.5 -54.5 t-71.5 -153.5q0 -94 72.5 -152t200.5 -58t202.5 59t74.5 151q0 99 -73 153.5t-204 54.5zM558 97q147 0 229 59t82 165q0 99 -83 161t-228 62q-143 0 -225 -62t-82 -161q0 -106 81 -165t226 -59z" glyph-name="eight" horiz-adv-x="1122" unicode="8"/><glyph d="M543 1191q150 0 252.5 -82t146.5 -214t44 -306q0 -261 -124.5 -436t-342.5 -175q-99 0 -188 35.5t-147 87.5l77 90q118 -97 254 -97q113 0 190.5 71.5t111 171.5t38.5 223q-131 -145 -336 -145q-166 0 -276 102.5t-110 281.5q0 166 102.5 279t307.5 113zM522 519 q101 0 188 49.5t142 127.5q-34 377 -308 377q-137 0 -208 -77.5t-71 -196.5q0 -118 70.5 -199t186.5 -81z" glyph-name="nine" horiz-adv-x="1112" unicode="9"/><glyph d="M224 742q46 0 75 -30.5t29 -78.5t-28.5 -80t-75.5 -32q-46 0 -75.5 31.5t-29.5 81t28.5 79t76.5 29.5zM224 195q46 0 75 -31t29 -80q0 -46 -28.5 -79.5t-75.5 -33.5q-46 0 -75.5 31.5t-29.5 81t28.5 80.5t76.5 31z" glyph-name="colon" horiz-adv-x="447" unicode=":"/><glyph d="M181 742q46 0 75 -30.5t29 -78.5t-28 -80t-76 -32q-46 0 -75 31.5t-29 81t28 79t76 29.5zM184 195q51 0 82 -37t31 -105q0 -179 -155 -304q-3 3 -23 22t-25 24q109 101 111 181q-12 -3 -28 -3q-44 0 -74 31.5t-30 80.5q0 46 31 78t80 32z" glyph-name="semicolon" horiz-adv-x="424" unicode=";"/><glyph d="M751 804l-529 -280l527 -280l-54 -111l-584 319v144l584 319z" glyph-name="less" horiz-adv-x="884" unicode="&lt;"/><glyph d="M862 734v-118h-700l-2 120zM862 430v-118h-700l-2 120z" glyph-name="equal" horiz-adv-x="1022" unicode="="/><glyph d="M186 915l582 -319v-144l-582 -319l-55 111l526 280l-527 280z" glyph-name="greater" horiz-adv-x="884" unicode=">"/><glyph d="M568 1485q203 0 323.5 -122t120.5 -301q0 -174 -110 -300.5t-286 -155.5l-17 -212h-107l-29 311q195 0 305.5 102.5t110.5 252.5q0 128 -83.5 216.5t-227.5 88.5q-116 0 -206.5 -56t-141.5 -130l-102 75q63 94 181.5 162.5t268.5 68.5zM543 188q46 0 73 -30t27 -78 q0 -46 -27 -76.5t-73 -30.5q-44 0 -72.5 29.5t-28.5 77.5q0 49 27.5 78.5t73.5 29.5z" glyph-name="question" horiz-adv-x="1107" unicode="?"/><glyph d="M708 1190q266 0 429 -171t163 -439q0 -312 -215 -312q-67 0 -115 41t-60 113q-68 -137 -239 -137q-126 0 -201.5 83t-75.5 217q0 133 73.5 217t203.5 84q166 0 237 -132v24l24 72h58v-396q0 -41 24 -69t63 -28q79 0 106 60.5t27 162.5q0 234 -138 377.5t-364 143.5 q-210 0 -355.5 -137.5t-145.5 -383.5q0 -234 139 -377t362 -143q176 0 307 94l50 -74q-150 -109 -357 -109q-270 0 -430 174t-160 435q0 278 168.5 444t421.5 166zM693 370q94 0 148.5 59t54.5 156.5t-54.5 155.5t-148.5 58q-96 0 -150.5 -59t-54.5 -155q0 -97 54.5 -156 t150.5 -59z" glyph-name="at" horiz-adv-x="1419" unicode="@"/><glyph d="M1162 0l-147 355h-674l-145 -355h-138l548 1319h145l549 -1319h-138zM394 483h570l-286 695z" glyph-name="A" horiz-adv-x="1356" unicode="A"/><glyph d="M937 701q96 -31 158 -122t62 -205q0 -164 -97 -269t-253 -105h-624v1319h571q145 0 235 -96.5t90 -249.5q0 -104 -48 -181t-94 -91zM749 1195h-437v-449h468q84 0 132.5 63t48.5 159q0 102 -63.5 164.5t-148.5 62.5zM787 125q106 0 176.5 71.5t70.5 178.5 q0 109 -66.5 179.5t-170.5 70.5h-485v-500h475z" glyph-name="B" horiz-adv-x="1276" unicode="B"/><glyph d="M1280 1094l-108 -77q-72 99 -178.5 153t-230.5 54q-230 0 -372 -157t-142 -408t140 -408t374 -157q125 0 231.5 53t174.5 150l108 -77q-87 -121 -222 -186.5t-292 -65.5q-290 0 -467.5 192.5t-177.5 498.5q0 304 178 497.5t467 193.5q157 0 292.5 -66.5t224.5 -189.5z " glyph-name="C" horiz-adv-x="1370" unicode="C"/><glyph d="M761 1319q259 0 422.5 -185t163.5 -467q0 -283 -163 -475t-423 -192h-578v1319h578zM761 126q201 0 326.5 157t125.5 384t-122.5 376.5t-329.5 149.5h-447v-1067h447z" glyph-name="D" horiz-adv-x="1464" unicode="D"/><glyph d="M1027 1195h-715v-449h523v-123h-523v-498h715v-125h-844v1319h844v-124z" glyph-name="E" horiz-adv-x="1157" unicode="E"/><glyph d="M1027 1193h-713v-456h521v-124h-521v-613h-131v1319h844v-126z" glyph-name="F" horiz-adv-x="1141" unicode="F"/><glyph d="M1271 652v-420q-87 -128 -221 -194.5t-294 -66.5q-287 0 -462.5 193.5t-175.5 497.5t175.5 497.5t457.5 193.5q162 0 299.5 -67t222.5 -194l-102 -77q-67 101 -178.5 156.5t-241.5 55.5q-225 0 -363.5 -157t-138.5 -408q0 -249 138.5 -406t370.5 -157q244 0 379 179v248 h-320v126h454z" glyph-name="G" horiz-adv-x="1435" unicode="G"/><glyph d="M1138 1319h132v-1319h-132v596h-824v-596h-131v1319h131v-595h824v595z" glyph-name="H" horiz-adv-x="1454" unicode="H"/><glyph d="M314 0h-131v1319h131v-1319z" glyph-name="I" horiz-adv-x="494" unicode="I"/><glyph d="M80 166l99 73q108 -147 290 -147q160 0 251.5 115.5t91.5 311.5v800h132v-807q0 -241 -120.5 -392t-349.5 -151q-126 0 -229.5 53.5t-164.5 143.5z" glyph-name="J" horiz-adv-x="1124" unicode="J"/><glyph d="M1002 0l-514 596h-174v-596h-131v1319h131v-595h172l485 595h164l-541 -659l580 -660h-172z" glyph-name="K" horiz-adv-x="1211" unicode="K"/><glyph d="M314 126h713v-126h-844v1319h131v-1193z" glyph-name="L" horiz-adv-x="1107" unicode="L"/><glyph d="M1534 0h-129l-76 1097l-450 -1097h-92l-451 1087l-73 -1087h-132l86 1318h158l458 -1122l459 1122h157z" glyph-name="M" horiz-adv-x="1665" unicode="M"/><glyph d="M1224 1319h129v-1319h-119l-922 1099v-1099h-129v1319h121l920 -1097v1097z" glyph-name="N" horiz-adv-x="1537" unicode="N"/><glyph d="M757.5 1352q286.5 0 462.5 -193t176 -500q0 -304 -176.5 -497.5t-461.5 -193.5q-288 0 -464 192.5t-176 498t176.5 499.5t463 194zM758 1225q-230 0 -369.5 -157t-139.5 -409q0 -249 138.5 -406t370.5 -157q229 0 368 157t139 406q0 251 -139 408.5t-368 157.5z" glyph-name="O" horiz-adv-x="1515" unicode="O"/><glyph d="M662 1318q232 0 365.5 -115.5t133.5 -325.5t-133.5 -325t-365.5 -115h-348v-437h-131v1318h479zM662 565q169 0 267 80t98 234t-98 234t-267 80h-348v-628h348z" glyph-name="P" horiz-adv-x="1256" unicode="P"/><glyph d="M1394 662q0 -314 -181 -505l161 -157l-96 -90l-165 163q-152 -102 -357 -102q-288 0 -463 193t-175 498.5t175 497.5t463 192t463 -191.5t175 -498.5zM249 662q0 -253 136.5 -409t370.5 -156q236 0 372.5 155.5t136.5 409.5t-137.5 408.5t-371.5 154.5 q-232 0 -369.5 -156t-137.5 -407z" glyph-name="Q" horiz-adv-x="1513" unicode="Q"/><glyph d="M1181 0h-150l-312 502h-38h-367v-502h-131v1319h503q241 0 367 -106.5t126 -302.5q0 -155 -85 -255t-241 -136zM314 625h367q171 0 268 70t97 213q0 287 -360 287h-372v-570z" glyph-name="R" horiz-adv-x="1237" unicode="R"/><glyph d="M108 186l99 87q160 -179 407 -179q155 0 251 64t96 183q0 77 -43.5 132.5t-112.5 86.5t-153.5 56.5t-168.5 53.5t-153 65.5t-112.5 104t-43.5 160.5q0 169 128 261t324 92q276 0 427 -182l-94 -77q-118 140 -338 140q-142 0 -226 -59t-84 -163q0 -82 58.5 -138.5 t145.5 -83.5t190.5 -62t190.5 -71.5t146 -113.5t59 -186q0 -179 -141 -281.5t-346 -102.5q-150 0 -288 57t-218 156z" glyph-name="S" horiz-adv-x="1216" unicode="S"/><glyph d="M1140 1319v-126h-471v-1193h-130v1193h-471v126h1072z" glyph-name="T" horiz-adv-x="1211" unicode="T"/><glyph d="M1260 1319v-763q0 -265 -146 -426t-397 -161q-253 0 -398 161.5t-145 425.5v763h131v-756q0 -218 113 -346t299 -128q183 0 297 126t114 348v756h132z" glyph-name="U" horiz-adv-x="1435" unicode="U"/><glyph d="M1249 1318l-520 -1318h-150l-521 1318h143l453 -1181l452 1181h143z" glyph-name="V" horiz-adv-x="1307" unicode="V"/><glyph d="M1468 1319h140l-311 -1319h-135l-324 1055l-335 -1055h-131l-305 1319h134l244 -1097l338 1041h113l326 -1043z" glyph-name="W" horiz-adv-x="1675" unicode="W"/><glyph d="M56 0l447 672l-431 647h157l350 -531l348 531h157l-427 -647l451 -672h-159l-369 553l-367 -553h-157z" glyph-name="X" horiz-adv-x="1160" unicode="X"/><glyph d="M1176 1319l-497 -846v-473h-133v476l-493 843h147l414 -734l413 734h149z" glyph-name="Y" horiz-adv-x="1228" unicode="Y"/><glyph d="M1191 1318v-62l-877 -1131l877 3v-128h-1082v67l871 1126l-871 -3v128h1082z" glyph-name="Z" horiz-adv-x="1291" unicode="Z"/><glyph d="M485 1405v-108h-210v-1427h210v-107h-325v1642h325z" glyph-name="bracketleft" horiz-adv-x="587" unicode="["/><glyph d="M862 24l-120 -55l-694 1490l121 57z" glyph-name="backslash" horiz-adv-x="907" unicode="\"/><glyph d="M102 1405h325v-1642h-325v107h209v1427h-209v108z" glyph-name="bracketright" horiz-adv-x="587" unicode="]"/><glyph d="M886 741l-111 -55l-294 527l-292 -529l-112 57l333 578h143z" glyph-name="asciicircum" horiz-adv-x="965" unicode="^"/><glyph d="M826 -68v-108h-783v108h783z" glyph-name="underscore" horiz-adv-x="870" unicode="_"/><glyph d="M567 1056l-345 159l54 116l323 -213z" glyph-name="grave" horiz-adv-x="827" unicode="`"/><glyph d="M901 939h128v-939h-116l-12 82v95q-111 -205 -351 -204q-201 0 -321.5 137t-120.5 359t120 359.5t320 137.5q242 0 353 -205v178zM570 94q150 0 239.5 104t89.5 271.5t-89.5 271.5t-239.5 104q-152 0 -242.5 -104t-90.5 -271.5t90.5 -271.5t242.5 -104z" glyph-name="a" horiz-adv-x="1196" unicode="a"/><glyph d="M635 966q207 0 324.5 -136.5t117.5 -360.5q0 -220 -116 -358t-324 -138q-234 0 -338 184v-49l-14 -108h-116v1468h130v-683q102 181 336 181zM621 94q157 0 241.5 102.5t84.5 273t-84.5 273t-241.5 102.5q-155 0 -238.5 -102.5t-83.5 -273t83.5 -273t238.5 -102.5z" glyph-name="b" horiz-adv-x="1184" unicode="b"/><glyph d="M109 469q0 217 135 357t353 140q254 0 393 -186l-101 -68q-99 135 -290 135q-164 0 -262 -105t-98 -272.5t98 -272.5t262 -105q189 0 290 135l99 -70q-63 -89 -165.5 -136.5t-225.5 -47.5q-220 0 -354 137t-134 359z" glyph-name="c" horiz-adv-x="1063" unicode="c"/><glyph d="M886 1468h129v-1468h-116l-13 108v49q-104 -184 -338 -184q-208 0 -324 138t-116 358q0 224 117.5 360.5t324.5 136.5q236 0 336 -183v685zM563 94q155 0 239 102.5t84 273t-83.5 273t-239.5 102.5q-157 0 -241.5 -102.5t-84.5 -273t84.5 -273t241.5 -102.5z" glyph-name="d" horiz-adv-x="1184" unicode="d"/><glyph d="M108 471q0 239 125 367t325 128q222 0 328 -141t83 -410h-730q14 -150 100 -236.5t229 -86.5q90 0 176.5 36t137.5 99l81 -82q-67 -82 -172 -127t-223 -45q-212 0 -336 135.5t-124 362.5zM239 522h609q-2 154 -73.5 241t-214.5 87q-150 0 -235.5 -88t-85.5 -240z" glyph-name="e" horiz-adv-x="1075" unicode="e"/><glyph d="M669 1319q-97 34 -177.5 34t-132.5 -62t-52 -178v-174h345v-123h-345v-816h-130v816h-98v123h98v164q0 128 48 214t123 117.5t159 31.5t162 -32v-115z" glyph-name="f" horiz-adv-x="711" unicode="f"/><glyph d="M905 939h112v-907q0 -239 -123 -391.5t-351 -152.5q-130 0 -235 52t-168 144l101 75q109 -148 297 -148q162 0 255 115t93 312v145q-104 -177 -336 -178q-210 0 -326 134t-116 346q0 215 117.5 348t322.5 133q236 0 338 -179zM563 119q155 0 239 99t84 265 q0 164 -83.5 263t-239.5 99q-157 0 -241.5 -99t-84.5 -263q0 -166 84.5 -265t241.5 -99z" glyph-name="g" horiz-adv-x="1181" unicode="g"/><glyph d="M633 966q343 0 343 -410v-556h-133l2 560q0 278 -231 278q-189 0 -314 -263v-575h-131v1449h131v-693q123 210 333 210z" glyph-name="h" horiz-adv-x="1133" unicode="h"/><glyph d="M236 1468q46 0 74 -30t28 -79q0 -48 -28 -79t-74.5 -31t-74.5 30t-28 79.5t27.5 79.5t75.5 30zM311 0h-130v939h130v-939z" glyph-name="i" horiz-adv-x="474" unicode="i"/><glyph d="M256 1468q46 0 74 -31t28 -78.5t-27 -79t-75 -31.5q-46 0 -74 30.5t-28 80t28 79.5t74 30zM331 939v-975q0 -172 -85.5 -296t-223.5 -194l-54 110l23 13q24 12 58.5 42t67.5 71t57 106.5t24 139.5v983h133z" glyph-name="j" horiz-adv-x="503" unicode="j"/><glyph d="M841 0l-361 411h-180v-411h-131v1399h131v-860h174l314 400h169l-368 -463l426 -476h-174z" glyph-name="k" horiz-adv-x="1051" unicode="k"/><glyph d="M449 116l22 -109q-155 -55 -229.5 -3.5t-75.5 170.5v1251h131v-1234q0 -63 34 -80t118 5z" glyph-name="l" horiz-adv-x="564" unicode="l"/><glyph d="M1277 966q340 0 339 -410v-556h-129v563q0 143 -56.5 211.5t-172.5 68.5q-181 0 -302 -251v-36v-556h-130v563q0 280 -229 280q-181 0 -305 -254v-589h-132v939h110l22 -171v-7q126 205 324 205q256 0 319 -234q129 234 342 234z" glyph-name="m" horiz-adv-x="1769" unicode="m"/><glyph d="M625 966q343 0 343 -410v-556h-132v560q0 278 -230 278q-189 0 -314 -263v-575h-132v939h110l22 -171v-7q128 205 333 205z" glyph-name="n" horiz-adv-x="1124" unicode="n"/><glyph d="M591 966q215 0 348.5 -136.5t133.5 -360.5q0 -215 -131 -355.5t-351 -140.5q-217 0 -350 137t-133 359t133 359.5t350 137.5zM591 845q-162 0 -257 -105t-95 -270.5t94.5 -270.5t257.5 -105q160 0 254.5 105t94.5 270.5t-94.5 270.5t-254.5 105z" glyph-name="o" horiz-adv-x="1181" unicode="o"/><glyph d="M633 966q208 0 325 -138.5t117 -358.5q0 -224 -117.5 -360t-324.5 -136q-236 0 -338 184v-669h-129v1451h116l13 -108v-51q104 186 338 186zM620 94q157 0 241 102.5t84 273t-84 273t-241 102.5q-155 0 -240 -102.5t-85 -273t85 -273t240 -102.5z" glyph-name="p" horiz-adv-x="1182" unicode="p"/><glyph d="M899 939h116v-1451h-129v667q-101 -183 -336 -182q-207 0 -324.5 136.5t-117.5 359.5q0 220 116 358.5t324 138.5q234 0 338 -184v49zM563 94q155 0 239 102.5t84 273t-83.5 273t-239.5 102.5q-157 0 -241.5 -102.5t-84.5 -273t84.5 -273t241.5 -102.5z" glyph-name="q" horiz-adv-x="1179" unicode="q"/><glyph d="M572 966q79 0 150 -34l-58 -125q-55 29 -113 29q-101 0 -167.5 -88.5t-93.5 -216.5v-531h-130v939h108l22 -183q96 210 282 210z" glyph-name="r" horiz-adv-x="778" unicode="r"/><glyph d="M473 -27q-121 0 -223 38t-165 102l70 94q123 -123 318 -123q111 0 184 41t73 121q0 70 -62 108.5t-151 57t-178.5 41.5t-151.5 82t-62 156q0 126 100.5 200.5t254.5 74.5q225 0 360 -138l-84 -84q-114 111 -278 111q-102 0 -163.5 -38.5t-61.5 -111.5q0 -72 63 -111 t152.5 -58t179 -41t153 -81t63.5 -158q0 -133 -110 -208t-281 -75z" glyph-name="s" horiz-adv-x="965" unicode="s"/><glyph d="M701 133l35 -109q-147 -68 -258 -48.5t-176.5 108t-65.5 218.5v517h-161v120h161v295h129v-295h323l-5 -120h-318v-522q0 -133 90.5 -183.5t245.5 19.5z" glyph-name="t" horiz-adv-x="812" unicode="t"/><glyph d="M829 939h134v-939h-111l-23 171v1q-128 -200 -331 -199q-345 0 -344 409v557h133v-553q0 -142 56 -210t174 -68q189 0 312 262v569z" glyph-name="u" horiz-adv-x="1124" unicode="u"/><glyph d="M847 939h134l-396 -939h-133l-399 939h135l331 -799z" glyph-name="v" horiz-adv-x="1035" unicode="v"/><glyph d="M1229 939h136l-298 -939h-132l-218 710l-219 -710h-133l-298 939h131l230 -755l226 693h124l224 -689z" glyph-name="w" horiz-adv-x="1431" unicode="w"/><glyph d="M67 939h162l252 -359l253 359h155l-328 -456l350 -483h-158l-272 382l-274 -382h-158l350 483z" glyph-name="x" horiz-adv-x="960" unicode="x"/><glyph d="M823 939h136l-403 -1035q-87 -224 -207 -300.5t-296 -21.5l7 128q152 -58 235.5 9.5t158.5 275.5l-375 944h136l307 -787z" glyph-name="y" horiz-adv-x="1006" unicode="y"/><glyph d="M872 939v-128l-635 -688l635 5v-128h-785v128h2l619 688l-621 -5v128h785z" glyph-name="z" horiz-adv-x="957" unicode="z"/><glyph d="M534 -254q-299 0 -298 300v350q0 61 -25 90t-88 29h-39v106h39q63 0 88 29t25 91v346q0 302 298 302v-116q-94 0 -136.5 -44.5t-42.5 -149.5v-320q0 -84 -24 -125.5t-95 -65.5q72 -24 95.5 -65.5t23.5 -125.5v-321q0 -106 42.5 -151t136.5 -45v-114z" glyph-name="braceleft" horiz-adv-x="634" unicode="{"/><glyph d="M319 -375h-131v1694h131v-1694z" glyph-name="bar" horiz-adv-x="508" unicode="|"/><glyph d="M99 1389q299 0 299 -302v-346q0 -63 23.5 -91.5t87.5 -28.5h39v-106h-39q-63 0 -87 -28t-24 -91v-350q0 -300 -299 -300v114q94 0 135.5 45.5t41.5 150.5v321q0 82 25 124.5t95 66.5q-70 24 -95 67t-25 124v320q0 106 -42.5 150t-134.5 44v116z" glyph-name="braceright" horiz-adv-x="650" unicode="}"/><glyph d="M282 582h-122q0 102 61 164.5t154 62.5q77 0 169.5 -60.5t141.5 -60.5q97 0 97 111h122q0 -104 -61 -165.5t-155 -61.5q-75 0 -166 61.5t-142 61.5q-99 0 -99 -113z" glyph-name="asciitilde" horiz-adv-x="1066" unicode="~"/><glyph d="M257.5 891q-37.5 0 -61.5 25.5t-24 66.5t23 66.5t63 25.5q38 0 61.5 -25.5t23.5 -66.5t-24 -66.5t-61.5 -25.5zM220 688h72l25 -625l11 -486h-139l7 486z" glyph-name="exclamdown" horiz-adv-x="513" unicode="¡"/><glyph d="M567 225q172 0 266 125l97 -70q-118 -162 -343 -171l2 -109h-96l2 114q-174 22 -275.5 147t-101.5 312q0 184 102.5 311.5t274.5 151.5v125h94l-2 -120q217 -9 345 -172l-99 -70q-90 125 -266 124q-154 0 -238.5 -94.5t-84.5 -253.5q0 -162 84.5 -256t238.5 -94z" glyph-name="cent" horiz-adv-x="1022" unicode="¢"/><glyph d="M357 500v-379h573v-121h-822v99l122 15v386h-122v109h122v149q0 193 107 311.5t283 118.5q205 0 312 -162l-87 -74q-75 121 -224 121q-123 0 -193.5 -88.5t-70.5 -226.5v-149h396v-109h-396z" glyph-name="sterling" horiz-adv-x="998" unicode="£"/><glyph d="M870 572q0 -130 -61 -220l116 -113l-72 -73l-112 114q-89 -68 -224 -68t-227 71l-113 -117l-71 73l118 116q-60 92 -60 218q0 135 63 224l-121 118l71 73l117 -121q89 68 223 68q130 0 222 -68l114 119l72 -71l-119 -116q64 -94 64 -227zM515 324q111 0 172.5 66.5 t61.5 181.5q0 118 -62 184.5t-170 66.5q-111 0 -172.5 -67t-61.5 -184q0 -116 61.5 -182t170.5 -66z" glyph-name="currency" horiz-adv-x="1032" unicode="¤"/><glyph d="M1130 1161l-442 -681h191v-99h-580v99h194l-440 681h145l391 -627l396 627h145zM299 181v101h580v-101h-224v-181h-131v181h-225z" glyph-name="yen" horiz-adv-x="1182" unicode="¥"/><glyph d="M319 621h-131v698h131v-698zM319 -375h-131v739h131v-739z" glyph-name="brokenbar" horiz-adv-x="508" unicode="¦"/><glyph d="M756 263q152 -87 152 -260q0 -159 -108.5 -236.5t-277.5 -77.5q-254 0 -414 173l76 90q130 -150 333 -150q43 0 82 7.5t82.5 26.5t69.5 61t26 101q0 79 -46.5 131t-116.5 76t-151 51t-151 55.5t-116 90t-46 151.5q0 174 152 242q-152 80 -152 246q0 150 105 231t255 81 q116 0 217.5 -47.5t158.5 -122.5l-91 -77q-109 137 -283 136q-109 0 -171.5 -50t-62.5 -144q0 -67 35 -112t90.5 -69t123 -42.5t134 -40t122 -52.5t90.5 -89t35 -140q0 -175 -152 -240zM278 561q0 -89 63 -132t188 -83q101 -24 177.5 11.5t76.5 134.5q0 49 -19.5 85.5 t-60.5 61.5t-78.5 40.5t-98.5 33.5q-56 5 -111 0t-96 -44.5t-41 -107.5z" glyph-name="section" horiz-adv-x="1024" unicode="§"/><glyph d="M256 1319q38 0 61 -25.5t23 -64.5t-23 -64t-61 -25t-61 25t-23 64q0 41 23 65.5t61 24.5zM604.5 1319q37.5 0 60.5 -25.5t23 -64.5t-23 -64t-60.5 -25t-60.5 25t-23 64q0 41 23 65.5t60.5 24.5z" glyph-name="dieresis" horiz-adv-x="860" unicode="¨"/><glyph d="M712 1251q249 0 418 -164t169 -423q0 -263 -169 -426t-418 -163t-419 164t-170 425q0 259 170 423t419 164zM712 1155q-210 0 -352 -135.5t-142 -355.5q0 -222 142 -357.5t352 -135.5t350.5 135.5t140.5 357.5q0 218 -141.5 354.5t-349.5 136.5zM427 660q0 133 78.5 217 t209.5 84q150 0 236 -116l-82 -53q-53 72 -154 72q-85 0 -134.5 -57.5t-49.5 -146t49.5 -146t134.5 -57.5q96 0 155 74l81 -55q-79 -113 -236 -112q-133 0 -210.5 80.5t-77.5 215.5z" glyph-name="copyright" horiz-adv-x="1426" unicode="©"/><glyph d="M362 1353q131 0 213 -68t82 -200v-407h-94l-15 75q-75 -92 -225 -93q-119 0 -188.5 57.5t-69.5 149.5q0 99 72.5 156t190.5 57q108 0 218 -47v54q0 82 -51 124.5t-137 42.5q-108 0 -198 -58l-44 93q106 64 246 64zM343 754q97 0 150 53t53 137v1q-96 48 -200 48 q-79 0 -124 -30.5t-45 -87t43.5 -89t122.5 -32.5z" glyph-name="ordfeminine" horiz-adv-x="747" unicode="ª"/><glyph d="M515 790l-273 -317l273 -318l-87 -82l-331 400l331 399zM838 790l-273 -317l273 -318l-85 -82l-331 400l331 399z" glyph-name="guillemotleft" horiz-adv-x="1000" unicode="«"/><glyph d="M845 729l114 1v-399h-118v285h-679l-2 114z" glyph-name="logicalnot" horiz-adv-x="1121" unicode="¬"/><glyph d="M433 1353q155 0 252.5 -100.5t97.5 -262.5q0 -157 -96 -260.5t-254 -101.5q-159 0 -255 100.5t-96 261t97 262t254 101.5zM433 688q128 0 205 84.5t77 217.5t-77 216.5t-205 83.5q-130 0 -206.5 -83.5t-76.5 -216.5t76.5 -217.5t206.5 -84.5zM589 1053q0 -97 -94 -119 l97 -146h-85l-82 137h-2h-54v-137h-72v396h126q166 0 166 -131zM369 1121v-135h54q94 0 94 67q0 68 -94 68h-54z" glyph-name="registered" horiz-adv-x="866" unicode="®"/><glyph d="M166 1174v106h597v-106h-597z" glyph-name="macron" horiz-adv-x="928" unicode="¯"/><glyph d="M270 1353q87 0 142.5 -54.5t55.5 -141.5q0 -84 -55 -143.5t-143 -59.5q-90 0 -145 57t-55 146q0 90 54 143t146 53zM270 1253q-44 0 -71 -26.5t-27 -69.5t27.5 -70t70 -27t69 28t26.5 69t-27 68.5t-68 27.5z" glyph-name="degree" horiz-adv-x="539" unicode="°"/><glyph d="M594 705h334v-118h-334v-252h-125v252h-332l-2 120h334v233h125v-235zM137 111l-2 119h793v-119h-791z" glyph-name="plusminus" horiz-adv-x="1032" unicode="±"/><glyph d="M237 918l255 7v-104h-415v94l191 155q56 48 81.5 81t25.5 74q0 48 -34 72t-75 24q-79 0 -128 -82l-75 68q73 109 210 110q92 0 152 -49t60 -131q0 -114 -144 -232z" glyph-name="uni00B2" horiz-adv-x="571" unicode="²"/><glyph d="M305 1161q82 -7 131 -54t49 -115q0 -77 -55 -130t-167 -53q-67 0 -119 25.5t-74 61.5l75 63q41 -55 118 -54q55 0 81 28t26 65.5t-26.5 65t-80.5 27.5q-39 0 -68 -7l-28 80l157 138l-234 -8v107h374v-94z" glyph-name="uni00B3" horiz-adv-x="571" unicode="³"/><glyph d="M261 1056l-32 62l322 213l55 -116z" glyph-name="acute" horiz-adv-x="827" unicode="´"/><glyph d="M829 939h134v-939h-111l-23 171v1q-128 -200 -331 -199q-142 0 -225 70v-555h-119v1451h133v-553q0 -142 56 -210t174 -68q189 0 312 262v569z" glyph-name="uni00B5" horiz-adv-x="1124" unicode="µ"/><glyph d="M1190 1318v-1625h-120v1498h-242v-1498h-118v752h-128q-234 0 -366 114.5t-132 322.5q0 207 133 321.5t365 114.5h608z" glyph-name="paragraph" horiz-adv-x="1365" unicode="¶"/><glyph d="M223.5 744q37.5 0 62.5 -26.5t25 -65.5q0 -41 -24 -66.5t-63 -25.5q-38 0 -62 25.5t-24 66.5t24 66.5t61.5 25.5z" glyph-name="periodcentered" horiz-adv-x="448" unicode="·"/><glyph d="M357 24l75 -12l-12 -97q24 -2 55.5 -12.5t70 -30.5t59.5 -61t11 -96q-12 -70 -77 -103.5t-143.5 -27.5t-142.5 41l34 81q24 -14 70.5 -28t100.5 -6.5t63 55.5q5 26 -3.5 45.5t-29 31.5t-41 19.5t-49 11t-41 5t-29.5 1.5z" glyph-name="cedilla" horiz-adv-x="785" unicode="¸"/><glyph d="M251 1401h70v-580h-113v469l-107 -39l-33 94z" glyph-name="uni00B9" horiz-adv-x="447" unicode="¹"/><glyph d="M416 1353q150 0 245 -95.5t95 -252.5q0 -148 -91.5 -247t-248.5 -99q-154 0 -248.5 95.5t-94.5 251t94.5 251.5t248.5 96zM416.5 1251q-104.5 0 -165 -69t-60.5 -177q0 -104 60.5 -174t165 -70t165 70t60.5 174q0 106 -60.5 176t-165 70z" glyph-name="ordmasculine" horiz-adv-x="832" unicode="º"/><glyph d="M247 872l330 -399l-330 -400l-87 82l273 318l-273 317zM570 872l329 -399l-329 -400l-87 82l273 318l-273 317z" glyph-name="guillemotright" horiz-adv-x="1000" unicode="»"/><glyph d="M1125 1352l92 -53l-905 -1302l-92 49zM321 736h-113v469l-107 -39l-33 94l183 56h70v-580zM1316 236v-98h-75v-138h-103v138h-269l-33 98l302 344h103v-346zM942 225l196 5v221z" glyph-name="onequarter" horiz-adv-x="1384" unicode="¼"/><glyph d="M1125 1352l92 -53l-905 -1302l-92 49zM321 736h-113v469l-107 -39l-33 94l183 56h70v-580zM1116 97l254 7v-104h-414v94l191 155q56 48 81.5 81.5t25.5 73.5q0 48 -34 72t-75 24q-79 0 -128 -82l-75 68q73 109 210 110q92 0 152 -49t60 -131q0 -114 -144 -232z" glyph-name="onehalf" horiz-adv-x="1450" unicode="½"/><glyph d="M1157 1352l92 -53l-904 -1302l-92 49zM485 906q0 -77 -55 -129.5t-167 -52.5q-67 0 -119 25.5t-74 61.5l75 63q41 -55 118 -55q55 0 81 28.5t26 66t-26.5 64.5t-80.5 27q-39 0 -68 -7l-28 81l157 138l-234 -9v108h374v-94l-159 -147q82 -7 131 -54t49 -115zM1348 236v-98 h-75v-138h-102v138h-270l-32 98l302 344h102v-346zM975 225l196 5v221z" glyph-name="threequarters" horiz-adv-x="1416" unicode="¾"/><glyph d="M567 882q-41 0 -67 27.5t-26 71.5q0 41 25 68.5t66 27.5t65.5 -26.5t24.5 -70.5q0 -43 -24.5 -70.5t-63.5 -27.5zM889 -133l101 -75q-61 -92 -181 -161.5t-270 -69.5q-201 0 -321.5 122t-120.5 302q0 174 111 300t285 155l21 239h99l34 -338q-195 0 -306.5 -102 t-111.5 -253q0 -128 84.5 -216.5t227.5 -88.5q116 0 206.5 56.5t141.5 129.5z" glyph-name="questiondown" horiz-adv-x="1107" unicode="¿"/><glyph d="M802 1498l-32 -61l-345 159l55 116zM1162 0l-147 355h-674l-145 -355h-138l548 1319h145l549 -1319h-138zM394 483h570l-286 695z" glyph-name="Agrave" horiz-adv-x="1356" unicode="À"/><glyph d="M922 1596l-345 -159l-33 61l323 214zM1162 0l-147 355h-674l-145 -355h-138l548 1319h145l549 -1319h-138zM394 483h570l-286 695z" glyph-name="Aacute" horiz-adv-x="1356" unicode="Á"/><glyph d="M678 1633l-151 -155l-66 60l170 201h91l167 -201l-68 -60zM1162 0l-147 355h-674l-145 -355h-138l548 1319h145l549 -1319h-138zM394 483h570l-286 695z" glyph-name="Acircumflex" horiz-adv-x="1356" unicode="Â"/><glyph d="M555 1604q-79 0 -79 -95h-106q0 90 52 144.5t129 54.5q61 0 135.5 -51t113.5 -51q75 0 76 94h105q0 -92 -50 -146t-127 -54q-63 0 -136.5 52t-112.5 52zM1162 0l-147 355h-674l-145 -355h-138l548 1319h145l549 -1319h-138zM394 483h570l-286 695z" glyph-name="Atilde" horiz-adv-x="1356" unicode="Ã"/><glyph d="M503.5 1521q-37.5 0 -60.5 24.5t-23 63.5q0 41 23 66t60.5 25t60.5 -25.5t23 -65t-23 -64t-60.5 -24.5zM851.5 1521q-37.5 0 -60.5 24.5t-23 63.5q0 41 23 66t60.5 25t60.5 -25.5t23 -65t-23 -64t-60.5 -24.5zM1162 0l-147 355h-674l-145 -355h-138l548 1319h145 l549 -1319h-138zM394 483h570l-286 695z" glyph-name="Adieresis" horiz-adv-x="1356" unicode="Ä"/><glyph d="M677.5 1428q-78.5 0 -127 53t-48.5 137q0 85 47 135.5t129 50.5q79 0 127 -52t48 -134q0 -79 -48.5 -134.5t-127 -55.5zM678 1715q-41 0 -66 -27t-25 -70t25 -71t66 -28t65.5 29t24.5 70q0 43 -25.5 70t-64.5 27zM1162 0l-147 355h-674l-145 -355h-138l548 1319h145 l549 -1319h-138zM394 483h570l-286 695z" glyph-name="Aring" horiz-adv-x="1356" unicode="Å"/><glyph d="M1741 1191h-705v-445h498v-126h-498v-492h705v-128h-831v377h-461l-239 -377h-152l850 1319h833v-128zM524 497h386v609z" glyph-name="AE" horiz-adv-x="1868" unicode="Æ"/><glyph d="M763 94q125 0 231.5 53t174.5 150l108 -77q-82 -114 -207.5 -179t-272.5 -73l-7 -53q24 -2 55.5 -12.5t70 -30.5t60 -61t10.5 -96q-12 -70 -76.5 -103.5t-143 -27.5t-143.5 41l34 81q24 -14 71 -28t100.5 -6.5t62.5 55.5q5 26 -3.5 45.5t-29 31.5t-41 19.5t-48.5 11 t-41 5t-30 1.5l21 128q-271 15 -436 205.5t-165 484.5q0 304 178 497.5t467 193.5q157 0 292.5 -66.5t224.5 -189.5l-108 -77q-72 99 -178.5 153t-230.5 54q-230 0 -372 -157t-142 -408t140 -408t374 -157z" glyph-name="Ccedilla" horiz-adv-x="1370" unicode="Ç"/><glyph d="M734 1498l-33 -61l-344 159l54 116zM1027 1195h-715v-449h523v-123h-523v-498h715v-125h-844v1319h844v-124z" glyph-name="Egrave" horiz-adv-x="1157" unicode="È"/><glyph d="M853 1596l-344 -159l-33 61l323 214zM1027 1195h-715v-449h523v-123h-523v-498h715v-125h-844v1319h844v-124z" glyph-name="Eacute" horiz-adv-x="1157" unicode="É"/><glyph d="M609 1633l-150 -155l-66 60l170 201h91l167 -201l-68 -60zM1027 1195h-715v-449h523v-123h-523v-498h715v-125h-844v1319h844v-124z" glyph-name="Ecircumflex" horiz-adv-x="1157" unicode="Ê"/><glyph d="M435.5 1521q-37.5 0 -60.5 24.5t-23 63.5q0 41 23 66t60.5 25t60.5 -25.5t23 -65t-23 -64t-60.5 -24.5zM783.5 1521q-37.5 0 -60.5 24.5t-23 63.5q0 41 23 66t60.5 25t60.5 -25.5t23 -65t-23 -64t-60.5 -24.5zM1027 1195h-715v-449h523v-123h-523v-498h715v-125h-844 v1319h844v-124z" glyph-name="Edieresis" horiz-adv-x="1157" unicode="Ë"/><glyph d="M340 1437l-345 159l54 116l323 -214zM314 0h-131v1319h131v-1319z" glyph-name="Igrave" horiz-adv-x="494" unicode="Ì"/><glyph d="M147 1437l-33 61l323 214l55 -116zM314 0h-131v1319h131v-1319z" glyph-name="Iacute" horiz-adv-x="494" unicode="Í"/><glyph d="M201 1739h91l167 -201l-68 -60l-144 155l-150 -155l-66 60zM314 0h-131v1319h131v-1319z" glyph-name="Icircumflex" horiz-adv-x="494" unicode="Î"/><glyph d="M73.5 1700q37.5 0 60.5 -25.5t23 -65t-23 -64t-60.5 -24.5t-60.5 24.5t-23 63.5q0 41 23 66t60.5 25zM421.5 1700q37.5 0 60.5 -25.5t23 -65t-23 -64t-60.5 -24.5t-60.5 24.5t-23 63.5q0 41 23 66t60.5 25zM314 0h-131v1319h131v-1319z" glyph-name="Idieresis" horiz-adv-x="494" unicode="Ï"/><glyph d="M771 1319q261 0 424.5 -185t163.5 -467q0 -283 -163 -475t-425 -192h-537v601h-137v128h137v590h537zM771 128q201 0 327 156t126 383t-123 375.5t-330 148.5h-404v-462h399v-128h-399v-473h404z" glyph-name="Eth" horiz-adv-x="1474" unicode="Ð"/><glyph d="M633 1604q-79 0 -78 -95h-106q0 90 52 144.5t129 54.5q61 0 135.5 -51t113.5 -51q75 0 75 94h106q0 -92 -50.5 -146t-127.5 -54q-63 0 -136.5 52t-112.5 52zM1224 1319h129v-1319h-119l-922 1099v-1099h-129v1319h121l920 -1097v1097z" glyph-name="Ntilde" horiz-adv-x="1537" unicode="Ñ"/><glyph d="M850 1437l-345 159l55 116l322 -214zM757.5 1352q286.5 0 462.5 -193t176 -500q0 -304 -176.5 -497.5t-461.5 -193.5q-288 0 -464 192.5t-176 498t176.5 499.5t463 194zM758 1225q-230 0 -369.5 -157t-139.5 -409q0 -249 138.5 -406t370.5 -157q229 0 368 157t139 406 q0 251 -139 408.5t-368 157.5z" glyph-name="Ograve" horiz-adv-x="1515" unicode="Ò"/><glyph d="M657 1437l-32 61l322 214l55 -116zM757.5 1352q286.5 0 462.5 -193t176 -500q0 -304 -176.5 -497.5t-461.5 -193.5q-288 0 -464 192.5t-176 498t176.5 499.5t463 194zM758 1225q-230 0 -369.5 -157t-139.5 -409q0 -249 138.5 -406t370.5 -157q229 0 368 157t139 406 q0 251 -139 408.5t-368 157.5z" glyph-name="Oacute" horiz-adv-x="1515" unicode="Ó"/><glyph d="M712 1739h90l167 -201l-68 -60l-143 155l-150 -155l-67 60zM757.5 1352q286.5 0 462.5 -193t176 -500q0 -304 -176.5 -497.5t-461.5 -193.5q-288 0 -464 192.5t-176 498t176.5 499.5t463 194zM758 1225q-230 0 -369.5 -157t-139.5 -409q0 -249 138.5 -406t370.5 -157 q229 0 368 157t139 406q0 251 -139 408.5t-368 157.5z" glyph-name="Ocircumflex" horiz-adv-x="1515" unicode="Ô"/><glyph d="M556 1509h-105q0 90 52 144.5t128 54.5q61 0 135.5 -51t114.5 -51q75 0 75 94h106q0 -92 -50.5 -146t-127.5 -54q-63 0 -136.5 52t-112.5 52q-79 1 -79 -95zM757.5 1352q286.5 0 462.5 -193t176 -500q0 -304 -176.5 -497.5t-461.5 -193.5q-288 0 -464 192.5t-176 498 t176.5 499.5t463 194zM758 1225q-230 0 -369.5 -157t-139.5 -409q0 -249 138.5 -406t370.5 -157q229 0 368 157t139 406q0 251 -139 408.5t-368 157.5z" glyph-name="Otilde" horiz-adv-x="1515" unicode="Õ"/><glyph d="M583.5 1700q37.5 0 60.5 -25.5t23 -65t-23 -64t-60.5 -24.5t-60.5 24.5t-23 63.5q0 41 23 66t60.5 25zM931.5 1700q37.5 0 60.5 -25.5t23 -65t-23 -64t-60.5 -24.5t-60.5 24.5t-23 63.5q0 41 23 66t60.5 25zM757.5 1352q286.5 0 462.5 -193t176 -500 q0 -304 -176.5 -497.5t-461.5 -193.5q-288 0 -464 192.5t-176 498t176.5 499.5t463 194zM758 1225q-230 0 -369.5 -157t-139.5 -409q0 -249 138.5 -406t370.5 -157q229 0 368 157t139 406q0 251 -139 408.5t-368 157.5z" glyph-name="Odieresis" horiz-adv-x="1515" unicode="Ö"/><glyph d="M765 473l-93 -91l-232 232l-216 -216l-87 87l216 215l-218 218l90 92l219 -218l218 217l87 -87l-217 -217z" glyph-name="multiply" horiz-adv-x="901" unicode="×"/><glyph d="M1422 1229l-137 -137q123 -181 123 -433q0 -302 -176.5 -496.5t-463.5 -194.5q-266 0 -439 169l-126 -127l-85 86l133 133q-121 179 -121 430q0 305 175.5 499t462.5 194q263 0 439 -166l129 130zM261 659q0 -191 85 -335l767 768q-137 131 -345 132q-229 0 -368 -157 t-139 -408zM1277 659q0 196 -87 338l-768 -768q138 -133 346 -133q230 0 369.5 157t139.5 406z" glyph-name="Oslash" horiz-adv-x="1541" unicode="Ø"/><glyph d="M814 1437l-345 159l55 116l323 -214zM1260 1319v-763q0 -265 -146 -426t-397 -161q-253 0 -398 161.5t-145 425.5v763h131v-756q0 -218 113 -346t299 -128q183 0 297 126t114 348v756h132z" glyph-name="Ugrave" horiz-adv-x="1435" unicode="Ù"/><glyph d="M621 1437l-32 61l322 214l55 -116zM1260 1319v-763q0 -265 -146 -426t-397 -161q-253 0 -398 161.5t-145 425.5v763h131v-756q0 -218 113 -346t299 -128q183 0 297 126t114 348v756h132z" glyph-name="Uacute" horiz-adv-x="1435" unicode="Ú"/><glyph d="M676 1739h90l168 -201l-69 -60l-143 155l-150 -155l-67 60zM1260 1319v-763q0 -265 -146 -426t-397 -161q-253 0 -398 161.5t-145 425.5v763h131v-756q0 -218 113 -346t299 -128q183 0 297 126t114 348v756h132z" glyph-name="Ucircumflex" horiz-adv-x="1435" unicode="Û"/><glyph d="M547.5 1700q37.5 0 60.5 -25.5t23 -65t-23 -64t-60.5 -24.5t-60.5 24.5t-23 63.5q0 41 23 66t60.5 25zM896 1700q38 0 61 -25.5t23 -65t-23 -64t-61 -24.5t-61 24.5t-23 63.5q0 41 23 66t61 25zM1260 1319v-763q0 -265 -146 -426t-397 -161q-253 0 -398 161.5t-145 425.5 v763h131v-756q0 -218 113 -346t299 -128q183 0 297 126t114 348v756h132z" glyph-name="Udieresis" horiz-adv-x="1435" unicode="Ü"/><glyph d="M858 1594l-344 -159l-33 62l323 213zM1176 1319l-497 -846v-473h-133v476l-493 843h147l414 -734l413 734h149z" glyph-name="Yacute" horiz-adv-x="1228" unicode="Ý"/><glyph d="M647 1147q232 0 365 -114.5t133 -322.5t-133 -321.5t-365 -113.5h-333v-275h-131v1318h131v-171h333zM647 399q169 0 266 78t97 233t-98 233t-265 78h-333v-622h333z" glyph-name="Thorn" horiz-adv-x="1240" unicode="Þ"/><glyph d="M183 -246q49 174 49 372v753q0 210 97.5 325t279.5 115q157 0 241 -81t84 -190q0 -63 -33.5 -113.5t-76 -77t-102.5 -64t-91 -66.5q-48 -44 -47 -97q0 -63 52.5 -98t128 -52t151.5 -37.5t128.5 -74.5t52.5 -143q0 -119 -87.5 -184t-236.5 -65q-217 0 -345 125l65 87 q113 -109 280 -109q92 0 146 34t54 104q0 65 -52 102.5t-127 54.5t-150.5 37.5t-127.5 70.5t-52 136q0 113 97 188q32 27 106.5 67t113 77.5t38.5 92.5q0 67 -55.5 113.5t-152.5 46.5q-125 0 -191.5 -84.5t-66.5 -237.5v-755q0 -222 -49 -402z" glyph-name="germandbls" horiz-adv-x="1215" unicode="ß"/><glyph d="M691 1118l-32 -62l-345 159l55 116zM901 939h128v-939h-116l-12 82v95q-111 -205 -351 -204q-201 0 -321.5 137t-120.5 359t120 359.5t320 137.5q242 0 353 -205v178zM570 94q150 0 239.5 104t89.5 271.5t-89.5 271.5t-239.5 104q-152 0 -242.5 -104t-90.5 -271.5 t90.5 -271.5t242.5 -104z" glyph-name="agrave" horiz-adv-x="1196" unicode="à"/><glyph d="M811 1215l-345 -159l-33 62l323 213zM901 939h128v-939h-116l-12 82v95q-111 -205 -351 -204q-201 0 -321.5 137t-120.5 359t120 359.5t320 137.5q242 0 353 -205v178zM570 94q150 0 239.5 104t89.5 271.5t-89.5 271.5t-239.5 104q-152 0 -242.5 -104t-90.5 -271.5 t90.5 -271.5t242.5 -104z" glyph-name="aacute" horiz-adv-x="1196" unicode="á"/><glyph d="M567 1253l-151 -156l-66 60l171 202h90l167 -202l-68 -60zM901 939h128v-939h-116l-12 82v95q-111 -205 -351 -204q-201 0 -321.5 137t-120.5 359t120 359.5t320 137.5q242 0 353 -205v178zM570 94q150 0 239.5 104t89.5 271.5t-89.5 271.5t-239.5 104 q-152 0 -242.5 -104t-90.5 -271.5t90.5 -271.5t242.5 -104z" glyph-name="acircumflex" horiz-adv-x="1196" unicode="â"/><glyph d="M444 1224q-79 0 -79 -96h-106q0 90 52.5 145t128.5 55q61 0 135.5 -51.5t113.5 -51.5q75 0 76 94h105q0 -92 -50 -145.5t-127 -53.5q-63 0 -136.5 52t-112.5 52zM901 939h128v-939h-116l-12 82v95q-111 -205 -351 -204q-201 0 -321.5 137t-120.5 359t120 359.5t320 137.5 q242 0 353 -205v178zM570 94q150 0 239.5 104t89.5 271.5t-89.5 271.5t-239.5 104q-152 0 -242.5 -104t-90.5 -271.5t90.5 -271.5t242.5 -104z" glyph-name="atilde" horiz-adv-x="1196" unicode="ã"/><glyph d="M392.5 1140q-37.5 0 -60.5 25t-23 64q0 41 23 65.5t60.5 24.5t60.5 -25.5t23 -64.5t-23 -64t-60.5 -25zM740.5 1140q-37.5 0 -60.5 25t-23 64q0 41 23 65.5t60.5 24.5t60.5 -25.5t23 -64.5t-23 -64t-60.5 -25zM901 939h128v-939h-116l-12 82v95q-111 -205 -351 -204 q-201 0 -321.5 137t-120.5 359t120 359.5t320 137.5q242 0 353 -205v178zM570 94q150 0 239.5 104t89.5 271.5t-89.5 271.5t-239.5 104q-152 0 -242.5 -104t-90.5 -271.5t90.5 -271.5t242.5 -104z" glyph-name="adieresis" horiz-adv-x="1196" unicode="ä"/><glyph d="M566.5 1048q-78.5 0 -127 53t-48.5 136q0 85 47 135.5t129 50.5q79 0 127 -52t48 -134q0 -79 -48.5 -134t-127 -55zM567 1335q-41 0 -66 -27.5t-25 -70t25 -71t66 -28.5t65.5 29t24.5 70q0 43 -25.5 70.5t-64.5 27.5zM901 939h128v-939h-116l-12 82v95 q-111 -205 -351 -204q-201 0 -321.5 137t-120.5 359t120 359.5t320 137.5q242 0 353 -205v178zM570 94q150 0 239.5 104t89.5 271.5t-89.5 271.5t-239.5 104q-152 0 -242.5 -104t-90.5 -271.5t90.5 -271.5t242.5 -104z" glyph-name="aring" horiz-adv-x="1196" unicode="å"/><glyph d="M1263 966q224 0 329.5 -140t83.5 -411h-732q14 -150 100 -236.5t229 -86.5q90 0 175.5 36t138.5 99l84 -82q-67 -82 -173.5 -127t-224.5 -45q-280 0 -394 230q-99 -225 -384 -225q-176 0 -281.5 84.5t-105.5 224.5q0 137 105.5 217.5t301.5 80.5q140 0 297 -51v10 q0 135 -85 217t-222 82q-148 0 -309 -78l-56 114q177 87 360 87q128 0 228 -58t153 -160q55 108 153.5 163t228.5 55zM944 526h607q0 152 -72.5 236.5t-215.5 84.5q-145 0 -227 -85.5t-92 -235.5zM503 99q152 0 230.5 84.5t78.5 236.5v2q-145 46 -281 46q-290 0 -290 -178 q0 -89 70.5 -140t191.5 -51z" glyph-name="ae" horiz-adv-x="1781" unicode="æ"/><glyph d="M599 92q189 0 290 135l99 -70q-121 -169 -357 -183l-6 -59q24 -2 55.5 -12.5t69.5 -30.5t59.5 -61t11.5 -96q-12 -70 -77 -103.5t-143.5 -27.5t-143.5 41l35 81q24 -14 70.5 -28t100.5 -6.5t62 55.5q5 26 -3.5 45.5t-29 31.5t-41 19.5t-48.5 11t-40.5 5t-30.5 1.5l21 133 q-201 14 -322.5 149.5t-121.5 345.5q0 217 135 357t353 140q254 0 393 -186l-101 -68q-99 135 -290 135q-164 0 -262 -105t-98 -272.5t98 -272.5t262 -105z" glyph-name="ccedilla" horiz-adv-x="1063" unicode="ç"/><glyph d="M652 1056l-345 159l55 116l322 -213zM108 471q0 239 125 367t325 128q222 0 328 -141t83 -410h-730q14 -150 100 -236.5t229 -86.5q90 0 176.5 36t137.5 99l81 -82q-67 -82 -172 -127t-223 -45q-212 0 -336 135.5t-124 362.5zM239 522h609q-2 154 -73.5 241t-214.5 87 q-150 0 -235.5 -88t-85.5 -240z" glyph-name="egrave" horiz-adv-x="1075" unicode="è"/><glyph d="M459 1056l-32 62l322 213l55 -116zM108 471q0 239 125 367t325 128q222 0 328 -141t83 -410h-730q14 -150 100 -236.5t229 -86.5q90 0 176.5 36t137.5 99l81 -82q-67 -82 -172 -127t-223 -45q-212 0 -336 135.5t-124 362.5zM239 522h609q-2 154 -73.5 241t-214.5 87 q-150 0 -235.5 -88t-85.5 -240z" glyph-name="eacute" horiz-adv-x="1075" unicode="é"/><glyph d="M514 1359h90l167 -202l-68 -60l-143 156l-150 -156l-67 60zM108 471q0 239 125 367t325 128q222 0 328 -141t83 -410h-730q14 -150 100 -236.5t229 -86.5q90 0 176.5 36t137.5 99l81 -82q-67 -82 -172 -127t-223 -45q-212 0 -336 135.5t-124 362.5zM239 522h609 q-2 154 -73.5 241t-214.5 87q-150 0 -235.5 -88t-85.5 -240z" glyph-name="ecircumflex" horiz-adv-x="1075" unicode="ê"/><glyph d="M385.5 1319q37.5 0 60.5 -25.5t23 -64.5t-23 -64t-60.5 -25t-60.5 25t-23 64q0 41 23 65.5t60.5 24.5zM733.5 1319q37.5 0 60.5 -25.5t23 -64.5t-23 -64t-60.5 -25t-60.5 25t-23 64q0 41 23 65.5t60.5 24.5zM108 471q0 239 125 367t325 128q222 0 328 -141t83 -410h-730 q14 -150 100 -236.5t229 -86.5q90 0 176.5 36t137.5 99l81 -82q-67 -82 -172 -127t-223 -45q-212 0 -336 135.5t-124 362.5zM239 522h609q-2 154 -73.5 241t-214.5 87q-150 0 -235.5 -88t-85.5 -240z" glyph-name="edieresis" horiz-adv-x="1075" unicode="ë"/><glyph d="M319 1056l-345 159l55 116l323 -213zM290 0h-130v939h130v-939z" glyph-name="igrave" horiz-adv-x="450" unicode="ì"/><glyph d="M126 1056l-32 62l322 213l55 -116zM290 0h-130v939h130v-939z" glyph-name="iacute" horiz-adv-x="450" unicode="í"/><glyph d="M181 1359h90l168 -202l-69 -60l-143 156l-150 -156l-67 60zM290 0h-130v939h130v-939z" glyph-name="icircumflex" horiz-adv-x="450" unicode="î"/><glyph d="M52.5 1319q37.5 0 61 -25.5t23.5 -64.5t-23.5 -64t-61 -25t-60.5 25t-23 64q0 41 23 65.5t60.5 24.5zM401.5 1319q37.5 0 60.5 -25.5t23 -64.5t-23 -64t-60.5 -25t-61 25t-23.5 64q0 41 23.5 65.5t61 24.5zM290 0h-130v939h130v-939z" glyph-name="idieresis" horiz-adv-x="450" unicode="ï"/><glyph d="M1051 1215l-184 -72q155 -215 155 -510q0 -297 -122.5 -479.5t-367.5 -182.5q-207 0 -315.5 128t-108.5 317q0 207 118.5 323t300.5 116q138 0 229.5 -66.5t137.5 -170.5v2q0 290 -152 474l-235 -92l-41 102l191 75q-97 84 -264 149l46 119q207 -70 351 -215l220 87z M541 96q254 0 329 297q-7 56 -26.5 109t-56 108.5t-102 88.5t-151.5 33q-147 0 -222 -89.5t-75 -226.5q0 -135 77 -227.5t227 -92.5z" glyph-name="eth" horiz-adv-x="1186" unicode="ð"/><glyph d="M427 1224q-79 0 -79 -96h-106q0 90 52 145t129 55q61 0 135.5 -51.5t113.5 -51.5q75 0 76 94h105q0 -92 -50 -145.5t-127 -53.5q-63 0 -136.5 52t-112.5 52zM625 966q343 0 343 -410v-556h-132v560q0 278 -230 278q-189 0 -314 -263v-575h-132v939h110l22 -171v-7 q128 205 333 205z" glyph-name="ntilde" horiz-adv-x="1124" unicode="ñ"/><glyph d="M686 1056l-345 159l55 116l323 -213zM591 966q215 0 348.5 -136.5t133.5 -360.5q0 -215 -131 -355.5t-351 -140.5q-217 0 -350 137t-133 359t133 359.5t350 137.5zM591 845q-162 0 -257 -105t-95 -270.5t94.5 -270.5t257.5 -105q160 0 254.5 105t94.5 270.5t-94.5 270.5 t-254.5 105z" glyph-name="ograve" horiz-adv-x="1181" unicode="ò"/><glyph d="M493 1056l-32 62l322 213l55 -116zM591 966q215 0 348.5 -136.5t133.5 -360.5q0 -215 -131 -355.5t-351 -140.5q-217 0 -350 137t-133 359t133 359.5t350 137.5zM591 845q-162 0 -257 -105t-95 -270.5t94.5 -270.5t257.5 -105q160 0 254.5 105t94.5 270.5t-94.5 270.5 t-254.5 105z" glyph-name="oacute" horiz-adv-x="1181" unicode="ó"/><glyph d="M548 1359h90l168 -202l-69 -60l-143 156l-150 -156l-67 60zM591 966q215 0 348.5 -136.5t133.5 -360.5q0 -215 -131 -355.5t-351 -140.5q-217 0 -350 137t-133 359t133 359.5t350 137.5zM591 845q-162 0 -257 -105t-95 -270.5t94.5 -270.5t257.5 -105q160 0 254.5 105 t94.5 270.5t-94.5 270.5t-254.5 105z" glyph-name="ocircumflex" horiz-adv-x="1181" unicode="ô"/><glyph d="M393 1128h-106q0 90 52 145t129 55q61 0 135.5 -51.5t113.5 -51.5q75 0 75 94h106q0 -92 -50.5 -145.5t-127.5 -53.5q-63 0 -136.5 52t-112.5 52q-78 0 -78 -96zM591 966q215 0 348.5 -136.5t133.5 -360.5q0 -215 -131 -355.5t-351 -140.5q-217 0 -350 137t-133 359 t133 359.5t350 137.5zM591 845q-162 0 -257 -105t-95 -270.5t94.5 -270.5t257.5 -105q160 0 254.5 105t94.5 270.5t-94.5 270.5t-254.5 105z" glyph-name="otilde" horiz-adv-x="1181" unicode="õ"/><glyph d="M419.5 1319q37.5 0 60.5 -25.5t23 -64.5t-23 -64t-60.5 -25t-60.5 25t-23 64q0 41 23 65.5t60.5 24.5zM768 1319q38 0 61 -25.5t23 -64.5t-23 -64t-61 -25t-61 25t-23 64q0 41 23 65.5t61 24.5zM591 966q215 0 348.5 -136.5t133.5 -360.5q0 -215 -131 -355.5t-351 -140.5 q-217 0 -350 137t-133 359t133 359.5t350 137.5zM591 845q-162 0 -257 -105t-95 -270.5t94.5 -270.5t257.5 -105q160 0 254.5 105t94.5 270.5t-94.5 270.5t-254.5 105z" glyph-name="odieresis" horiz-adv-x="1181" unicode="ö"/><glyph d="M515 1073q38 0 62 -26t24 -66q0 -41 -23 -66.5t-62.5 -25.5t-63.5 25.5t-24 66.5t24 66.5t63 25.5zM879 761v-112h-742l-2 114zM515 521q38 0 62 -26.5t24 -66.5q0 -41 -23 -66.5t-62.5 -25.5t-63.5 25.5t-24 66.5t24 67t63 26z" glyph-name="divide" horiz-adv-x="1015" unicode="÷"/><glyph d="M1092 879l-100 -101q92 -126 92 -309q0 -215 -130.5 -355.5t-351.5 -140.5q-183 0 -312 102l-111 -111l-68 70l111 111q-104 131 -104 324q0 220 134 358.5t350 138.5q198 0 325 -116l97 97zM251 469q0 -135 65 -230l520 520q-94 85 -234 86q-160 0 -255.5 -106 t-95.5 -270zM952 469q0 125 -54 215l-517 -517q92 -73 221 -73q159 0 254.5 105.5t95.5 269.5z" glyph-name="oslash" horiz-adv-x="1204" unicode="ø"/><glyph d="M695 1118l-33 -62l-345 159l55 116zM829 939h134v-939h-111l-23 171v1q-128 -200 -331 -199q-345 0 -344 409v557h133v-553q0 -142 56 -210t174 -68q189 0 312 262v569z" glyph-name="ugrave" horiz-adv-x="1124" unicode="ù"/><glyph d="M814 1215l-345 -159l-32 62l322 213zM829 939h134v-939h-111l-23 171v1q-128 -200 -331 -199q-345 0 -344 409v557h133v-553q0 -142 56 -210t174 -68q189 0 312 262v569z" glyph-name="uacute" horiz-adv-x="1124" unicode="ú"/><glyph d="M570 1253l-150 -156l-67 60l171 202h90l168 -202l-69 -60zM829 939h134v-939h-111l-23 171v1q-128 -200 -331 -199q-345 0 -344 409v557h133v-553q0 -142 56 -210t174 -68q189 0 312 262v569z" glyph-name="ucircumflex" horiz-adv-x="1124" unicode="û"/><glyph d="M395.5 1140q-37.5 0 -60.5 25t-23 64q0 41 23 65.5t60.5 24.5t61 -25.5t23.5 -64.5t-23.5 -64t-61 -25zM744.5 1140q-37.5 0 -61 25t-23.5 64q0 41 23.5 65.5t61 24.5t60.5 -25.5t23 -64.5t-23 -64t-60.5 -25zM829 939h134v-939h-111l-23 171v1q-128 -200 -331 -199 q-345 0 -344 409v557h133v-553q0 -142 56 -210t174 -68q189 0 312 262v569z" glyph-name="udieresis" horiz-adv-x="1124" unicode="ü"/><glyph d="M753 1215l-345 -159l-33 62l323 213zM823 939h136l-403 -1035q-87 -224 -207 -300.5t-296 -21.5l7 128q152 -58 235.5 9.5t158.5 275.5l-375 944h136l307 -787z" glyph-name="yacute" horiz-adv-x="1006" unicode="ý"/><glyph d="M633 966q208 0 327 -139t119 -358q0 -222 -120.5 -359t-327.5 -137q-212 0 -332 148v-633h-133v1963h133v-635q119 150 334 150zM623 94q157 0 240.5 102.5t83.5 273t-83.5 273t-240.5 102.5t-240.5 -102.5t-83.5 -273t83.5 -273t240.5 -102.5z" glyph-name="thorn" horiz-adv-x="1184" unicode="þ"/><glyph d="M334.5 1140q-37.5 0 -60.5 25t-23 64q0 41 23 65.5t60.5 24.5t60.5 -25.5t23 -64.5t-23 -64t-60.5 -25zM682.5 1140q-37.5 0 -60.5 25t-23 64q0 41 23 65.5t60.5 24.5t60.5 -25.5t23 -64.5t-23 -64t-60.5 -25zM823 939h136l-403 -1035q-87 -224 -207 -300.5t-296 -21.5 l7 128q152 -58 235.5 9.5t158.5 275.5l-375 944h136l307 -787z" glyph-name="ydieresis" horiz-adv-x="1006" unicode="ÿ"/><glyph d="M978 1661v-106h-597v106h597zM1162 0l-147 355h-674l-145 -355h-138l548 1319h145l549 -1319h-138zM394 483h570l-286 695z" glyph-name="Amacron" horiz-adv-x="1356" unicode="Ā"/><glyph d="M867 1280v-106h-597v106h597zM901 939h128v-939h-116l-12 82v95q-111 -205 -351 -204q-201 0 -321.5 137t-120.5 359t120 359.5t320 137.5q242 0 353 -205v178zM570 94q150 0 239.5 104t89.5 271.5t-89.5 271.5t-239.5 104q-152 0 -242.5 -104t-90.5 -271.5t90.5 -271.5 t242.5 -104z" glyph-name="amacron" horiz-adv-x="1196" unicode="ā"/><glyph d="M677.5 1478q-105.5 0 -174 59.5t-81.5 162.5h107q12 -51 50.5 -85.5t98.5 -34.5q114 0 146 120h106q-14 -99 -80.5 -160.5t-172 -61.5zM1162 0l-147 355h-674l-145 -355h-138l548 1319h145l549 -1319h-138zM394 483h570l-286 695z" glyph-name="Abreve" horiz-adv-x="1356" unicode="Ă"/><glyph d="M566.5 1097q-105.5 0 -174 60t-81.5 162h107q12 -51 50.5 -85t98.5 -34q114 0 146 119h106q-14 -99 -80.5 -160.5t-172 -61.5zM901 939h128v-939h-116l-12 82v95q-111 -205 -351 -204q-201 0 -321.5 137t-120.5 359t120 359.5t320 137.5q242 0 353 -205v178zM570 94 q150 0 239.5 104t89.5 271.5t-89.5 271.5t-239.5 104q-152 0 -242.5 -104t-90.5 -271.5t90.5 -271.5t242.5 -104z" glyph-name="abreve" horiz-adv-x="1196" unicode="ă"/><glyph d="M1263 -253l58 -58q-75 -90 -159 -90q-79 0 -120.5 41t-39.5 107q0 113 160 253l-147 355h-674l-145 -355h-138l548 1319h145l549 -1319h-46q-145 -159 -145 -232q0 -32 17 -52.5t46 -20.5q50 -1 91 52zM394 483h570l-286 695z" glyph-name="Aogonek" horiz-adv-x="1356" unicode="Ą"/><glyph d="M1012 -251l58 -58q-75 -90 -159 -90q-79 0 -120.5 41t-39.5 107q0 113 162 254l-12 79v95q-111 -205 -351 -204q-201 0 -321.5 137t-120.5 359t120 359.5t320 137.5q242 0 353 -205v178h128v-939h-27q-143 -160 -144 -230q0 -32 17.5 -53t46.5 -21q49 0 90 53zM570 94 q150 0 239.5 104t89.5 271.5t-89.5 271.5t-239.5 104q-152 0 -242.5 -104t-90.5 -271.5t90.5 -271.5t242.5 -104z" glyph-name="aogonek" horiz-adv-x="1196" unicode="ą"/><glyph d="M638 1437l-32 61l322 214l55 -116zM1280 1094l-108 -77q-72 99 -178.5 153t-230.5 54q-230 0 -372 -157t-142 -408t140 -408t374 -157q125 0 231.5 53t174.5 150l108 -77q-87 -121 -222 -186.5t-292 -65.5q-290 0 -467.5 192.5t-177.5 498.5q0 304 178 497.5t467 193.5 q157 0 292.5 -66.5t224.5 -189.5z" glyph-name="Cacute" horiz-adv-x="1370" unicode="Ć"/><glyph d="M486 1056l-32 62l323 213l54 -116zM109 469q0 217 135 357t353 140q254 0 393 -186l-101 -68q-99 135 -290 135q-164 0 -262 -105t-98 -272.5t98 -272.5t262 -105q189 0 290 135l99 -70q-63 -89 -165.5 -136.5t-225.5 -47.5q-220 0 -354 137t-134 359z" glyph-name="cacute" horiz-adv-x="1063" unicode="ć"/><glyph d="M741 1710q41 0 66.5 -27.5t25.5 -71.5q0 -43 -25.5 -71t-66.5 -28q-43 0 -67.5 27.5t-24.5 71.5t24.5 71.5t67.5 27.5zM1280 1094l-108 -77q-72 99 -178.5 153t-230.5 54q-230 0 -372 -157t-142 -408t140 -408t374 -157q125 0 231.5 53t174.5 150l108 -77 q-87 -121 -222 -186.5t-292 -65.5q-290 0 -467.5 192.5t-177.5 498.5q0 304 178 497.5t467 193.5q157 0 292.5 -66.5t224.5 -189.5z" glyph-name="Cdotaccent" horiz-adv-x="1370" unicode="Ċ"/><glyph d="M589 1329q41 0 66.5 -27t25.5 -71q0 -43 -25.5 -71t-66.5 -28q-43 0 -67.5 27t-24.5 71.5t24.5 71.5t67.5 27zM109 469q0 217 135 357t353 140q254 0 393 -186l-101 -68q-99 135 -290 135q-164 0 -262 -105t-98 -272.5t98 -272.5t262 -105q189 0 290 135l99 -70 q-63 -89 -165.5 -136.5t-225.5 -47.5q-220 0 -354 137t-134 359z" glyph-name="cdotaccent" horiz-adv-x="1063" unicode="ċ"/><glyph d="M695 1466l-171 203l67 58l150 -155l143 155l68 -58l-167 -203h-90zM1280 1094l-108 -77q-72 99 -178.5 153t-230.5 54q-230 0 -372 -157t-142 -408t140 -408t374 -157q125 0 231.5 53t174.5 150l108 -77q-87 -121 -222 -186.5t-292 -65.5q-290 0 -467.5 192.5 t-177.5 498.5q0 304 178 497.5t467 193.5q157 0 292.5 -66.5t224.5 -189.5z" glyph-name="Ccaron" horiz-adv-x="1370" unicode="Č"/><glyph d="M543 1085l-171 204l67 58l150 -156l143 156l68 -58l-167 -204h-90zM109 469q0 217 135 357t353 140q254 0 393 -186l-101 -68q-99 135 -290 135q-164 0 -262 -105t-98 -272.5t98 -272.5t262 -105q189 0 290 135l99 -70q-63 -89 -165.5 -136.5t-225.5 -47.5 q-220 0 -354 137t-134 359z" glyph-name="ccaron" horiz-adv-x="1063" unicode="č"/><glyph d="M736 1466h-91l-171 203l67 58l150 -155l144 155l68 -58zM761 1319q259 0 422.5 -185t163.5 -467q0 -283 -163 -475t-423 -192h-578v1319h578zM761 126q201 0 326.5 157t125.5 384t-122.5 376.5t-329.5 149.5h-447v-1067h447z" glyph-name="Dcaron" horiz-adv-x="1464" unicode="Ď"/><glyph d="M1208 1476l121 -42l-131 -357l-68 20zM886 783v685h129v-1468h-116l-13 108v49q-104 -184 -338 -184q-208 0 -324 138t-116 358q0 224 117.5 360.5t324.5 136.5q235 0 336 -183zM563 94q155 0 239 102.5t84 273t-83.5 273t-239.5 102.5q-157 0 -241.5 -102.5t-84.5 -273 t84.5 -273t241.5 -102.5z" glyph-name="dcaron" horiz-adv-x="1201" unicode="ď"/><glyph d="M771 1319q261 0 424.5 -185t163.5 -467q0 -283 -163 -475t-425 -192h-537v601h-137v128h137v590h537zM771 128q201 0 327 156t126 383t-123 375.5t-330 148.5h-404v-462h399v-128h-399v-473h404z" glyph-name="Dcroat" horiz-adv-x="1474" unicode="Đ"/><glyph d="M1121 1266v-109h-107v-1157h-115l-18 116v7q-123 -150 -334.5 -150t-328 138t-116.5 358q0 224 120.5 360.5t327.5 136.5q210 0 331 -149v340h-277v109h277v202h133v-202h107zM558 97q145 0 228 88t95 238v92q-12 150 -95 238t-228 88q-157 0 -240.5 -100.5t-83.5 -271 t83.5 -271.5t240.5 -101z" glyph-name="dcroat" horiz-adv-x="1204" unicode="đ"/><glyph d="M910 1661v-106h-598v106h598zM1027 1195h-715v-449h523v-123h-523v-498h715v-125h-844v1319h844v-124z" glyph-name="Emacron" horiz-adv-x="1157" unicode="Ē"/><glyph d="M263 1174v106h597v-106h-597zM108 471q0 239 125 367t325 128q222 0 328 -141t83 -410h-730q14 -150 100 -236.5t229 -86.5q90 0 176.5 36t137.5 99l81 -82q-67 -82 -172 -127t-223 -45q-212 0 -336 135.5t-124 362.5zM239 522h609q-2 154 -73.5 241t-214.5 87 q-150 0 -235.5 -88t-85.5 -240z" glyph-name="emacron" horiz-adv-x="1075" unicode="ē"/><glyph d="M611 1512q-43 0 -67.5 27.5t-24.5 71.5t24.5 71.5t67.5 27.5q41 0 66.5 -27.5t25.5 -71.5q0 -43 -25.5 -71t-66.5 -28zM1027 1195h-715v-449h523v-123h-523v-498h715v-125h-844v1319h844v-124z" glyph-name="Edotaccent" horiz-adv-x="1157" unicode="Ė"/><glyph d="M561 1329q41 0 67 -27t26 -71q0 -43 -26 -71t-67 -28q-43 0 -67.5 27t-24.5 71.5t24.5 71.5t67.5 27zM108 471q0 239 125 367t325 128q222 0 328 -141t83 -410h-730q14 -150 100 -236.5t229 -86.5q90 0 176.5 36t137.5 99l81 -82q-67 -82 -172 -127t-223 -45 q-212 0 -336 135.5t-124 362.5zM239 522h609q-2 154 -73.5 241t-214.5 87q-150 0 -235.5 -88t-85.5 -240z" glyph-name="edotaccent" horiz-adv-x="1075" unicode="ė"/><glyph d="M1027 1195h-715v-449h523v-123h-523v-498h715v-125h-87q-143 -160 -143 -230q0 -32 17 -53t46 -21q49 0 91 53l58 -58q-75 -90 -159 -90q-79 0 -120.5 41t-40.5 107q0 111 159 251h-665v1319h844v-124z" glyph-name="Eogonek" horiz-adv-x="1157" unicode="Ę"/><glyph d="M947 -138l58 -58q-75 -90 -158 -91q-79 0 -121 41t-40 108q0 65 51 136q-82 -26 -169 -25q-212 0 -336 135.5t-124 362.5q0 239 125 367t325 128q222 0 328 -141t83 -410h-730q14 -150 100 -236.5t229 -86.5q90 0 176.5 36t137.5 99l81 -82q-17 -20 -26 -29h3 q-147 -160 -146 -234q0 -32 17 -52.5t46 -20.5q49 0 90 53zM560 850q-150 0 -235.5 -88t-85.5 -240h609q-2 154 -73.5 241t-214.5 87z" glyph-name="eogonek" horiz-adv-x="1075" unicode="ę"/><glyph d="M655 1466h-90l-171 203l67 58l150 -155l143 155l69 -58zM1027 1195h-715v-449h523v-123h-523v-498h715v-125h-844v1319h844v-124z" glyph-name="Ecaron" horiz-adv-x="1157" unicode="Ě"/><glyph d="M515 1085l-170 204l66 58l150 -156l144 156l68 -58l-167 -204h-91zM108 471q0 239 125 367t325 128q222 0 328 -141t83 -410h-730q14 -150 100 -236.5t229 -86.5q90 0 176.5 36t137.5 99l81 -82q-67 -82 -172 -127t-223 -45q-212 0 -336 135.5t-124 362.5zM239 522h609 q-2 154 -73.5 241t-214.5 87q-150 0 -235.5 -88t-85.5 -240z" glyph-name="ecaron" horiz-adv-x="1075" unicode="ě"/><glyph d="M754.5 1478q-105.5 0 -174 59.5t-82.5 162.5h108q12 -51 50.5 -85.5t97.5 -34.5q114 0 147 120h106q-14 -99 -80.5 -160.5t-172 -61.5zM1271 652v-420q-87 -128 -221 -194.5t-294 -66.5q-287 0 -462.5 193.5t-175.5 497.5t175.5 497.5t457.5 193.5q162 0 299.5 -67 t222.5 -194l-102 -77q-67 101 -178.5 156.5t-241.5 55.5q-225 0 -363.5 -157t-138.5 -408q0 -249 138.5 -406t370.5 -157q244 0 379 179v248h-320v126h454z" glyph-name="Gbreve" horiz-adv-x="1435" unicode="Ğ"/><glyph d="M561.5 1097q-105.5 0 -174 60t-82.5 162h108q12 -51 50.5 -85t97.5 -34q114 0 147 119h106q-14 -99 -80.5 -160.5t-172 -61.5zM905 939h112v-907q0 -239 -123 -391.5t-351 -152.5q-130 0 -235 52t-168 144l101 75q109 -148 297 -148q162 0 255 115t93 312v145 q-104 -177 -336 -178q-210 0 -326 134t-116 346q0 215 117.5 348t322.5 133q236 0 338 -179zM563 119q155 0 239 99t84 265q0 164 -83.5 263t-239.5 99q-157 0 -241.5 -99t-84.5 -263q0 -166 84.5 -265t241.5 -99z" glyph-name="gbreve" horiz-adv-x="1181" unicode="ğ"/><glyph d="M756 1512q-43 0 -67.5 27.5t-24.5 71.5t24.5 71.5t67.5 27.5q41 0 66.5 -27.5t25.5 -71.5q0 -43 -25.5 -71t-66.5 -28zM1271 652v-420q-87 -128 -221 -194.5t-294 -66.5q-287 0 -462.5 193.5t-175.5 497.5t175.5 497.5t457.5 193.5q162 0 299.5 -67t222.5 -194l-102 -77 q-67 101 -178.5 156.5t-241.5 55.5q-225 0 -363.5 -157t-138.5 -408q0 -249 138.5 -406t370.5 -157q244 0 379 179v248h-320v126h454z" glyph-name="Gdotaccent" horiz-adv-x="1435" unicode="Ġ"/><glyph d="M563 1132q-43 0 -67.5 27t-24.5 71.5t25 71.5t67 27q41 0 66.5 -27t25.5 -71q0 -43 -25.5 -71t-66.5 -28zM905 939h112v-907q0 -239 -123 -391.5t-351 -152.5q-130 0 -235 52t-168 144l101 75q109 -148 297 -148q162 0 255 115t93 312v145q-104 -177 -336 -178 q-210 0 -326 134t-116 346q0 215 117.5 348t322.5 133q236 0 338 -179zM563 119q155 0 239 99t84 265q0 164 -83.5 263t-239.5 99q-157 0 -241.5 -99t-84.5 -263q0 -166 84.5 -265t241.5 -99z" glyph-name="gdotaccent" horiz-adv-x="1181" unicode="ġ"/><glyph d="M1271 652v-420q-87 -128 -221 -194.5t-294 -66.5q-287 0 -462.5 193.5t-175.5 497.5t175.5 497.5t457.5 193.5q162 0 299.5 -67t222.5 -194l-102 -77q-67 101 -178.5 156.5t-241.5 55.5q-225 0 -363.5 -157t-138.5 -408q0 -249 138.5 -406t370.5 -157q244 0 379 179v248 h-320v126h454zM756 -135q92 0 92 -114q0 -152 -147 -188l-17 60q60 17 82 56h-10q-38 0 -62.5 26.5t-24.5 65.5q0 41 24.5 67.5t62.5 26.5z" glyph-name="Gcommaaccent" horiz-adv-x="1435" unicode="Ģ"/><glyph d="M560 1132q-39 0 -64 29t-25 87q0 150 145 184l19 -58q-63 -17 -82 -56h8q39 0 64 -26.5t25 -67.5t-24.5 -66.5t-65.5 -25.5zM905 939h112v-907q0 -239 -123 -391.5t-351 -152.5q-130 0 -235 52t-168 144l101 75q109 -148 297 -148q162 0 255 115t93 312v145 q-104 -177 -336 -178q-210 0 -326 134t-116 346q0 215 117.5 348t322.5 133q236 0 338 -179zM563 119q155 0 239 99t84 265q0 164 -83.5 263t-239.5 99q-157 0 -241.5 -99t-84.5 -263q0 -166 84.5 -265t241.5 -99z" glyph-name="gcommaaccent" horiz-adv-x="1181" unicode="ģ"/><glyph d="M1514 1024v-97h-138v-927h-132v596h-809v-596h-133v927h-136v97h136v295h133v-295h809v295h132v-295h138zM1244 724v203h-809v-203h809z" glyph-name="Hbar" horiz-adv-x="1682" unicode="Ħ"/><glyph d="M749 966q345 0 345 -410v-556h-133v563q0 280 -231 280q-188 0 -312 -264v-579h-133v1150h-116v108h116v191h133v-191h328v-108h-328v-377q131 193 331 193z" glyph-name="hbar" horiz-adv-x="1250" unicode="ħ"/><glyph d="M46 1509h-106q0 90 52 144.5t129 54.5q61 0 135.5 -51t113.5 -51q75 0 75 94h106q0 -92 -50 -146t-127 -54q-63 0 -136.5 52t-112.5 52q-79 1 -79 -95zM314 0h-131v1319h131v-1319z" glyph-name="Itilde" horiz-adv-x="494" unicode="Ĩ"/><glyph d="M26 1128h-106q0 90 52 145t129 55q61 0 135.5 -51.5t113.5 -51.5q75 0 75 94h106q0 -92 -50.5 -145.5t-127.5 -53.5q-63 0 -136.5 52t-112.5 52q-78 0 -78 -96zM290 0h-130v939h130v-939z" glyph-name="itilde" horiz-adv-x="450" unicode="ĩ"/><glyph d="M-49 1555v106h597v-106h-597zM314 0h-131v1319h131v-1319z" glyph-name="Imacron" horiz-adv-x="494" unicode="Ī"/><glyph d="M-70 1174v106h597v-106h-597zM290 0h-130v939h130v-939z" glyph-name="imacron" horiz-adv-x="450" unicode="ī"/><glyph d="M285 -249l58 -58q-75 -90 -159 -91q-79 0 -120.5 41t-39.5 108q0 116 159 251v1317h131v-1319h-41q-142 -155 -142 -229q0 -32 17.5 -52.5t46.5 -20.5q49 0 90 53z" glyph-name="Iogonek" horiz-adv-x="494" unicode="Į"/><glyph d="M229 1132q-43 0 -67.5 27t-24.5 71.5t24.5 71.5t67.5 27q41 0 66.5 -27t25.5 -71q0 -43 -25.5 -71t-66.5 -28zM172 -302q49 0 91 53l58 -58q-75 -90 -159 -91q-79 0 -120.5 41t-39.5 108q0 116 158 251v937h130v-939h-39q-142 -155 -142 -229q0 -32 17 -52.5t46 -20.5z " glyph-name="iogonek" horiz-adv-x="450" unicode="į"/><glyph d="M249 1710q41 0 66.5 -27.5t25.5 -71.5q0 -43 -25.5 -71t-66.5 -28q-43 0 -67.5 27.5t-24.5 71.5t24.5 71.5t67.5 27.5zM314 0h-131v1319h131v-1319z" glyph-name="Idotaccent" horiz-adv-x="494" unicode="İ"/><glyph d="M290 0h-130v939h130v-939z" glyph-name="dotlessi" horiz-adv-x="450" unicode="ı"/><glyph d="M319 422h-131v897h131v-897zM188 166l99 73q108 -147 290 -147q160 0 251.5 115.5t91.5 311.5v800h131v-807q0 -241 -120 -392t-349 -151q-126 0 -229.5 53.5t-164.5 143.5z" glyph-name="IJ" horiz-adv-x="1232" unicode="Ĳ"/><glyph d="M236 1468q46 0 74 -30t28 -79q0 -48 -28 -79t-74.5 -31t-74.5 30t-28 79.5t27.5 79.5t75.5 30zM730.5 1468q46.5 0 74.5 -31t28 -78.5t-27.5 -79t-75.5 -31.5q-46 0 -74 30.5t-28 80t28 79.5t74.5 30zM311 0h-130v939h130v-939zM806 939v-975q0 -172 -85.5 -296 t-223.5 -194l-55 110l24 13q24 12 57 42t67.5 71t58 106.5t23.5 139.5v983h134z" glyph-name="ij" horiz-adv-x="977" unicode="ĳ"/><glyph d="M594 660l580 -660h-172l-514 596h-174v-596h-131v1319h131v-595h172l485 595h164zM643 -135q92 0 93 -114q0 -152 -147 -188l-17 60q60 17 82 56h-11q-38 0 -62.5 26.5t-24.5 65.5q0 41 24.5 67.5t62.5 26.5z" glyph-name="Kcommaaccent" horiz-adv-x="1211" unicode="Ķ"/><glyph d="M589 476l426 -476h-174l-361 411h-180v-411h-131v1399h131v-860h174l314 400h169zM550 -135q92 0 92 -114q0 -152 -147 -188l-17 60q60 17 82 56h-10q-38 0 -62.5 26.5t-24.5 65.5q0 41 24.5 67.5t62.5 26.5z" glyph-name="kcommaaccent" horiz-adv-x="1051" unicode="ķ"/><glyph d="M442 1712l55 -116l-345 -159l-33 61zM314 126h713v-126h-844v1319h131v-1193z" glyph-name="Lacute" horiz-adv-x="1107" unicode="Ĺ"/><glyph d="M131 1568l-32 62l323 213l54 -116zM449 116l22 -109q-155 -55 -229.5 -3.5t-75.5 170.5v1251h131v-1234q0 -63 34 -80t118 5z" glyph-name="lacute" horiz-adv-x="564" unicode="ĺ"/><glyph d="M314 126h713v-126h-844v1319h131v-1193zM626 -135q92 0 93 -114q0 -152 -147 -188l-17 60q60 17 82 56h-11q-38 0 -62.5 26.5t-24.5 65.5q0 41 24.5 67.5t62.5 26.5z" glyph-name="Lcommaaccent" horiz-adv-x="1107" unicode="Ļ"/><glyph d="M471 7q-155 -55 -229.5 -3.5t-75.5 170.5v1251h131v-1234q0 -63 34 -80t118 5zM326 -135q92 0 92 -114q0 -152 -147 -188l-17 60q60 17 82 56h-10q-38 0 -62.5 26.5t-24.5 65.5q0 41 24.5 67.5t62.5 26.5z" glyph-name="lcommaaccent" horiz-adv-x="564" unicode="ļ"/><glyph d="M631 1285l-131 -357l-68 21l78 379zM314 126h713v-126h-844v1319h131v-1193z" glyph-name="Lcaron" horiz-adv-x="1107" unicode="Ľ"/><glyph d="M480 1060l-69 20l79 379l121 -42zM449 116l22 -109q-155 -55 -229.5 -3.5t-75.5 170.5v1251h131v-1234q0 -63 34 -80t118 5z" glyph-name="lcaron" horiz-adv-x="581" unicode="ľ"/><glyph d="M307 128h700v-128h-831v510l-137 -61v118l137 61v691h131v-631l277 124v-119l-277 -125v-440z" glyph-name="Lslash" horiz-adv-x="1095" unicode="Ł"/><glyph d="M469 137l23 -110q-155 -55 -230.5 -2.5t-75.5 171.5v458l-130 -60v119l130 58v680h131v-620l156 70v-118l-156 -70v-501q0 -63 34 -80t118 5z" glyph-name="lslash" horiz-adv-x="542" unicode="ł"/><glyph d="M1000 1596l-345 -159l-32 61l322 214zM1224 1319h129v-1319h-119l-922 1099v-1099h-129v1319h121l920 -1097v1097z" glyph-name="Nacute" horiz-adv-x="1537" unicode="Ń"/><glyph d="M794 1215l-345 -159l-33 62l323 213zM625 966q343 0 343 -410v-556h-132v560q0 278 -230 278q-189 0 -314 -263v-575h-132v939h110l22 -171v-7q128 205 333 205z" glyph-name="nacute" horiz-adv-x="1124" unicode="ń"/><glyph d="M1224 1319h129v-1319h-119l-922 1099v-1099h-129v1319h121l920 -1097v1097zM788 -135q92 0 93 -114q0 -152 -147 -188l-17 60q60 17 82 56h-11q-38 0 -62.5 26.5t-24.5 65.5q0 41 24.5 67.5t62.5 26.5z" glyph-name="Ncommaaccent" horiz-adv-x="1537" unicode="Ņ"/><glyph d="M625 966q343 0 343 -410v-556h-132v560q0 278 -230 278q-189 0 -314 -263v-575h-132v939h110l22 -171v-7q128 205 333 205zM585 -135q92 0 93 -114q0 -152 -147 -188l-17 60q60 17 82 56h-11q-38 0 -62.5 26.5t-24.5 65.5q0 41 24.5 67.5t62.5 26.5z" glyph-name="ncommaaccent" horiz-adv-x="1124" unicode="ņ"/><glyph d="M802 1466h-90l-171 203l67 58l150 -155l143 155l68 -58zM1224 1319h129v-1319h-119l-922 1099v-1099h-129v1319h121l920 -1097v1097z" glyph-name="Ncaron" horiz-adv-x="1537" unicode="Ň"/><glyph d="M596 1085h-91l-170 204l66 58l150 -156l144 156l68 -58zM625 966q343 0 343 -410v-556h-132v560q0 278 -230 278q-189 0 -314 -263v-575h-132v939h110l22 -171v-7q128 205 333 205z" glyph-name="ncaron" horiz-adv-x="1124" unicode="ň"/><glyph d="M1208 1319h132v-1355q0 -174 -84.5 -297.5t-224.5 -192.5l-56 110q10 5 25 13.5t55.5 41.5t71 72.5t55.5 105t25 139.5v56l-893 1084v-1096h-131v1319h122l903 -1095v1095z" glyph-name="Eng" horiz-adv-x="1524" unicode="Ŋ"/><glyph d="M625 966q343 0 343 -410v-592q0 -174 -85.5 -297t-223.5 -193l-55 110q10 5 25.5 13.5t55.5 41.5t71 72.5t55.5 105t24.5 139.5v607q0 280 -230 280q-189 0 -314 -264v-579h-132v939h110l22 -157v-11q130 195 333 195z" glyph-name="eng" horiz-adv-x="1124" unicode="ŋ"/><glyph d="M461 1555v106h597v-106h-597zM757.5 1352q286.5 0 462.5 -193t176 -500q0 -304 -176.5 -497.5t-461.5 -193.5q-288 0 -464 192.5t-176 498t176.5 499.5t463 194zM758 1225q-230 0 -369.5 -157t-139.5 -409q0 -249 138.5 -406t370.5 -157q229 0 368 157t139 406 q0 251 -139 408.5t-368 157.5z" glyph-name="Omacron" horiz-adv-x="1515" unicode="Ō"/><glyph d="M297 1174v106h597v-106h-597zM591 966q215 0 348.5 -136.5t133.5 -360.5q0 -215 -131 -355.5t-351 -140.5q-217 0 -350 137t-133 359t133 359.5t350 137.5zM591 845q-162 0 -257 -105t-95 -270.5t94.5 -270.5t257.5 -105q160 0 254.5 105t94.5 270.5t-94.5 270.5 t-254.5 105z" glyph-name="omacron" horiz-adv-x="1181" unicode="ō"/><glyph d="M686 1440l-65 23l68 266l122 -45zM858 1440l-64 23l66 266l121 -45zM757.5 1352q286.5 0 462.5 -193t176 -500q0 -304 -176.5 -497.5t-461.5 -193.5q-288 0 -464 192.5t-176 498t176.5 499.5t463 194zM758 1225q-230 0 -369.5 -157t-139.5 -409q0 -249 138.5 -406 t370.5 -157q229 0 368 157t139 406q0 251 -139 408.5t-368 157.5z" glyph-name="Ohungarumlaut" horiz-adv-x="1515" unicode="Ő"/><glyph d="M522 1060l-65 22l69 266l121 -44zM695 1060l-65 22l66 266l121 -44zM591 966q215 0 348.5 -136.5t133.5 -360.5q0 -215 -131 -355.5t-351 -140.5q-217 0 -350 137t-133 359t133 359.5t350 137.5zM591 845q-162 0 -257 -105t-95 -270.5t94.5 -270.5t257.5 -105 q160 0 254.5 105t94.5 270.5t-94.5 270.5t-254.5 105z" glyph-name="ohungarumlaut" horiz-adv-x="1181" unicode="ő"/><glyph d="M2106 1191h-705v-445h499v-126h-499v-492h705v-128h-831v247q-84 -133 -218.5 -206t-305.5 -73q-285 0 -459 192.5t-174 498t174 499.5t459 194q171 0 305.5 -72.5t218.5 -204.5v244h831v-128zM758 96q229 0 368 157t139 406q0 251 -139.5 408t-368 157t-368.5 -157 t-140 -408q0 -249 138.5 -406t370.5 -157z" glyph-name="OE" horiz-adv-x="2234" unicode="Œ"/><glyph d="M1391 966q225 0 331 -140t84 -411h-733q14 -150 100.5 -236.5t229.5 -86.5q90 0 175.5 36t138.5 99l84 -82q-67 -82 -173.5 -127t-224.5 -45q-142 0 -245 63t-156 177q-56 -113 -164 -176.5t-253 -63.5q-213 0 -345 138t-132 358t132 358.5t345 138.5q142 0 249.5 -62.5 t165.5 -174.5q55 116 156.5 176.5t234.5 60.5zM1073 526h608q0 152 -72.5 236.5t-217.5 84.5q-143 0 -225.5 -85.5t-92.5 -235.5zM591 94q159 0 254 105.5t95 269.5t-95.5 270t-253.5 106q-160 0 -256 -106t-96 -270t96 -269.5t256 -105.5z" glyph-name="oe" horiz-adv-x="1911" unicode="œ"/><glyph d="M884 1596l-345 -159l-32 61l322 214zM1181 0h-150l-312 502h-38h-367v-502h-131v1319h503q241 0 367 -106.5t126 -302.5q0 -155 -85 -255t-241 -136zM314 625h367q171 0 268 70t97 213q0 287 -360 287h-372v-570z" glyph-name="Racute" horiz-adv-x="1237" unicode="Ŕ"/><glyph d="M652 1215l-345 -159l-32 62l322 213zM572 966q79 0 150 -34l-58 -125q-55 29 -113 29q-101 0 -167.5 -88.5t-93.5 -216.5v-531h-130v939h108l22 -183q96 210 282 210z" glyph-name="racute" horiz-adv-x="778" unicode="ŕ"/><glyph d="M853 519l328 -519h-150l-312 502h-38h-367v-502h-131v1319h503q241 0 367 -106.5t126 -302.5q0 -155 -85.5 -255t-240.5 -136zM314 625h367q171 0 268 70t97 213q0 287 -360 287h-372v-570zM662 -135q92 0 92 -114q0 -152 -146 -188l-17 60q60 17 81 56h-10 q-38 0 -62.5 26.5t-24.5 65.5q0 41 24.5 67.5t62.5 26.5z" glyph-name="Rcommaaccent" horiz-adv-x="1237" unicode="Ŗ"/><glyph d="M572 966q79 0 150 -34l-58 -125q-55 29 -113 29q-101 0 -167.5 -88.5t-93.5 -216.5v-531h-130v939h108l22 -183q96 210 282 210zM232 -135q92 0 92 -114q0 -152 -147 -188l-17 60q60 17 82 56h-10q-38 0 -62.5 26.5t-24.5 65.5q0 41 24.5 67.5t62.5 26.5z" glyph-name="rcommaaccent" horiz-adv-x="778" unicode="ŗ"/><glyph d="M686 1466h-90l-171 203l67 58l150 -155l143 155l68 -58zM1181 0h-150l-312 502h-38h-367v-502h-131v1319h503q241 0 367 -106.5t126 -302.5q0 -155 -85 -255t-241 -136zM314 625h367q171 0 268 70t97 213q0 287 -360 287h-372v-570z" glyph-name="Rcaron" horiz-adv-x="1237" unicode="Ř"/><glyph d="M454 1085h-90l-171 204l66 58l151 -156l143 156l68 -58zM572 966q79 0 150 -34l-58 -125q-55 29 -113 29q-101 0 -167.5 -88.5t-93.5 -216.5v-531h-130v939h108l22 -183q96 210 282 210z" glyph-name="rcaron" horiz-adv-x="778" unicode="ř"/><glyph d="M519 1437l-33 61l323 214l55 -116zM108 186l99 87q160 -179 407 -179q155 0 251 64t96 183q0 77 -43.5 132.5t-112.5 86.5t-153.5 56.5t-168.5 53.5t-153 65.5t-112.5 104t-43.5 160.5q0 169 128 261t324 92q276 0 427 -182l-94 -77q-118 140 -338 140q-142 0 -226 -59 t-84 -163q0 -82 58.5 -138.5t145.5 -83.5t190.5 -62t190.5 -71.5t146 -113.5t59 -186q0 -179 -141 -281.5t-346 -102.5q-150 0 -288 57t-218 156z" glyph-name="Sacute" horiz-adv-x="1216" unicode="Ś"/><glyph d="M381 1089l-33 61l323 214l54 -116zM473 -27q-121 0 -223 38t-165 102l70 94q123 -123 318 -123q111 0 184 41t73 121q0 70 -62 108.5t-151 57t-178.5 41.5t-151.5 82t-62 156q0 126 100.5 200.5t254.5 74.5q225 0 360 -138l-84 -84q-114 111 -278 111 q-102 0 -163.5 -38.5t-61.5 -111.5q0 -72 63 -111t152.5 -58t179 -41t153 -81t63.5 -158q0 -133 -110 -208t-281 -75z" glyph-name="sacute" horiz-adv-x="965" unicode="ś"/><glyph d="M1101 357q0 -172 -130.5 -274t-325.5 -110l-7 -58q24 -2 55.5 -12.5t70 -30.5t60 -61t11.5 -96q-12 -70 -77 -103.5t-143.5 -27.5t-143.5 41l34 81q24 -14 71 -28t100.5 -6.5t62.5 55.5q5 26 -3.5 45.5t-29 31.5t-41 19.5t-48.5 11t-41 5t-30 1.5l21 133 q-138 9 -262 65.5t-197 146.5l99 87q160 -179 407 -179q155 0 251 64t96 183q0 77 -43.5 132.5t-112.5 86.5t-153.5 56.5t-168.5 53.5t-153 65.5t-112.5 104t-43.5 160.5q0 169 128 261t324 92q276 0 427 -182l-94 -77q-118 140 -338 140q-142 0 -226 -59t-84 -163 q0 -82 58.5 -138.5t145.5 -83.5t190.5 -62t190.5 -71.5t146 -113.5t59 -186z" glyph-name="Scedilla" horiz-adv-x="1216" unicode="Ş"/><glyph d="M864 256q0 -125 -96.5 -199t-252.5 -83l-6 -59q17 -2 40.5 -7t56 -19.5t56.5 -36t37.5 -56.5t5.5 -78q-9 -61 -56.5 -92.5t-107.5 -38.5q-53 -5 -112.5 8.5t-87.5 29.5l34 81q24 -14 71 -28t101 -6.5t62 55.5q5 26 -3.5 45.5t-29 31.5t-41 19.5t-48.5 11t-41 5t-30 1.5 l21 133q-224 10 -352 139l70 94q123 -123 318 -123q111 0 184 41t73 121q0 70 -62 108.5t-151 57t-178.5 41.5t-151.5 82t-62 156q0 126 100.5 200.5t254.5 74.5q225 0 360 -138l-84 -84q-114 111 -278 111q-102 0 -163.5 -38.5t-61.5 -111.5q0 -72 63 -111t152.5 -58 t179 -41t153 -81t63.5 -158z" glyph-name="scedilla" horiz-adv-x="965" unicode="ş"/><glyph d="M575 1466l-171 203l67 58l150 -155l144 155l68 -58l-167 -203h-91zM108 186l99 87q160 -179 407 -179q155 0 251 64t96 183q0 77 -43.5 132.5t-112.5 86.5t-153.5 56.5t-168.5 53.5t-153 65.5t-112.5 104t-43.5 160.5q0 169 128 261t324 92q276 0 427 -182l-94 -77 q-118 140 -338 140q-142 0 -226 -59t-84 -163q0 -82 58.5 -138.5t145.5 -83.5t190.5 -62t190.5 -71.5t146 -113.5t59 -186q0 -179 -141 -281.5t-346 -102.5q-150 0 -288 57t-218 156z" glyph-name="Scaron" horiz-adv-x="1216" unicode="Š"/><glyph d="M437 1118l-171 203l67 58l150 -155l143 155l69 -58l-168 -203h-90zM473 -27q-121 0 -223 38t-165 102l70 94q123 -123 318 -123q111 0 184 41t73 121q0 70 -62 108.5t-151 57t-178.5 41.5t-151.5 82t-62 156q0 126 100.5 200.5t254.5 74.5q225 0 360 -138l-84 -84 q-114 111 -278 111q-102 0 -163.5 -38.5t-61.5 -111.5q0 -72 63 -111t152.5 -58t179 -41t153 -81t63.5 -158q0 -133 -110 -208t-281 -75z" glyph-name="scaron" horiz-adv-x="965" unicode="š"/><glyph d="M669 0h-26l-10 -85q24 -2 55.5 -12.5t70 -30.5t60 -61t10.5 -96q-12 -70 -76.5 -103.5t-143 -27.5t-143.5 41l34 81q24 -14 71 -28t100.5 -6.5t62.5 55.5q5 26 -3.5 45.5t-29 31.5t-41 19.5t-48.5 11t-41 5t-30 1.5l26 159h-28v1193h-471v126h1072v-126h-471v-1193z" glyph-name="Tcommaaccent" horiz-adv-x="1211" unicode="Ţ"/><glyph d="M522 -85q24 -2 55.5 -12.5t70 -30.5t60 -61t11.5 -96q-12 -70 -77 -103.5t-143.5 -27.5t-143.5 41l34 81q24 -14 71 -28t100.5 -6.5t62.5 55.5q5 26 -3.5 45.5t-29 31.5t-41 19.5t-48.5 11t-41 5t-30 1.5l22 140q-101 27 -158.5 113.5t-57.5 207.5v517h-161v120h161v295 h129v-295h323l-5 -120h-318v-522q0 -133 90.5 -183.5t245.5 19.5l35 -109q-106 -53 -207 -53z" glyph-name="tcommaaccent" horiz-adv-x="812" unicode="ţ"/><glyph d="M652 1466h-91l-170 203l66 58l151 -155l143 155l68 -58zM1140 1319v-126h-471v-1193h-130v1193h-471v126h1072z" glyph-name="Tcaron" horiz-adv-x="1211" unicode="Ť"/><glyph d="M686 1422l-131 -357l-69 20l79 379zM701 133l35 -109q-147 -68 -258 -48.5t-176.5 108t-65.5 218.5v517h-161v120h161v295h129v-295h323l-5 -120h-318v-522q0 -133 90.5 -183.5t245.5 19.5z" glyph-name="tcaron" horiz-adv-x="812" unicode="ť"/><glyph d="M1140 1191h-469v-392h333v-128h-333v-671h-133v671h-333v128h333v392h-470v128h1072v-128z" glyph-name="Tbar" horiz-adv-x="1211" unicode="Ŧ"/><glyph d="M701 123l35 -111q-147 -67 -259 -48t-177.5 107.5t-65.5 218.5v198h-125v113h125v218h-159v120h159v295h131v-295h323l-5 -120h-318v-218h275l-3 -113h-272v-203q0 -133 90.5 -183.5t245.5 21.5z" glyph-name="tbar" horiz-adv-x="812" unicode="ŧ"/><glyph d="M521 1509h-106q0 90 52 144.5t129 54.5q61 0 135.5 -51t113.5 -51q75 0 75 94h106q0 -92 -50.5 -146t-127.5 -54q-63 0 -136.5 52t-112.5 52q-78 1 -78 -95zM1260 1319v-763q0 -265 -146 -426t-397 -161q-253 0 -398 161.5t-145 425.5v763h131v-756q0 -218 113 -346 t299 -128q183 0 297 126t114 348v756h132z" glyph-name="Utilde" horiz-adv-x="1435" unicode="Ũ"/><glyph d="M447 1224q-79 0 -78 -96h-106q0 90 52 145t129 55q61 0 135.5 -51.5t113.5 -51.5q75 0 75 94h106q0 -92 -50.5 -145.5t-127.5 -53.5q-63 0 -136.5 52t-112.5 52zM829 939h134v-939h-111l-23 171v1q-128 -200 -331 -199q-345 0 -344 409v557h133v-553q0 -142 56 -210 t174 -68q189 0 312 262v569z" glyph-name="utilde" horiz-adv-x="1124" unicode="ũ"/><glyph d="M425 1555v106h597v-106h-597zM1260 1319v-763q0 -265 -146 -426t-397 -161q-253 0 -398 161.5t-145 425.5v763h131v-756q0 -218 113 -346t299 -128q183 0 297 126t114 348v756h132z" glyph-name="Umacron" horiz-adv-x="1435" unicode="Ū"/><glyph d="M870 1280v-106h-597v106h597zM829 939h134v-939h-111l-23 171v1q-128 -200 -331 -199q-345 0 -344 409v557h133v-553q0 -142 56 -210t174 -68q189 0 312 262v569z" glyph-name="umacron" horiz-adv-x="1124" unicode="ū"/><glyph d="M722 1804q79 0 127.5 -52t48.5 -134q0 -79 -49 -134.5t-127.5 -55.5t-127 53t-48.5 137q0 85 47 135.5t129 50.5zM722 1715q-41 0 -66 -27t-25 -70t25 -71t66 -28t65.5 29t24.5 70q0 43 -25.5 70t-64.5 27zM1260 1319v-763q0 -265 -146 -426t-397 -161q-253 0 -398 161.5 t-145 425.5v763h131v-756q0 -218 113 -346t299 -128q183 0 297 126t114 348v756h132z" glyph-name="Uring" horiz-adv-x="1435" unicode="Ů"/><glyph d="M570.5 1048q-78.5 0 -127.5 53t-49 136q0 85 47 135.5t129 50.5q79 0 127.5 -52t48.5 -134q0 -79 -48.5 -134t-127 -55zM570 1335q-41 0 -65.5 -27.5t-24.5 -70t24.5 -71t65.5 -28.5t65.5 29t24.5 70q0 43 -25.5 70.5t-64.5 27.5zM829 939h134v-939h-111l-23 171v1 q-128 -200 -331 -199q-345 0 -344 409v557h133v-553q0 -142 56 -210t174 -68q189 0 312 262v569z" glyph-name="uring" horiz-adv-x="1124" unicode="ů"/><glyph d="M650 1440l-65 23l69 266l121 -45zM823 1440l-65 23l66 266l121 -45zM1260 1319v-763q0 -265 -146 -426t-397 -161q-253 0 -398 161.5t-145 425.5v763h131v-756q0 -218 113 -346t299 -128q183 0 297 126t114 348v756h132z" glyph-name="Uhungarumlaut" horiz-adv-x="1435" unicode="Ű"/><glyph d="M623 1304l-125 -244l-65 22l69 266zM671 1060l-65 22l66 266l122 -44zM829 939h134v-939h-111l-23 171v1q-128 -200 -331 -199q-345 0 -344 409v557h133v-553q0 -142 56 -210t174 -68q189 0 312 262v569z" glyph-name="uhungarumlaut" horiz-adv-x="1124" unicode="ű"/><glyph d="M1128 1319h132v-763q0 -200 -85.5 -344.5t-240.5 -204.5q-142 -155 -142 -227q0 -32 17 -53t46 -21q49 0 90 53l59 -58q-75 -90 -159 -90q-79 0 -120.5 41t-40.5 107q0 99 120 215q-41 -5 -87 -5q-253 0 -398 161.5t-145 425.5v763h131v-756q0 -218 113 -346t299 -128 q183 0 297 126t114 348v756z" glyph-name="Uogonek" horiz-adv-x="1435" unicode="Ų"/><glyph d="M952 -249l58 -58q-75 -90 -158 -91q-79 0 -121 41t-40 108q0 116 161 252l-23 168v1q-128 -200 -331 -199q-345 0 -344 409v557h133v-553q0 -142 56 -210t174 -68q189 0 312 262v569h134v-939h-23q-142 -155 -141 -229q0 -32 17 -52.5t46 -20.5q49 0 90 53z" glyph-name="uogonek" horiz-adv-x="1124" unicode="ų"/><glyph d="M838 1633l-150 -155l-67 60l171 201h90l168 -201l-69 -60zM1468 1319h140l-311 -1319h-135l-324 1055l-335 -1055h-131l-305 1319h134l244 -1097l338 1041h113l326 -1043z" glyph-name="Wcircumflex" horiz-adv-x="1675" unicode="Ŵ"/><glyph d="M717 1253l-150 -156l-67 60l171 202h90l167 -202l-68 -60zM1229 939h136l-298 -939h-132l-218 710l-219 -710h-133l-298 939h131l230 -755l226 693h124l224 -689z" glyph-name="wcircumflex" horiz-adv-x="1431" unicode="ŵ"/><glyph d="M614 1632l-150 -156l-66 60l170 201h91l167 -201l-68 -60zM1176 1319l-497 -846v-473h-133v476l-493 843h147l414 -734l413 734h149z" glyph-name="Ycircumflex" horiz-adv-x="1228" unicode="Ŷ"/><glyph d="M509 1253l-151 -156l-66 60l171 202h90l167 -202l-68 -60zM823 939h136l-403 -1035q-87 -224 -207 -300.5t-296 -21.5l7 128q152 -58 235.5 9.5t158.5 275.5l-375 944h136l307 -787z" glyph-name="ycircumflex" horiz-adv-x="1006" unicode="ŷ"/><glyph d="M440.5 1519q-37.5 0 -60.5 24.5t-23 64.5q0 41 23 65.5t60.5 24.5t60.5 -25.5t23 -65t-23 -64t-60.5 -24.5zM788.5 1519q-37.5 0 -60.5 24.5t-23 64.5q0 41 23 65.5t60.5 24.5t60.5 -25.5t23 -65t-23 -64t-60.5 -24.5zM1176 1319l-497 -846v-473h-133v476l-493 843h147 l414 -734l413 734h149z" glyph-name="Ydieresis" horiz-adv-x="1228" unicode="Ÿ"/><glyph d="M887 1596l-344 -159l-33 61l323 214zM1191 1318v-62l-877 -1131l877 3v-128h-1082v67l871 1126l-871 -3v128h1082z" glyph-name="Zacute" horiz-adv-x="1291" unicode="Ź"/><glyph d="M729 1215l-345 -159l-32 62l322 213zM872 939v-128l-635 -688l635 5v-128h-785v128h2l619 688l-621 -5v128h785z" glyph-name="zacute" horiz-adv-x="957" unicode="ź"/><glyph d="M645 1512q-43 0 -67.5 27.5t-24.5 71.5t24.5 71.5t67.5 27.5q41 0 66.5 -27.5t25.5 -71.5q0 -43 -25.5 -71t-66.5 -28zM1191 1318v-62l-877 -1131l877 3v-128h-1082v67l871 1126l-871 -3v128h1082z" glyph-name="Zdotaccent" horiz-adv-x="1291" unicode="Ż"/><glyph d="M486 1132q-43 0 -67.5 27t-24.5 71.5t25 71.5t67 27q41 0 67 -27t26 -71q0 -43 -26 -71t-67 -28zM872 939v-128l-635 -688l635 5v-128h-785v128h2l619 688l-621 -5v128h785z" glyph-name="zdotaccent" horiz-adv-x="957" unicode="ż"/><glyph d="M689 1466h-90l-171 203l67 58l150 -155l143 155l69 -58zM1191 1318v-62l-877 -1131l877 3v-128h-1082v67l871 1126l-871 -3v128h1082z" glyph-name="Zcaron" horiz-adv-x="1291" unicode="Ž"/><glyph d="M531 1085h-91l-170 204l66 58l150 -156l144 156l68 -58zM872 939v-128l-635 -688l635 5v-128h-785v128h2l619 688l-621 -5v128h785z" glyph-name="zcaron" horiz-adv-x="957" unicode="ž"/><glyph d="M177 1103q0 128 48 214t123 117.5t159 31.5t162 -32v-115q-97 34 -177.5 34t-132.5 -62t-52 -178v-1113h-130v816h-98v123h98v164z" glyph-name="longs" horiz-adv-x="691" unicode="ſ"/><glyph d="M1138 1232q123 -92 190.5 -240.5t67.5 -332.5q0 -304 -176.5 -497.5t-461.5 -193.5q-288 0 -464 192.5t-176 498.5q0 304 175.5 497.5t460.5 195.5h4h1q56 0 118.5 -1t139.5 -2.5t120 -1.5q63 0 82.5 27t7.5 94h118q17 -116 -19 -176t-152 -60h-36zM758 96q229 0 368 157 t139 406q0 251 -139.5 408.5t-367.5 157.5q-230 0 -369.5 -157t-139.5 -409q0 -249 138.5 -406t370.5 -157z" glyph-name="Ohorn" horiz-adv-x="1506" unicode="Ơ"/><glyph d="M910 855q162 -138 162 -386q0 -215 -131.5 -355.5t-349.5 -140.5q-217 0 -351 138t-134 358t134 358.5t351 138.5q43 0 298 -3q63 0 83 29t8 95h117q17 -118 -22.5 -178.5t-164.5 -53.5zM591 94q159 0 254 105.5t95 269.5t-95.5 270t-253.5 106q-160 0 -256 -106 t-96 -270t96 -269.5t256 -105.5z" glyph-name="ohorn" horiz-adv-x="1179" unicode="ơ"/><glyph d="M1493 1446q12 -118 -23.5 -178t-150.5 -60h-68v-648q0 -265 -145 -426t-396 -161q-253 0 -398.5 161t-145.5 426v759h131v-752q0 -218 112.5 -346.5t300.5 -128.5q183 0 296.5 126.5t113.5 348.5v752h165q63 -2 83 29t8 98h117z" glyph-name="Uhorn" horiz-adv-x="1448" unicode="Ư"/><glyph d="M1166 1065q12 -118 -24 -177.5t-152 -59.5h-29v-828h-109l-23 171v3q-128 -201 -332 -201q-343 0 -343 409v557h131v-553q0 -278 230 -278q189 0 314 262v569h132q58 0 77.5 30.5t7.5 95.5h120z" glyph-name="uhorn" horiz-adv-x="1189" unicode="ư"/><glyph d="M724 1466h-91l-170 203l66 58l150 -155l144 155l68 -58zM1162 0l-147 355h-674l-145 -355h-138l548 1319h145l549 -1319h-138zM394 483h570l-286 695z" glyph-name="uni01CD" horiz-adv-x="1356" unicode="Ǎ"/><glyph d="M613 1085h-91l-170 204l66 58l150 -156l144 156l68 -58zM901 939h128v-939h-116l-12 82v95q-111 -205 -351 -204q-201 0 -321.5 137t-120.5 359t120 359.5t320 137.5q242 0 353 -205v178zM570 94q150 0 239.5 104t89.5 271.5t-89.5 271.5t-239.5 104q-152 0 -242.5 -104 t-90.5 -271.5t90.5 -271.5t242.5 -104z" glyph-name="uni01CE" horiz-adv-x="1196" unicode="ǎ"/><glyph d="M203 1466l-171 203l67 58l150 -155l144 155l68 -58l-167 -203h-91zM314 0h-131v1319h131v-1319z" glyph-name="uni01CF" horiz-adv-x="494" unicode="Ǐ"/><glyph d="M183 1085l-171 204l67 58l150 -156l143 156l68 -58l-167 -204h-90zM290 0h-130v939h130v-939z" glyph-name="uni01D0" horiz-adv-x="450" unicode="ǐ"/><glyph d="M713 1466l-170 203l66 58l150 -155l144 155l68 -58l-167 -203h-91zM757.5 1352q286.5 0 462.5 -193t176 -500q0 -304 -176.5 -497.5t-461.5 -193.5q-288 0 -464 192.5t-176 498t176.5 499.5t463 194zM758 1225q-230 0 -369.5 -157t-139.5 -409q0 -249 138.5 -406 t370.5 -157q229 0 368 157t139 406q0 251 -139 408.5t-368 157.5z" glyph-name="uni01D1" horiz-adv-x="1515" unicode="Ǒ"/><glyph d="M550 1085l-171 204l66 58l151 -156l143 156l68 -58l-167 -204h-90zM591 966q215 0 348.5 -136.5t133.5 -360.5q0 -215 -131 -355.5t-351 -140.5q-217 0 -350 137t-133 359t133 359.5t350 137.5zM591 845q-162 0 -257 -105t-95 -270.5t94.5 -270.5t257.5 -105 q160 0 254.5 105t94.5 270.5t-94.5 270.5t-254.5 105z" glyph-name="uni01D2" horiz-adv-x="1181" unicode="ǒ"/><glyph d="M678 1466l-171 203l66 58l151 -155l143 155l68 -58l-167 -203h-90zM1260 1319v-763q0 -265 -146 -426t-397 -161q-253 0 -398 161.5t-145 425.5v763h131v-756q0 -218 113 -346t299 -128q183 0 297 126t114 348v756h132z" glyph-name="uni01D3" horiz-adv-x="1435" unicode="Ǔ"/><glyph d="M616 1085h-90l-171 204l67 58l150 -156l143 156l68 -58zM829 939h134v-939h-111l-23 171v1q-128 -200 -331 -199q-345 0 -344 409v557h133v-553q0 -142 56 -210t174 -68q189 0 312 262v569z" glyph-name="uni01D4" horiz-adv-x="1124" unicode="ǔ"/><glyph d="M425 1935v106h597v-106h-597zM547.5 1700q37.5 0 60.5 -25.5t23 -65t-23 -64t-60.5 -24.5t-60.5 24.5t-23 63.5q0 41 23 66t60.5 25zM896 1700q38 0 61 -25.5t23 -65t-23 -64t-61 -24.5t-61 24.5t-23 63.5q0 41 23 66t61 25zM1260 1319v-763q0 -265 -146 -426t-397 -161 q-253 0 -398 161.5t-145 425.5v763h131v-756q0 -218 113 -346t299 -128q183 0 297 126t114 348v756h132z" glyph-name="uni01D5" horiz-adv-x="1435" unicode="Ǖ"/><glyph d="M870 1661v-106h-597v106h597zM312 1229q0 41 23 65.5t60.5 24.5t61 -25.5t23.5 -64.5t-23.5 -64t-61 -25t-60.5 25t-23 64zM660 1229q0 41 23.5 65.5t61 24.5t60.5 -25.5t23 -64.5t-23 -64t-60.5 -25t-61 25t-23.5 64zM829 939h134v-939h-111l-23 171v1 q-128 -200 -331 -199q-345 0 -344 409v557h133v-553q0 -142 56 -210t174 -68q189 0 312 262v569z" glyph-name="uni01D6" horiz-adv-x="1124" unicode="ǖ"/><glyph d="M621 1818l-32 61l322 213l55 -116zM547.5 1700q37.5 0 60.5 -25.5t23 -65t-23 -64t-60.5 -24.5t-60.5 24.5t-23 63.5q0 41 23 66t60.5 25zM896 1700q38 0 61 -25.5t23 -65t-23 -64t-61 -24.5t-61 24.5t-23 63.5q0 41 23 66t61 25zM1260 1319v-763q0 -265 -146 -426 t-397 -161q-253 0 -398 161.5t-145 425.5v763h131v-756q0 -218 113 -346t299 -128q183 0 297 126t114 348v756h132z" glyph-name="uni01D7" horiz-adv-x="1435" unicode="Ǘ"/><glyph d="M814 1596l-345 -159l-32 61l322 214zM395.5 1140q-37.5 0 -60.5 25t-23 64q0 41 23 65.5t60.5 24.5t61 -25.5t23.5 -64.5t-23.5 -64t-61 -25zM744.5 1319q37.5 0 60.5 -25.5t23 -64.5t-23 -64t-60.5 -25t-61 25t-23.5 64q0 41 23.5 65.5t61 24.5zM829 939h134v-939h-111 l-23 171v1q-128 -200 -331 -199q-345 0 -344 409v557h133v-553q0 -142 56 -210t174 -68q189 0 312 262v569z" glyph-name="uni01D8" horiz-adv-x="1124" unicode="ǘ"/><glyph d="M678 1847l-171 203l66 58l151 -156l143 156l68 -58l-167 -203h-90zM547.5 1700q37.5 0 60.5 -25.5t23 -65t-23 -64t-60.5 -24.5t-60.5 24.5t-23 63.5q0 41 23 66t60.5 25zM896 1700q38 0 61 -25.5t23 -65t-23 -64t-61 -24.5t-61 24.5t-23 63.5q0 41 23 66t61 25z M1260 1319v-763q0 -265 -146 -426t-397 -161q-253 0 -398 161.5t-145 425.5v763h131v-756q0 -218 113 -346t299 -128q183 0 297 126t114 348v756h132z" glyph-name="uni01D9" horiz-adv-x="1435" unicode="Ǚ"/><glyph d="M616 1466h-90l-171 203l67 58l150 -155l143 155l68 -58zM395.5 1140q-37.5 0 -60.5 25t-23 64q0 41 23 65.5t60.5 24.5t61 -25.5t23.5 -64.5t-23.5 -64t-61 -25zM660 1229q0 41 23.5 65.5t61 24.5t60.5 -25.5t23 -64.5t-23 -64t-60.5 -25t-61 25t-23.5 64zM829 939h134 v-939h-111l-23 171v1q-128 -200 -331 -199q-345 0 -344 409v557h133v-553q0 -142 56 -210t174 -68q189 0 312 262v569z" glyph-name="uni01DA" horiz-adv-x="1124" unicode="ǚ"/><glyph d="M814 1818l-345 158l55 116l323 -213zM547.5 1700q37.5 0 60.5 -25.5t23 -65t-23 -64t-60.5 -24.5t-60.5 24.5t-23 63.5q0 41 23 66t60.5 25zM896 1700q38 0 61 -25.5t23 -65t-23 -64t-61 -24.5t-61 24.5t-23 63.5q0 41 23 66t61 25zM1260 1319v-763q0 -265 -146 -426 t-397 -161q-253 0 -398 161.5t-145 425.5v763h131v-756q0 -218 113 -346t299 -128q183 0 297 126t114 348v756h132z" glyph-name="uni01DB" horiz-adv-x="1435" unicode="Ǜ"/><glyph d="M695 1498l-33 -61l-345 159l55 116zM395.5 1140q-37.5 0 -60.5 25t-23 64q0 41 23 65.5t60.5 24.5t61 -25.5t23.5 -64.5t-23.5 -64t-61 -25zM660 1229q0 41 23.5 65.5t61 24.5t60.5 -25.5t23 -64.5t-23 -64t-60.5 -25t-61 25t-23.5 64zM829 939h134v-939h-111l-23 171v1 q-128 -200 -331 -199q-345 0 -344 409v557h133v-553q0 -142 56 -210t174 -68q189 0 312 262v569z" glyph-name="uni01DC" horiz-adv-x="1124" unicode="ǜ"/><glyph d="M978 2041v-106h-597v106h597zM420 1609q0 41 23 66t60.5 25t60.5 -25.5t23 -65t-23 -64t-60.5 -24.5t-60.5 24.5t-23 63.5zM768 1609q0 41 23 66t60.5 25t60.5 -25.5t23 -65t-23 -64t-60.5 -24.5t-60.5 24.5t-23 63.5zM1162 0l-147 355h-674l-145 -355h-138l548 1319h145 l549 -1319h-138zM394 483h570l-286 695z" glyph-name="uni01DE" horiz-adv-x="1356" unicode="Ǟ"/><glyph d="M867 1661v-106h-597v106h597zM309 1229q0 41 23 65.5t60.5 24.5t60.5 -25.5t23 -64.5t-23 -64t-60.5 -25t-60.5 25t-23 64zM657 1229q0 41 23 65.5t60.5 24.5t60.5 -25.5t23 -64.5t-23 -64t-60.5 -25t-60.5 25t-23 64zM901 939h128v-939h-116l-12 82v95 q-111 -205 -351 -204q-201 0 -321.5 137t-120.5 359t120 359.5t320 137.5q242 0 353 -205v178zM570 94q150 0 239.5 104t89.5 271.5t-89.5 271.5t-239.5 104q-152 0 -242.5 -104t-90.5 -271.5t90.5 -271.5t242.5 -104z" glyph-name="uni01DF" horiz-adv-x="1196" unicode="ǟ"/><glyph d="M800 1466h-90l-171 203l67 58l150 -155l143 155l69 -58zM1271 652v-420q-87 -128 -221 -194.5t-294 -66.5q-287 0 -462.5 193.5t-175.5 497.5t175.5 497.5t457.5 193.5q162 0 299.5 -67t222.5 -194l-102 -77q-67 101 -178.5 156.5t-241.5 55.5q-225 0 -363.5 -157 t-138.5 -408q0 -249 138.5 -406t370.5 -157q244 0 379 179v248h-320v126h454z" glyph-name="Gcaron" horiz-adv-x="1435" unicode="Ǧ"/><glyph d="M608 1085h-91l-171 204l67 58l150 -156l144 156l68 -58zM905 939h112v-907q0 -239 -123 -391.5t-351 -152.5q-130 0 -235 52t-168 144l101 75q109 -148 297 -148q162 0 255 115t93 312v145q-104 -177 -336 -178q-210 0 -326 134t-116 346q0 215 117.5 348t322.5 133 q236 0 338 -179zM563 119q155 0 239 99t84 265q0 164 -83.5 263t-239.5 99q-157 0 -241.5 -99t-84.5 -263q0 -166 84.5 -265t241.5 -99z" glyph-name="gcaron" horiz-adv-x="1181" unicode="ǧ"/><glyph d="M1118 1215l-345 -159l-32 62l322 213zM1263 966q224 0 329.5 -140t83.5 -411h-732q14 -150 100 -236.5t229 -86.5q90 0 175.5 36t138.5 99l84 -82q-67 -82 -173.5 -127t-224.5 -45q-280 0 -394 230q-99 -225 -384 -225q-176 0 -281.5 84.5t-105.5 224.5 q0 137 105.5 217.5t301.5 80.5q140 0 297 -51v10q0 135 -85 217t-222 82q-148 0 -309 -78l-56 114q177 87 360 87q128 0 228 -58t153 -160q55 108 153.5 163t228.5 55zM944 526h607q0 152 -72.5 236.5t-215.5 84.5q-145 0 -227 -85.5t-92 -235.5zM503 99q152 0 230.5 84.5 t78.5 236.5v2q-145 46 -281 46q-290 0 -290 -178q0 -89 70.5 -140t191.5 -51z" glyph-name="aeacute" horiz-adv-x="1781" unicode="ǽ"/><glyph d="M1012 1596l-345 -159l-32 61l322 214zM1422 1229l-137 -137q123 -181 123 -433q0 -302 -176.5 -496.5t-463.5 -194.5q-266 0 -439 169l-126 -127l-85 86l133 133q-121 179 -121 430q0 305 175.5 499t462.5 194q263 0 439 -166l129 130zM261 659q0 -191 85 -335l767 768 q-137 131 -345 132q-229 0 -368 -157t-139 -408zM1277 659q0 196 -87 338l-768 -768q138 -133 346 -133q230 0 369.5 157t139.5 406z" glyph-name="Oslashacute" horiz-adv-x="1541" unicode="Ǿ"/><glyph d="M847 1215l-345 -159l-33 62l323 213zM1092 879l-100 -101q92 -126 92 -309q0 -215 -130.5 -355.5t-351.5 -140.5q-183 0 -312 102l-111 -111l-68 70l111 111q-104 131 -104 324q0 220 134 358.5t350 138.5q198 0 325 -116l97 97zM251 469q0 -135 65 -230l520 520 q-94 85 -234 86q-160 0 -255.5 -106t-95.5 -270zM952 469q0 125 -54 215l-517 -517q92 -73 221 -73q159 0 254.5 105.5t95.5 269.5z" glyph-name="oslashacute" horiz-adv-x="1204" unicode="ǿ"/><glyph d="M311 1012q0 -82 58.5 -138.5t145.5 -83.5t190.5 -62t190.5 -71.5t146 -113.5t59 -186q0 -179 -141 -281.5t-346 -102.5q-150 0 -288 57t-218 156l99 87q160 -179 407 -179q155 0 251 64t96 183q0 77 -43.5 132.5t-112.5 86.5t-153.5 56.5t-168.5 53.5t-153 65.5 t-112.5 104t-43.5 160.5q0 169 128 261t324 92q276 0 427 -182l-94 -77q-118 140 -338 140q-142 0 -226 -59t-84 -163zM611 -135q92 0 92 -114q0 -152 -147 -188l-17 60q60 17 82 56h-10q-38 0 -62.5 26.5t-24.5 65.5q0 41 24.5 67.5t62.5 26.5z" glyph-name="Scommaaccent" horiz-adv-x="1216" unicode="Ș"/><glyph d="M473 -27q-121 0 -223 38t-165 102l70 94q123 -123 318 -123q111 0 184 41t73 121q0 70 -62 108.5t-151 57t-178.5 41.5t-151.5 82t-62 156q0 126 100.5 200.5t254.5 74.5q225 0 360 -138l-84 -84q-114 111 -278 111q-102 0 -163.5 -38.5t-61.5 -111.5q0 -72 63 -111 t152.5 -58t179 -41t153 -81t63.5 -158q0 -133 -110 -208t-281 -75zM481 -135q92 0 92 -114q0 -152 -146 -188l-17 60q60 17 82 56h-11q-38 0 -62.5 26.5t-24.5 65.5q0 41 24.5 67.5t62.5 26.5z" glyph-name="scommaaccent" horiz-adv-x="965" unicode="ș"/><glyph d="M68 1319h1072v-126h-471v-1193h-130v1193h-471v126zM606 -135q92 0 92 -114q0 -152 -147 -188l-17 60q60 17 82 56h-10q-38 0 -62.5 26.5t-24.5 65.5q0 41 24.5 67.5t62.5 26.5z" glyph-name="uni021A" horiz-adv-x="1211" unicode="Ț"/><glyph d="M736 24q-147 -68 -258 -48.5t-176.5 108t-65.5 218.5v517h-161v120h161v295h129v-295h323l-5 -120h-318v-522q0 -133 90.5 -183.5t245.5 19.5zM495 -135q92 0 92 -114q0 -152 -147 -188l-17 60q60 17 82 56h-10q-38 0 -62.5 26.5t-24.5 65.5q0 41 24.5 67.5t62.5 26.5z " glyph-name="uni021B" horiz-adv-x="812" unicode="ț"/><glyph d="M1027 1195h-715v-449h523v-123h-523v-498h715v-125h-384l-10 -85q17 -2 41 -7t56.5 -19.5t56.5 -36t37.5 -56.5t4.5 -78q-9 -61 -56.5 -92.5t-106.5 -38.5q-53 -5 -113 8.5t-87 29.5l34 81q24 -14 71 -28t100.5 -6.5t62.5 55.5q5 26 -3.5 45.5t-29 31.5t-41 19.5 t-48.5 11t-41 5t-30 1.5l26 159h-384v1319h844v-124z" glyph-name="uni0228" horiz-adv-x="1157" unicode="Ȩ"/><glyph d="M558 966q222 0 328 -141t83 -410h-730q14 -150 100 -236.5t229 -86.5q90 0 176.5 36t137.5 99l81 -82q-63 -77 -159.5 -121t-206.5 -51l-6 -58q17 -2 40.5 -7t56 -19.5t56.5 -36t37.5 -56.5t5.5 -78q-9 -61 -56.5 -92.5t-107.5 -38.5q-53 -5 -112.5 8.5t-87.5 29.5l34 81 q24 -14 71 -28t101 -6.5t62 55.5q5 26 -3.5 45.5t-29 31.5t-41 19.5t-48.5 11t-41 5t-30 1.5l21 133q-191 17 -301 150.5t-110 346.5q0 239 125 367t325 128zM239 522h609q-2 154 -73.5 241t-214.5 87q-150 0 -235.5 -88t-85.5 -240z" glyph-name="uni0229" horiz-adv-x="1075" unicode="ȩ"/><glyph d="M461 1935v106h597v-106h-597zM583.5 1700q37.5 0 60.5 -25.5t23 -65t-23 -64t-60.5 -24.5t-60.5 24.5t-23 63.5q0 41 23 66t60.5 25zM931.5 1700q37.5 0 60.5 -25.5t23 -65t-23 -64t-60.5 -24.5t-60.5 24.5t-23 63.5q0 41 23 66t60.5 25zM757.5 1352q286.5 0 462.5 -193 t176 -500q0 -304 -176.5 -497.5t-461.5 -193.5q-288 0 -464 192.5t-176 498t176.5 499.5t463 194zM758 1225q-230 0 -369.5 -157t-139.5 -409q0 -249 138.5 -406t370.5 -157q229 0 368 157t139 406q0 251 -139 408.5t-368 157.5z" glyph-name="uni022A" horiz-adv-x="1515" unicode="Ȫ"/><glyph d="M297 1555v106h597v-106h-597zM419.5 1319q37.5 0 60.5 -25.5t23 -64.5t-23 -64t-60.5 -25t-60.5 25t-23 64q0 41 23 65.5t60.5 24.5zM768 1319q38 0 61 -25.5t23 -64.5t-23 -64t-61 -25t-61 25t-23 64q0 41 23 65.5t61 24.5zM591 966q215 0 348.5 -136.5t133.5 -360.5 q0 -215 -131 -355.5t-351 -140.5q-217 0 -350 137t-133 359t133 359.5t350 137.5zM591 845q-162 0 -257 -105t-95 -270.5t94.5 -270.5t257.5 -105q160 0 254.5 105t94.5 270.5t-94.5 270.5t-254.5 105z" glyph-name="uni022B" horiz-adv-x="1181" unicode="ȫ"/><glyph d="M364 939v-975q0 -172 -85.5 -296t-223.5 -194l-55 110l24 13q24 12 58 42t67.5 71t57 106.5t23.5 139.5v983h134z" glyph-name="uni0237" horiz-adv-x="542" unicode="ȷ"/><glyph d="M1524 940v-97h-136v-283q0 -265 -146 -426t-397 -161q-253 0 -398 161t-145 426v281h-136v98h136v380h131v-380l823 1v379h132v-379h136zM1256 567v276l-823 -2v-274q0 -218 113 -346.5t299 -128.5q183 0 297 126.5t114 348.5z" glyph-name="uni0244" horiz-adv-x="1693" unicode="Ʉ"/><glyph d="M628 369q-172 0 -329 80v-94q0 -126 77.5 -190t205.5 -64q155 0 288 87l57 -113q-155 -97 -345 -97q-186 0 -300.5 98t-114.5 284v584h118l12 -108q116 130 331 130q176 0 276.5 -82t100.5 -217q0 -140 -104 -219t-273 -79zM614 848q-155 0 -235 -76t-80 -199v-10 q142 -82 314 -82q123 0 191 47t68 136q0 87 -67.5 135.5t-190.5 48.5z" glyph-name="uni0250" horiz-adv-x="1112" unicode="ɐ"/><glyph d="M901 939h128v-939h-116l-12 82v95q-111 -205 -351 -204q-201 0 -321.5 137t-120.5 359t120 359.5t320 137.5q242 0 353 -205v178zM570 94q150 0 239.5 104t89.5 271.5t-89.5 271.5t-239.5 104q-152 0 -242.5 -104t-90.5 -271.5t90.5 -271.5t242.5 -104z" glyph-name="uni0251" horiz-adv-x="1196" unicode="ɑ"/><glyph d="M969 468q0 -239 -126 -367t-326 -128q-222 0 -327.5 140.5t-83.5 410.5h730q-14 150 -100 236.5t-229 86.5q-90 0 -175.5 -36t-138.5 -99l-80 82q67 82 171.5 127t222.5 45q212 0 337 -135.5t125 -362.5zM836 416h-609q2 -154 73.5 -240.5t216.5 -86.5q148 0 233.5 87.5 t85.5 239.5z" glyph-name="uni0259" horiz-adv-x="1075" unicode="ə"/><glyph d="M1179 621v-97h-133v-524h-109l-22 171v1q-128 -200 -333 -199q-343 0 -343 409v140h-131v98h131v319h133l-2 -319l545 1v318h131v-318h133zM915 370v154l-545 -2v-136q0 -278 231 -278q189 -1 314 262z" glyph-name="uni0289" horiz-adv-x="1286" unicode="ʉ"/><glyph d="M379 1359h90l168 -202l-69 -60l-143 156l-150 -156l-67 60z" glyph-name="circumflex" horiz-adv-x="844" unicode="ˆ"/><glyph d="M379 1085l-171 204l67 58l150 -156l143 156l69 -58l-168 -204h-90z" glyph-name="caron" horiz-adv-x="844" unicode="ˇ"/><glyph d="M594 1319h106q-14 -99 -80.5 -160.5t-172.5 -61.5t-174 60t-82 162h108q12 -51 50 -85t98 -34q115 0 147 119z" glyph-name="breve" horiz-adv-x="892" unicode="˘"/><glyph d="M439 1329q41 0 66.5 -27t25.5 -71q0 -43 -25.5 -71t-66.5 -28q-43 0 -68 27t-25 71.5t25 71.5t68 27z" glyph-name="dotaccent" horiz-adv-x="875" unicode="˙"/><glyph d="M415 1423q79 0 127.5 -52t48.5 -134q0 -79 -49 -134t-127.5 -55t-127 53t-48.5 136q0 85 47 135.5t129 50.5zM415 1335q-41 0 -66 -27.5t-25 -70t25 -71t66 -28.5t65.5 29t24.5 70q0 43 -25.5 70.5t-64.5 27.5z" glyph-name="ring" horiz-adv-x="829" unicode="˚"/><glyph d="M433 14h93q-147 -160 -147 -234q0 -32 17 -53t46 -21q49 0 90 53l59 -58q-75 -90 -159 -90q-79 0 -120.5 41t-40.5 107q0 113 162 255z" glyph-name="ogonek" horiz-adv-x="802" unicode="˛"/><glyph d="M287 1128h-106q0 90 52 145t129 55q61 0 135.5 -51.5t113.5 -51.5q75 0 75 94h106q0 -92 -50.5 -145.5t-127.5 -53.5q-63 0 -136.5 52t-112.5 52q-78 0 -78 -96z" glyph-name="tilde" horiz-adv-x="1032" unicode="˜"/><glyph d="M222 1058l-65 22l68 267l121 -45zM394 1058l-65 22l67 267l121 -45z" glyph-name="hungarumlaut" horiz-adv-x="672" unicode="˝"/><glyph d="M-261 1056l-345 159l55 116l322 -213z" glyph-name="gravecomb" unicode="̀"/><glyph d="M-567 1056l-32 62l323 213l54 -116z" glyph-name="acutecomb" unicode="́"/><glyph d="M-466 1359h91l167 -202l-68 -60l-144 156l-150 -156l-67 60z" glyph-name="uni0302" unicode="̂"/><glyph d="M-746 1128h-106q0 90 52 145t129 55q61 0 135.5 -51.5t113.5 -51.5q75 0 76 94h105q0 -92 -50 -145.5t-127 -53.5q-63 0 -136.5 52t-112.5 52q-79 0 -79 -96z" glyph-name="tildecomb" unicode="̃"/><glyph d="M-763 1174v106h597v-106h-597z" glyph-name="uni0304" unicode="̄"/><glyph d="M-299 1319h106q-14 -99 -80.5 -160.5t-172 -61.5t-174 60t-81.5 162h107q12 -51 50.5 -85t98.5 -34q114 0 146 119z" glyph-name="uni0306" unicode="̆"/><glyph d="M-437 1329q41 0 66.5 -27t25.5 -71q0 -43 -25.5 -71t-66.5 -28q-43 0 -67.5 27t-24.5 71.5t24.5 71.5t67.5 27z" glyph-name="uni0307" unicode="̇"/><glyph d="M-604.5 1319q37.5 0 60.5 -25.5t23 -64.5t-23 -64t-60.5 -25t-60.5 25t-23 64q0 41 23 65.5t60.5 24.5zM-256 1319q38 0 61 -25.5t23 -64.5t-23 -64t-61 -25t-61 25t-23 64q0 41 23 65.5t61 24.5z" glyph-name="uni0308" unicode="̈"/><glyph d="M-309 1051h-90q9 9 31 33t30.5 34t25.5 29.5t24.5 32.5t18 29t13.5 30.5t3 28.5q0 31 -17 51.5t-47 20.5q-46 0 -89 -51l-60 58q67 89 161 88q79 2 119.5 -39t40.5 -107q0 -17 -3.5 -35t-12 -34.5t-14.5 -30t-20.5 -30t-22 -25.5t-25.5 -25.5t-23 -20.5t-24 -20z" glyph-name="hookabovecomb" unicode="̉"/><glyph d="M-415 1423q79 0 127.5 -52t48.5 -134q0 -79 -48.5 -134t-127 -55t-127.5 53t-49 136q0 85 47 135.5t129 50.5zM-415 1335q-41 0 -65.5 -27.5t-24.5 -70t24.5 -71t65.5 -28.5t66 29t25 70q0 43 -26 70.5t-65 27.5z" glyph-name="uni030A" unicode="̊"/><glyph d="M-451 1058l-64 22l68 267l121 -45zM-278 1058l-65 22l67 267l121 -45z" glyph-name="uni030B" unicode="̋"/><glyph d="M-466 1085l-171 204l67 58l150 -156l144 156l68 -58l-167 -204h-91z" glyph-name="uni030C" unicode="̌"/><glyph d="M-246 1224q0 -41 -24.5 -66.5t-65.5 -25.5q-39 0 -64 29t-25 87q0 150 145 184l19 -58q-63 -17 -82 -56h8q39 0 64 -26.5t25 -67.5z" glyph-name="uni0312" unicode="̒"/><glyph d="M-437 -152q41 0 66.5 -28t25.5 -71q0 -44 -24.5 -71.5t-67.5 -27.5t-67.5 27.5t-24.5 71.5t24.5 71.5t67.5 27.5z" glyph-name="dotbelowcomb" unicode="̣"/><glyph d="M-338 -135q92 0 92 -114q0 -152 -147 -188l-17 60q60 17 82 56h-10q-38 0 -62.5 26.5t-24.5 65.5q0 41 24.5 67.5t62.5 26.5z" glyph-name="uni0326" unicode="̦"/><glyph d="M-428 24l75 -12l-12 -97q17 -2 41 -7t56 -19.5t56 -36t38 -56.5t5 -78q-9 -61 -56.5 -92.5t-107.5 -38.5q-53 -5 -112.5 8.5t-86.5 29.5l34 81q24 -14 70.5 -28t100.5 -6.5t62 55.5q5 26 -3 45.5t-28.5 31.5t-41 19.5t-49 11t-41 5t-29.5 1.5z" glyph-name="uni0327" unicode="̧"/><glyph d="M-369 14h93q-147 -160 -147 -234q0 -32 17 -53t46 -21q49 0 90 53l58 -58q-75 -90 -158 -90q-79 0 -120.5 41t-40.5 107q0 113 162 255z" glyph-name="uni0328" unicode="̨"/><glyph d="M-476 -171h92l166 -203l-67 -58l-145 156l-150 -156l-65 58z" glyph-name="uni032D" unicode="̭"/><glyph d="M-763 -276v105h597v-105h-597z" glyph-name="uni0331" unicode="̱"/><glyph d="M855 618q85 -29 140 -109.5t55 -180.5q0 -142 -87 -235t-224 -93h-131v-159h-96v159h-329v1161h329v158h96v-158h85q128 0 207.5 -85.5t79.5 -218.5q0 -90 -42 -158.5t-83 -80.5zM512 1044h-207v-384h207v384zM686 1044h-78v-384h104q72 0 114.5 54t42.5 136 q0 89 -55 141.5t-128 52.5zM305 116h207v428h-207v-428zM720 116q90 0 152 61.5t62 153.5q0 94 -58.5 153.5t-146.5 59.5h-121v-428h112z" glyph-name="uni0E3F" horiz-adv-x="1167" unicode="฿"/><glyph d="M937 701q96 -31 158 -122t62 -205q0 -164 -97 -269t-253 -105h-624v1319h571q145 0 235 -96.5t90 -249.5q0 -104 -48 -181t-94 -91zM749 1195h-437v-449h468q84 0 132.5 63t48.5 159q0 102 -63.5 164.5t-148.5 62.5zM787 125q106 0 176.5 71.5t70.5 178.5 q0 109 -66.5 179.5t-170.5 70.5h-485v-500h475zM638 -152q41 0 66.5 -28t25.5 -71q0 -44 -24.5 -71.5t-67 -27.5t-67.5 27.5t-25 71.5t24.5 71.5t67.5 27.5z" glyph-name="uni1E04" horiz-adv-x="1276" unicode="Ḅ"/><glyph d="M635 966q207 0 324.5 -136.5t117.5 -360.5q0 -220 -116 -358t-324 -138q-234 0 -338 184v-49l-14 -108h-116v1468h130v-683q102 181 336 181zM621 94q157 0 241.5 102.5t84.5 273t-84.5 273t-241.5 102.5q-155 0 -238.5 -102.5t-83.5 -273t83.5 -273t238.5 -102.5z M631 -152q41 0 67 -28t26 -71q0 -44 -25 -71.5t-67.5 -27.5t-67.5 27.5t-25 71.5t24.5 71.5t67.5 27.5z" glyph-name="uni1E05" horiz-adv-x="1184" unicode="ḅ"/><glyph d="M761 1319q259 0 422.5 -185t163.5 -467q0 -283 -163 -475t-423 -192h-578v1319h578zM761 126q201 0 326.5 157t125.5 384t-122.5 376.5t-329.5 149.5h-447v-1067h447zM727 -152q41 0 66.5 -28t25.5 -71q0 -44 -24.5 -71.5t-67.5 -27.5t-67.5 27.5t-24.5 71.5t24.5 71.5 t67.5 27.5z" glyph-name="uni1E0C" horiz-adv-x="1464" unicode="Ḍ"/><glyph d="M886 1468h129v-1468h-116l-13 108v49q-104 -184 -338 -184q-208 0 -324 138t-116 358q0 224 117.5 360.5t324.5 136.5q236 0 336 -183v685zM563 94q155 0 239 102.5t84 273t-83.5 273t-239.5 102.5q-157 0 -241.5 -102.5t-84.5 -273t84.5 -273t241.5 -102.5zM582 -152 q41 0 66.5 -28t25.5 -71q0 -44 -24.5 -71.5t-67.5 -27.5t-67.5 27.5t-24.5 71.5t24.5 71.5t67.5 27.5z" glyph-name="uni1E0D" horiz-adv-x="1184" unicode="ḍ"/><glyph d="M761 1319q259 0 422.5 -185t163.5 -467q0 -283 -163 -475t-423 -192h-578v1319h578zM761 126q201 0 326.5 157t125.5 384t-122.5 376.5t-329.5 149.5h-447v-1067h447zM428 -276v105h598v-105h-598z" glyph-name="uni1E0E" horiz-adv-x="1464" unicode="Ḏ"/><glyph d="M886 1468h129v-1468h-116l-13 108v49q-104 -184 -338 -184q-208 0 -324 138t-116 358q0 224 117.5 360.5t324.5 136.5q236 0 336 -183v685zM563 94q155 0 239 102.5t84 273t-83.5 273t-239.5 102.5q-157 0 -241.5 -102.5t-84.5 -273t84.5 -273t241.5 -102.5zM283 -276 v105h598v-105h-598z" glyph-name="uni1E0F" horiz-adv-x="1184" unicode="ḏ"/><glyph d="M761 1319q259 0 422.5 -185t163.5 -467q0 -283 -163 -475t-423 -192h-578v1319h578zM761 126q201 0 326.5 157t125.5 384t-122.5 376.5t-329.5 149.5h-447v-1067h447zM681 -171h92l166 -203l-67 -58l-145 156l-150 -156l-65 58z" glyph-name="uni1E12" horiz-adv-x="1464" unicode="Ḓ"/><glyph d="M886 1468h129v-1468h-116l-13 108v49q-104 -184 -338 -184q-208 0 -324 138t-116 358q0 224 117.5 360.5t324.5 136.5q236 0 336 -183v685zM563 94q155 0 239 102.5t84 273t-83.5 273t-239.5 102.5q-157 0 -241.5 -102.5t-84.5 -273t84.5 -273t241.5 -102.5zM536 -171h92 l166 -203l-67 -58l-145 156l-150 -156l-65 58z" glyph-name="uni1E13" horiz-adv-x="1184" unicode="ḓ"/><glyph d="M1138 1319h132v-1319h-132v596h-824v-596h-131v1319h131v-595h824v595zM753 -152q41 0 66.5 -28t25.5 -71q0 -44 -25 -71.5t-67.5 -27.5t-67.5 27.5t-25 71.5t25 71.5t68 27.5z" glyph-name="uni1E24" horiz-adv-x="1454" unicode="Ḥ"/><glyph d="M633 966q343 0 343 -410v-556h-133l2 560q0 278 -231 278q-189 0 -314 -263v-575h-131v1449h131v-693q123 210 333 210zM592 -152q41 0 66.5 -28t25.5 -71q0 -44 -24.5 -71.5t-67 -27.5t-67.5 27.5t-25 71.5t24.5 71.5t67.5 27.5z" glyph-name="uni1E25" horiz-adv-x="1133" unicode="ḥ"/><glyph d="M147 1818l-33 61l323 213l55 -116zM73.5 1700q37.5 0 60.5 -25.5t23 -65t-23 -64t-60.5 -24.5t-60.5 24.5t-23 63.5q0 41 23 66t60.5 25zM421.5 1700q37.5 0 60.5 -25.5t23 -65t-23 -64t-60.5 -24.5t-60.5 24.5t-23 63.5q0 41 23 66t60.5 25zM314 0h-131v1319h131v-1319z " glyph-name="uni1E2E" horiz-adv-x="494" unicode="Ḯ"/><glyph d="M126 1437l-32 61l322 214l55 -116zM52.5 1319q37.5 0 61 -25.5t23.5 -64.5t-23.5 -64t-61 -25t-60.5 25t-23 64q0 41 23 65.5t60.5 24.5zM401.5 1319q37.5 0 60.5 -25.5t23 -64.5t-23 -64t-60.5 -25t-61 25t-23.5 64q0 41 23.5 65.5t61 24.5zM290 0h-130v939h130v-939z " glyph-name="uni1E2F" horiz-adv-x="450" unicode="ḯ"/><glyph d="M314 126h713v-126h-844v1319h131v-1193zM626 -152q41 0 67 -28t26 -71q0 -44 -25 -71.5t-67.5 -27.5t-67.5 27.5t-25 71.5t24.5 71.5t67.5 27.5z" glyph-name="uni1E36" horiz-adv-x="1107" unicode="Ḷ"/><glyph d="M449 116l22 -109q-155 -55 -229.5 -3.5t-75.5 170.5v1251h131v-1234q0 -63 34 -80t118 5zM326 -152q41 0 66.5 -28t25.5 -71q0 -44 -24.5 -71.5t-67.5 -27.5t-67.5 27.5t-24.5 71.5t24.5 71.5t67.5 27.5z" glyph-name="uni1E37" horiz-adv-x="564" unicode="ḷ"/><glyph d="M314 126h713v-126h-844v1319h131v-1193zM580 -171h92l166 -203l-67 -58l-145 156l-150 -156l-65 58z" glyph-name="uni1E3C" horiz-adv-x="1107" unicode="Ḽ"/><glyph d="M449 116l22 -109q-155 -55 -229.5 -3.5t-75.5 170.5v1251h131v-1234q0 -63 34 -80t118 5zM280 -171h92l166 -203l-67 -58l-145 156l-150 -156l-65 58z" glyph-name="uni1E3D" horiz-adv-x="564" unicode="ḽ"/><glyph d="M1073 1596l-344 -159l-33 61l323 214zM1534 0h-129l-76 1097l-450 -1097h-92l-451 1087l-73 -1087h-132l86 1318h158l458 -1122l459 1122h157z" glyph-name="uni1E3E" horiz-adv-x="1665" unicode="Ḿ"/><glyph d="M1125 1215l-345 -159l-32 62l322 213zM1277 966q340 0 339 -410v-556h-129v563q0 143 -56.5 211.5t-172.5 68.5q-181 0 -302 -251v-36v-556h-130v563q0 280 -229 280q-181 0 -305 -254v-589h-132v939h110l22 -171v-7q126 205 324 205q256 0 319 -234q129 234 342 234z " glyph-name="uni1E3F" horiz-adv-x="1769" unicode="ḿ"/><glyph d="M758 1512q-43 0 -67.5 27.5t-24.5 71.5t24.5 71.5t67.5 27.5q41 0 66.5 -27.5t25.5 -71.5q0 -43 -25.5 -71t-66.5 -28zM1224 1319h129v-1319h-119l-922 1099v-1099h-129v1319h121l920 -1097v1097z" glyph-name="uni1E44" horiz-adv-x="1537" unicode="Ṅ"/><glyph d="M551 1132q-43 0 -67.5 27t-24.5 71.5t25 71.5t67 27q41 0 66.5 -27t25.5 -71q0 -43 -25.5 -71t-66.5 -28zM625 966q343 0 343 -410v-556h-132v560q0 278 -230 278q-189 0 -314 -263v-575h-132v939h110l22 -171v-7q128 205 333 205z" glyph-name="uni1E45" horiz-adv-x="1124" unicode="ṅ"/><glyph d="M1224 1319h129v-1319h-119l-922 1099v-1099h-129v1319h121l920 -1097v1097zM788 -152q41 0 67 -28t26 -71q0 -44 -25 -71.5t-67.5 -27.5t-67.5 27.5t-25 71.5t24.5 71.5t67.5 27.5z" glyph-name="uni1E46" horiz-adv-x="1537" unicode="Ṇ"/><glyph d="M625 966q343 0 343 -410v-556h-132v560q0 278 -230 278q-189 0 -314 -263v-575h-132v939h110l22 -171v-7q128 205 333 205zM585 -152q41 0 67 -28t26 -71q0 -44 -25 -71.5t-67.5 -27.5t-67.5 27.5t-25 71.5t24.5 71.5t67.5 27.5z" glyph-name="uni1E47" horiz-adv-x="1124" unicode="ṇ"/><glyph d="M1224 1319h129v-1319h-119l-922 1099v-1099h-129v1319h121l920 -1097v1097zM742 -171h93l165 -203l-66 -58l-146 156l-150 -156l-65 58z" glyph-name="uni1E4A" horiz-adv-x="1537" unicode="Ṋ"/><glyph d="M625 966q343 0 343 -410v-556h-132v560q0 278 -230 278q-189 0 -314 -263v-575h-132v939h110l22 -171v-7q128 205 333 205zM539 -171h92l166 -203l-67 -58l-145 156l-150 -156l-65 58z" glyph-name="uni1E4B" horiz-adv-x="1124" unicode="ṋ"/><glyph d="M672 1818l-32 61l323 213l54 -116zM561 1509h-105q0 90 52 144.5t129 54.5q61 0 135.5 -51t113.5 -51q75 0 75 94h106q0 -92 -50.5 -146t-127.5 -54q-63 0 -136.5 52t-112.5 52q-79 1 -79 -95zM757.5 1352q286.5 0 462.5 -193t176 -500q0 -304 -176.5 -497.5 t-461.5 -193.5q-288 0 -464 192.5t-176 498t176.5 499.5t463 194zM758 1225q-230 0 -369.5 -157t-139.5 -409q0 -249 138.5 -406t370.5 -157q229 0 368 157t139 406q0 251 -139 408.5t-368 157.5z" glyph-name="uni1E4C" horiz-adv-x="1515" unicode="Ṍ"/><glyph d="M509 1437l-33 61l323 214l54 -116zM398 1128h-106q0 90 52 145t129 55q61 0 135.5 -51.5t113.5 -51.5q75 0 75 94h106q0 -92 -50.5 -145.5t-127.5 -53.5q-63 0 -136.5 52t-112.5 52q-78 0 -78 -96zM591 966q215 0 348.5 -136.5t133.5 -360.5q0 -215 -131 -355.5 t-351 -140.5q-217 0 -350 137t-133 359t133 359.5t350 137.5zM591 845q-162 0 -257 -105t-95 -270.5t94.5 -270.5t257.5 -105q160 0 254.5 105t94.5 270.5t-94.5 270.5t-254.5 105z" glyph-name="uni1E4D" horiz-adv-x="1181" unicode="ṍ"/><glyph d="M848 1818l-345 158l55 116l323 -213zM461 1555v106h597v-106h-597zM757.5 1352q286.5 0 462.5 -193t176 -500q0 -304 -176.5 -497.5t-461.5 -193.5q-288 0 -464 192.5t-176 498t176.5 499.5t463 194zM758 1225q-230 0 -369.5 -157t-139.5 -409q0 -249 138.5 -406 t370.5 -157q229 0 368 157t139 406q0 251 -139 408.5t-368 157.5z" glyph-name="uni1E50" horiz-adv-x="1515" unicode="Ṑ"/><glyph d="M684 1437l-344 159l54 116l323 -214zM297 1174v106h597v-106h-597zM591 966q215 0 348.5 -136.5t133.5 -360.5q0 -215 -131 -355.5t-351 -140.5q-217 0 -350 137t-133 359t133 359.5t350 137.5zM591 845q-162 0 -257 -105t-95 -270.5t94.5 -270.5t257.5 -105 q160 0 254.5 105t94.5 270.5t-94.5 270.5t-254.5 105z" glyph-name="uni1E51" horiz-adv-x="1181" unicode="ṑ"/><glyph d="M655 1818l-32 61l322 213l55 -116zM461 1555v106h597v-106h-597zM757.5 1352q286.5 0 462.5 -193t176 -500q0 -304 -176.5 -497.5t-461.5 -193.5q-288 0 -464 192.5t-176 498t176.5 499.5t463 194zM758 1225q-230 0 -369.5 -157t-139.5 -409q0 -249 138.5 -406 t370.5 -157q229 0 368 157t139 406q0 251 -139 408.5t-368 157.5z" glyph-name="uni1E52" horiz-adv-x="1515" unicode="Ṓ"/><glyph d="M492 1437l-33 61l323 214l54 -116zM297 1174v106h597v-106h-597zM591 966q215 0 348.5 -136.5t133.5 -360.5q0 -215 -131 -355.5t-351 -140.5q-217 0 -350 137t-133 359t133 359.5t350 137.5zM591 845q-162 0 -257 -105t-95 -270.5t94.5 -270.5t257.5 -105 q160 0 254.5 105t94.5 270.5t-94.5 270.5t-254.5 105z" glyph-name="uni1E53" horiz-adv-x="1181" unicode="ṓ"/><glyph d="M108 186l99 87q160 -179 407 -179q155 0 251 64t96 183q0 77 -43.5 132.5t-112.5 86.5t-153.5 56.5t-168.5 53.5t-153 65.5t-112.5 104t-43.5 160.5q0 169 128 261t324 92q276 0 427 -182l-94 -77q-118 140 -338 140q-142 0 -226 -59t-84 -163q0 -82 58.5 -138.5 t145.5 -83.5t190.5 -62t190.5 -71.5t146 -113.5t59 -186q0 -179 -141 -281.5t-346 -102.5q-150 0 -288 57t-218 156zM611 -152q41 0 66.5 -28t25.5 -71q0 -44 -24.5 -71.5t-67.5 -27.5t-67.5 27.5t-24.5 71.5t24.5 71.5t67.5 27.5z" glyph-name="uni1E62" horiz-adv-x="1216" unicode="Ṣ"/><glyph d="M473 -27q-121 0 -223 38t-165 102l70 94q123 -123 318 -123q111 0 184 41t73 121q0 70 -62 108.5t-151 57t-178.5 41.5t-151.5 82t-62 156q0 126 100.5 200.5t254.5 74.5q225 0 360 -138l-84 -84q-114 111 -278 111q-102 0 -163.5 -38.5t-61.5 -111.5q0 -72 63 -111 t152.5 -58t179 -41t153 -81t63.5 -158q0 -133 -110 -208t-281 -75zM481 -152q41 0 66.5 -28t25.5 -71q0 -44 -24.5 -71.5t-67 -27.5t-67.5 27.5t-25 71.5t24.5 71.5t67.5 27.5z" glyph-name="uni1E63" horiz-adv-x="965" unicode="ṣ"/><glyph d="M68 1319h1072v-126h-471v-1193h-130v1193h-471v126zM606 -152q41 0 66.5 -28t25.5 -71q0 -44 -24.5 -71.5t-67.5 -27.5t-67.5 27.5t-24.5 71.5t24.5 71.5t67.5 27.5z" glyph-name="uni1E6C" horiz-adv-x="1211" unicode="Ṭ"/><glyph d="M736 24q-147 -68 -258 -48.5t-176.5 108t-65.5 218.5v517h-161v120h161v295h129v-295h323l-5 -120h-318v-522q0 -133 90.5 -183.5t245.5 19.5zM495 -152q41 0 66.5 -28t25.5 -71q0 -44 -24.5 -71.5t-67.5 -27.5t-67.5 27.5t-24.5 71.5t24.5 71.5t67.5 27.5z" glyph-name="uni1E6D" horiz-adv-x="812" unicode="ṭ"/><glyph d="M68 1319h1072v-126h-471v-1193h-130v1193h-471v126zM307 -276v105h598v-105h-598z" glyph-name="uni1E6E" horiz-adv-x="1211" unicode="Ṯ"/><glyph d="M236 302v517h-161v120h161v295h129v-295h323l-5 -120h-318v-522q0 -133 90.5 -183.5t245.5 19.5l35 -109q-147 -68 -258 -48.5t-176.5 108t-65.5 218.5zM196 -171h598v-105h-598v105z" glyph-name="uni1E6F" horiz-adv-x="812" unicode="ṯ"/><glyph d="M68 1319h1072v-126h-471v-1193h-130v1193h-471v126zM560 -171h92l165 -203l-66 -58l-145 156l-150 -156l-65 58z" glyph-name="uni1E70" horiz-adv-x="1211" unicode="Ṱ"/><glyph d="M736 24q-147 -68 -258 -48.5t-176.5 108t-65.5 218.5v517h-161v120h161v295h129v-295h323l-5 -120h-318v-522q0 -133 90.5 -183.5t245.5 19.5zM449 -171h92l166 -203l-67 -58l-145 156l-150 -156l-65 58z" glyph-name="uni1E71" horiz-adv-x="812" unicode="ṱ"/><glyph d="M963 1498l-33 -61l-345 159l55 116zM1468 1319h140l-311 -1319h-135l-324 1055l-335 -1055h-131l-305 1319h134l244 -1097l338 1041h113l326 -1043z" glyph-name="Wgrave" horiz-adv-x="1675" unicode="Ẁ"/><glyph d="M841 1118l-32 -62l-345 159l55 116zM1229 939h136l-298 -939h-132l-218 710l-219 -710h-133l-298 939h131l230 -755l226 693h124l224 -689z" glyph-name="wgrave" horiz-adv-x="1431" unicode="ẁ"/><glyph d="M1082 1596l-345 -159l-32 61l322 214zM1468 1319h140l-311 -1319h-135l-324 1055l-335 -1055h-131l-305 1319h134l244 -1097l338 1041h113l326 -1043z" glyph-name="Wacute" horiz-adv-x="1675" unicode="Ẃ"/><glyph d="M961 1215l-345 -159l-32 62l322 213zM1229 939h136l-298 -939h-132l-218 710l-219 -710h-133l-298 939h131l230 -755l226 693h124l224 -689z" glyph-name="wacute" horiz-adv-x="1431" unicode="ẃ"/><glyph d="M663.5 1521q-37.5 0 -60.5 24.5t-23 63.5q0 41 23 66t60.5 25t61 -25.5t23.5 -65t-23.5 -64t-61 -24.5zM1012.5 1521q-37.5 0 -61 24.5t-23.5 63.5q0 41 23.5 66t61 25t60.5 -25.5t23 -65t-23 -64t-60.5 -24.5zM1468 1319h140l-311 -1319h-135l-324 1055l-335 -1055h-131 l-305 1319h134l244 -1097l338 1041h113l326 -1043z" glyph-name="Wdieresis" horiz-adv-x="1675" unicode="Ẅ"/><glyph d="M542.5 1140q-37.5 0 -60.5 25t-23 64q0 41 23 65.5t60.5 24.5t60.5 -25.5t23 -64.5t-23 -64t-60.5 -25zM890.5 1140q-37.5 0 -60.5 25t-23 64q0 41 23 65.5t60.5 24.5t61 -25.5t23.5 -64.5t-23.5 -64t-61 -25zM1229 939h136l-298 -939h-132l-218 710l-219 -710h-133 l-298 939h131l230 -755l226 693h124l224 -689z" glyph-name="wdieresis" horiz-adv-x="1431" unicode="ẅ"/><glyph d="M1191 1318v-62l-877 -1131l877 3v-128h-1082v67l871 1126l-871 -3v128h1082zM669 -152q41 0 66.5 -28t25.5 -71q0 -44 -24.5 -71.5t-67.5 -27.5t-67.5 27.5t-24.5 71.5t24.5 71.5t67.5 27.5z" glyph-name="uni1E92" horiz-adv-x="1291" unicode="Ẓ"/><glyph d="M872 939v-128l-635 -688l635 5v-128h-785v128h2l619 688l-621 -5v128h785zM439 -152q41 0 66.5 -28t25.5 -71q0 -44 -25 -71.5t-67.5 -27.5t-67.5 27.5t-25 71.5t25 71.5t68 27.5z" glyph-name="uni1E93" horiz-adv-x="1024" unicode="ẓ"/><glyph d="M730 785q189 0 287.5 -104t98.5 -292q0 -389 -409 -389h-246v119h242q148 0 214 67t66 200t-63 206.5t-191 73.5q-61 0 -149 -31l-59 102l366 456h-291q-137 2 -209.5 -71.5t-72.5 -210.5v-911h-131v910q0 198 105 303.5t304 105.5h456v-126l-345 -408h27z" glyph-name="uni1E9E" horiz-adv-x="1235" unicode="ẞ"/><glyph d="M1300 0h-138l-147 355h-674l-145 -355h-138l548 1319h145zM394 483h570l-286 695zM696 -152q41 0 66.5 -28t25.5 -71q0 -44 -24.5 -71.5t-67 -27.5t-67.5 27.5t-25 71.5t24.5 71.5t67.5 27.5z" glyph-name="uni1EA0" horiz-adv-x="1356" unicode="Ạ"/><glyph d="M901 939h128v-939h-116l-12 82v95q-111 -205 -351 -204q-201 0 -321.5 137t-120.5 359t120 359.5t320 137.5q242 0 353 -205v178zM570 94q150 0 239.5 104t89.5 271.5t-89.5 271.5t-239.5 104q-152 0 -242.5 -104t-90.5 -271.5t90.5 -271.5t242.5 -104zM589 -152 q41 0 66.5 -28t25.5 -71q0 -44 -25 -71.5t-67.5 -27.5t-67 27.5t-24.5 71.5t24.5 71.5t67.5 27.5z" glyph-name="uni1EA1" horiz-adv-x="1196" unicode="ạ"/><glyph d="M717 1720q-46 0 -89 -51l-60 58q67 89 161 89q79 2 119.5 -39t40.5 -108q0 -17 -3.5 -35t-12 -34t-14.5 -30t-20.5 -30t-22 -25.5t-25.5 -25.5t-23 -20.5t-24 -21.5l-19 -15h-90q9 9 31 32.5t30.5 34t25.5 30t24.5 32.5t18 29t14 30.5t3.5 28.5q0 31 -17 51t-48 20z M1162 0l-147 355h-674l-145 -355h-138l548 1319h145l549 -1319h-138zM394 483h570l-286 695z" glyph-name="uni1EA2" horiz-adv-x="1356" unicode="Ả"/><glyph d="M606 1340q-46 0 -89 -51l-60 58q67 89 161 88q79 2 119.5 -39t40.5 -107q0 -17 -3.5 -35t-12 -34.5t-14.5 -30t-20.5 -30t-22 -25.5t-25.5 -25.5t-23 -20.5t-24 -20l-19 -17h-90q9 9 31 33t30.5 34t25.5 29.5t24.5 32.5t18 29t14 30.5t3.5 28.5q0 31 -17 51.5t-48 20.5z M901 939h128v-939h-116l-12 82v95q-111 -205 -351 -204q-201 0 -321.5 137t-120.5 359t120 359.5t320 137.5q242 0 353 -205v178zM570 94q150 0 239.5 104t89.5 271.5t-89.5 271.5t-239.5 104q-152 0 -242.5 -104t-90.5 -271.5t90.5 -271.5t242.5 -104z" glyph-name="uni1EA3" horiz-adv-x="1196" unicode="ả"/><glyph d="M922 1976l-345 -158l-33 61l323 213zM678 1633l-151 -155l-66 60l170 201h91l167 -201l-68 -60zM1162 0l-147 355h-674l-145 -355h-138l548 1319h145l549 -1319h-138zM394 483h570l-286 695z" glyph-name="uni1EA4" horiz-adv-x="1356" unicode="Ấ"/><glyph d="M811 1596l-345 -159l-33 61l323 214zM567 1253l-151 -156l-66 60l171 202h90l167 -202l-68 -60zM901 939h128v-939h-116l-12 82v95q-111 -205 -351 -204q-201 0 -321.5 137t-120.5 359t120 359.5t320 137.5q242 0 353 -205v178zM570 94q150 0 239.5 104t89.5 271.5 t-89.5 271.5t-239.5 104q-152 0 -242.5 -104t-90.5 -271.5t90.5 -271.5t242.5 -104z" glyph-name="uni1EA5" horiz-adv-x="1196" unicode="ấ"/><glyph d="M802 1879l-32 -61l-345 158l55 116zM631 1739h91l167 -201l-68 -60l-143 155l-151 -155l-66 60zM1162 0l-147 355h-674l-145 -355h-138l548 1319h145l549 -1319h-138zM394 483h570l-286 695z" glyph-name="uni1EA6" horiz-adv-x="1356" unicode="Ầ"/><glyph d="M691 1498l-32 -61l-345 159l55 116zM521 1359h90l167 -202l-68 -60l-143 156l-151 -156l-66 60zM901 939h128v-939h-116l-12 82v95q-111 -205 -351 -204q-201 0 -321.5 137t-120.5 359t120 359.5t320 137.5q242 0 353 -205v178zM570 94q150 0 239.5 104t89.5 271.5 t-89.5 271.5t-239.5 104q-152 0 -242.5 -104t-90.5 -271.5t90.5 -271.5t242.5 -104z" glyph-name="uni1EA7" horiz-adv-x="1196" unicode="ầ"/><glyph d="M717 2101q-46 0 -89 -51l-60 58q67 89 161 88q79 2 119.5 -39t40.5 -107q0 -17 -3.5 -35t-12 -34.5t-14.5 -30t-20.5 -29.5t-22 -25.5t-25.5 -26t-23 -20.5t-24 -19l-19 -18h-90q9 9 31 33t30.5 34l25.5 30t24.5 32.5t18 29t14 31t3.5 27.5q0 31 -17 51.5t-48 20.5z M678 1633l-151 -155l-66 60l170 201h91l167 -201l-68 -60zM1162 0l-147 355h-674l-145 -355h-138l548 1319h145l549 -1319h-138zM394 483h570l-286 695z" glyph-name="uni1EA8" horiz-adv-x="1356" unicode="Ẩ"/><glyph d="M606 1720q-46 0 -89 -51l-60 58q67 89 161 89q79 2 119.5 -39t40.5 -108q0 -17 -3.5 -35t-12 -34t-14.5 -30t-20.5 -30t-22 -25.5t-25.5 -25.5t-23 -20.5t-24 -21.5l-19 -15h-90q9 9 31 32.5t30.5 34t25.5 30t24.5 32.5t18 29t14 30.5t3.5 28.5q0 31 -17 51t-48 20z M567 1253l-151 -156l-66 60l171 202h90l167 -202l-68 -60zM901 939h128v-939h-116l-12 82v95q-111 -205 -351 -204q-201 0 -321.5 137t-120.5 359t120 359.5t320 137.5q242 0 353 -205v178zM570 94q150 0 239.5 104t89.5 271.5t-89.5 271.5t-239.5 104q-152 0 -242.5 -104 t-90.5 -271.5t90.5 -271.5t242.5 -104z" glyph-name="uni1EA9" horiz-adv-x="1196" unicode="ẩ"/><glyph d="M560 1985q-79 0 -79 -96h-106q0 90 52.5 145t128.5 55q61 0 135.5 -51t114.5 -51q75 0 75 93h105q0 -92 -50 -145.5t-127 -53.5q-63 0 -136.5 52t-112.5 52zM631 1739h91l167 -201l-68 -60l-143 155l-151 -155l-66 60zM1162 0l-147 355h-674l-145 -355h-138l548 1319h145 l549 -1319h-138zM394 483h570l-286 695z" glyph-name="uni1EAA" horiz-adv-x="1356" unicode="Ẫ"/><glyph d="M449 1604q-79 0 -79 -95h-105q0 90 52 144.5t128 54.5q61 0 135.5 -51t114.5 -51q75 0 75 94h106q0 -92 -50.5 -146t-127.5 -54q-63 0 -136.5 52t-112.5 52zM521 1359h90l167 -202l-68 -60l-143 156l-151 -156l-66 60zM901 939h128v-939h-116l-12 82v95 q-111 -205 -351 -204q-201 0 -321.5 137t-120.5 359t120 359.5t320 137.5q242 0 353 -205v178zM570 94q150 0 239.5 104t89.5 271.5t-89.5 271.5t-239.5 104q-152 0 -242.5 -104t-90.5 -271.5t90.5 -271.5t242.5 -104z" glyph-name="uni1EAB" horiz-adv-x="1196" unicode="ẫ"/><glyph d="M678 1633l-151 -155l-66 60l170 201h91l167 -201l-68 -60zM1300 0h-138l-147 355h-674l-145 -355h-138l548 1319h145zM394 483h570l-286 695zM696 -152q41 0 66.5 -28t25.5 -71q0 -44 -24.5 -71.5t-67 -27.5t-67.5 27.5t-25 71.5t24.5 71.5t67.5 27.5z" glyph-name="uni1EAC" horiz-adv-x="1356" unicode="Ậ"/><glyph d="M567 1253l-151 -156l-66 60l171 202h90l167 -202l-68 -60zM901 939h128v-939h-116l-12 82v95q-111 -205 -351 -204q-201 0 -321.5 137t-120.5 359t120 359.5t320 137.5q242 0 353 -205v178zM570 94q150 0 239.5 104t89.5 271.5t-89.5 271.5t-239.5 104 q-152 0 -242.5 -104t-90.5 -271.5t90.5 -271.5t242.5 -104zM589 -152q41 0 66.5 -28t25.5 -71q0 -44 -25 -71.5t-67.5 -27.5t-67 27.5t-24.5 71.5t24.5 71.5t67.5 27.5z" glyph-name="uni1EAD" horiz-adv-x="1196" unicode="ậ"/><glyph d="M922 1976l-345 -158l-33 61l323 213zM677.5 1478q-105.5 0 -174 59.5t-81.5 162.5h107q12 -51 50.5 -85.5t98.5 -34.5q114 0 146 120h106q-14 -99 -80.5 -160.5t-172 -61.5zM1162 0l-147 355h-674l-145 -355h-138l548 1319h145l549 -1319h-138zM394 483h570l-286 695z " glyph-name="uni1EAE" horiz-adv-x="1356" unicode="Ắ"/><glyph d="M811 1596l-345 -159l-33 61l323 214zM566.5 1097q-105.5 0 -174 60t-81.5 162h107q12 -51 50.5 -85t98.5 -34q114 0 146 119h106q-14 -99 -80.5 -160.5t-172 -61.5zM901 939h128v-939h-116l-12 82v95q-111 -205 -351 -204q-201 0 -321.5 137t-120.5 359t120 359.5 t320 137.5q242 0 353 -205v178zM570 94q150 0 239.5 104t89.5 271.5t-89.5 271.5t-239.5 104q-152 0 -242.5 -104t-90.5 -271.5t90.5 -271.5t242.5 -104z" glyph-name="uni1EAF" horiz-adv-x="1196" unicode="ắ"/><glyph d="M802 1879l-32 -61l-345 158l55 116zM677.5 1478q-105.5 0 -174 59.5t-81.5 162.5h107q12 -51 50.5 -85.5t98.5 -34.5q114 0 146 120h106q-14 -99 -80.5 -160.5t-172 -61.5zM1162 0l-147 355h-674l-145 -355h-138l548 1319h145l549 -1319h-138zM394 483h570l-286 695z" glyph-name="uni1EB0" horiz-adv-x="1356" unicode="Ằ"/><glyph d="M691 1498l-32 -61l-345 159l55 116zM566.5 1097q-105.5 0 -174 60t-81.5 162h107q12 -51 50.5 -85t98.5 -34q114 0 146 119h106q-14 -99 -80.5 -160.5t-172 -61.5zM901 939h128v-939h-116l-12 82v95q-111 -205 -351 -204q-201 0 -321.5 137t-120.5 359t120 359.5 t320 137.5q242 0 353 -205v178zM570 94q150 0 239.5 104t89.5 271.5t-89.5 271.5t-239.5 104q-152 0 -242.5 -104t-90.5 -271.5t90.5 -271.5t242.5 -104z" glyph-name="uni1EB1" horiz-adv-x="1196" unicode="ằ"/><glyph d="M717 2101q-46 0 -89 -51l-60 58q67 89 161 88q79 2 119.5 -39t40.5 -107q0 -17 -3.5 -35t-12 -34.5t-14.5 -30t-20.5 -29.5t-22 -25.5t-25.5 -26t-23 -20.5t-24 -19l-19 -18h-90q9 9 31 33t30.5 34l25.5 30t24.5 32.5t18 29t14 31t3.5 27.5q0 31 -17 51.5t-48 20.5z M677.5 1478q-105.5 0 -174 59.5t-81.5 162.5h107q12 -51 50.5 -85.5t98.5 -34.5q114 0 146 120h106q-14 -99 -80.5 -160.5t-172 -61.5zM1162 0l-147 355h-674l-145 -355h-138l548 1319h145l549 -1319h-138zM394 483h570l-286 695z" glyph-name="uni1EB2" horiz-adv-x="1356" unicode="Ẳ"/><glyph d="M606 1720q-46 0 -89 -51l-60 58q67 89 161 89q79 2 119.5 -39t40.5 -108q0 -17 -3.5 -35t-12 -34t-14.5 -30t-20.5 -30t-22 -25.5t-25.5 -25.5t-23 -20.5t-24 -21.5l-19 -15h-90q9 9 31 32.5t30.5 34t25.5 30t24.5 32.5t18 29t14 30.5t3.5 28.5q0 31 -17 51t-48 20z M566.5 1097q-105.5 0 -174 60t-81.5 162h107q12 -51 50.5 -85t98.5 -34q114 0 146 119h106q-14 -99 -80.5 -160.5t-172 -61.5zM901 939h128v-939h-116l-12 82v95q-111 -205 -351 -204q-201 0 -321.5 137t-120.5 359t120 359.5t320 137.5q242 0 353 -205v178zM570 94 q150 0 239.5 104t89.5 271.5t-89.5 271.5t-239.5 104q-152 0 -242.5 -104t-90.5 -271.5t90.5 -271.5t242.5 -104z" glyph-name="uni1EB3" horiz-adv-x="1196" unicode="ẳ"/><glyph d="M560 1985q-79 0 -79 -96h-106q0 90 52.5 145t128.5 55q61 0 135.5 -51t114.5 -51q75 0 75 93h105q0 -92 -50 -145.5t-127 -53.5q-63 0 -136.5 52t-112.5 52zM678 1580q114 0 146 120h106q-14 -99 -80.5 -160.5t-172 -61.5t-174 59.5t-81.5 162.5h107q12 -51 50.5 -85.5 t98.5 -34.5zM1162 0l-147 355h-674l-145 -355h-138l548 1319h145l549 -1319h-138zM394 483h570l-286 695z" glyph-name="uni1EB4" horiz-adv-x="1356" unicode="Ẵ"/><glyph d="M449 1604q-79 0 -79 -95h-105q0 90 52 144.5t128 54.5q61 0 135.5 -51t114.5 -51q75 0 75 94h106q0 -92 -50.5 -146t-127.5 -54q-63 0 -136.5 52t-112.5 52zM567 1200q114 0 146 119h106q-14 -99 -80.5 -160.5t-172 -61.5t-174 60t-81.5 162h107q12 -51 50.5 -85 t98.5 -34zM901 939h128v-939h-116l-12 82v95q-111 -205 -351 -204q-201 0 -321.5 137t-120.5 359t120 359.5t320 137.5q242 0 353 -205v178zM570 94q150 0 239.5 104t89.5 271.5t-89.5 271.5t-239.5 104q-152 0 -242.5 -104t-90.5 -271.5t90.5 -271.5t242.5 -104z" glyph-name="uni1EB5" horiz-adv-x="1196" unicode="ẵ"/><glyph d="M677.5 1478q-105.5 0 -174 59.5t-81.5 162.5h107q12 -51 50.5 -85.5t98.5 -34.5q114 0 146 120h106q-14 -99 -80.5 -160.5t-172 -61.5zM1300 0h-138l-147 355h-674l-145 -355h-138l548 1319h145zM394 483h570l-286 695zM696 -152q41 0 66.5 -28t25.5 -71 q0 -44 -24.5 -71.5t-67 -27.5t-67.5 27.5t-25 71.5t24.5 71.5t67.5 27.5z" glyph-name="uni1EB6" horiz-adv-x="1356" unicode="Ặ"/><glyph d="M566.5 1097q-105.5 0 -174 60t-81.5 162h107q12 -51 50.5 -85t98.5 -34q114 0 146 119h106q-14 -99 -80.5 -160.5t-172 -61.5zM901 939h128v-939h-116l-12 82v95q-111 -205 -351 -204q-201 0 -321.5 137t-120.5 359t120 359.5t320 137.5q242 0 353 -205v178zM570 94 q150 0 239.5 104t89.5 271.5t-89.5 271.5t-239.5 104q-152 0 -242.5 -104t-90.5 -271.5t90.5 -271.5t242.5 -104zM589 -152q41 0 66.5 -28t25.5 -71q0 -44 -25 -71.5t-67.5 -27.5t-67 27.5t-24.5 71.5t24.5 71.5t67.5 27.5z" glyph-name="uni1EB7" horiz-adv-x="1196" unicode="ặ"/><glyph d="M1027 1195h-715v-449h523v-123h-523v-498h715v-125h-844v1319h844v-124zM606 -152q41 0 66.5 -28t25.5 -71q0 -44 -24.5 -71.5t-67.5 -27.5t-67.5 27.5t-24.5 71.5t24.5 71.5t67.5 27.5z" glyph-name="uni1EB8" horiz-adv-x="1157" unicode="Ẹ"/><glyph d="M108 471q0 239 125 367t325 128q222 0 328 -141t83 -410h-730q14 -150 100 -236.5t229 -86.5q90 0 176.5 36t137.5 99l81 -82q-67 -82 -172 -127t-223 -45q-212 0 -336 135.5t-124 362.5zM239 522h609q-2 154 -73.5 241t-214.5 87q-150 0 -235.5 -88t-85.5 -240z M563 -152q41 0 66.5 -28t25.5 -71q0 -44 -24.5 -71.5t-67 -27.5t-67.5 27.5t-25 71.5t24.5 71.5t67.5 27.5z" glyph-name="uni1EB9" horiz-adv-x="1075" unicode="ẹ"/><glyph d="M649 1720q-46 0 -89 -51l-60 58q67 89 160 89q79 2 120 -39t41 -108q0 -17 -3.5 -35t-12 -34t-14.5 -30t-20.5 -30t-22 -25.5t-25.5 -25.5t-23 -20.5t-24 -21.5l-19 -15h-90q9 9 31 32.5t30.5 34t25.5 30t24.5 32.5t18 29t13.5 30.5t3 28.5q0 31 -16.5 51t-47.5 20z M1027 1195h-715v-449h523v-123h-523v-498h715v-125h-844v1319h844v-124z" glyph-name="uni1EBA" horiz-adv-x="1157" unicode="Ẻ"/><glyph d="M608 1051h-91q9 9 31 33t30.5 34t25.5 29.5t25 32.5t18 29t13.5 30.5t3.5 28.5q0 31 -17 51.5t-48 20.5q-46 0 -89 -51l-59 58q67 89 160 88q79 2 119.5 -39t40.5 -107q0 -17 -3 -35t-11.5 -34.5t-14.5 -30t-20.5 -30t-22.5 -25.5t-26 -25.5t-23 -20.5t-24 -20zM108 471 q0 239 125 367t325 128q222 0 328 -141t83 -410h-730q14 -150 100 -236.5t229 -86.5q90 0 176.5 36t137.5 99l81 -82q-67 -82 -172 -127t-223 -45q-212 0 -336 135.5t-124 362.5zM239 522h609q-2 154 -73.5 241t-214.5 87q-150 0 -235.5 -88t-85.5 -240z" glyph-name="uni1EBB" horiz-adv-x="1075" unicode="ẻ"/><glyph d="M486 1604q-79 0 -78 -95h-106q0 90 52 144.5t129 54.5q61 0 135.5 -51t113.5 -51q75 0 75 94h106q0 -92 -50.5 -146t-126.5 -54q-63 0 -137 52t-113 52zM1027 1195h-715v-449h523v-123h-523v-498h715v-125h-844v1319h844v-124z" glyph-name="uni1EBC" horiz-adv-x="1157" unicode="Ẽ"/><glyph d="M364 1128h-106q0 90 52 145t129 55q61 0 135.5 -51.5t113.5 -51.5q75 0 75 94h106q0 -92 -50.5 -145.5t-127.5 -53.5q-63 0 -136.5 52t-112.5 52q-78 0 -78 -96zM108 471q0 239 125 367t325 128q222 0 328 -141t83 -410h-730q14 -150 100 -236.5t229 -86.5q90 0 176.5 36 t137.5 99l81 -82q-67 -82 -172 -127t-223 -45q-212 0 -336 135.5t-124 362.5zM239 522h609q-2 154 -73.5 241t-214.5 87q-150 0 -235.5 -88t-85.5 -240z" glyph-name="uni1EBD" horiz-adv-x="1075" unicode="ẽ"/><glyph d="M853 1976l-344 -158l-33 61l323 213zM609 1633l-150 -155l-66 60l170 201h91l167 -201l-68 -60zM1027 1195h-715v-449h523v-123h-523v-498h715v-125h-844v1319h844v-124z" glyph-name="uni1EBE" horiz-adv-x="1157" unicode="Ế"/><glyph d="M459 1437l-32 61l322 214l55 -116zM514 1359h90l167 -202l-68 -60l-143 156l-150 -156l-67 60zM108 471q0 239 125 367t325 128q222 0 328 -141t83 -410h-730q14 -150 100 -236.5t229 -86.5q90 0 176.5 36t137.5 99l81 -82q-67 -82 -172 -127t-223 -45q-212 0 -336 135.5 t-124 362.5zM239 522h609q-2 154 -73.5 241t-214.5 87q-150 0 -235.5 -88t-85.5 -240z" glyph-name="uni1EBF" horiz-adv-x="1075" unicode="ế"/><glyph d="M734 1879l-33 -61l-344 158l54 116zM563 1739h91l167 -201l-68 -60l-144 155l-150 -155l-66 60zM1027 1195h-715v-449h523v-123h-523v-498h715v-125h-844v1319h844v-124z" glyph-name="uni1EC0" horiz-adv-x="1157" unicode="Ề"/><glyph d="M652 1437l-345 159l55 116l322 -214zM514 1359h90l167 -202l-68 -60l-143 156l-150 -156l-67 60zM108 471q0 239 125 367t325 128q222 0 328 -141t83 -410h-730q14 -150 100 -236.5t229 -86.5q90 0 176.5 36t137.5 99l81 -82q-67 -82 -172 -127t-223 -45 q-212 0 -336 135.5t-124 362.5zM239 522h609q-2 154 -73.5 241t-214.5 87q-150 0 -235.5 -88t-85.5 -240z" glyph-name="uni1EC1" horiz-adv-x="1075" unicode="ề"/><glyph d="M649 2101q-46 0 -89 -51l-60 58q67 89 160 88q79 2 120 -39t41 -107q0 -17 -3.5 -35t-12 -34.5t-14.5 -30t-20.5 -29.5t-22 -25.5t-25.5 -26t-23 -20.5t-24 -19l-19 -18h-90q9 9 31 33t30.5 34l25.5 30t24.5 32.5t18 29t13.5 31t3 27.5q0 31 -16.5 51.5t-47.5 20.5z M609 1633l-150 -155l-66 60l170 201h91l167 -201l-68 -60zM1027 1195h-715v-449h523v-123h-523v-498h715v-125h-844v1319h844v-124z" glyph-name="uni1EC2" horiz-adv-x="1157" unicode="Ể"/><glyph d="M608 1432h-91q9 9 31 32.5t30.5 34t25.5 30t25 32.5t18 29t13.5 30.5t3.5 28.5q0 31 -17 51t-48 20q-46 0 -89 -51l-59 58q67 89 160 89q79 2 119.5 -39t40.5 -108q0 -17 -3 -35t-11.5 -34t-14.5 -30t-20.5 -30t-22.5 -25.5t-26 -25.5t-23 -20.5t-24 -21.5zM514 1359h90 l167 -202l-68 -60l-143 156l-150 -156l-67 60zM108 471q0 239 125 367t325 128q222 0 328 -141t83 -410h-730q14 -150 100 -236.5t229 -86.5q90 0 176.5 36t137.5 99l81 -82q-67 -82 -172 -127t-223 -45q-212 0 -336 135.5t-124 362.5zM239 522h609q-2 154 -73.5 241 t-214.5 87q-150 0 -235.5 -88t-85.5 -240z" glyph-name="uni1EC3" horiz-adv-x="1075" unicode="ể"/><glyph d="M492 1985q-79 0 -79 -96h-106q0 90 52 145t129 55q61 0 135.5 -51t113.5 -51q75 0 75 93h106q0 -92 -50.5 -145.5t-126.5 -53.5q-63 0 -136.5 52t-112.5 52zM563 1739h91l167 -201l-68 -60l-144 155l-150 -155l-66 60zM1027 1195h-715v-449h523v-123h-523v-498h715v-125 h-844v1319h844v-124z" glyph-name="uni1EC4" horiz-adv-x="1157" unicode="Ễ"/><glyph d="M364 1509h-106q0 90 52 144.5t129 54.5q61 0 135.5 -51t113.5 -51q75 0 75 94h106q0 -92 -50.5 -146t-127.5 -54q-63 0 -136.5 52t-112.5 52q-78 1 -78 -95zM514 1359h90l167 -202l-68 -60l-143 156l-150 -156l-67 60zM108 471q0 239 125 367t325 128q222 0 328 -141 t83 -410h-730q14 -150 100 -236.5t229 -86.5q90 0 176.5 36t137.5 99l81 -82q-67 -82 -172 -127t-223 -45q-212 0 -336 135.5t-124 362.5zM239 522h609q-2 154 -73.5 241t-214.5 87q-150 0 -235.5 -88t-85.5 -240z" glyph-name="uni1EC5" horiz-adv-x="1075" unicode="ễ"/><glyph d="M609 1633l-150 -155l-66 60l170 201h91l167 -201l-68 -60zM1027 1195h-715v-449h523v-123h-523v-498h715v-125h-844v1319h844v-124zM606 -152q41 0 66.5 -28t25.5 -71q0 -44 -24.5 -71.5t-67.5 -27.5t-67.5 27.5t-24.5 71.5t24.5 71.5t67.5 27.5z" glyph-name="uni1EC6" horiz-adv-x="1157" unicode="Ệ"/><glyph d="M514 1359h90l167 -202l-68 -60l-143 156l-150 -156l-67 60zM108 471q0 239 125 367t325 128q222 0 328 -141t83 -410h-730q14 -150 100 -236.5t229 -86.5q90 0 176.5 36t137.5 99l81 -82q-67 -82 -172 -127t-223 -45q-212 0 -336 135.5t-124 362.5zM239 522h609 q-2 154 -73.5 241t-214.5 87q-150 0 -235.5 -88t-85.5 -240zM563 -152q41 0 66.5 -28t25.5 -71q0 -44 -24.5 -71.5t-67 -27.5t-67.5 27.5t-25 71.5t24.5 71.5t67.5 27.5z" glyph-name="uni1EC7" horiz-adv-x="1075" unicode="ệ"/><glyph d="M295 1432h-90q9 9 31 32.5t30.5 34t25.5 30t24.5 32.5t18 29t14 30.5t3.5 28.5q0 31 -17.5 51t-47.5 20q-46 0 -89 -51l-60 58q67 89 161 89q79 2 119.5 -39t40.5 -108q0 -17 -3.5 -35t-12 -34t-14.5 -30t-20.5 -30t-22 -25.5t-25.5 -25.5t-23 -20.5t-24 -21.5zM314 0 h-131v1319h131v-1319z" glyph-name="uni1EC8" horiz-adv-x="494" unicode="Ỉ"/><glyph d="M275 1051h-91q9 9 31 33t30.5 34t25.5 29.5t25 32.5t18 29t13.5 30.5t3.5 28.5q0 31 -17 51.5t-48 20.5q-46 0 -89 -51l-59 58q67 89 160 88q79 2 120 -39t41 -107q0 -17 -3.5 -35t-12 -34.5t-14.5 -30t-20.5 -30t-22.5 -25.5t-25.5 -25.5t-23 -20.5t-23.5 -20zM290 0 h-130v939h130v-939z" glyph-name="uni1EC9" horiz-adv-x="450" unicode="ỉ"/><glyph d="M314 0h-131v1319h131v-1319zM251 -152q41 0 66.5 -28t25.5 -71q0 -44 -24.5 -71.5t-67.5 -27.5t-67.5 27.5t-24.5 71.5t24.5 71.5t67.5 27.5z" glyph-name="uni1ECA" horiz-adv-x="494" unicode="Ị"/><glyph d="M236 1468q46 0 74 -30t28 -79q0 -48 -28 -79t-74.5 -31t-74.5 30t-28 79.5t27.5 79.5t75.5 30zM311 0h-130v939h130v-939zM244 -152q41 0 66.5 -28t25.5 -71q0 -44 -24.5 -71.5t-67.5 -27.5t-67.5 27.5t-24.5 71.5t24.5 71.5t67.5 27.5z" glyph-name="uni1ECB" horiz-adv-x="474" unicode="ị"/><glyph d="M757.5 1352q286.5 0 462.5 -193t176 -500q0 -304 -176.5 -497.5t-461.5 -193.5q-288 0 -464 192.5t-176 498t176.5 499.5t463 194zM758 1225q-230 0 -369.5 -157t-139.5 -409q0 -249 138.5 -406t370.5 -157q229 0 368 157t139 406q0 251 -139 408.5t-368 157.5zM758 -152 q41 0 66.5 -28t25.5 -71q0 -44 -25 -71.5t-67.5 -27.5t-67 27.5t-24.5 71.5t24.5 71.5t67.5 27.5z" glyph-name="uni1ECC" horiz-adv-x="1515" unicode="Ọ"/><glyph d="M591 966q215 0 348.5 -136.5t133.5 -360.5q0 -215 -131 -355.5t-351 -140.5q-217 0 -350 137t-133 359t133 359.5t350 137.5zM591 845q-162 0 -257 -105t-95 -270.5t94.5 -270.5t257.5 -105q160 0 254.5 105t94.5 270.5t-94.5 270.5t-254.5 105zM591 -152q41 0 66.5 -28 t25.5 -71q0 -44 -25 -71.5t-67.5 -27.5t-67.5 27.5t-25 71.5t25 71.5t68 27.5z" glyph-name="uni1ECD" horiz-adv-x="1181" unicode="ọ"/><glyph d="M806 1432h-91q9 9 31 32.5t30.5 34t25.5 30t25 32.5t18 29t13.5 30.5t3.5 28.5q0 31 -17 51t-48 20q-46 0 -89 -51l-59 58q67 89 160 89q79 2 119.5 -39t40.5 -108q0 -17 -3 -35t-12 -34t-14.5 -30t-20 -30t-22.5 -25.5t-26 -25.5t-23 -20.5t-24 -21.5zM757.5 1352 q286.5 0 462.5 -193t176 -500q0 -304 -176.5 -497.5t-461.5 -193.5q-288 0 -464 192.5t-176 498t176.5 499.5t463 194zM758 1225q-230 0 -369.5 -157t-139.5 -409q0 -249 138.5 -406t370.5 -157q229 0 368 157t139 406q0 251 -139 408.5t-368 157.5z" glyph-name="uni1ECE" horiz-adv-x="1515" unicode="Ỏ"/><glyph d="M642 1051h-91q9 9 31 33t30.5 34t25.5 29.5t25 32.5t18 29t13.5 30.5t3.5 28.5q0 31 -17 51.5t-48 20.5q-46 0 -89 -51l-59 58q67 89 160 88q79 2 120 -39t41 -107q0 -17 -3.5 -35t-12 -34.5t-14.5 -30t-20.5 -30t-22.5 -25.5t-26 -25.5t-23 -20.5t-24 -20zM591 966 q215 0 348.5 -136.5t133.5 -360.5q0 -215 -131 -355.5t-351 -140.5q-217 0 -350 137t-133 359t133 359.5t350 137.5zM591 845q-162 0 -257 -105t-95 -270.5t94.5 -270.5t257.5 -105q160 0 254.5 105t94.5 270.5t-94.5 270.5t-254.5 105z" glyph-name="uni1ECF" horiz-adv-x="1181" unicode="ỏ"/><glyph d="M657 1818l-32 61l322 213l55 -116zM712 1739h90l167 -201l-68 -60l-143 155l-150 -155l-67 60zM757.5 1352q286.5 0 462.5 -193t176 -500q0 -304 -176.5 -497.5t-461.5 -193.5q-288 0 -464 192.5t-176 498t176.5 499.5t463 194zM758 1225q-230 0 -369.5 -157t-139.5 -409 q0 -249 138.5 -406t370.5 -157q229 0 368 157t139 406q0 251 -139 408.5t-368 157.5z" glyph-name="uni1ED0" horiz-adv-x="1515" unicode="Ố"/><glyph d="M493 1437l-32 61l322 214l55 -116zM548 1359h90l168 -202l-69 -60l-143 156l-150 -156l-67 60zM591 966q215 0 348.5 -136.5t133.5 -360.5q0 -215 -131 -355.5t-351 -140.5q-217 0 -350 137t-133 359t133 359.5t350 137.5zM591 845q-162 0 -257 -105t-95 -270.5 t94.5 -270.5t257.5 -105q160 0 254.5 105t94.5 270.5t-94.5 270.5t-254.5 105z" glyph-name="uni1ED1" horiz-adv-x="1181" unicode="ố"/><glyph d="M850 1818l-345 158l55 116l322 -213zM712 1739h90l167 -201l-68 -60l-143 155l-150 -155l-67 60zM757.5 1352q286.5 0 462.5 -193t176 -500q0 -304 -176.5 -497.5t-461.5 -193.5q-288 0 -464 192.5t-176 498t176.5 499.5t463 194zM758 1225q-230 0 -369.5 -157 t-139.5 -409q0 -249 138.5 -406t370.5 -157q229 0 368 157t139 406q0 251 -139 408.5t-368 157.5z" glyph-name="uni1ED2" horiz-adv-x="1515" unicode="Ồ"/><glyph d="M686 1437l-345 159l55 116l323 -214zM548 1359h90l168 -202l-69 -60l-143 156l-150 -156l-67 60zM591 966q215 0 348.5 -136.5t133.5 -360.5q0 -215 -131 -355.5t-351 -140.5q-217 0 -350 137t-133 359t133 359.5t350 137.5zM591 845q-162 0 -257 -105t-95 -270.5 t94.5 -270.5t257.5 -105q160 0 254.5 105t94.5 270.5t-94.5 270.5t-254.5 105z" glyph-name="uni1ED3" horiz-adv-x="1181" unicode="ồ"/><glyph d="M806 1812h-91q9 9 31 33t30.5 34l25.5 30t25 32.5t18 29t13.5 31t3.5 27.5q0 31 -17 51.5t-48 20.5q-46 0 -89 -51l-59 58q67 89 160 88q79 2 119.5 -39t40.5 -107q0 -17 -3 -35t-12 -34.5t-14.5 -30t-20 -29.5t-22.5 -25.5t-26 -26t-23 -20.5t-24 -19zM712 1739h90 l167 -201l-68 -60l-143 155l-150 -155l-67 60zM757.5 1352q286.5 0 462.5 -193t176 -500q0 -304 -176.5 -497.5t-461.5 -193.5q-288 0 -464 192.5t-176 498t176.5 499.5t463 194zM758 1225q-230 0 -369.5 -157t-139.5 -409q0 -249 138.5 -406t370.5 -157q229 0 368 157 t139 406q0 251 -139 408.5t-368 157.5z" glyph-name="uni1ED4" horiz-adv-x="1515" unicode="Ổ"/><glyph d="M642 1432h-91q9 9 31 32.5t30.5 34t25.5 30t25 32.5t18 29t13.5 30.5t3.5 28.5q0 31 -17 51t-48 20q-46 0 -89 -51l-59 58q67 89 160 89q79 2 120 -39t41 -108q0 -17 -3.5 -35t-12 -34t-14.5 -30t-20.5 -30t-22.5 -25.5t-26 -25.5t-23 -20.5t-24 -21.5zM548 1359h90 l168 -202l-69 -60l-143 156l-150 -156l-67 60zM591 966q215 0 348.5 -136.5t133.5 -360.5q0 -215 -131 -355.5t-351 -140.5q-217 0 -350 137t-133 359t133 359.5t350 137.5zM591 845q-162 0 -257 -105t-95 -270.5t94.5 -270.5t257.5 -105q160 0 254.5 105t94.5 270.5 t-94.5 270.5t-254.5 105z" glyph-name="uni1ED5" horiz-adv-x="1181" unicode="ổ"/><glyph d="M561 1889h-105q0 90 52 145t129 55q61 0 135.5 -51t113.5 -51q75 0 75 93h106q0 -92 -50.5 -145.5t-127.5 -53.5q-63 0 -136.5 52t-112.5 52q-79 0 -79 -96zM712 1739h90l167 -201l-68 -60l-143 155l-150 -155l-67 60zM757.5 1352q286.5 0 462.5 -193t176 -500 q0 -304 -176.5 -497.5t-461.5 -193.5q-288 0 -464 192.5t-176 498t176.5 499.5t463 194zM758 1225q-230 0 -369.5 -157t-139.5 -409q0 -249 138.5 -406t370.5 -157q229 0 368 157t139 406q0 251 -139 408.5t-368 157.5z" glyph-name="uni1ED6" horiz-adv-x="1515" unicode="Ỗ"/><glyph d="M398 1509h-106q0 90 52 144.5t129 54.5q61 0 135.5 -51t113.5 -51q75 0 75 94h106q0 -92 -50.5 -146t-127.5 -54q-63 0 -136.5 52t-112.5 52q-78 1 -78 -95zM548 1359h90l168 -202l-69 -60l-143 156l-150 -156l-67 60zM591 966q215 0 348.5 -136.5t133.5 -360.5 q0 -215 -131 -355.5t-351 -140.5q-217 0 -350 137t-133 359t133 359.5t350 137.5zM591 845q-162 0 -257 -105t-95 -270.5t94.5 -270.5t257.5 -105q160 0 254.5 105t94.5 270.5t-94.5 270.5t-254.5 105z" glyph-name="uni1ED7" horiz-adv-x="1181" unicode="ỗ"/><glyph d="M712 1739h90l167 -201l-68 -60l-143 155l-150 -155l-67 60zM757.5 1352q286.5 0 462.5 -193t176 -500q0 -304 -176.5 -497.5t-461.5 -193.5q-288 0 -464 192.5t-176 498t176.5 499.5t463 194zM758 1225q-230 0 -369.5 -157t-139.5 -409q0 -249 138.5 -406t370.5 -157 q229 0 368 157t139 406q0 251 -139 408.5t-368 157.5zM758 -152q41 0 66.5 -28t25.5 -71q0 -44 -25 -71.5t-67.5 -27.5t-67 27.5t-24.5 71.5t24.5 71.5t67.5 27.5z" glyph-name="uni1ED8" horiz-adv-x="1515" unicode="Ộ"/><glyph d="M548 1359h90l168 -202l-69 -60l-143 156l-150 -156l-67 60zM591 966q215 0 348.5 -136.5t133.5 -360.5q0 -215 -131 -355.5t-351 -140.5q-217 0 -350 137t-133 359t133 359.5t350 137.5zM591 845q-162 0 -257 -105t-95 -270.5t94.5 -270.5t257.5 -105q160 0 254.5 105 t94.5 270.5t-94.5 270.5t-254.5 105zM591 -152q41 0 66.5 -28t25.5 -71q0 -44 -25 -71.5t-67.5 -27.5t-67.5 27.5t-25 71.5t25 71.5t68 27.5z" glyph-name="uni1ED9" horiz-adv-x="1181" unicode="ộ"/><glyph d="M998 1596l-344 -159l-33 61l323 214zM1138 1232q123 -92 190.5 -240.5t67.5 -332.5q0 -304 -176.5 -497.5t-461.5 -193.5q-288 0 -464 192.5t-176 498.5q0 304 175.5 497.5t460.5 195.5h4h1q56 0 118.5 -1t139.5 -2.5t120 -1.5q63 0 82.5 27t7.5 94h118q17 -116 -19 -176 t-152 -60h-36zM758 96q229 0 368 157t139 406q0 251 -139.5 408.5t-367.5 157.5q-230 0 -369.5 -157t-139.5 -409q0 -249 138.5 -406t370.5 -157z" glyph-name="uni1EDA" horiz-adv-x="1506" unicode="Ớ"/><glyph d="M835 1215l-345 -159l-33 62l323 213zM910 855q162 -138 162 -386q0 -215 -131.5 -355.5t-349.5 -140.5q-217 0 -351 138t-134 358t134 358.5t351 138.5q43 0 298 -3q63 0 83 29t8 95h117q17 -118 -22.5 -178.5t-164.5 -53.5zM591 94q159 0 254 105.5t95 269.5t-95.5 270 t-253.5 106q-160 0 -256 -106t-96 -270t96 -269.5t256 -105.5z" glyph-name="uni1EDB" horiz-adv-x="1179" unicode="ớ"/><glyph d="M879 1498l-32 -61l-345 159l54 116zM1138 1232q123 -92 190.5 -240.5t67.5 -332.5q0 -304 -176.5 -497.5t-461.5 -193.5q-288 0 -464 192.5t-176 498.5q0 304 175.5 497.5t460.5 195.5h4h1q56 0 118.5 -1t139.5 -2.5t120 -1.5q63 0 82.5 27t7.5 94h118q17 -116 -19 -176 t-152 -60h-36zM758 96q229 0 368 157t139 406q0 251 -139.5 408.5t-367.5 157.5q-230 0 -369.5 -157t-139.5 -409q0 -249 138.5 -406t370.5 -157z" glyph-name="uni1EDC" horiz-adv-x="1506" unicode="Ờ"/><glyph d="M715 1118l-32 -62l-345 159l55 116zM910 855q162 -138 162 -386q0 -215 -131.5 -355.5t-349.5 -140.5q-217 0 -351 138t-134 358t134 358.5t351 138.5q43 0 298 -3q63 0 83 29t8 95h117q17 -118 -22.5 -178.5t-164.5 -53.5zM591 94q159 0 254 105.5t95 269.5t-95.5 270 t-253.5 106q-160 0 -256 -106t-96 -270t96 -269.5t256 -105.5z" glyph-name="uni1EDD" horiz-adv-x="1179" unicode="ờ"/><glyph d="M794 1720q-46 0 -89 -51l-60 58q67 89 161 89q79 2 119.5 -39t40.5 -108q0 -17 -3.5 -35t-12 -34t-14.5 -30t-20.5 -30t-22 -25.5t-25.5 -25.5t-23 -20.5t-24 -21.5l-19 -15h-90q9 9 31 32.5t30.5 34t25.5 30t24.5 32.5t18 29t13.5 30.5t3 28.5q0 31 -16.5 51t-47.5 20z M1138 1232q123 -92 190.5 -240.5t67.5 -332.5q0 -304 -176.5 -497.5t-461.5 -193.5q-288 0 -464 192.5t-176 498.5q0 304 175.5 497.5t460.5 195.5h4h1q56 0 118.5 -1t139.5 -2.5t120 -1.5q63 0 82.5 27t7.5 94h118q17 -116 -19 -176t-152 -60h-36zM758 96q229 0 368 157 t139 406q0 251 -139.5 408.5t-367.5 157.5q-230 0 -369.5 -157t-139.5 -409q0 -249 138.5 -406t370.5 -157z" glyph-name="uni1EDE" horiz-adv-x="1506" unicode="Ở"/><glyph d="M630 1340q-46 0 -89 -51l-60 58q67 89 161 88q79 2 119.5 -39t40.5 -107q0 -17 -3.5 -35t-12 -34.5t-14.5 -30t-20.5 -30t-22 -25.5t-25.5 -25.5t-23 -20.5t-24 -20l-19 -17h-90q9 9 31 33t30.5 34t25.5 29.5t24.5 32.5t18 29t14 30.5t3.5 28.5q0 31 -17 51.5t-48 20.5z M910 855q162 -138 162 -386q0 -215 -131.5 -355.5t-349.5 -140.5q-217 0 -351 138t-134 358t134 358.5t351 138.5q43 0 298 -3q63 0 83 29t8 95h117q17 -118 -22.5 -178.5t-164.5 -53.5zM591 94q159 0 254 105.5t95 269.5t-95.5 270t-253.5 106q-160 0 -256 -106t-96 -270 t96 -269.5t256 -105.5z" glyph-name="uni1EDF" horiz-adv-x="1179" unicode="ở"/><glyph d="M637 1604q-79 0 -79 -95h-106q0 90 52 144.5t129 54.5q61 0 135.5 -51t113.5 -51q75 0 75 94h106q0 -92 -50 -146t-127 -54q-63 0 -136.5 52t-112.5 52zM1138 1232q123 -92 190.5 -240.5t67.5 -332.5q0 -304 -176.5 -497.5t-461.5 -193.5q-288 0 -464 192.5t-176 498.5 q0 304 175.5 497.5t460.5 195.5h4h1q56 0 118.5 -1t139.5 -2.5t120 -1.5q63 0 82.5 27t7.5 94h118q17 -116 -19 -176t-152 -60h-36zM758 96q229 0 368 157t139 406q0 251 -139.5 408.5t-367.5 157.5q-230 0 -369.5 -157t-139.5 -409q0 -249 138.5 -406t370.5 -157z" glyph-name="uni1EE0" horiz-adv-x="1506" unicode="Ỡ"/><glyph d="M473 1224q-79 0 -79 -96h-106q0 90 52.5 145t128.5 55q61 0 135.5 -51.5t114.5 -51.5q75 0 75 94h105q0 -92 -50 -145.5t-127 -53.5q-63 0 -136.5 52t-112.5 52zM910 855q162 -138 162 -386q0 -215 -131.5 -355.5t-349.5 -140.5q-217 0 -351 138t-134 358t134 358.5 t351 138.5q43 0 298 -3q63 0 83 29t8 95h117q17 -118 -22.5 -178.5t-164.5 -53.5zM591 94q159 0 254 105.5t95 269.5t-95.5 270t-253.5 106q-160 0 -256 -106t-96 -270t96 -269.5t256 -105.5z" glyph-name="uni1EE1" horiz-adv-x="1179" unicode="ỡ"/><glyph d="M1138 1232q123 -92 190.5 -240.5t67.5 -332.5q0 -304 -176.5 -497.5t-461.5 -193.5q-288 0 -464 192.5t-176 498.5q0 304 175.5 497.5t460.5 195.5h4h1q56 0 118.5 -1t139.5 -2.5t120 -1.5q63 0 82.5 27t7.5 94h118q17 -116 -19 -176t-152 -60h-36zM758 96q229 0 368 157 t139 406q0 251 -139.5 408.5t-367.5 157.5q-230 0 -369.5 -157t-139.5 -409q0 -249 138.5 -406t370.5 -157zM758 -152q41 0 66.5 -28t25.5 -71q0 -44 -25 -71.5t-67.5 -27.5t-67 27.5t-24.5 71.5t24.5 71.5t67.5 27.5z" glyph-name="uni1EE2" horiz-adv-x="1506" unicode="Ợ"/><glyph d="M910 855q162 -138 162 -386q0 -215 -131.5 -355.5t-349.5 -140.5q-217 0 -351 138t-134 358t134 358.5t351 138.5q43 0 298 -3q63 0 83 29t8 95h117q17 -118 -22.5 -178.5t-164.5 -53.5zM591 94q159 0 254 105.5t95 269.5t-95.5 270t-253.5 106q-160 0 -256 -106 t-96 -270t96 -269.5t256 -105.5zM591 -152q41 0 66.5 -28t25.5 -71q0 -44 -25 -71.5t-67.5 -27.5t-67.5 27.5t-25 71.5t25 71.5t68 27.5z" glyph-name="uni1EE3" horiz-adv-x="1179" unicode="ợ"/><glyph d="M1260 1319v-763q0 -265 -146 -426t-397 -161q-253 0 -398 161.5t-145 425.5v763h131v-756q0 -218 113 -346t299 -128q183 0 297 126t114 348v756h132zM717 -152q41 0 66.5 -28t25.5 -71q0 -44 -25 -71.5t-67.5 -27.5t-67 27.5t-24.5 71.5t24.5 71.5t67.5 27.5z" glyph-name="uni1EE4" horiz-adv-x="1435" unicode="Ụ"/><glyph d="M829 939h134v-939h-111l-23 171v1q-128 -200 -331 -199q-345 0 -344 409v557h133v-553q0 -142 56 -210t174 -68q189 0 312 262v569zM534 -152q41 0 66.5 -28t25.5 -71q0 -44 -24.5 -71.5t-67 -27.5t-67.5 27.5t-25 71.5t24.5 71.5t67.5 27.5z" glyph-name="uni1EE5" horiz-adv-x="1124" unicode="ụ"/><glyph d="M770 1432h-91q9 9 31 32.5t30.5 34t25.5 30t25 32.5t18 29t13.5 30.5t3.5 28.5q0 31 -17 51t-48 20q-46 0 -89 -51l-59 58q67 89 160 89q79 2 120 -39t41 -108q0 -17 -3.5 -35t-12 -34t-14.5 -30t-20.5 -30t-22.5 -25.5t-26 -25.5t-23 -20.5t-24 -21.5zM1260 1319v-763 q0 -265 -146 -426t-397 -161q-253 0 -398 161.5t-145 425.5v763h131v-756q0 -218 113 -346t299 -128q183 0 297 126t114 348v756h132z" glyph-name="uni1EE6" horiz-adv-x="1435" unicode="Ủ"/><glyph d="M609 1340q-46 0 -88 -51l-60 58q67 89 160 88q79 2 120 -39t41 -107q0 -17 -3.5 -35t-12 -34.5t-14.5 -30t-20.5 -30t-22.5 -25.5t-25.5 -25.5t-23 -20.5t-23.5 -20l-19 -17h-91q9 9 31 33t30.5 34t25.5 29.5t25 32.5t18 29t13.5 30.5t3.5 28.5q0 31 -17 51.5t-48 20.5z M829 939h134v-939h-111l-23 171v1q-128 -200 -331 -199q-345 0 -344 409v557h133v-553q0 -142 56 -210t174 -68q189 0 312 262v569z" glyph-name="uni1EE7" horiz-adv-x="1124" unicode="ủ"/><glyph d="M956 1596l-345 -159l-32 61l322 214zM1493 1446q12 -118 -23.5 -178t-150.5 -60h-68v-648q0 -265 -145 -426t-396 -161q-253 0 -398.5 161t-145.5 426v759h131v-752q0 -218 112.5 -346.5t300.5 -128.5q183 0 296.5 126.5t113.5 348.5v752h165q63 -2 83 29t8 98h117z" glyph-name="uni1EE8" horiz-adv-x="1448" unicode="Ứ"/><glyph d="M821 1215l-345 -159l-32 62l322 213zM1166 1065q12 -118 -24 -177.5t-152 -59.5h-29v-828h-109l-23 171v3q-128 -201 -332 -201q-343 0 -343 409v557h131v-553q0 -278 230 -278q189 0 314 262v569h132q58 0 77.5 30.5t7.5 95.5h120z" glyph-name="uni1EE9" horiz-adv-x="1189" unicode="ứ"/><glyph d="M836 1498l-32 -61l-345 159l55 116zM1493 1446q12 -118 -23.5 -178t-150.5 -60h-68v-648q0 -265 -145 -426t-396 -161q-253 0 -398.5 161t-145.5 426v759h131v-752q0 -218 112.5 -346.5t300.5 -128.5q183 0 296.5 126.5t113.5 348.5v752h165q63 -2 83 29t8 98h117z" glyph-name="uni1EEA" horiz-adv-x="1448" unicode="Ừ"/><glyph d="M701 1118l-32 -62l-345 159l55 116zM1166 1065q12 -118 -24 -177.5t-152 -59.5h-29v-828h-109l-23 171v3q-128 -201 -332 -201q-343 0 -343 409v557h131v-553q0 -278 230 -278q189 0 314 262v569h132q58 0 77.5 30.5t7.5 95.5h120z" glyph-name="uni1EEB" horiz-adv-x="1189" unicode="ừ"/><glyph d="M751 1720q-46 0 -89 -51l-60 58q67 89 161 89q79 2 119.5 -39t40.5 -108q0 -17 -3.5 -35t-12 -34t-14.5 -30t-20.5 -30t-22 -25.5t-25.5 -25.5t-23 -20.5t-24 -21.5l-19 -15h-90q9 9 31 32.5t30.5 34t25.5 30t24.5 32.5t18 29t14 30.5t3.5 28.5q0 31 -17 51t-48 20z M1493 1446q12 -118 -23.5 -178t-150.5 -60h-68v-648q0 -265 -145 -426t-396 -161q-253 0 -398.5 161t-145.5 426v759h131v-752q0 -218 112.5 -346.5t300.5 -128.5q183 0 296.5 126.5t113.5 348.5v752h165q63 -2 83 29t8 98h117z" glyph-name="uni1EEC" horiz-adv-x="1448" unicode="Ử"/><glyph d="M616 1340q-46 0 -89 -51l-59 58q67 89 160 88q79 2 119.5 -39t40.5 -107q0 -17 -3 -35t-11.5 -34.5t-14.5 -30t-20.5 -30t-22.5 -25.5t-26 -25.5t-23 -20.5t-24 -20l-18 -17h-91q9 9 31 33t30.5 34t25.5 29.5t25 32.5t18 29t13.5 30.5t3.5 28.5q0 31 -17 51.5t-48 20.5z M1166 1065q12 -118 -24 -177.5t-152 -59.5h-29v-828h-109l-23 171v3q-128 -201 -332 -201q-343 0 -343 409v557h131v-553q0 -278 230 -278q189 0 314 262v569h132q58 0 77.5 30.5t7.5 95.5h120z" glyph-name="uni1EED" horiz-adv-x="1189" unicode="ử"/><glyph d="M594 1604q-79 0 -79 -95h-105q0 90 52 144.5t129 54.5q61 0 135 -51t114 -51q75 0 75 94h106q0 -92 -50.5 -146t-127.5 -54q-63 0 -136.5 52t-112.5 52zM1493 1446q12 -118 -23.5 -178t-150.5 -60h-68v-648q0 -265 -145 -426t-396 -161q-253 0 -398.5 161t-145.5 426v759 h131v-752q0 -218 112.5 -346.5t300.5 -128.5q183 0 296.5 126.5t113.5 348.5v752h165q63 -2 83 29t8 98h117z" glyph-name="uni1EEE" horiz-adv-x="1448" unicode="Ữ"/><glyph d="M459 1224q-79 0 -78 -96h-106q0 90 52 145t129 55q61 0 135.5 -51.5t113.5 -51.5q75 0 75 94h106q0 -92 -50.5 -145.5t-127.5 -53.5q-63 0 -136.5 52t-112.5 52zM1166 1065q12 -118 -24 -177.5t-152 -59.5h-29v-828h-109l-23 171v3q-128 -201 -332 -201q-343 0 -343 409 v557h131v-553q0 -278 230 -278q189 0 314 262v569h132q58 0 77.5 30.5t7.5 95.5h120z" glyph-name="uni1EEF" horiz-adv-x="1189" unicode="ữ"/><glyph d="M1493 1446q12 -118 -23.5 -178t-150.5 -60h-68v-648q0 -265 -145 -426t-396 -161q-253 0 -398.5 161t-145.5 426v759h131v-752q0 -218 112.5 -346.5t300.5 -128.5q183 0 296.5 126.5t113.5 348.5v752h165q63 -2 83 29t8 98h117zM710 -152q41 0 66.5 -28t25.5 -71 q0 -44 -24.5 -71.5t-67.5 -27.5t-67.5 27.5t-24.5 71.5t24.5 71.5t67.5 27.5z" glyph-name="uni1EF0" horiz-adv-x="1448" unicode="Ự"/><glyph d="M1166 1065q12 -118 -24 -177.5t-152 -59.5h-29v-828h-109l-23 171v3q-128 -201 -332 -201q-343 0 -343 409v557h131v-553q0 -278 230 -278q189 0 314 262v569h132q58 0 77.5 30.5t7.5 95.5h120zM497 -152q41 0 66.5 -28t25.5 -71q0 -44 -25 -71.5t-67.5 -27.5t-67.5 27.5 t-25 71.5t25 71.5t68 27.5z" glyph-name="uni1EF1" horiz-adv-x="1189" unicode="ự"/><glyph d="M739 1497l-32 -62l-345 159l54 116zM1176 1319l-497 -846v-473h-133v476l-493 843h147l414 -734l413 734h149z" glyph-name="Ygrave" horiz-adv-x="1228" unicode="Ỳ"/><glyph d="M633 1118l-32 -62l-345 159l55 116zM823 939h136l-403 -1035q-87 -224 -207 -300.5t-296 -21.5l7 128q152 -58 235.5 9.5t158.5 275.5l-375 944h136l307 -787z" glyph-name="ygrave" horiz-adv-x="1006" unicode="ỳ"/><glyph d="M546 0v476l-493 843h147l414 -734l413 734h149l-497 -846v-473h-133zM613 -152q41 0 66.5 -28t25.5 -71q0 -44 -25 -71.5t-67.5 -27.5t-67 27.5t-24.5 71.5t24.5 71.5t67.5 27.5z" glyph-name="uni1EF4" horiz-adv-x="1228" unicode="Ỵ"/><glyph d="M959 939l-403 -1035q-87 -224 -207 -300.5t-296 -21.5l7 128q152 -58 235.5 9.5t158.5 275.5l-375 944h136l307 -787l301 787h136zM510 -580q41 0 66.5 -28.5t25.5 -70.5q0 -44 -24.5 -71.5t-67 -27.5t-67.5 27t-25 71.5t24.5 72t67.5 27.5z" glyph-name="uni1EF5" horiz-adv-x="1006" unicode="ỵ"/><glyph d="M654 1719q-46 0 -89 -52l-60 58q67 89 161 89q79 2 119.5 -39t40.5 -108q0 -17 -3.5 -34.5t-12 -34t-14.5 -30t-20.5 -30t-22 -25.5t-25.5 -25.5t-23 -20.5t-24 -20l-19 -17h-90q9 9 31 33t30.5 34t25.5 29.5t24.5 32.5t18 29t14 30.5t3.5 28.5q0 31 -17 51.5t-48 20.5z M1176 1319l-497 -846v-473h-133v476l-493 843h147l414 -734l413 734h149z" glyph-name="uni1EF6" horiz-adv-x="1228" unicode="Ỷ"/><glyph d="M548 1340q-46 0 -89 -51l-60 58q67 89 161 88q79 2 119.5 -39t40.5 -107q0 -17 -3.5 -35t-12 -34.5t-14.5 -30t-20.5 -30t-22 -25.5t-25.5 -25.5t-23 -20.5t-24 -20l-19 -17h-90q9 9 31 33t30.5 34t25.5 29.5t24.5 32.5t18 29t14 30.5t3.5 28.5q0 31 -17 51.5t-48 20.5z M823 939h136l-403 -1035q-87 -224 -207 -300.5t-296 -21.5l7 128q152 -58 235.5 9.5t158.5 275.5l-375 944h136l307 -787z" glyph-name="uni1EF7" horiz-adv-x="1006" unicode="ỷ"/><glyph d="M492 1603q-79 0 -79 -96h-106q0 90 52 145t129 55q61 0 135.5 -51.5t113.5 -51.5q75 0 75 94h106q0 -92 -50.5 -146t-126.5 -54q-63 0 -136.5 52.5t-112.5 52.5zM1176 1319l-497 -846v-473h-133v476l-493 843h147l414 -734l413 734h149z" glyph-name="uni1EF8" horiz-adv-x="1228" unicode="Ỹ"/><glyph d="M386 1224q-79 0 -79 -96h-106q0 90 52 145t129 55q61 0 135.5 -51.5t113.5 -51.5q75 0 76 94h105q0 -92 -50 -145.5t-127 -53.5q-63 0 -136.5 52t-112.5 52zM823 939h136l-403 -1035q-87 -224 -207 -300.5t-296 -21.5l7 128q152 -58 235.5 9.5t158.5 275.5l-375 944h136 l307 -787z" glyph-name="uni1EF9" horiz-adv-x="1006" unicode="ỹ"/><glyph glyph-name="uni2009" horiz-adv-x="281" unicode=" "/><glyph d="M886 667v-112h-772v112h772z" glyph-name="endash" horiz-adv-x="1001" unicode="–"/><glyph d="M1594 671v-118h-1480v118h1480z" glyph-name="emdash" horiz-adv-x="1710" unicode="—"/><glyph d="M123 1022q-51 0 -82.5 37t-31.5 105q0 177 157 304l47 -46q-111 -101 -111 -181q12 3 28 3q44 0 73 -31.5t29 -80.5q0 -46 -30.5 -78t-78.5 -32z" glyph-name="quoteleft" horiz-adv-x="281" unicode="‘"/><glyph d="M159 1468q51 0 82.5 -37t31.5 -105q0 -177 -157 -304q-3 3 -23 22t-25 24q111 102 111 181q-12 -3 -27 -3q-44 0 -74 31.5t-30 81.5q0 46 31.5 77.5t79.5 31.5z" glyph-name="quoteright" horiz-adv-x="281" unicode="’"/><glyph d="M179 195q53 0 84 -37t31 -105q0 -179 -156 -304q-3 3 -22.5 22t-25.5 24q109 101 111 181q-14 -3 -27 -3q-44 0 -74 31.5t-30 80.5q0 46 30.5 78t78.5 32z" glyph-name="quotesinglbase" horiz-adv-x="1024" unicode="‚"/><glyph d="M242 1022q-51 0 -82.5 37t-31.5 105q0 177 157 304q3 -3 14.5 -13.5t20 -19t11.5 -13.5q-109 -101 -109 -181q12 3 27 3q44 0 73.5 -31.5t29.5 -80.5q0 -46 -31 -78t-79 -32zM532 1022q-51 0 -82.5 37t-31.5 105q0 177 157 304q3 -3 14.5 -13.5t20 -19t11.5 -13.5 q-109 -101 -109 -181q12 3 27 3q44 0 73.5 -31.5t29.5 -80.5q0 -46 -31 -78t-79 -32z" glyph-name="quotedblleft" horiz-adv-x="730" unicode="“"/><glyph d="M196 1468q53 0 84 -37t31 -105q0 -179 -156 -304q-3 3 -22.5 22t-24.5 24q109 101 110 181q-14 -3 -27 -3q-44 0 -74 31.5t-30 81.5q0 46 30.5 77.5t78.5 31.5zM486 1468q53 0 84 -37t31 -105q0 -179 -156 -304q-3 3 -22.5 22t-24.5 24q109 101 111 181q-14 -3 -28 -3 q-44 0 -74 31.5t-30 81.5q0 46 30.5 77.5t78.5 31.5z" glyph-name="quotedblright" horiz-adv-x="730" unicode="”"/><glyph d="M179 195q53 0 84 -37t31 -105q0 -179 -156 -304q-3 3 -22.5 22t-25.5 24q109 101 111 181q-14 -3 -27 -3q-44 0 -74 31.5t-30 80.5q0 46 30.5 78t78.5 32z" glyph-name="quotedblbase" horiz-adv-x="380" unicode="„"/><glyph d="M681 1205h85v-132h-85l-189 6l5 -323v-184h-132v184l7 323l-193 -6h-85v132h85l193 -7l-7 184v86h132v-86l-5 -184z" glyph-name="dagger" horiz-adv-x="863" unicode="†"/><glyph d="M766 1046h-85l-189 5l5 -240v-87l-7 -318l191 9h85v-133h-85l-189 6l5 -221v-171h-132v171l7 221l-193 -6h-85v133h85l195 -9l-9 318v87l7 240l-193 -5h-85v132h85l193 -7l-7 184v113h132v-113l-5 -184l189 7h85v-132z" glyph-name="daggerdbl" horiz-adv-x="863" unicode="‡"/><glyph d="M292 940q90 0 145.5 -59.5t55.5 -155.5q0 -89 -56 -152.5t-145 -63.5q-90 0 -146 61t-56 155q0 97 55 156t147 59z" glyph-name="bullet" horiz-adv-x="585" unicode="•"/><glyph d="M215 154q38 0 61.5 -26t23.5 -67t-23 -66.5t-62 -25.5q-38 0 -61.5 25.5t-23.5 66.5t23.5 67t61.5 26zM547.5 154q37.5 0 62.5 -26.5t25 -66.5q0 -41 -24 -66.5t-63 -25.5q-38 0 -61.5 25.5t-23.5 66.5t23.5 67t61 26zM881 154q38 0 61.5 -26.5t23.5 -66.5 q0 -41 -23 -66.5t-62.5 -25.5t-63 25.5t-23.5 66.5t24 67t63 26z" glyph-name="ellipsis" horiz-adv-x="1095" unicode="…"/><glyph d="M437 -17l-102 49l634 1169l103 -49zM398 1191q123 0 200.5 -72.5t77.5 -193.5q0 -111 -74.5 -188.5t-203.5 -77.5q-125 0 -202.5 73.5t-77.5 192.5t77.5 192.5t202.5 73.5zM398 1092q-75 0 -118.5 -47t-43.5 -120q0 -72 43.5 -119t118.5 -47q73 0 116.5 47t43.5 119 t-43.5 119.5t-116.5 47.5zM1020.5 510q124.5 0 202 -73t77.5 -193q0 -111 -74 -188.5t-205 -77.5q-125 0 -202.5 73.5t-77.5 193t77.5 192.5t202 73zM1640 510q123 0 200.5 -73t77.5 -193q0 -111 -73 -188.5t-205 -77.5q-125 0 -202.5 73.5t-77.5 193t77.5 192.5t202.5 73z M1021 411q-73 0 -117 -47.5t-44 -119.5t43.5 -118.5t117.5 -46.5q75 0 118.5 46.5t43.5 118.5t-43.5 119.5t-118.5 47.5zM1640 411q-73 0 -116.5 -47.5t-43.5 -119.5t43.5 -118.5t116.5 -46.5t117 46.5t44 118.5t-43 119.5t-118 47.5z" glyph-name="perthousand" horiz-adv-x="2039" unicode="‰"/><glyph d="M519 782l-275 -309l275 -309l-91 -91l-331 400l331 399z" glyph-name="guilsinglleft" horiz-adv-x="674" unicode="‹"/><glyph d="M247 872l330 -399l-330 -400l-92 91l275 309l-275 309z" glyph-name="guilsinglright" horiz-adv-x="674" unicode="›"/><glyph d="M568 1485q203 0 323.5 -122t120.5 -301q0 -181 -116 -310t-295 -153l-10 -232h-93l-25 493v294h140v-294l-7 -147q137 31 209 126t72 221q0 130 -86 217.5t-233 87.5q-116 0 -206.5 -56t-141.5 -130l-102 75q63 94 181.5 162.5t268.5 68.5zM543 164q41 0 65.5 -27.5 t24.5 -70t-24.5 -69t-65.5 -26.5t-66 26.5t-25 69.5q0 44 25 70.5t66 26.5z" glyph-name="uni203D" horiz-adv-x="1107" unicode="‽"/><glyph d="M584 1352l92 -53l-905 -1302l-92 49z" glyph-name="fraction" horiz-adv-x="337" unicode="⁄"/><glyph d="M331 809q-116 0 -182.5 86t-66.5 217.5t67.5 218t183.5 86.5q114 0 181.5 -85.5t67.5 -218.5q0 -131 -67.5 -217.5t-183.5 -86.5zM332.5 1321q-71.5 0 -105.5 -63t-34 -145q0 -84 33 -146t105 -62q68 0 104 58t36 148q0 84 -33.5 147t-105 63z" glyph-name="uni2070" horiz-adv-x="663" unicode="⁰"/><glyph d="M548 1056v-97h-75v-138h-103v138h-269l-33 97l302 345h103v-346zM174 1046l196 5v220z" glyph-name="uni2074" horiz-adv-x="616" unicode="⁴"/><glyph d="M290 1191q89 0 147 -53.5t58 -139.5q0 -82 -54 -135.5t-158 -53.5q-142 0 -210 101l65 65q51 -73 138 -74q53 0 82 29t29 74q0 46 -28 75.5t-79 29.5q-48 0 -84 -29l-83 52l24 269h317v-106l-227 9l-12 -125q41 12 75 12z" glyph-name="uni2075" horiz-adv-x="580" unicode="⁵"/><glyph d="M326 1196q82 0 140 -51t58 -140q0 -84 -55.5 -140t-154.5 -56q-118 0 -175 81t-57 213q0 140 64 227t177 87q106 0 174 -62l-72 -72q-46 36 -102 36q-114 0 -132 -176q53 53 135 53zM312 908q49 0 73.5 28t24.5 69q0 43 -26 69.5t-73 26.5q-75 0 -118 -63 q13 -130 119 -130z" glyph-name="uni2076" horiz-adv-x="607" unicode="⁶"/><glyph d="M89 1401h401v-95l-225 -485h-122l234 481l-288 -10v109z" glyph-name="uni2077" horiz-adv-x="554" unicode="⁷"/><glyph d="M413 1125q101 -46 101 -142q0 -72 -58 -123t-162 -51q-97 0 -159 47t-62 125q0 97 99 144q-82 39 -82 128q0 73 56.5 118.5t147 45.5t147.5 -45.5t57 -117.5q0 -86 -85 -129zM294 1326q-49 0 -76 -22t-27 -62q0 -36 27.5 -58.5t75.5 -22.5q46 0 73 23t27 58q1 84 -100 84 zM294 905q53 0 82.5 23.5t29.5 63.5q0 38 -30 62.5t-82.5 24.5t-82.5 -25t-30 -62q0 -39 29 -63t84 -24z" glyph-name="uni2078" horiz-adv-x="590" unicode="⁸"/><glyph d="M294 1417q116 0 174 -82t58 -212q0 -140 -64 -227t-177 -87q-104 0 -174 63l70 72q44 -38 106 -38q113 0 128 174q-51 -51 -133 -51q-84 0 -141 51.5t-57 141.5q0 82 56.5 138.5t153.5 56.5zM295 1126q75 0 118 62q-14 131 -118 131q-51 0 -75 -28t-24 -69 q0 -43 25.5 -69.5t73.5 -26.5z" glyph-name="uni2079" horiz-adv-x="600" unicode="⁹"/><glyph d="M780 87q177 0 275 169l107 -67q-67 -108 -166.5 -165.5t-217.5 -57.5q-174 0 -297 116t-162 319h-153l18 101h123q-3 51 -3 76.5t3 73.5h-141l18 101h135q39 205 161 323.5t298 118.5q246 0 386 -229l-106 -67q-102 171 -278 171q-266 0 -329 -317h435l-19 -101h-430 q-2 -24 -2 -75t4 -75h399l-19 -101h-368q29 -148 111.5 -231t217.5 -83z" glyph-name="Euro" horiz-adv-x="1297" unicode="€"/><glyph d="M1273 829v-83h-143q-12 -160 -118.5 -245.5t-287.5 -85.5h-316v-415h-128v746h-97v83h97v332h444q179 0 285.5 -86.5t120.5 -245.5h143zM408 1034v-205h590q-26 205 -279 205h-311zM717 538q258 0 281 208h-590v-208h309z" glyph-name="uni20B1" horiz-adv-x="1368" unicode="₱"/><glyph d="M754 1161q193 0 300.5 -95t107.5 -274q0 -181 -106.5 -273t-301.5 -92h-309v-140h280v-98h-280v-189h-126v189h-136v98h136v140h-136v123h136v611h435zM746 550q283 0 283 242t-283 242h-301v-484h301z" glyph-name="uni20BD" horiz-adv-x="1259" unicode="₽"/><glyph d="M855 618q85 -29 140 -109.5t55 -180.5q0 -142 -87 -235t-224 -93h-55v-159h-93v159h-77v-159h-94v159h-237v1161h237v158h94v-158h77v158h93v-158h9q128 0 207.5 -85.5t79.5 -218.5q0 -90 -42 -158.5t-83 -80.5zM686 1044h-381v-384h407q72 0 114.5 54t42.5 136 q0 89 -55 141.5t-128 52.5zM720 116q90 0 152 61.5t62 153.5q0 94 -58.5 153.5t-146.5 59.5h-424v-428h415z" glyph-name="uni20BF" horiz-adv-x="1167" unicode="₿"/><glyph d="M1766 531q-179 0 -290 114t-111 297t111 297t290 114q177 0 288.5 -113.5t111.5 -297.5q0 -179 -108.5 -295t-291.5 -116zM1034 234v1085h128v-1319h-119l-700 1082v-1082h-130v1319h122zM1770 1232q-123 0 -197.5 -81t-74.5 -209t74.5 -209t197.5 -81t197 81t74 209 t-74 209t-197 81zM1410 0v121h701v-121h-701z" glyph-name="afii61352" horiz-adv-x="2257" unicode="№"/><glyph d="M712 1251q249 0 418 -164t169 -423q0 -263 -169 -426t-418 -163t-419 164t-170 425q0 259 170 423t419 164zM712 171q210 0 350.5 135.5t140.5 357.5q0 218 -141.5 354.5t-349.5 136.5q-210 0 -352 -135.5t-142 -355.5q0 -222 142 -357.5t352 -135.5zM717 920 q113 0 169 -47t56 -131q0 -176 -225 -175h-63v-174h-101v527h164zM717 652q60 0 90.5 18.5t30.5 70.5q0 90 -121 90h-63v-179h63z" glyph-name="uni2117" horiz-adv-x="1426" unicode="℗"/><glyph d="M56 1220v99h429v-99h-162v-428h-106v428h-161zM1101 792h-104l-22 367l-113 -367h-84l-111 353l-22 -353h-104l34 527h132l114 -379l114 379h132z" glyph-name="trademark" horiz-adv-x="1191" unicode="™"/><glyph d="M372 631v-339q0 -22 15 -38q160 -160 424 -160q299 0 462 181h82q-92 -113 -236 -176t-312 -63q-285 0 -488 181q-201 179 -201 438q0 258 201.5 440.5t487.5 182.5q290 0 492 -182q203 -184 203 -441v-17h-1121q-9 0 -9 -7zM381 695h858q7 0 7 12v317q0 24 -15 41 q-159 159 -420 159q-256 0 -422 -166q-17 -12 -17 -41v-310q0 -12 9 -12z" glyph-name="estimated" horiz-adv-x="1621" unicode="℮"/><glyph d="M1125 1352l92 -53l-905 -1302l-92 49zM321 736h-113v469l-107 -39l-33 94l183 56h70v-580zM1292 304q101 -46 101 -142q0 -72 -58 -123t-163 -51q-97 0 -158.5 47t-61.5 125q0 97 99 144q-82 39 -82 128q0 73 56.5 118.5t147 45.5t147.5 -45.5t57 -117.5q0 -86 -85 -129z M1172 505q-49 0 -75.5 -22t-26.5 -61q0 -36 27.5 -59t74.5 -23q46 0 73.5 23t27.5 59q0 83 -101 83zM1172 84q53 0 83 23.5t30 63.5q0 38 -30 62.5t-82.5 24.5t-82.5 -25t-30 -62q0 -39 28.5 -63t83.5 -24z" glyph-name="oneeighth" horiz-adv-x="1469" unicode="⅛"/><glyph d="M1157 1352l92 -53l-904 -1302l-92 49zM485 906q0 -77 -55 -129.5t-167 -52.5q-67 0 -119 25.5t-74 61.5l75 63q41 -55 118 -55q55 0 81 28.5t26 66t-26.5 64.5t-80.5 27q-39 0 -68 -7l-28 81l157 138l-234 -9v108h374v-94l-159 -147q82 -7 131 -54t49 -115zM1324 304 q101 -46 101 -142q0 -72 -58 -123t-162 -51q-97 0 -158.5 47t-61.5 125q0 97 99 144q-82 39 -82 128q0 73 56 118.5t146.5 45.5t148 -45.5t57.5 -117.5q-1 -86 -86 -129zM1205 505q-49 0 -75.5 -22t-26.5 -61q0 -36 27 -59t75 -23q46 0 73.5 23t27.5 59q0 83 -101 83z M1205 84q53 0 83 23.5t30 63.5q0 38 -30 62.5t-83 24.5t-83 -25t-30 -62q0 -39 29 -63t84 -24z" glyph-name="threeeighths" horiz-adv-x="1501" unicode="⅜"/><glyph d="M1164 1352l92 -53l-904 -1302l-93 49zM495 913q0 -82 -54 -135.5t-158 -53.5q-142 0 -210 100l65 65q51 -73 138 -73q53 0 82 29t29 73q0 46 -28 76t-79 30q-48 0 -84 -29l-83 51l24 270h317v-106l-227 9l-12 -125q41 12 75 12q89 0 147 -54t58 -139zM1331 304 q101 -46 101 -142q0 -72 -58 -123t-162 -51q-97 0 -158.5 47t-61.5 125q0 97 99 144q-82 39 -82 128q0 73 56 118.5t146.5 45.5t148 -45.5t57.5 -117.5q-1 -86 -86 -129zM1212 505q-49 0 -76 -22t-27 -61q0 -36 27.5 -59t75.5 -23q46 0 73 23t27 59q1 83 -100 83zM1212 84 q53 0 82.5 23.5t29.5 63.5q0 38 -29.5 62.5t-82.5 24.5t-83 -25t-30 -62q0 -39 29 -63t84 -24z" glyph-name="fiveeighths" horiz-adv-x="1508" unicode="⅝"/><glyph d="M1082 1352l92 -53l-904 -1302l-93 49zM265 736h-122l234 481l-288 -10v109h401v-96zM1249 304q101 -46 101 -142q0 -72 -58 -123t-162 -51q-97 0 -158.5 47t-61.5 125q0 97 99 144q-82 39 -82 128q0 73 56 118.5t146.5 45.5t148 -45.5t57.5 -117.5q-1 -86 -86 -129z M1130 505q-49 0 -76 -22t-27 -61q0 -36 27.5 -59t75.5 -23q46 0 73.5 23t27.5 59q0 83 -101 83zM1130 84q53 0 82.5 23.5t29.5 63.5q0 38 -29.5 62.5t-82.5 24.5t-83 -25t-30 -62q0 -39 29 -63t84 -24z" glyph-name="seveneighths" horiz-adv-x="1426" unicode="⅞"/><glyph d="M587 1043h-136v-925h136v-118h-404v118h136v925h-136v118h404v-118z" glyph-name="uni2160" horiz-adv-x="768" unicode="Ⅰ"/><glyph d="M1000 1043h-136v-925h136v-118h-817v118h136v925h-136v118h817v-118zM732 118v925h-281v-925h281z" glyph-name="uni2161" horiz-adv-x="1179" unicode="Ⅱ"/><glyph d="M1415 1043h-137v-925h137v-118h-1232v118h136v925h-136v118h1232v-118zM451 118h281v925h-281v-925zM1147 118v925h-283v-925h283z" glyph-name="uni2162" horiz-adv-x="1595" unicode="Ⅲ"/><glyph d="M1509 1161h143l-449 -1161h-150l-403 1043h-199v-925h136v-118h-404v118h136v925h-136v118h563l382 -1024z" glyph-name="uni2163" horiz-adv-x="1710" unicode="Ⅳ"/><glyph d="M1106 1161l-449 -1161h-150l-449 1161h143l381 -1024l381 1024h143z" glyph-name="uni2164" horiz-adv-x="1163" unicode="Ⅴ"/><glyph d="M1527 1043h-136v-925h136v-118h-404v118h137v925h-200l-403 -1043h-150l-449 1161h145l379 -1024l382 1024h563v-118z" glyph-name="uni2165" horiz-adv-x="1708" unicode="Ⅵ"/><glyph d="M1940 1043h-134v-925h134v-118h-817v118h137v925h-200l-403 -1043h-150l-449 1161h145l379 -1024l382 1024h976v-118zM1674 118v925h-283v-925h283z" glyph-name="uni2166" horiz-adv-x="2121" unicode="Ⅶ"/><glyph d="M2360 1043h-136v-925h136v-118h-1237v118h137v925h-200l-403 -1043h-150l-449 1161h145l379 -1024l382 1024h1396v-118zM1391 118h283v925h-283v-925zM2092 118v925h-286v-925h286z" glyph-name="uni2167" horiz-adv-x="2541" unicode="Ⅷ"/><glyph d="M1123 591l404 -591h-151l-325 476l-324 -476h-544v118h136v925h-136v118h554l311 -460l309 460h148zM657 118l319 473l-309 452h-216v-925h206z" glyph-name="uni2168" horiz-adv-x="1580" unicode="Ⅸ"/><glyph d="M56 0l400 591l-389 570h150l310 -460l309 460h149l-383 -570l405 -591h-150l-326 476l-324 -476h-151z" glyph-name="uni2169" horiz-adv-x="1059" unicode="Ⅹ"/><glyph d="M1396 1043h-136v-925h136v-118h-543l-324 476l-326 -476h-150l403 591l-383 570h151l307 -460l310 460h555v-118zM1128 118v925h-217l-309 -452l321 -473h205z" glyph-name="uni216A" horiz-adv-x="1576" unicode="Ⅺ"/><glyph d="M1821 1043h-137v-925h137v-118h-964l-326 476l-324 -476h-151l400 591l-389 570h150l310 -460l309 460h985v-118zM927 118h213v925h-234l-304 -452zM1553 118v925h-282v-925h282z" glyph-name="uni216B" horiz-adv-x="2000" unicode="Ⅻ"/><glyph d="M314 126h700v-126h-831v1161h131v-1035z" glyph-name="uni216C" horiz-adv-x="1095" unicode="Ⅼ"/><glyph d="M1132 963l-105 -76q-58 84 -149 131t-197 47q-195 0 -315 -135t-120 -350t118.5 -350.5t316.5 -135.5q104 0 194.5 46t150.5 130l106 -75q-77 -108 -196 -165t-255 -57q-253 0 -408 169t-155 438q0 266 156 437t407 171q137 0 255.5 -58.5t195.5 -166.5z" glyph-name="uni216D" horiz-adv-x="1223" unicode="Ⅽ"/><glyph d="M701 1161q246 0 399.5 -163t153.5 -413q0 -247 -153.5 -416t-399.5 -169h-518v1161h518zM701 123q188 0 304 134t116 328q0 196 -114 324.5t-306 128.5h-389v-915h389z" glyph-name="uni216E" horiz-adv-x="1370" unicode="Ⅾ"/><glyph d="M1493 0h-129l-72 956l-434 -956h-92l-433 945l-72 -945h-130l84 1159h157l440 -970l441 970h157z" glyph-name="uni216F" horiz-adv-x="1624" unicode="Ⅿ"/><glyph d="M1376 717v-118h-1110l255 -251l-77 -78l-388 389l74 75l314 316l77 -77l-258 -256h1113z" glyph-name="arrowleft" horiz-adv-x="1430" unicode="←"/><glyph d="M865 930l-77 -77l-250 255v-1108h-120v1111l-256 -258l-77 77l316 316l75 73l75 -73v-2z" glyph-name="arrowup" horiz-adv-x="952" unicode="↑"/><glyph d="M986 1050l390 -391l-390 -389l-76 78l254 251h-1108v118h1111l-257 256z" glyph-name="arrowright" horiz-adv-x="1443" unicode="→"/><glyph d="M845 389l-314 -314v-2l-75 -73l-75 73l-316 316l77 77l256 -258v1111h119v-1107l251 254z" glyph-name="arrowdown" horiz-adv-x="911" unicode="↓"/><glyph d="M1516 734l73 -75l-389 -389l-77 78l256 251h-1113l255 -251l-77 -78l-388 389l74 75l314 316l77 -77l-258 -256h1119l-259 256l77 77z" glyph-name="arrowboth" horiz-adv-x="1646" unicode="↔"/><glyph d="M524 104l251 254l78 -76l-389 -388l-75 74l-316 314l77 76l256 -257v1119l-256 -257l-77 76l316 314l75 74l389 -388l-78 -76l-251 254v-1113z" glyph-name="arrowupdn" horiz-adv-x="926" unicode="↕"/><glyph d="M1108 234l-86 -84l-783 782l2 -357h-110l2 550l551 3v-109l-365 2z" glyph-name="uni2196" horiz-adv-x="1160" unicode="↖"/><glyph d="M474 1128l552 -3v-550h-110l4 359l-785 -784l-84 84l789 787l-366 -2v109z" glyph-name="uni2197" horiz-adv-x="1160" unicode="↗"/><glyph d="M920 724h109l-3 -552l-550 -1v109l357 -2l-782 784l84 85l787 -789z" glyph-name="uni2198" horiz-adv-x="1162" unicode="↘"/><glyph d="M1109 1062l-781 -784l356 2v-109l-549 1l-4 552h110l-2 -366l787 789z" glyph-name="uni2199" horiz-adv-x="1162" unicode="↙"/><glyph d="M573 1234q196 0 305.5 -159.5t109.5 -424.5q0 -297 -128 -486.5t-362 -189.5q-183 0 -277.5 117t-83.5 288q10 188 127 293t284 105q118 0 195.5 -63.5t113.5 -160.5q3 61 3 94q0 97 -16 179t-50.5 147.5t-92.5 103t-136 37.5q-138 0 -246 -99l-80 91q60 56 149 92 t185 36zM512 96q229 0 311 268q-10 113 -79.5 204t-193.5 91q-131 0 -203 -79.5t-81 -200.5q-9 -116 56 -199.5t190 -83.5z" glyph-name="partialdiff" horiz-adv-x="1121" unicode="∂"/><glyph d="M1138 920l-131 -132q99 -131 99 -319q0 -215 -130.5 -355.5t-350.5 -140.5q-189 0 -323 111l-125 -125l-69 70l128 128q-96 128 -96 312q0 220 134 358.5t351 138.5q188 0 314 -106l129 130zM263 469q0 -130 60 -225l532 533q-96 79 -230 78q-166 0 -264 -108.5 t-98 -277.5zM983 469q0 135 -63 232l-534 -534q97 -84 239 -83q162 0 260 108t98 277z" glyph-name="emptyset" horiz-adv-x="1245" unicode="∅"/><glyph d="M992 1319v-128h-178v-1191h-133v1191h-287v-1191h-131v1191h-181v128h910z" glyph-name="product" horiz-adv-x="1097" unicode="∏"/><glyph d="M858 1161v-128l-595 5l380 -591l-382 -594l597 5v-128h-740v122h1l-1 1l380 594l-380 592v122h740z" glyph-name="summation" horiz-adv-x="965" unicode="∑"/><glyph d="M811 766v-123h-674l-2 125z" glyph-name="minus" horiz-adv-x="947" unicode="−"/><glyph d="M910 876q126 0 205.5 -78t79.5 -199t-79.5 -199.5t-204.5 -78.5q-167 0 -271 177q-108 -177 -271 -177q-121 0 -200.5 78.5t-79.5 201.5q0 121 80 198t206 77q176 0 270 -171q49 84 109 127.5t156 43.5zM365 422q75 0 124.5 44t99.5 136q-39 92 -88.5 133.5t-125.5 41.5 q-87 0 -139 -48t-52 -128q0 -82 49.5 -130.5t131.5 -48.5zM915 422q84 0 134 48.5t50 128.5t-51 129t-138 49q-77 0 -119.5 -40.5t-95.5 -139.5q48 -97 99 -136t121 -39z" glyph-name="infinity" horiz-adv-x="1281" unicode="∞"/><glyph d="M-82 -512v126h79q80 0 123.5 43t43.5 123v1242q0 135 81 216t214 81h80v-126h-78q-79 0 -122.5 -43.5t-43.5 -122.5v-1242q0 -135 -81 -216t-216 -81h-80z" glyph-name="integral" horiz-adv-x="597" unicode="∫"/><glyph d="M282 742h-122q0 102 61 165.5t154 63.5q77 0 169.5 -60.5t141.5 -60.5q97 0 97 109h122q0 -104 -61 -165.5t-155 -61.5q-77 0 -168 61.5t-140 61.5q-99 0 -99 -113zM282 444h-122q0 102 61 164.5t154 62.5q77 0 169.5 -60.5t141.5 -60.5q97 0 97 110h122 q0 -104 -61 -165.5t-155 -61.5q-75 0 -166 61.5t-142 61.5q-99 1 -99 -112z" glyph-name="approxequal" horiz-adv-x="1066" unicode="≈"/><glyph d="M867 1113l-138 -208h133v-118h-212l-123 -186h335v-118h-415l-196 -295l-82 53l160 242h-167l-2 119h250l122 185h-370l-2 119l451 -1l174 262z" glyph-name="notequal" horiz-adv-x="1032" unicode="≠"/><glyph d="M736 806l-497 -190l497 -184l-33 -113l-592 229v135l592 237zM111 125v109l625 2l-2 -111h-623z" glyph-name="lessequal" horiz-adv-x="872" unicode="≤"/><glyph d="M167 920l591 -237v-135l-591 -229l-32 113l496 184l-496 190zM137 125l-2 111l623 -2v-109h-621z" glyph-name="greaterequal" horiz-adv-x="872" unicode="≥"/><glyph d="M633 1161l403 -591l-403 -570h-124l-401 570l401 591h124zM251 572l302 -441h36l302 441l-304 457h-32z" glyph-name="lozenge" horiz-adv-x="1140" unicode="◊"/><glyph d="M614 445l-298 -199l104 345l-285 218l357 12l122 340l122 -340l358 -12l-283 -218l102 -345z" glyph-name="uni2605" horiz-adv-x="1228" unicode="★"/><glyph d="M614 445l-298 -199l104 345l-285 218l357 12l122 340l122 -340l358 -12l-283 -218l102 -345zM614 550l157 -106l-54 181l150 114l-189 7l-64 179l-63 -179l-189 -7l152 -114l-57 -181z" glyph-name="uni2606" horiz-adv-x="1228" unicode="☆"/><glyph d="M1548 116l22 -109q-154 -55 -229 -3t-76 170v121q-73 -155 -211 -241t-325 -86q-280 0 -445.5 192t-165.5 499t166.5 500t444.5 193q189 0 325.5 -85.5t210.5 -240.5v293h131v-1128q0 -63 34 -80t118 5zM758 96q229 0 368 157t139 406q0 251 -139.5 408.5t-367.5 157.5 q-230 0 -369.5 -157t-139.5 -409q0 -249 138.5 -406t370.5 -157z" glyph-name="uni2C6D" horiz-adv-x="1664" unicode="Ɑ"/><glyph d="M68 1319h1072v-126h-1072v126zM68 876v126h1072v-126h-471v-876h-130v876h-471z" glyph-name="uni3012" horiz-adv-x="1211" unicode="〒"/><glyph d="M1000 973q51 -171 51 -398q0 -58 -13 -118q-3 -9 -9 -1q-9 19 -21.5 35t-21.5 24l-10 7q2 -3 5.5 -9t12 -25t12 -36t5 -43.5t-6.5 -48.5q-17 -48 -59 -84q-7 -3 -6 4q-2 17 -8 30.5t-11 20.5l-5 5q0 -5 -1 -12.5t-8.5 -31.5t-18.5 -46t-37 -51t-60 -52q-2 0 -4.5 -1.5 t-4 -3t-3.5 -1.5q-5 -3 -8.5 -1t0.5 7q5 12 7.5 23t0.5 17v5q-5 -9 -15 -24.5t-50.5 -45t-87.5 -43.5q-48 14 -87.5 42t-54.5 50l-15 21q-5 -19 6 -45q2 -5 0.5 -7.5t-6.5 1.5q-3 2 -7.5 4t-6.5 2q-55 36 -85.5 84t-33.5 78l-6 31q-19 -19 -24 -56q0 -7 -6 -4q-41 34 -57 84 q-10 43 -4 78.5t18 59.5l14 24q-34 -26 -53 -66q-9 -10 -10 1q-14 60 -14 118q0 101 12.5 201t26.5 149l12 48q3 15 12 17q114 31 210 43l14 34q2 2 3 1q44 -15 61 -10q38 9 76 75q2 3 5 0q38 -67 75 -75q22 -5 61 10q3 0 4 -1l13 -34q68 -9 210 -43q9 -3 12 -17zM415 975 q-2 0 3 -26.5t10 -54.5l5 -27q41 39 96 39h3q14 0 28 -5q24 -7 40 -24t21 -30l4 -12q2 3 3.5 7.5t4 18t0.5 23.5q20 12 40 18t36 5t31.5 -4.5t26 -9.5t19 -11.5t13.5 -11.5l3 -3l15 111l-58 -44l-29 87l-58 -58l-56 100l-60 -97l-51 58l-31 -92zM350 823q20 -2 31 -21 q15 15 41 26q-5 10 -16.5 17.5t-19.5 11.5l-11 1l23 14q-56 14 -86 -39q-14 -29 -9.5 -53t16.5 -39l12 -14q3 17 15 36q9 15 10 29.5t-3 23.5zM903 727q5 5 11 14.5t15.5 38.5t-7.5 53q-14 24 -35.5 33.5t-36.5 7.5l-14 -2l22 -14q-34 -9 -46 -30q24 -10 43 -26q5 9 12 14 t12 7h5q-15 -24 3 -58zM816 561q9 0 17 -5t14 -10l3 -5q0 58 -39 82q2 7 4 17t1.5 39t-9 51.5t-37 43.5t-72.5 26l15 21q-63 7 -97 -46q-15 24 -40 35t-40 11h-17q15 -14 15 -21q-70 -9 -98 -53t-21 -85l7 -39q-17 -10 -27.5 -30.5t-12.5 -36.5v-15q15 20 34 20 q-3 -5 -7.5 -13.5t-8.5 -39t11 -61.5l21 -37q20 24 44 42q-19 31 -19 58q0 48 43 87q-24 -41 -19 -82q12 -39 33 -39q10 0 46 25.5t41 39.5q10 27 1 50q-12 10 -28 17.5t-26 9.5l-10 3q7 20 22 29q7 3 28 -2.5t28 -5.5t28.5 6t28 2.5t11.5 -11.5t7 -13l2 -5q-39 -7 -63 -30 q-3 -5 -2.5 -21.5t5.5 -28.5q3 -14 39 -39.5t48 -25.5q7 0 17.5 13t13.5 26q5 41 -19 82q41 -38 41 -87q0 -12 -4 -26.5t-8 -22.5l-5 -9l44 -42q10 14 19 37q12 36 12 61.5t-8 39.5zM480 707l-26 15q60 -3 94 -15q-3 -17 -13.5 -36t-19.5 -29l-6 -12l3 30h-10q-12 0 -21.5 9 t-9.5 19t9 19zM724 630q-27 32 -38 77q15 5 38.5 9t40.5 4l15 2l-24 -14q5 -10 5 -17q0 -29 -31 -29q-2 0 -5 1t-5 1zM674 369q14 12 22.5 29t10.5 27v10q-17 24 -48 48t-43 24t-42.5 -24t-46.5 -48q-5 -39 28 -60v14q31 -24 61 -24q14 0 34 7q22 10 22 27q3 -7 4.5 -14.5 t-0.5 -12.5z" glyph-name="uniF8FF" horiz-adv-x="1242" unicode=""/><glyph d="M757.5 1352q286.5 0 462.5 -193t176 -500q0 -304 -176.5 -497.5t-461.5 -193.5q-288 0 -464 192.5t-176 498t176.5 499.5t463 194zM476 980l87 -60q73 104 188 104q72 0 117 -44.5t45 -114.5q0 -82 -61.5 -134.5t-177.5 -52.5l22 -205h91l12 123q102 20 165 92.5 t63 176.5q0 109 -75 183.5t-201 74.5q-94 0 -166.5 -41.5t-108.5 -101.5zM739 343q-26 0 -42 -18t-16 -45q0 -31 16 -49t43.5 -18t43.5 19t16 48q0 27 -17 45t-44 18z" glyph-name="uniFFFD" horiz-adv-x="1515" unicode="�"/><glyph d="M1137 0q-44 176 -101 357h-741q-61 -193 -99 -357h-138q184 754 534 1319h147q353 -572 534 -1319h-136zM338 485h654q-135 379 -326 708q-186 -307 -328 -708z" glyph-name="A.salt" horiz-adv-x="1331"/><glyph d="M910 1596l-345 -159l-33 61l323 214zM1137 0q-44 176 -101 357h-741q-61 -193 -99 -357h-138q184 754 534 1319h147q353 -572 534 -1319h-136zM338 485h654q-135 379 -326 708q-186 -307 -328 -708z" glyph-name="Aacute.salt" horiz-adv-x="1331"/><glyph d="M665.5 1478q-105.5 0 -174 59.5t-81.5 162.5h107q12 -51 50.5 -85.5t98.5 -34.5q114 0 146 120h106q-14 -99 -80.5 -160.5t-172 -61.5zM1137 0q-44 176 -101 357h-741q-61 -193 -99 -357h-138q184 754 534 1319h147q353 -572 534 -1319h-136zM338 485h654 q-135 379 -326 708q-186 -307 -328 -708z" glyph-name="Abreve.salt" horiz-adv-x="1331"/><glyph d="M712 1466h-91l-170 203l66 58l150 -155l144 155l68 -58zM1137 0q-44 176 -101 357h-741q-61 -193 -99 -357h-138q184 754 534 1319h147q353 -572 534 -1319h-136zM338 485h654q-135 379 -326 708q-186 -307 -328 -708z" glyph-name="uni01CD.salt" horiz-adv-x="1331"/><glyph d="M666 1633l-151 -155l-66 60l171 201h90l167 -201l-68 -60zM1137 0q-44 176 -101 357h-741q-61 -193 -99 -357h-138q184 754 534 1319h147q353 -572 534 -1319h-136zM338 485h654q-135 379 -326 708q-186 -307 -328 -708z" glyph-name="Acircumflex.salt" horiz-adv-x="1331"/><glyph d="M491.5 1521q-37.5 0 -60.5 24.5t-23 63.5q0 41 23 66t60.5 25t60.5 -25.5t23 -65t-23 -64t-60.5 -24.5zM839.5 1521q-37.5 0 -60.5 24.5t-23 63.5q0 41 23 66t60.5 25t60.5 -25.5t23 -65t-23 -64t-60.5 -24.5zM1137 0q-44 176 -101 357h-741q-61 -193 -99 -357h-138 q184 754 534 1319h147q353 -572 534 -1319h-136zM338 485h654q-135 379 -326 708q-186 -307 -328 -708z" glyph-name="Adieresis.salt" horiz-adv-x="1331"/><glyph d="M790 1498l-32 -61l-345 159l55 116zM1137 0q-44 176 -101 357h-741q-61 -193 -99 -357h-138q184 754 534 1319h147q353 -572 534 -1319h-136zM338 485h654q-135 379 -326 708q-186 -307 -328 -708z" glyph-name="Agrave.salt" horiz-adv-x="1331"/><glyph d="M966 1661v-106h-597v106h597zM1137 0q-44 176 -101 357h-741q-61 -193 -99 -357h-138q184 754 534 1319h147q353 -572 534 -1319h-136zM338 485h654q-135 379 -326 708q-186 -307 -328 -708z" glyph-name="Amacron.salt" horiz-adv-x="1331"/><glyph d="M1237 -253l58 -58q-75 -90 -158 -90q-79 0 -120.5 41t-40.5 107q0 113 161 253q-44 176 -101 357h-741q-61 -193 -99 -357h-138q184 754 534 1319h147q353 -572 534 -1319h-44q-145 -159 -145 -232q0 -32 17 -52.5t46 -20.5q49 -1 90 52zM338 485h654q-135 379 -326 708 q-186 -307 -328 -708z" glyph-name="Aogonek.salt" horiz-adv-x="1331"/><glyph d="M665.5 1428q-78.5 0 -127 53t-48.5 137q0 85 47 135.5t129 50.5q79 0 127 -52t48 -134q0 -79 -48.5 -134.5t-127 -55.5zM666 1715q-41 0 -66 -27t-25 -70t25 -71t66 -28t65.5 29t24.5 70q0 43 -25.5 70t-64.5 27zM1137 0q-44 176 -101 357h-741q-61 -193 -99 -357h-138 q184 754 534 1319h147q353 -572 534 -1319h-136zM338 485h654q-135 379 -326 708q-186 -307 -328 -708z" glyph-name="Aring.salt" horiz-adv-x="1331"/><glyph d="M543 1604q-79 0 -79 -95h-106q0 90 52.5 144.5t128.5 54.5q61 0 135.5 -51t113.5 -51q75 0 76 94h105q0 -92 -50 -146t-127 -54q-63 0 -136.5 52t-112.5 52zM1137 0q-44 176 -101 357h-741q-61 -193 -99 -357h-138q184 754 534 1319h147q353 -572 534 -1319h-136z M338 485h654q-135 379 -326 708q-186 -307 -328 -708z" glyph-name="Atilde.salt" horiz-adv-x="1331"/><glyph d="M1396 659v-24q0 -292 -178.5 -478t-463.5 -186q-287 0 -461.5 192t-174.5 499q0 309 175.5 500t464.5 191q171 0 304.5 -70t217.5 -199l-113 -65q-148 213 -413 213q-229 0 -367 -160.5t-138 -411t137.5 -409.5t367.5 -159q203 0 338 124t166 320h-413v123h551z" glyph-name="G.salt" horiz-adv-x="1515"/><glyph d="M754.5 1478q-105.5 0 -174 59.5t-82.5 162.5h108q12 -51 50.5 -85.5t97.5 -34.5q114 0 147 120h106q-14 -99 -80.5 -160.5t-172 -61.5zM1396 659v-24q0 -292 -178.5 -478t-463.5 -186q-287 0 -461.5 192t-174.5 499q0 309 175.5 500t464.5 191q171 0 304.5 -70 t217.5 -199l-113 -65q-148 213 -413 213q-229 0 -367 -160.5t-138 -411t137.5 -409.5t367.5 -159q203 0 338 124t166 320h-413v123h551z" glyph-name="Gbreve.salt" horiz-adv-x="1515"/><glyph d="M800 1466h-90l-171 203l67 58l150 -155l143 155l69 -58zM1396 659v-24q0 -292 -178.5 -478t-463.5 -186q-287 0 -461.5 192t-174.5 499q0 309 175.5 500t464.5 191q171 0 304.5 -70t217.5 -199l-113 -65q-148 213 -413 213q-229 0 -367 -160.5t-138 -411t137.5 -409.5 t367.5 -159q203 0 338 124t166 320h-413v123h551z" glyph-name="Gcaron.salt" horiz-adv-x="1515"/><glyph d="M1396 659v-24q0 -292 -178.5 -478t-463.5 -186q-287 0 -461.5 192t-174.5 499q0 309 175.5 500t464.5 191q171 0 304.5 -70t217.5 -199l-113 -65q-148 213 -413 213q-229 0 -367 -160.5t-138 -411t137.5 -409.5t367.5 -159q203 0 338 124t166 320h-413v123h551zM756 -135 q92 0 92 -114q0 -152 -147 -188l-17 60q60 17 82 56h-10q-38 0 -62.5 26.5t-24.5 65.5q0 41 24.5 67.5t62.5 26.5z" glyph-name="Gcommaaccent.salt" horiz-adv-x="1515"/><glyph d="M756 1512q-43 0 -67.5 27.5t-24.5 71.5t24.5 71.5t67.5 27.5q41 0 66.5 -27.5t25.5 -71.5q0 -43 -25.5 -71t-66.5 -28zM1396 659v-24q0 -292 -178.5 -478t-463.5 -186q-287 0 -461.5 192t-174.5 499q0 309 175.5 500t464.5 191q171 0 304.5 -70t217.5 -199l-113 -65 q-148 213 -413 213q-229 0 -367 -160.5t-138 -411t137.5 -409.5t367.5 -159q203 0 338 124t166 320h-413v123h551z" glyph-name="Gdotaccent.salt" horiz-adv-x="1515"/><glyph d="M319 0h-131v1319h131v-1319zM188 -256l99 73q108 -147 290 -146q160 0 251.5 115t91.5 311v1222h131v-1229q0 -241 -120 -392.5t-349 -151.5q-126 0 -229.5 53t-164.5 145z" glyph-name="IJ.aalt" horiz-adv-x="1232"/><glyph d="M445 1319v-1355q0 -171 -87 -299t-225 -196l-53 118l24 14q24 12 57.5 42.5t67.5 71.5t58 106t24 138v1360h134z" glyph-name="J.salt" horiz-adv-x="626"/><glyph d="M1650 0h-131q-26 492 -220 1121l-360 -1121h-84l-362 1109q-75 -218 -139 -517.5t-78 -591.5h-131q12 285 89 647t188 671h136l340 -1036l334 1036h142q106 -295 184 -650.5t92 -667.5z" glyph-name="M.salt" horiz-adv-x="1795"/><glyph d="M1142 1596l-345 -159l-32 61l322 214zM1650 0h-131q-26 492 -220 1121l-360 -1121h-84l-362 1109q-75 -218 -139 -517.5t-78 -591.5h-131q12 285 89 647t188 671h136l340 -1036l334 1036h142q106 -295 184 -650.5t92 -667.5z" glyph-name="uni1E3E.salt" horiz-adv-x="1795"/><glyph d="M1208 1319h133v-1319h-134q0 56 -15.5 111t-37 98.5t-63 92t-74 81t-93 80t-95.5 73t-105 73.5q-108 77 -156.5 113t-126 105t-127.5 130v-957h-131v1319h133q0 -79 29.5 -153t67.5 -127t114.5 -120t125 -103t144.5 -103q106 -75 159 -113.5t129 -105t123 -127.5v952z " glyph-name="N.salt" horiz-adv-x="1524"/><glyph d="M1027 1596l-344 -159l-33 61l323 214zM1208 1319h133v-1319h-134q0 56 -15.5 111t-37 98.5t-63 92t-74 81t-93 80t-95.5 73t-105 73.5q-108 77 -156.5 113t-126 105t-127.5 130v-957h-131v1319h133q0 -79 29.5 -153t67.5 -127t114.5 -120t125 -103t144.5 -103 q106 -75 159 -113.5t129 -105t123 -127.5v952z" glyph-name="Nacute.salt" horiz-adv-x="1524"/><glyph d="M829 1466h-90l-171 203l67 58l150 -155l143 155l69 -58zM1208 1319h133v-1319h-134q0 56 -15.5 111t-37 98.5t-63 92t-74 81t-93 80t-95.5 73t-105 73.5q-108 77 -156.5 113t-126 105t-127.5 130v-957h-131v1319h133q0 -79 29.5 -153t67.5 -127t114.5 -120t125 -103 t144.5 -103q106 -75 159 -113.5t129 -105t123 -127.5v952z" glyph-name="Ncaron.salt" horiz-adv-x="1524"/><glyph d="M1208 1319h133v-1319h-134q0 56 -15.5 111t-37 98.5t-63 92t-74 81t-93 80t-95.5 73t-105 73.5q-108 77 -156.5 113t-126 105t-127.5 130v-957h-131v1319h133q0 -79 29.5 -153t67.5 -127t114.5 -120t125 -103t144.5 -103q106 -75 159 -113.5t129 -105t123 -127.5v952z M775 -135q92 0 92 -114q0 -152 -147 -188l-17 60q60 17 82 56h-10q-38 0 -62.5 26.5t-24.5 65.5q0 41 24.5 67.5t62.5 26.5z" glyph-name="Ncommaaccent.salt" horiz-adv-x="1524"/><glyph d="M1345 -225l80 -80q-148 -150 -312 -151q-79 0 -156.5 41t-151 82t-143.5 41q-90 0 -222 -87l-36 -24l-81 82l433 292q-288 0 -463 193t-175 498.5t175 497.5t463 192t463 -191.5t175 -498.5q0 -205 -83.5 -364.5t-231.5 -244.5l-343 -232q58 -14 178 -85t197 -71 q121 1 234 110zM249 662q0 -251 137.5 -407t369.5 -156q236 0 371.5 155.5t135.5 408t-136.5 407.5t-370.5 155q-232 0 -369.5 -156t-137.5 -407z" glyph-name="Q.salt" horiz-adv-x="1542"/><glyph d="M814 495q41 -41 79.5 -114.5t65 -123.5t91 -89.5t165.5 -39.5v-128q-104 0 -178 26.5t-115 69t-72 94.5t-58 104t-61.5 95t-95 69.5t-147.5 26.5h-174v-485h-131v1319h493q242 0 377 -109t135 -305q0 -169 -97.5 -275t-276.5 -135zM314 609h362q179 0 279 73.5t100 220.5 q0 145 -100 217.5t-279 72.5h-362v-584z" glyph-name="R.salt" horiz-adv-x="1268"/><glyph d="M1287 1318q-188 -722 -539 -1318h-151q-352 594 -539 1318h142q188 -693 471 -1187q152 254 274.5 572.5t197.5 614.5h144z" glyph-name="V.salt" horiz-adv-x="1343"/><glyph d="M1572 1318q-12 -285 -89 -647t-188 -671h-136l-340 995l-334 -995h-142q-106 295 -184.5 650t-91.5 668h131q26 -515 218 -1125l362 1084h84l363 -1079q73 224 137.5 531t77.5 589h132z" glyph-name="W.salt" horiz-adv-x="1641"/><glyph d="M719 1437l-33 61l323 214l54 -116zM1572 1318q-12 -285 -89 -647t-188 -671h-136l-340 995l-334 -995h-142q-106 295 -184.5 650t-91.5 668h131q26 -515 218 -1125l362 1084h84l363 -1079q73 224 137.5 531t77.5 589h132z" glyph-name="Wacute.salt" horiz-adv-x="1641"/><glyph d="M773 1739h91l167 -201l-68 -60l-144 155l-150 -155l-67 60zM1572 1318q-12 -285 -89 -647t-188 -671h-136l-340 995l-334 -995h-142q-106 295 -184.5 650t-91.5 668h131q26 -515 218 -1125l362 1084h84l363 -1079q73 224 137.5 531t77.5 589h132z" glyph-name="Wcircumflex.salt" horiz-adv-x="1641"/><glyph d="M645.5 1700q37.5 0 60.5 -25.5t23 -65t-23 -64t-60.5 -24.5t-61 24.5t-23.5 63.5q0 41 23.5 66t61 25zM993.5 1700q37.5 0 60.5 -25.5t23 -65t-23 -64t-60.5 -24.5t-60.5 24.5t-23 63.5q0 41 23 66t60.5 25zM1572 1318q-12 -285 -89 -647t-188 -671h-136l-340 995 l-334 -995h-142q-106 295 -184.5 650t-91.5 668h131q26 -515 218 -1125l362 1084h84l363 -1079q73 224 137.5 531t77.5 589h132z" glyph-name="Wdieresis.salt" horiz-adv-x="1641"/><glyph d="M911 1437l-344 159l54 116l323 -214zM1572 1318q-12 -285 -89 -647t-188 -671h-136l-340 995l-334 -995h-142q-106 295 -184.5 650t-91.5 668h131q26 -515 218 -1125l362 1084h84l363 -1079q73 224 137.5 531t77.5 589h132z" glyph-name="Wgrave.salt" horiz-adv-x="1641"/><glyph d="M1159 1318q-171 -492 -487 -845v-473h-133v473q-159 183 -284 405.5t-202 439.5h140q164 -447 413 -736q239 270 413 736h140z" glyph-name="Y.salt" horiz-adv-x="1211"/><glyph d="M850 1596l-345 -159l-32 61l322 214zM1159 1318q-171 -492 -487 -845v-473h-133v473q-159 183 -284 405.5t-202 439.5h140q164 -447 413 -736q239 270 413 736h140z" glyph-name="Yacute.salt" horiz-adv-x="1211"/><glyph d="M606 1633l-150 -155l-67 60l171 201h90l167 -201l-68 -60zM1159 1318q-171 -492 -487 -845v-473h-133v473q-159 183 -284 405.5t-202 439.5h140q164 -447 413 -736q239 270 413 736h140z" glyph-name="Ycircumflex.salt" horiz-adv-x="1211"/><glyph d="M431.5 1521q-37.5 0 -60.5 24.5t-23 63.5q0 41 23 66t60.5 25t60.5 -25.5t23 -65t-23 -64t-60.5 -24.5zM779.5 1521q-37.5 0 -60.5 24.5t-23 63.5q0 41 23 66t60.5 25t61 -25.5t23.5 -65t-23.5 -64t-61 -24.5zM1159 1318q-171 -492 -487 -845v-473h-133v473 q-159 183 -284 405.5t-202 439.5h140q164 -447 413 -736q239 270 413 736h140z" glyph-name="Ydieresis.salt" horiz-adv-x="1211"/><glyph d="M730 1498l-32 -61l-345 159l55 116zM1159 1318q-171 -492 -487 -845v-473h-133v473q-159 183 -284 405.5t-202 439.5h140q164 -447 413 -736q239 270 413 736h140z" glyph-name="Ygrave.salt" horiz-adv-x="1211"/><glyph d="M483 1604q-79 0 -79 -95h-105q0 90 52 144.5t129 54.5q61 0 135 -51t114 -51q75 0 75 94h106q0 -92 -50.5 -146t-127.5 -54q-63 0 -136.5 52t-112.5 52zM1159 1318q-171 -492 -487 -845v-473h-133v473q-159 183 -284 405.5t-202 439.5h140q164 -447 413 -736 q239 270 413 736h140z" glyph-name="uni1EF8.salt" horiz-adv-x="1211"/><glyph d="M497 966q188 0 307 -103.5t119 -292.5v-570h-116l-13 114v2q-121 -138 -342 -138q-171 0 -268 78.5t-97 219.5q0 143 112 218.5t284 75.5q154 0 311 -56v65q0 128 -84 196t-213 68q-167 0 -301 -87l-56 113q156 97 357 97zM464 96q155 0 242.5 80t87.5 193v29 q-133 61 -294 61q-126 0 -204 -43.5t-78 -135.5q0 -184 246 -184z" glyph-name="a.salt" horiz-adv-x="1041"/><glyph d="M229 1329q41 0 66.5 -27t25.5 -71q0 -43 -25.5 -71t-66.5 -28q-43 0 -67.5 27t-24.5 71.5t24.5 71.5t67.5 27zM290 0h-130v939h130v-939z" glyph-name="i.locl" horiz-adv-x="450"/><glyph d="M263 0h-130v1425h130v-1425z" glyph-name="l.salt" horiz-adv-x="401"/><glyph d="M97 1568l-32 62l322 213l55 -116zM263 0h-130v1425h130v-1425z" glyph-name="lacute.salt" horiz-adv-x="401"/><glyph d="M445 1060l-68 20l79 379l121 -42zM263 0h-130v1425h130v-1425z" glyph-name="lcaron.salt" horiz-adv-x="401"/><glyph d="M263 1425v-1425h-130v1425h130zM201 -135q92 0 93 -114q0 -152 -147 -188l-17 60q60 17 82 56h-11q-38 0 -62.5 26.5t-24.5 65.5q0 41 24.5 67.5t62.5 26.5z" glyph-name="lcommaaccent.salt" horiz-adv-x="401"/><glyph d="M550 901v-118l-146 -66v-717h-131v657l-140 -63v119l140 64v648h131v-589z" glyph-name="lslash.salt" horiz-adv-x="687"/><glyph d="M422 -24q-220 0 -349 125l65 87q113 -109 285 -109q97 0 160.5 35.5t63.5 105.5q0 61 -55.5 95.5t-134 50.5t-158 36.5t-135 73.5t-55.5 140q0 113 89.5 178.5t228.5 65.5q203 0 324 -121l-77 -79q-99 99 -247 99q-90 0 -144 -33t-54 -98q0 -63 56 -98t135.5 -51t159 -36 t135.5 -73t56 -141q0 -119 -97.5 -186t-251.5 -67z" glyph-name="glyph630" horiz-adv-x="860"/><glyph d="M631 481q164 0 270 -126t106 -340q0 -208 -106.5 -330t-292.5 -122q-157 0 -280 77l71 101q89 -56 202 -57q128 0 202 96.5t74 241.5q0 147 -72.5 245t-191.5 98q-63 0 -116 -20l-57 97l331 375l-464 -1v-816h-130v816h-98v123h98v164q0 128 48 214t123 117.5t159 31.5 t162 -32v-115q-97 34 -177.5 34t-132.5 -62t-52 -178v-174h621v-122z" glyph-name="germandbls.salt" horiz-adv-x="1056"/><glyph d="M1055 940q-162 -507 -427 -940h-148q-263 433 -427 940h136q148 -459 364 -824q213 355 367 824h135z" glyph-name="v.ss02" horiz-adv-x="1109"/><glyph d="M1225 939h135q-102 -498 -310 -939h-140l-198 700l-197 -700h-141q-220 469 -307 939h134q63 -370 231 -775l210 712h140l211 -714q138 335 232 777z" glyph-name="w.salt" horiz-adv-x="1426"/><glyph d="M956 1215l-345 -159l-32 62l322 213zM1225 939h135q-102 -498 -310 -939h-140l-198 700l-197 -700h-141q-220 469 -307 939h134q63 -370 231 -775l210 712h140l211 -714q138 335 232 777z" glyph-name="wacute.salt" horiz-adv-x="1426"/><glyph d="M712 1253l-151 -156l-66 60l171 202h90l167 -202l-68 -60zM1225 939h135q-102 -498 -310 -939h-140l-198 700l-197 -700h-141q-220 469 -307 939h134q63 -370 231 -775l210 712h140l211 -714q138 335 232 777z" glyph-name="wcircumflex.salt" horiz-adv-x="1426"/><glyph d="M537.5 1140q-37.5 0 -60.5 25t-23 64q0 41 23 65.5t60.5 24.5t60.5 -25.5t23 -64.5t-23 -64t-60.5 -25zM885.5 1140q-37.5 0 -60.5 25t-23 64q0 41 23 65.5t60.5 24.5t60.5 -25.5t23 -64.5t-23 -64t-60.5 -25zM1225 939h135q-102 -498 -310 -939h-140l-198 700l-197 -700 h-141q-220 469 -307 939h134q63 -370 231 -775l210 712h140l211 -714q138 335 232 777z" glyph-name="wdieresis.salt" horiz-adv-x="1426"/><glyph d="M836 1118l-32 -62l-345 159l55 116zM1225 939h135q-102 -498 -310 -939h-140l-198 700l-197 -700h-141q-220 469 -307 939h134q63 -370 231 -775l210 712h140l211 -714q138 335 232 777z" glyph-name="wgrave.salt" horiz-adv-x="1426"/><glyph d="M797 939h137l-570 -1451h-137l201 507l-375 944h136l308 -787z" glyph-name="y.salt" horiz-adv-x="981"/><glyph d="M727 1215l-345 -159l-32 62l322 213zM797 939h137l-570 -1451h-137l201 507l-375 944h136l308 -787z" glyph-name="yacute.salt" horiz-adv-x="981"/><glyph d="M483 1253l-150 -156l-67 60l171 202h90l168 -202l-69 -60zM797 939h137l-570 -1451h-137l201 507l-375 944h136l308 -787z" glyph-name="ycircumflex.salt" horiz-adv-x="981"/><glyph d="M308.5 1140q-37.5 0 -60.5 25t-23 64q0 41 23 65.5t60.5 24.5t61 -25.5t23.5 -64.5t-23.5 -64t-61 -25zM657.5 1140q-37.5 0 -61 25t-23.5 64q0 41 23.5 65.5t61 24.5t60.5 -25.5t23 -64.5t-23 -64t-60.5 -25zM797 939h137l-570 -1451h-137l201 507l-375 944h136 l308 -787z" glyph-name="ydieresis.salt" horiz-adv-x="981"/><glyph d="M797 939h137l-570 -1451h-137l201 507l-375 944h136l308 -787zM591 -348q41 0 66.5 -28t25.5 -71q0 -44 -25 -71.5t-67.5 -27.5t-67.5 27t-25 71.5t25 72t68 27.5z" glyph-name="uni1EF5.salt" horiz-adv-x="981"/><glyph d="M608 1118l-33 -62l-345 159l55 116zM797 939h137l-570 -1451h-137l201 507l-375 944h136l308 -787z" glyph-name="ygrave.salt" horiz-adv-x="981"/><glyph d="M522 1340q-46 0 -89 -51l-59 58q67 89 160 88q79 2 120 -39t41 -107q0 -17 -3.5 -35t-12 -34.5t-14.5 -30t-20.5 -30t-22.5 -25.5t-25.5 -25.5t-23 -20.5t-23.5 -20l-19 -17h-91q9 9 31 33t30.5 34t25.5 29.5t25 32.5t18 29t13.5 30.5t3.5 28.5q0 31 -17 51.5t-48 20.5z M797 939h137l-570 -1451h-137l201 507l-375 944h136l308 -787z" glyph-name="uni1EF7.salt" horiz-adv-x="981"/><glyph d="M365 1224q-79 0 -78 -96h-106q0 90 52 145t129 55q61 0 135.5 -51.5t113.5 -51.5q75 0 75 94h106q0 -92 -50.5 -145.5t-127.5 -53.5q-63 0 -136.5 52t-112.5 52zM797 939h137l-570 -1451h-137l201 507l-375 944h136l308 -787z" glyph-name="uni1EF9.salt" horiz-adv-x="981"/><glyph d="M314 1319v-1196h741v-123h-872v1319h131zM1606 0h-138l-156 381h-793l394 938h145zM703 503h560l-278 685z" glyph-name="L_A.dlig" horiz-adv-x="1664"/><glyph d="M1012 374q-215 0 -346.5 135.5t-131.5 354t131.5 354t346.5 135.5q212 0 344 -134.5t132 -354.5q0 -213 -129.5 -351.5t-346.5 -138.5zM314 1319v-1189h1150v-130h-1281v1319h131zM1012 1231q-157 0 -250 -102t-93 -265q0 -162 93 -264.5t250 -102.5q154 0 247.5 103 t93.5 264q0 164 -93 265.5t-248 101.5z" glyph-name="L_O.dlig" horiz-adv-x="1605"/><glyph d="M1632 966q343 0 343 -410v-556h-134l2 560q0 278 -230 278q-189 0 -314 -263v-575h-132v1297q-67 15 -103.5 21t-96 9.5t-101.5 -16t-69 -60.5q-39 -56 -29 -129.5t48.5 -140t99.5 -133.5q36 -32 62 -68l-104 -68q-96 135 -285 135q-160 0 -254 -106t-94 -272 q0 -167 93.5 -272t254.5 -105q183 0 285 135l102 -70q-131 -184 -387 -184q-218 0 -349 136.5t-131 356.5q0 222 130.5 361t349.5 139q63 0 112 -12q-111 205 -1 360q53 73 131.5 101.5t144 21.5t166 -22.5t155.5 -15.5h2v-628q130 195 333 195z" glyph-name="c_h.dlig" horiz-adv-x="2131"/><glyph d="M1862 0l-362 411h-179v-411h-131v1292q-7 2 -44 9.5t-49 10t-47 8.5t-51 6t-46 1t-48 -5t-40 -14t-38 -22.5t-30 -34.5q-39 -56 -29 -129.5t48.5 -140t99.5 -133.5q36 -32 62 -68l-104 -68q-96 135 -285 135q-160 0 -254 -106t-94 -272q0 -167 93.5 -272t254.5 -105 q183 0 285 135l102 -70q-131 -184 -387 -184q-218 0 -349 136.5t-131 356.5q0 222 130.5 361t349.5 139q65 0 114 -12q-113 203 -3 360q51 73 129.5 101.5t144 21.5t167 -22.5t156.5 -15.5h24v-860h174l314 400h169l-369 -463l427 -476h-174z" glyph-name="c_k.dlig" horiz-adv-x="2071"/><glyph d="M1278 966q207 0 327 -136.5t120 -360.5q0 -220 -116 -358t-327 -138q-213 0 -337 155v-26l-11 -102h-118v1307q-114 36 -199 48t-159 -1.5t-112.5 -73.5t-38.5 -167v-174h343v-123h-343v-816h-131v816h-97v123h97v172q0 96 25.5 166t68 110.5t104 62t128 24t146 -8.5 t149.5 -29t148 -43v-579q121 152 333 152zM1270 96q157 0 240.5 101.5t83.5 272t-83.5 272t-240.5 101.5t-241 -101.5t-84 -272t84 -272t241 -101.5z" glyph-name="f_b.dlig" horiz-adv-x="1831"/><glyph d="M1278 966q343 0 343 -410v-556h-133l2 560q0 278 -230 278q-189 0 -315 -263v-575h-131v1307q-114 36 -198.5 48t-158 -1.5t-112 -73.5t-38.5 -167v-174h343v-123h-343v-816h-131v816h-97v123h97v172q0 96 25.5 166t68 110.5t104 62t128 24t146 -8.5t149.5 -29t148 -43 v-622q130 195 333 195z" glyph-name="f_h.dlig" horiz-adv-x="1780"/><glyph d="M930 939v-939h-130v816h-493v-816h-131v816h-97v123h97v193q0 147 69 232t177.5 101t230.5 -7t240 -81l-50 -104q-111 51 -207.5 71.5t-169.5 8.5t-116 -67t-43 -149v-198h623z" glyph-name="f_i.dlig" horiz-adv-x="1068"/><glyph d="M918 939v-975q0 -172 -85 -296t-224 -194l-54 110q9 5 25 13.5t55 41.5t70 72.5t55.5 105t24.5 139.5v860h-478v-816h-131v816h-97v123h97v193q0 147 69 232t177.5 101t230.5 -7t240 -81l-50 -104q-111 51 -207.5 71.5t-169.5 8.5t-116 -67t-43 -149v-198h611z" glyph-name="f_j.dlig" horiz-adv-x="1063"/><glyph d="M1099 116l22 -109q-155 -55 -230 -3t-75 170v1133q-114 36 -199 48t-159 -1.5t-112.5 -73.5t-38.5 -167v-174h343v-123h-343v-816h-131v816h-97v123h97v172q0 96 25.5 166t68 110.5t104 62t128 24t146 -8.5t149.5 -29t148 -43v-1202q0 -63 34.5 -80t119.5 5z" glyph-name="f_l.dlig" horiz-adv-x="1213"/><glyph d="M1200 966q79 0 150 -34l-58 -125q-53 29 -111 29q-70 0 -128 -58.5t-88 -133t-47 -159.5v-485h-130v816h-481v-816h-131v816h-97v123h97v193q0 147 69 232t177.5 101t230.5 -7t240 -81l-50 -104q-111 51 -207.5 71.5t-169.5 8.5t-116 -67t-43 -149v-198h589l22 -157v-45 q101 229 282 229z" glyph-name="f_r.dlig" horiz-adv-x="1408"/><glyph d="M1172 133l35 -109q-147 -68 -258 -48.5t-176.5 108t-65.5 218.5v517h-400v-819h-131v819h-97v120h97v216q0 126 62 208.5t158 107t213.5 1.5t228.5 -93v-440h334l-5 -120h-329v-522q0 -133 90 -183.5t244 19.5zM307 939h400v368q-154 82 -277 40.5t-123 -186.5v-222z" glyph-name="f_t.dlig" horiz-adv-x="1285"/><glyph d="M1555 966q152 0 244 -97.5t92 -312.5v-556h-133v560q0 278 -220 278q-109 0 -187 -68.5t-139 -194.5v-575h-130v1034v28q2 26 1 37.5t-2.5 41.5t-7 47t-14 43.5t-22 42.5t-31.5 32.5t-44.5 24t-58.5 7.5q-106 0 -162.5 -77.5t-39 -193.5t109.5 -214q19 -15 30 -30 l-85 -86q-108 118 -275 118q-102 0 -164.5 -39t-62.5 -113q0 -58 45.5 -95.5t113.5 -53t146.5 -36t147 -43.5t113.5 -78.5t45 -137.5q0 -137 -110 -211.5t-281 -74.5q-244 0 -389 145l70 92q130 -126 319 -126q109 0 182.5 41t73.5 121q0 68 -62 107.5t-151 57t-177.5 41.5 t-151 82t-62.5 155q0 130 100 203.5t255 73.5q61 0 125 -14q-38 87 -32 175t38.5 159t111 116t187.5 45q49 0 90.5 -10t71.5 -26.5t53 -43.5t38 -52.5t25.5 -64t14.5 -67t6.5 -72t2.5 -68t-0.5 -68t-0.5 -59.5v-162q125 212 343 212z" glyph-name="s_h.dlig" horiz-adv-x="2048"/><glyph d="M1550 966q208 0 325 -138.5t117 -358.5q0 -224 -118 -360t-326 -136q-217 0 -336 152v-637h-130v1451v35.5v41t-1.5 40t-5 42.5t-10.5 38t-16.5 36.5t-24 29t-32 25t-43.5 13.5t-56 6q-58 0 -103.5 -34t-66 -88t-1 -126.5t84.5 -142.5q24 -20 34 -32l-85 -86 q-108 118 -275 118q-102 0 -164.5 -39t-62.5 -113q0 -58 45.5 -95.5t113.5 -53t146.5 -36t147 -43.5t113.5 -78.5t45 -137.5q0 -137 -110 -211.5t-281 -74.5q-244 0 -389 145l70 92q130 -126 319 -126q109 0 182.5 41t73.5 121q0 68 -62 107.5t-151 57t-177.5 41.5t-151 82 t-62.5 155q0 130 100 203.5t255 73.5q63 0 127 -14q-49 155 32.5 278t257.5 123q92 0 156 -29t94.5 -76.5t47.5 -111t15.5 -131.5t0.5 -136v-48v-9q123 154 338 154zM1534 97q157 0 241 101t84 271.5t-84 271t-241 100.5q-155 0 -238.5 -100.5t-83.5 -271t83.5 -271.5 t238.5 -101z" glyph-name="s_p.dlig" horiz-adv-x="2099"/><glyph d="M1596 133l34 -109q-147 -68 -258 -48.5t-176.5 108t-65.5 218.5v517h-155v120h155v235q-26 7 -102.5 31t-110 30t-85.5 -2.5t-91 -46.5q-61 -67 -47.5 -148t79.5 -156q46 -34 68 -59l-85 -86q-108 118 -276 118q-101 0 -163.5 -39t-62.5 -115q0 -58 45.5 -95.5t113.5 -52 t146.5 -35t147 -43.5t113.5 -79t45 -140q0 -133 -110 -208t-281 -75q-244 0 -389 145l70 92q130 -126 319 -126q111 0 183.5 41t72.5 122q0 58 -44 95t-111.5 52.5t-146 36t-146 43.5t-112 78.5t-44.5 138.5q0 128 101 201.5t254 73.5q63 0 123 -14q-75 176 45 301 q63 65 145 81t149 -2t161 -41t156 -23v-329h322l-5 -120h-317v-522q0 -133 91 -183.5t245 19.5z" glyph-name="s_t.dlig" horiz-adv-x="1706"/></font>
</defs>
</svg>
