<svg xmlns="http://www.w3.org/2000/svg">
<defs>
<font horiz-adv-x="1124" id="ywftsvg"><font-face ascent="1638" bbox="-896 -862 2481 2196.11" cap-height="1319" descent="-410" font-family="" font-stretch="normal" font-weight="500" panose-1="2 11 0 3 5 4 1 2 5 4" underline-position="0" underline-thickness="0" unicode-range="U+0020-FFFD" units-per-em="2048" x-height="939"/><missing-glyph d="M1043 973q51 -171 51 -398q0 -58 -14 -118q-3 -9 -8 -1q-9 19 -21.5 35t-23.5 24l-8 7q2 -3 5 -9t11.5 -25t12 -36t5.5 -43.5t-7 -48.5q-17 -48 -58 -84q-7 -3 -7 4q-2 17 -7.5 30.5t-10.5 20.5l-6 5q0 -5 -0.5 -12.5t-8.5 -31.5t-19 -46t-36.5 -51t-59.5 -52 q-2 0 -4.5 -1.5t-4 -3t-3.5 -1.5q-5 -3 -8.5 -1t-0.5 7q5 12 8 23t3 17l-2 5q-5 -9 -15.5 -24.5t-50.5 -45t-88 -43.5q-48 14 -87 42t-54 50l-16 21q-5 -19 7 -45q2 -5 0 -7.5t-7 1.5q-3 2 -7.5 4t-5.5 2q-55 36 -86.5 84t-35.5 78l-3 31q-19 -19 -24 -56q0 -7 -7 -4 q-41 34 -56 84q-10 43 -4 78.5t19 59.5l12 24q-34 -26 -53 -66q-9 -10 -10 1q-14 60 -13 118q0 101 12.5 201t24.5 149l14 48q3 15 12 17q114 31 210 43l13 34q2 2 4 1q44 -15 61 -10q38 9 75 75q3 3 5 0q38 -67 75 -75q22 -5 62 10q3 0 3 -1l14 -34q68 -9 210 -43 q9 -3 12 -17zM457 975q-2 0 3.5 -26.5t10.5 -54.5l5 -27q41 39 96 39h3q15 0 27 -5q24 -7 40.5 -24t19.5 -30l5 -12q2 3 3.5 7.5t4.5 18t1 23.5q20 12 40 18t36 5t31.5 -4.5t25.5 -9.5t18.5 -11.5t12.5 -11.5l5 -3l15 111l-58 -44l-29 87l-58 -58l-56 100l-60 -97l-51 58 l-31 -92zM393 823q20 -2 30 -21q15 15 41 26q-5 10 -16 17.5t-21 11.5l-9 1l22 14q-56 14 -85 -39q-14 -29 -9.5 -53t16.5 -39l12 -14q3 17 15 36q9 15 9.5 29.5t-2.5 23.5zM945 727q5 5 11.5 14.5t15.5 38.5t-8 53q-14 24 -35 33.5t-35 7.5l-15 -2l22 -14q-34 -9 -46 -30 q24 -10 43 -26q5 9 11.5 14t12.5 7h5q-15 -24 3 -58zM858 561q9 0 17.5 -5t11.5 -10l6 -5q0 58 -40 82q2 7 4.5 17t1.5 39t-9.5 51.5t-36.5 43.5t-72 26l15 21q-63 7 -97 -46q-15 24 -40 35t-42 11h-16q15 -14 16 -21q-70 -9 -98 -53t-22 -85l7 -39q-17 -10 -27 -30.5 t-10 -36.5l-2 -15q15 20 34 20q-3 -5 -7.5 -13.5t-8.5 -39t11 -61.5l20 -37q20 24 45 42q-19 31 -19 58q0 48 43 87q-24 -41 -19 -82q12 -39 32 -39q10 0 46 25.5t41 39.5q10 27 2 5
<glyph d="M1417 1319q-90 34 -170.5 34t-144 -62t-83.5 -178l-31 -174h347l-23 -123h-344l-215 -1231h-130l213 1231h-399l-220 -1231h-130l218 1231h-165l22 123h166l36 198q24 138 108 224t185 105t200 -8.5t153 -97.5q58 60 136 86.5t151 21.5t140 -34zM459 939h398l29 164 q15 85 49 151q-61 84 -157.5 101t-179.5 -40t-103 -173z" glyph-name="f_f.liga" horiz-adv-x="1309" unicode="ff"/><glyph d="M1456 196q-12 -65 18.5 -82t119.5 5l3 -105q-116 -43 -180 -25t-85 66.5t-9 123.5l111 637h-466l-214 -1231h-129l210 1231h-396l-221 -1231h-131l218 1231h-165l20 123h168l36 198q24 137 106.5 222t181.5 106.5t196 -4.5t156 -92q75 75 191.5 95.5t232 -5t221.5 -82.5 l-69 -104q-101 51 -193.5 71.5t-168.5 8.5t-128 -67t-68 -149l-34 -198h596zM461 939h396l32 193q14 75 41 131q-63 79 -157.5 93t-175 -43t-100.5 -171z" glyph-name="f_f_i.liga" horiz-adv-x="1754" unicode="ffi"/><glyph d="M1497 191q-12 -63 20.5 -80t117.5 5l5 -109q-166 -55 -232.5 -3.5t-45.5 170.5l198 1118q-130 61 -244.5 67t-194.5 -51t-100 -171l-35 -198h338l-22 -123h-336l-212 -1231h-131l210 1231h-396l-220 -1231h-130l218 1231h-165l22 123h166l36 198q24 137 106.5 222 t181.5 105.5t197 -4.5t155 -93q82 79 206.5 99.5t250.5 -9t241 -95.5zM459 939h396l32 193q12 67 41 131q-63 79 -157.5 93t-175 -43t-100.5 -171z" glyph-name="f_f_l.liga" horiz-adv-x="1774" unicode="ffl"/><glyph d="M1043 973q51 -171 51 -398q0 -58 -14 -118q-3 -9 -8 -1q-9 19 -21.5 35t-23.5 24l-8 7q2 -3 5 -9t11.5 -25t12 -36t5.5 -43.5t-7 -48.5q-17 -48 -58 -84q-7 -3 -7 4q-2 17 -7.5 30.5t-10.5 20.5l-6 5q0 -5 -0.5 -12.5t-8.5 -31.5t-19 -46t-36.5 -51t-59.5 -52 q-2 0 -4.5 -1.5t-4 -3t-3.5 -1.5q-5 -3 -8.5 -1t-0.5 7q5 12 8 23t3 17l-2 5q-5 -9 -15.5 -24.5t-50.5 -45t-88 -43.5q-48 14 -87 42t-54 50l-16 21q-5 -19 7 -45q2 -5 0 -7.5t-7 1.5q-3 2 -7.5 4t-5.5 2q-55 36 -86.5 84t-35.5 78l-3 31q-19 -19 -24 -56q0 -7 -7 -4 q-41 34 -56 84q-10 43 -4 78.5t19 59.5l12 24q-34 -26 -53 -66q-9 -10 -10 1q-14 60 -13 118q0 101 12.5 201t24.5 149l14 48q3 15 12 17q114 31 210 43l13 34q2 2 4 1q44 -15 61 -10q38 9 75 75q3 3 5 0q38 -67 75 -75q22 -5 62 10q3 0 3 -1l14 -34q68 -9 210 -43 q9 -3 12 -17zM457 975q-2 0 3.5 -26.5t10.5 -54.5l5 -27q41 39 96 39h3q15 0 27 -5q24 -7 40.5 -24t19.5 -30l5 -12q2 3 3.5 7.5t4.5 18t1 23.5q20 12 40 18t36 5t31.5 -4.5t25.5 -9.5t18.5 -11.5t12.5 -11.5l5 -3l15 111l-58 -44l-29 87l-58 -58l-56 100l-60 -97l-51 58 l-31 -92zM393 823q20 -2 30 -21q15 15 41 26q-5 10 -16 17.5t-21 11.5l-9 1l22 14q-56 14 -85 -39q-14 -29 -9.5 -53t16.5 -39l12 -14q3 17 15 36q9 15 9.5 29.5t-2.5 23.5zM945 727q5 5 11.5 14.5t15.5 38.5t-8 53q-14 24 -35 33.5t-35 7.5l-15 -2l22 -14q-34 -9 -46 -30 q24 -10 43 -26q5 9 11.5 14t12.5 7h5q-15 -24 3 -58zM858 561q9 0 17.5 -5t11.5 -10l6 -5q0 58 -40 82q2 7 4.5 17t1.5 39t-9.5 51.5t-36.5 43.5t-72 26l15 21q-63 7 -97 -46q-15 24 -40 35t-42 11h-16q15 -14 16 -21q-70 -9 -98 -53t-22 -85l7 -39q-17 -10 -27 -30.5 t-10 -36.5l-2 -15q15 20 34 20q-3 -5 -7.5 -13.5t-8.5 -39t11 -61.5l20 -37q20 24 45 42q-19 31 -19 58q0 48 43 87q-24 -41 -19 -82q12 -39 32 -39q10 0 46 25.5t41 39.5q10 27 2 50q-12 10 -28 17.5t-26 9.5l-11 3q7 20 22 29q7 3 28.5 -2.5t28.5 -5.5t28 6t28 2.5 t12 -11.5t7 -13l2 -5q-39 -7 -64 -30q-3 -5 -2 -21.5t6 -28.5q3 -14 39 -39.5t48 -25.5q7 0 17 13t14 26q5 41 -19 82q41 -38 41 -87q0 -12 -4.5 -26.5t-9.5 -22.5l-3 -9l44 -42q10 14 19 37q12 36 12 61.5t-7 39.5zM522 707l-25 15q60 -3 94 -15q-3 -17 -13.5 -36 t-17.5 -29l-9 -12l4 30h-11q-12 0 -21 9t-9.5 19t8.5 19zM766 630q-27 32 -37 77q15 5 38 9t39 4l17 2l-24 -14q5 -10 5 -17q0 -29 -31 -29q-2 0 -5 1t-5 1zM717 369q14 12 22.5 29t8.5 27l1 10q-17 24 -47.5 48t-42.5 24t-43 -24t-46 -48q-5 -39 27 -60v14q31 -24 62 -24 q14 0 34 7q22 10 22 27q3 -7 4 -14.5t0 -12.5z" glyph-name=".notdef" horiz-adv-x="1274"/><glyph glyph-name="glyph1" horiz-adv-x="0"/><glyph glyph-name="glyph2" horiz-adv-x="682"/><glyph glyph-name="space" horiz-adv-x="479" unicode=" "/><glyph d="M292 391h-77l92 577l99 500h137l-110 -497zM208 177q38 0 59 -22t21 -59q0 -51 -35.5 -88t-86.5 -37q-36 0 -56 23t-20 59q0 55 33.5 89.5t84.5 34.5z" glyph-name="exclam" horiz-adv-x="518" unicode="!"/><glyph d="M246 1056h-80l54 412h126zM459 1056h-78l52 412h128z" glyph-name="quotedbl" horiz-adv-x="430" unicode="&quot;"/><glyph d="M1104 730h-172l-135 -305h178l-21 -108h-203l-140 -317h-114l140 317l-318 2l-138 -319h-116l140 319h-154l22 106h178l135 307h-183l24 106h205l141 323h113l-140 -323h318l141 323h115l-142 -323h150zM683 425l134 305l-317 2l-135 -307h318z" glyph-name="numbersign" horiz-adv-x="1141" unicode="#"/><glyph d="M591 637q55 -22 88.5 -38.5t73 -45.5t59 -67.5t19.5 -87.5q0 -123 -94 -199t-239 -90l-18 -109h-87l18 109q-94 7 -170.5 46.5t-119.5 102.5l89 75q68 -108 220 -118l62 346q-55 22 -86.5 38.5t-71 44t-57.5 65t-18 86.5q0 102 88 170.5t228 78.5l21 117h87l-21 -118 q147 -15 231 -121l-93 -72q-55 68 -157 90zM377 799q0 -44 34 -74t99 -56l48 273q-79 -9 -130 -47t-51 -96zM517 217q85 12 138 56t53 111q0 51 -35 84.5t-101 60.5z" glyph-name="dollar" horiz-adv-x="1006" unicode="$"/><glyph d="M321 -19l-91 51l864 1315l90 -52zM521 1338q106 0 169 -66.5t63 -177.5q0 -142 -93 -247.5t-244 -105.5q-108 0 -170 66.5t-62 177.5q0 154 97 253.5t240 99.5zM500 1234q-87 0 -142.5 -68.5t-55.5 -165.5q0 -67 35 -110t96 -43q85 0 141.5 69t56.5 163q0 70 -34 112.5 t-97 42.5zM1007 572q108 0 170 -66t62 -178q0 -142 -91.5 -248t-242.5 -106q-108 0 -170.5 67t-62.5 177q0 154 96.5 254t238.5 100zM990 468q-85 0 -140.5 -68.5t-55.5 -163.5q0 -68 34 -112t95 -44q85 0 141.5 68.5t56.5 163.5q0 70 -34 113t-97 43z" glyph-name="percent" horiz-adv-x="1358" unicode="%"/><glyph d="M1746 806l-19 -103h-433q53 -90 53 -220q0 -215 -166.5 -364.5t-412.5 -149.5q-276 0 -444 186l-215 -198l-65 74l222 203q-85 138 -85 316q0 201 75 386t210.5 301t296.5 116q249 0 249 -254q0 -108 -46 -222l483 444l65 -73l-1106 -1016q126 -164 363 -164 q184 -2 313 118.5t129 289.5q0 128 -93 232l92 98h534zM312 543q0 -123 45 -226l292 270q116 116 180.5 244t64.5 242q0 184 -140 185q-118 0 -222 -105t-162 -269.5t-58 -340.5z" glyph-name="ampersand" horiz-adv-x="1802" unicode="&amp;"/><glyph d="M234 1056h-80l54 412h127z" glyph-name="quotesingle" horiz-adv-x="189" unicode="'"/><glyph d="M754 1405q-207 -195 -326 -477.5t-119 -575.5q0 -171 36.5 -331.5t110.5 -261.5l-94 -63q-85 113 -131.5 282t-46.5 358q0 328 129 623t368 509z" glyph-name="parenleft" horiz-adv-x="592" unicode="("/><glyph d="M329 1405l98 63q87 -114 133 -288.5t46 -365.5q0 -324 -125.5 -614t-361.5 -504l-73 63q207 193 321 469.5t114 554.5q0 183 -38.5 350.5t-113.5 271.5z" glyph-name="parenright" horiz-adv-x="583" unicode=")"/><glyph d="M236 811l196 193l-208 71l61 103l184 -96l28 241h112l-58 -241l219 96l24 -103l-234 -71l131 -193l-102 -67l-101 207l-176 -207z" glyph-name="asterisk" horiz-adv-x="802" unicode="*"/><glyph d="M969 596l-22 -123h-341l-65 -362h-128l63 362h-339l20 124h341l60 343h130l-62 -344h343z" glyph-name="plus" horiz-adv-x="1083" unicode="+"/><glyph d="M162 195q89 0 89 -105q0 -87 -56.5 -176.5t-165.5 -164.5q-31 36 -38 46q128 101 149 181q-12 -3 -27 -3q-39 0 -63 24.5t-24 65.5q0 55 40 93.5t96 38.5z" glyph-name="comma" horiz-adv-x="452" unicode=","/><glyph d="M710 580l-24 -117h-555l24 117h555z" glyph-name="hyphen" horiz-adv-x="824" unicode="-"/><glyph d="M184 195q39 0 62.5 -25t23.5 -64q0 -53 -37.5 -93t-92.5 -40q-39 0 -61.5 24.5t-22.5 65.5q0 58 36.5 95t91.5 37z" glyph-name="period" horiz-adv-x="462" unicode="."/><glyph d="M99 -142h-138l884 1408h136z" glyph-name="slash" horiz-adv-x="938" unicode="/"/><glyph d="M541 -24q-188 0 -291 134t-103 347q0 299 171.5 516t434.5 217q189 0 293 -134t104 -348q0 -299 -173 -515.5t-436 -216.5zM732 1070q-195 0 -323.5 -175.5t-128.5 -425.5q0 -164 71 -268t210 -104q189 0 322.5 170t133.5 428q0 162 -72.5 268.5t-212.5 106.5z" glyph-name="zero" horiz-adv-x="1254" unicode="0"/><glyph d="M543 1161h87l-205 -1161h-133l177 1019l-242 -84l-22 116z" glyph-name="one" horiz-adv-x="730" unicode="1"/><glyph d="M604 364l-338 -243l628 7l-24 -128h-819l22 119l458 330q189 138 244 194q102 104 102 219q0 94 -68 151t-178 57q-106 0 -192.5 -48.5t-134.5 -128.5l-91 73q72 106 186.5 165t254.5 59q162 0 260 -83t98 -218q0 -79 -32.5 -152t-96.5 -140.5t-125.5 -117.5t-153.5 -115 z" glyph-name="two" horiz-adv-x="1105" unicode="2"/><glyph d="M995 1161l-20 -122l-434 -344h17q164 0 258 -83t94 -218q0 -176 -133.5 -297t-356.5 -121q-140 0 -234 57t-119 151l114 70q19 -72 89 -115t172 -43q150 0 241.5 84.5t91.5 205.5q0 92 -63 151t-181 59q-80 0 -156 -16l-32 99l454 359l-565 -5l22 128h741z" glyph-name="three" horiz-adv-x="1071" unicode="3"/><glyph d="M992 457l-23 -122h-152l-58 -335h-124l58 335h-585l-4 122l732 704h127l-123 -704h152zM258 457h457l91 526z" glyph-name="four" horiz-adv-x="1111" unicode="4"/><glyph d="M961 1033l-521 5l-87 -337q102 41 226 41q157 0 250.5 -86t93.5 -231q0 -189 -134 -319t-350 -130q-147 0 -241 62.5t-123 164.5l106 73q26 -85 95.5 -133.5t177.5 -48.5q150 0 244 91t94 228q0 104 -63 163t-188 59q-135 0 -234 -75l-97 65l138 536h635z" glyph-name="five" horiz-adv-x="1070" unicode="5"/><glyph d="M638 749q169 0 262 -100.5t63 -281.5q-29 -166 -152 -278.5t-309 -112.5q-183 0 -271.5 118t-88.5 319q0 333 163 555t422 222q96 0 177.5 -34.5t128.5 -88.5l-105 -91q-89 92 -223 92q-172 0 -278 -135.5t-142 -335.5q152 152 353 152zM828 367q20 114 -33.5 188.5 t-185.5 74.5q-196 0 -339 -178v-32q0 -140 58 -230.5t189 -90.5q130 0 211 77t100 191z" glyph-name="six" horiz-adv-x="1117" unicode="6"/><glyph d="M208 1161h792l-22 -122l-681 -1039h-147l691 1038l-657 -9z" glyph-name="seven" horiz-adv-x="950" unicode="7"/><glyph d="M804 606q176 -79 176 -248q0 -155 -135 -268.5t-369 -113.5q-176 0 -281 78.5t-105 211.5q0 121 76 209t199 133q-140 75 -140 220q0 162 130.5 262t330.5 100q160 0 256.5 -74.5t96.5 -199.5q0 -99 -63.5 -181.5t-171.5 -128.5zM667 1075q-140 0 -227 -65t-87 -174 q0 -80 63.5 -129.5t177.5 -49.5q142 0 229 69t87 175q-1 174 -243 174zM497 97q164 0 257.5 68.5t93.5 187.5q0 87 -71.5 139t-201.5 52q-160 0 -255.5 -72.5t-95.5 -184.5q0 -90 71 -140t202 -50z" glyph-name="eight" unicode="8"/><glyph d="M671 1191q179 0 266 -123t87 -326q0 -201 -71.5 -374t-208 -281.5t-311.5 -108.5q-99 0 -182.5 35.5t-131.5 87.5l93 90q102 -97 239 -97q89 0 164.5 41t126 110t84.5 149t51 171q-160 -150 -368 -150q-166 0 -257.5 103t-58.5 281q29 166 151 279t327 113zM531 519 q102 0 199.5 50.5t163.5 131.5q2 14 2 43q0 154 -59.5 241.5t-184.5 87.5q-137 0 -223 -77.5t-106 -196.5q-20 -118 37 -199t171 -81z" glyph-name="nine" unicode="9"/><glyph d="M290 742q38 0 61 -24.5t23 -63.5q0 -53 -37.5 -93t-92.5 -40q-39 0 -61.5 24.5t-22.5 65.5q0 58 37.5 94.5t92.5 36.5zM179 195q39 0 62.5 -25t23.5 -64q0 -55 -38 -95t-92 -40q-39 0 -61.5 25.5t-22.5 64.5q0 58 36.5 96t91.5 38z" glyph-name="colon" horiz-adv-x="464" unicode=":"/><glyph d="M246 742q38 0 61.5 -24.5t23.5 -63.5q0 -55 -36.5 -94t-91.5 -39q-39 0 -61.5 24.5t-22.5 65.5q0 58 36 94.5t91 36.5zM140 195q89 0 89 -105q0 -87 -56.5 -176.5t-165.5 -164.5l-38 46q128 101 149 181q-12 -3 -28 -3q-39 0 -62 24.5t-23 65.5q0 55 39.5 93.5t95.5 38.5 z" glyph-name="semicolon" horiz-adv-x="431" unicode=";"/><glyph d="M807 804l-575 -280l478 -280l-75 -111l-526 319l2 14l22 130l638 319z" glyph-name="less" horiz-adv-x="882" unicode="&lt;"/><glyph d="M908 734l-21 -118h-699l20 120zM855 430l-22 -118h-700l21 120z" glyph-name="equal" horiz-adv-x="1024" unicode="="/><glyph d="M788 596l-23 -144l-640 -319l-35 111l576 282l-478 278l73 111z" glyph-name="greater" horiz-adv-x="882" unicode=">"/><glyph d="M1120 1137q0 -200 -144.5 -350t-352.5 -181l-60 -212h-107l32 311q222 0 359.5 123t137.5 288q0 108 -66.5 178.5t-188.5 70.5q-116 0 -216.5 -55.5t-168.5 -130.5l-89 75q80 92 215 161.5t285 69.5q172 0 268 -98t96 -250zM476 188q38 0 59 -23t21 -63q0 -53 -35 -91 t-88 -38q-41 0 -63 23t-22 62q0 56 36.5 93t91.5 37z" glyph-name="question" horiz-adv-x="1109" unicode="?"/><glyph d="M838 1190q230 0 363.5 -139.5t133.5 -362.5q0 -109 -22.5 -198t-88 -155.5t-169.5 -66.5q-67 0 -108 38.5t-41 106.5q-92 -128 -263 -128q-109 0 -169.5 65.5t-60.5 176.5q0 152 92 255.5t243 103.5q164 0 215 -140l5 32l36 72h58l-70 -396q-7 -43 12.5 -70t58.5 -27 q181 0 181 319q0 195 -113.5 310t-309.5 115q-154 0 -288.5 -68.5t-223.5 -211.5t-89 -336t114.5 -309t307.5 -116q176 0 322 94l36 -74q-169 -109 -374 -109q-234 0 -364.5 141.5t-130.5 363.5q0 213 101 379t260.5 250.5t345.5 84.5zM679 370q108 0 177 72t69 184 q0 79 -44.5 126t-124.5 47q-111 0 -179 -72.5t-68 -183.5q0 -79 45 -126t125 -47z" glyph-name="at" horiz-adv-x="1428" unicode="@"/><glyph d="M1080 0l-83 355h-676l-207 -355h-138l778 1319h145l320 -1319h-139zM396 483h570l-164 698z" glyph-name="A" horiz-adv-x="1356" unicode="A"/><glyph d="M969 701q77 -26 123 -100.5t46 -173.5q0 -177 -122.5 -302t-298.5 -125h-615l231 1319h563q125 0 197.5 -77.5t72.5 -205.5t-68.5 -223t-128.5 -112zM869 1195h-429l-78 -447h459q97 0 161 76.5t64 184.5q0 85 -51 135.5t-126 50.5zM720 125q118 0 206 85t88 208 q0 92 -54 148.5t-143 56.5h-476l-87 -498h466z" glyph-name="B" horiz-adv-x="1271" unicode="B"/><glyph d="M1393 1094l-120 -77q-116 207 -374 207q-266 0 -445 -193t-179 -481q0 -207 113.5 -331.5t312.5 -124.5q125 0 240 53t202 150l94 -77q-109 -121 -255.5 -186.5t-303.5 -65.5q-247 0 -391 155t-144 408q0 348 224 583.5t555 235.5q157 0 280.5 -66.5t190.5 -189.5z" glyph-name="C" horiz-adv-x="1373" unicode="C"/><glyph d="M884 1319q225 0 355 -148.5t130 -383.5q0 -208 -94 -389t-259.5 -289.5t-361.5 -108.5h-552l231 1319h551zM676 126q154 0 283.5 89.5t202 237.5t72.5 317q0 188 -98 305.5t-274 117.5h-420l-186 -1067h420z" glyph-name="D" horiz-adv-x="1442" unicode="D"/><glyph d="M1164 1195h-724l-78 -449h531l-23 -126h-530l-86 -495h724l-22 -125h-854l231 1319h853z" glyph-name="E" horiz-adv-x="1155" unicode="E"/><glyph d="M1150 1193h-708l-80 -456h517l-24 -126h-514l-107 -611h-132l231 1319h839z" glyph-name="F" horiz-adv-x="1138" unicode="F"/><glyph d="M1309 652l-73 -420q-227 -261 -562 -261q-247 0 -389 156t-142 407q0 348 222 583.5t546 235.5q162 0 287.5 -67t187.5 -194l-116 -77q-48 101 -149.5 156.5t-231.5 55.5q-259 0 -436 -192t-177 -482q0 -205 112 -329.5t310 -124.5q242 0 411 179l41 248h-319l22 126h456 z" glyph-name="G" horiz-adv-x="1442" unicode="G"/><glyph d="M1289 1319h131l-230 -1319h-132l104 596h-824l-104 -596h-132l231 1319h131l-104 -595h824z" glyph-name="H" horiz-adv-x="1455" unicode="H"/><glyph d="M234 0h-132l231 1319h131z" glyph-name="I" horiz-adv-x="496" unicode="I"/><glyph d="M27 166l111 73q82 -147 265 -147q160 0 272 115.5t146 311.5l140 800h133l-142 -807q-41 -239 -189.5 -391t-376.5 -152q-126 0 -218.5 52.5t-140.5 144.5z" glyph-name="J" unicode="J"/><glyph d="M1285 1319l-655 -659l464 -660h-172l-412 596h-172l-104 -596h-132l231 1319h131l-104 -595h172l589 595h164z" glyph-name="K" horiz-adv-x="1213" unicode="K"/><glyph d="M256 126h700l-22 -126h-832l231 1319h131z" glyph-name="L" horiz-adv-x="1097" unicode="L"/><glyph d="M1440 1318h157l-145 -1318h-129l117 1097l-643 -1097h-92l-260 1087l-264 -1087h-132l316 1318h159l261 -1122z" glyph-name="M" horiz-adv-x="1665" unicode="M"/><glyph d="M1350 1319h133l-230 -1319h-133q17 96 -3.5 179.5t-91.5 167t-119 126t-160 133.5q-2 3 -4 3q-90 72 -135.5 111t-110 106.5t-102.5 130.5l-167 -957h-133l230 1319h133v-1q-14 -79 3.5 -153t45.5 -126.5t93 -119.5t107 -102t127 -104q92 -73 139 -112.5t111 -106 t101 -127.5z" glyph-name="N" horiz-adv-x="1510" unicode="N"/><glyph d="M916 1352q247 0 389 -154.5t142 -409.5q0 -348 -221.5 -584t-551.5 -236q-247 0 -389 156t-142 407q0 348 222 584.5t551 236.5zM894 1225q-265 0 -442 -192.5t-177 -482.5q0 -205 111.5 -329.5t309.5 -124.5q266 0 443 192.5t177 477.5q0 207 -113 333t-309 126z" glyph-name="O" horiz-adv-x="1525" unicode="O"/><glyph d="M797 1318q203 0 315.5 -94t112.5 -265q0 -242 -157 -378t-423 -136h-333l-78 -445h-132l231 1318h464zM666 570q193 0 309 93t116 276q0 126 -84 190t-232 64h-333l-109 -623h333z" glyph-name="P" horiz-adv-x="1247" unicode="P"/><glyph d="M975 -335q123 0 254 110l65 -80q-174 -150 -338 -151q-63 0 -121 26t-96.5 56.5t-93 56t-111.5 25.5q-84 0 -244 -90l-32 -21l-69 82l485 292h-2q-247 0 -388 155.5t-141 407.5q0 350 220.5 584t551.5 234q247 0 389 -154t142 -408q0 -258 -125.5 -460t-335.5 -294 l-357 -215q55 -14 163.5 -85t183.5 -71zM276 551q0 -205 110.5 -328.5t308.5 -123.5q275 0 446 191t171 485q0 205 -110 327.5t-309 122.5q-268 0 -442.5 -192t-174.5 -482z" glyph-name="Q" horiz-adv-x="1549" unicode="Q"/><glyph d="M1256 978q0 -184 -106.5 -303.5t-296.5 -157.5l239 -517h-152l-223 502h-36h-360l-87 -502h-132l231 1319h490q205 0 319 -89.5t114 -251.5zM703 625q193 0 306.5 83.5t113.5 250.5q0 118 -85.5 177t-237.5 59h-358l-99 -570h360z" glyph-name="R" horiz-adv-x="1227" unicode="R"/><glyph d="M58 186l114 89q135 -176 422 -176q184 0 285.5 69t101.5 189q0 96 -74 157t-179 95t-210 71t-179 110.5t-74 187.5q0 118 80 205.5t199.5 128.5t255.5 41q292 0 420 -184l-109 -82q-94 142 -336 142q-157 0 -259.5 -66.5t-102.5 -172.5q0 -61 40 -106.5t103.5 -73.5 t141 -54t154 -55.5t140 -69t103.5 -105t40 -152.5q0 -179 -153.5 -289.5t-392.5 -110.5q-162 0 -310 58t-221 154z" glyph-name="S" horiz-adv-x="1266" unicode="S"/><glyph d="M1290 1319l-20 -126h-471l-210 -1193h-130l210 1193h-471l20 126h1072z" glyph-name="T" horiz-adv-x="1213" unicode="T"/><glyph d="M1410 1319l-133 -763q-46 -265 -221 -426t-426 -161t-368 161.5t-71 425.5l133 763h132l-133 -756q-38 -218 51.5 -346t275.5 -128q184 0 321 126t174 348l133 756h132z" glyph-name="U" horiz-adv-x="1437" unicode="U"/><glyph d="M1399 1318l-750 -1318h-151l-290 1318h144l245 -1181l659 1181h143z" glyph-name="V" horiz-adv-x="1307" unicode="V"/><glyph d="M1623 1319h138l-541 -1319h-133l-142 1055l-517 -1055h-133l-73 1319h135l53 -1097l518 1041h115l141 -1043z" glyph-name="W" horiz-adv-x="1684" unicode="W"/><glyph d="M-26 0l565 672l-319 647h157l260 -531l438 531h157l-537 -647l331 -672h-159l-271 553l-465 -553h-157z" glyph-name="X" horiz-adv-x="1160" unicode="X"/><glyph d="M1326 1319l-645 -848l-82 -471h-133l82 473l-345 846h147l285 -734l543 734h148z" glyph-name="Y" horiz-adv-x="1228" unicode="Y"/><glyph d="M1341 1318l-12 -62l-1073 -1131l879 3l-24 -128h-1080l12 67l1068 1126l-874 -3l24 128h1080z" glyph-name="Z" horiz-adv-x="1295" unicode="Z"/><glyph d="M732 1405l-19 -108h-208l-252 -1427h208l-19 -107h-324l290 1642h324z" glyph-name="bracketleft" horiz-adv-x="587" unicode="["/><glyph d="M749 24l-129 -55l-398 1490l131 57z" glyph-name="backslash" horiz-adv-x="873" unicode="\"/><glyph d="M350 1405h324l-290 -1642h-324l20 107h208l251 1427h-208z" glyph-name="bracketright" horiz-adv-x="587" unicode="]"/><glyph d="M934 741l-122 -55l-199 527l-388 -529l-100 57l435 578h143z" glyph-name="asciicircum" horiz-adv-x="965" unicode="^"/><glyph d="M734 -68l-22 -108h-784l23 108h783z" glyph-name="underscore" horiz-adv-x="873" unicode="_"/><glyph d="M672 1056l-319 159l77 116l285 -213z" glyph-name="grave" horiz-adv-x="827" unicode="`"/><glyph d="M1126 119l4 -105q-111 -39 -174 -25t-87 58.5t-16 114.5q-143 -189 -385 -189q-172 0 -269.5 109t-97.5 288q0 256 151.5 426t382.5 170q246 0 321 -217l32 190h128l-128 -743q-12 -65 18.5 -82t119.5 5zM509 94q143 0 249 90.5t140 237.5l10 56q3 44 3 66 q0 137 -72.5 219t-200.5 82q-176 0 -290 -129t-114 -320q0 -137 72.5 -219.5t202.5 -82.5z" glyph-name="a" horiz-adv-x="1286" unicode="a"/><glyph d="M724 966q176 0 270.5 -107.5t94.5 -286.5q0 -254 -147.5 -426.5t-391.5 -172.5q-230 0 -303 198l-11 -63l-31 -108h-116l256 1468h129l-117 -668q135 166 367 166zM558 94q186 0 292 129.5t106 329.5q0 135 -67.5 213.5t-199.5 78.5q-143 0 -240 -81t-137 -218l-18 -104 q-2 -19 -2 -56q0 -135 67.5 -213.5t198.5 -78.5z" glyph-name="b" horiz-adv-x="1189" unicode="b"/><glyph d="M101 382q0 244 164.5 414t410.5 170q121 0 214 -48.5t141 -137.5l-113 -68q-75 135 -261 135q-184 0 -305.5 -129t-121.5 -314q0 -142 79.5 -228.5t216.5 -86.5q181 0 305 138l92 -70q-166 -184 -418 -184q-188 0 -296 110.5t-108 298.5z" glyph-name="c" horiz-adv-x="1049" unicode="c"/><glyph d="M1065 1468h130l-258 -1468h-116l5 108l5 30q-135 -166 -365 -165q-176 0 -270 109t-94 288q0 258 149.5 427t390.5 169q229 0 300 -195zM502 94q137 0 231.5 71.5t136.5 194.5l31 174v19q0 133 -68 212.5t-200 79.5q-186 0 -292.5 -130t-106.5 -328q0 -135 68.5 -214 t199.5 -79z" glyph-name="d" horiz-adv-x="1191" unicode="d"/><glyph d="M503 87q99 0 193 44.5t149 95.5l68 -82q-82 -80 -196.5 -126t-233.5 -46q-167 0 -277 93t-110 280q0 259 171.5 439.5t415.5 180.5q135 0 221 -61.5t86 -170.5q0 -85 -37 -152.5t-102.5 -109.5t-139.5 -72t-167 -45t-166.5 -21t-153.5 -8q10 -123 88 -181t191 -58z M669 852q-174 0 -293.5 -119t-146.5 -288q75 0 146.5 5.5t165.5 23.5t163 45t117 78.5t48 117.5q0 60 -53 98.5t-147 38.5z" glyph-name="e" horiz-adv-x="1078" unicode="e"/><glyph d="M886 1319q-90 34 -171.5 34t-144.5 -62t-84 -178l-30 -174h348l-22 -123h-347l-213 -1229h-130l213 1229h-165l22 123h164l29 164q24 128 87 214t143.5 117.5t164 31.5t156.5 -32z" glyph-name="f" horiz-adv-x="778" unicode="f"/><glyph d="M997 939h111l-159 -907q-41 -239 -191 -391.5t-379 -152.5q-130 0 -224.5 52t-144.5 144l115 75q84 -148 269 -148q164 0 277.5 115t147.5 312l21 117q-131 -162 -367 -162q-177 0 -271 107t-94 281q0 253 147.5 419t386.5 166q234 0 307 -196l2 12zM509 114 q142 0 239 78t134 207l21 113q2 14 2 44q0 131 -68.5 210t-198.5 79q-186 0 -291.5 -125.5t-105.5 -318.5q0 -131 68.5 -209t199.5 -78z" glyph-name="g" horiz-adv-x="1191" unicode="g"/><glyph d="M720 966q343 0 272 -410l-98 -556h-133l99 560q49 278 -181 278q-189 0 -360 -263l-101 -575h-131l254 1449h132l-121 -691q158 208 368 208z" glyph-name="h" horiz-adv-x="1133" unicode="h"/><glyph d="M403 1468q41 0 65 -25t24 -64q0 -55 -37 -92.5t-90 -37.5q-39 0 -61 24t-22 65q0 58 34 94t87 36zM396 119l3 -105q-116 -43 -180 -25t-85 66.5t-9 123.5l133 760h128l-128 -743q-12 -65 18.5 -82t119.5 5z" glyph-name="i" horiz-adv-x="556" unicode="i"/><glyph d="M410 1468q41 0 64 -25t23 -66q0 -53 -36 -91t-89 -38q-39 0 -61.5 24.5t-22.5 65.5q0 56 35.5 93t86.5 37zM413 939l-171 -975q-31 -174 -137.5 -297.5t-258.5 -192.5l-34 110l28 13q26 12 65 42t80 71t76 106.5t48 139.5l171 983h133z" glyph-name="j" horiz-adv-x="486" unicode="j"/><glyph d="M587 478q34 -34 64 -101.5t51.5 -118.5t80 -91.5t151.5 -40.5l-23 -126q-116 0 -188.5 42.5t-104 102.5t-55.5 120.5t-65.5 103t-111.5 42.5h-96l-72 -411h-131l246 1399h131l-152 -860h104q22 0 53 -3l393 403h164z" glyph-name="k" horiz-adv-x="1030" unicode="k"/><glyph d="M393 116l1 -109q-162 -55 -228.5 -3.5t-47.5 170.5l220 1251h130l-215 -1234q-12 -63 19 -80t121 5z" glyph-name="l" horiz-adv-x="529" unicode="l"/><glyph d="M1364 966q340 0 268 -410l-98 -556h-129l99 563q26 143 -18 211.5t-160 68.5q-184 0 -350 -251l-5 -36l-97 -556h-130l99 563q24 143 -19.5 211.5t-159.5 68.5q-186 0 -352 -256l-102 -587h-131l163 939h110l-7 -171v-3q159 201 358 201q254 0 278 -234q166 234 383 234z " glyph-name="m" horiz-adv-x="1769" unicode="m"/><glyph d="M712 966q343 0 271 -410l-97 -556h-132l98 560q49 278 -181 278q-191 0 -359 -263l-1 2l-101 -577h-131l163 939h110l-7 -171v-3q162 201 367 201z" glyph-name="n" unicode="n"/><glyph d="M681 966q186 0 295 -112t109 -296q0 -246 -163 -415.5t-415 -169.5q-188 0 -296.5 112.5t-108.5 295.5q0 253 166 419t413 166zM660 845q-184 0 -304 -129t-120 -317q0 -137 76.5 -221t214.5 -84q183 0 303.5 129t120.5 316q0 137 -77 221.5t-214 84.5z" glyph-name="o" horiz-adv-x="1187" unicode="o"/><glyph d="M724 966q177 0 272 -109t95 -289q0 -258 -150.5 -426.5t-390.5 -168.5q-237 0 -306 204l-121 -689h-130l254 1451h117l-6 -108l-6 -39q135 174 372 174zM558 94q184 0 291.5 129.5t107.5 327.5q0 135 -69 214.5t-202 79.5q-154 0 -254.5 -93t-131.5 -247l-3 -20 q-7 -61 -7 -99q0 -133 68.5 -212.5t199.5 -79.5z" glyph-name="p" horiz-adv-x="1191" unicode="p"/><glyph d="M985 939h116l-254 -1451h-130l114 649q-133 -164 -365 -164q-176 0 -270.5 106.5t-94.5 287.5q0 254 147.5 426.5t389.5 172.5q234 0 304 -201l12 66zM500 94q140 0 236.5 75t137.5 203l24 145q2 12 1 36q0 133 -68 212.5t-200 79.5q-186 0 -292.5 -130t-106.5 -328 q0 -135 68.5 -214t199.5 -79z" glyph-name="q" horiz-adv-x="1182" unicode="q"/><glyph d="M659 966q82 0 143 -34l-80 -125q-46 29 -106 29q-101 0 -182.5 -88t-133.5 -216l-92 -532h-129l163 939h108l-10 -183v-2q131 212 319 212z" glyph-name="r" horiz-adv-x="790" unicode="r"/><glyph d="M44 140l98 80q99 -125 295 -124q119 0 183 42.5t64 119.5q0 63 -51 104t-123.5 65.5t-144 52t-123 82t-51.5 134.5q0 123 115.5 196.5t272.5 73.5q213 0 308 -130l-97 -78q-68 96 -232 95q-101 0 -165 -41t-64 -107q0 -53 51.5 -89.5t124 -61.5t146 -54t124.5 -87 t51 -142q0 -130 -109 -210t-282 -80q-121 0 -228.5 44.5t-162.5 114.5z" glyph-name="s" horiz-adv-x="967" unicode="s"/><glyph d="M428 819l-92 -522q-24 -133 58 -184.5t249 20.5l14 -109q-232 -99 -359 -11t-91 289l90 517h-159l21 120h158l52 295h131l-51 -295h322l-25 -120h-318z" glyph-name="t" horiz-adv-x="812" unicode="t"/><glyph d="M911 939h133l-163 -939h-110l4 169q-164 -196 -365 -196q-340 0 -272 409l98 557h133l-96 -553q-26 -142 18.5 -210t160.5 -68q186 0 357 256z" glyph-name="u" unicode="u"/><glyph d="M1138 940q-246 -495 -590 -940h-149q-183 416 -262 940h138q72 -466 218 -817q230 297 482 817h163z" glyph-name="v" horiz-adv-x="1109" unicode="v"/><glyph d="M1469 939h134l-99 -528q-43 -227 -149 -332.5t-300 -105.5q-113 0 -195 53t-106 160q-150 -213 -360 -213q-324 0 -256 409l98 557h131l-97 -560q-49 -280 170 -280q87 0 169 65t139 169q3 34 6 49l96 557h133l-97 -558q-24 -138 29.5 -210t163.5 -72q232 0 288 285z" glyph-name="w" horiz-adv-x="1682" unicode="w"/><glyph d="M148 939h163l191 -359l314 359h155l-406 -456l264 -483h-158l-207 382l-339 -382h-157l433 483z" glyph-name="x" horiz-adv-x="960" unicode="x"/><glyph d="M944 939h133l-159 -907q-41 -239 -191 -391.5t-382 -152.5q-128 0 -222 53t-143 143l114 75q80 -148 268 -148q164 0 278 115t148 312l24 134q-164 -200 -367 -199q-340 0 -271 409l97 557h132l-98 -553q-48 -278 183 -278q188 0 357 257z" glyph-name="y" horiz-adv-x="1157" unicode="y"/><glyph d="M980 939l-24 -128l-700 -649q61 7 136.5 -11t136 -38.5t158.5 -19.5t207 38l-22 -126q-109 -38 -205.5 -37.5t-165 21.5t-134 42.5t-138 17t-149.5 -48.5l-60 89l775 727l-618 -5l24 128h779z" glyph-name="z" horiz-adv-x="1039" unicode="z"/><glyph d="M490 -254q-302 0 -248 300l63 350q10 61 -9.5 90t-82.5 29h-39l19 106h39q63 0 93 28.5t42 91.5l60 346q55 302 353 302l-22 -116q-94 0 -144.5 -44.5t-67.5 -149.5l-56 -320q-15 -84 -47 -125.5t-107 -65.5q67 -24 84 -65.5t2 -125.5l-57 -321q-19 -106 15.5 -151 t128.5 -45z" glyph-name="braceleft" horiz-adv-x="634" unicode="{"/><glyph d="M172 -375h-131l297 1694h131z" glyph-name="bar" horiz-adv-x="510" unicode="|"/><glyph d="M345 1389q299 0 244 -302l-62 -346q-10 -63 9 -91.5t82 -28.5h39l-19 -106h-39q-63 0 -92 -28t-39 -91l-64 -350q-55 -300 -349 -300l18 114q94 0 144.5 45.5t69.5 150.5l56 321q15 84 47 125.5t107 65.5q-67 24 -84 66t-2 125l57 320q17 106 -18 150t-127 44z" glyph-name="braceright" horiz-adv-x="650" unicode="}"/><glyph d="M300 582h-121q19 102 90 164.5t164 62.5q61 0 112 -30.5t93.5 -60.5t85.5 -30q99 0 117 111h122q-17 -104 -89 -165.5t-166 -61.5q-61 0 -110.5 30.5t-92 61.5t-87.5 31q-99 0 -118 -113z" glyph-name="asciitilde" horiz-adv-x="1066" unicode="~"/><glyph d="M341 891q-31 0 -48.5 20.5t-17.5 52.5q0 48 29 79.5t75 31.5q32 0 51 -19.5t19 -51.5q0 -48 -32 -80.5t-76 -32.5zM263 688h73l-99 -625l-90 -486h-138l107 486z" glyph-name="exclamdown" horiz-adv-x="527" unicode="¡"/><glyph d="M527 225q172 0 287 125l85 -70q-145 -162 -372 -171l-17 -109h-95l20 114q-152 22 -231 129t-71 271q9 205 137.5 350t325.5 172l22 125h94l-23 -120q218 -9 315 -172l-111 -70q-67 125 -243 124.5t-280.5 -113t-111.5 -293.5q-3 -135 65.5 -213.5t203.5 -78.5z" glyph-name="cent" horiz-adv-x="1025" unicode="¢"/><glyph d="M741 1188q203 0 290 -161l-99 -76q-56 123 -203 122q-125 0 -209.5 -87.5t-109.5 -227.5q-14 -72 -29 -162h390l-18 -103h-391q-12 -77 -35 -207.5t-28 -164.5h571l-22 -121h-821l17 99l125 15q9 51 31 179.5t36 199.5h-122l17 103h122q20 109 29 162q32 195 158.5 312.5 t300.5 117.5z" glyph-name="sterling" horiz-adv-x="1066" unicode="£"/><glyph d="M862 795q34 -65 34 -155q0 -176 -102 -292l93 -109l-87 -73l-88 110q-106 -65 -238 -64q-133 0 -211 73l-137 -119l-59 73l141 118q-32 65 -32 148q0 177 106 297l-99 113l87 73l94 -118q102 65 235 65q131 0 207 -70l138 121l60 -71zM299 521q0 -92 50 -144.5t141 -52.5 q130 0 206.5 83t76.5 218q0 94 -50.5 146t-142.5 52q-130 0 -205.5 -82.5t-75.5 -219.5z" glyph-name="currency" horiz-adv-x="1034" unicode="¤"/><glyph d="M1251 1161l-558 -681h189l-17 -99h-580l17 99h195l-323 681h145l283 -627l504 627h145zM249 181l19 101h580l-19 -101h-225l-31 -181h-131l31 181h-224z" glyph-name="yen" horiz-adv-x="1182" unicode="¥"/><glyph d="M346 621h-131l125 698h131zM174 -375h-131l129 739h132z" glyph-name="brokenbar" horiz-adv-x="512" unicode="¦"/><glyph d="M375 1015q0 -73 56.5 -118t137 -67.5t159.5 -48t135.5 -82t56.5 -148.5q0 -215 -201 -292q113 -72 112 -204q0 -183 -128 -274.5t-319 -91.5q-256 0 -384 173l92 90q102 -150 306 -150q48 0 92 8.5t94.5 30.5t81 71t30.5 119q0 65 -40 110t-99 66.5t-129 47t-128.5 51 t-99 77.5t-40.5 126q0 106 54 179t144 109q-113 70 -112 196q0 171 125.5 265.5t294.5 94.5q116 0 209 -46.5t137 -123.5l-104 -77q-85 137 -261 136q-123 0 -197.5 -59.5t-74.5 -167.5zM509 346q108 -26 194.5 16t86.5 157q0 41 -17 72.5t-53 54.5t-69 37.5t-88 31.5 q-102 15 -187.5 -26.5t-85.5 -152.5q0 -39 16.5 -70t51.5 -53t66.5 -35t84.5 -32z" glyph-name="section" horiz-adv-x="1018" unicode="§"/><glyph d="M408 1319q31 0 49.5 -20.5t18.5 -52.5q0 -44 -29 -75t-72 -31q-32 0 -51 19.5t-19 52.5q0 46 29.5 76.5t73.5 30.5zM756 1319q31 0 49.5 -20.5t18.5 -52.5q0 -44 -29 -75t-71 -31q-32 0 -51 19.5t-19 52.5q0 46 29 76.5t73 30.5z" glyph-name="dieresis" horiz-adv-x="861" unicode="¨"/><glyph d="M852 1251q218 0 356.5 -135.5t138.5 -356.5q0 -198 -99 -356.5t-259 -243t-342 -84.5q-218 0 -356.5 135.5t-138.5 356.5q0 295 209 489.5t491 194.5zM836 1155q-239 0 -414 -160t-175 -413q0 -188 116.5 -299.5t300.5 -111.5q237 0 411 161t174 414q0 184 -116 296.5 t-297 112.5zM457 621q9 148 105.5 244t241.5 96q154 0 217 -116l-99 -58q-38 72 -137 71q-94 0 -152 -65.5t-61 -162.5q-3 -73 34 -118.5t111 -45.5q97 0 162 70l77 -58q-102 -114 -258 -114q-119 0 -182.5 69t-58.5 188z" glyph-name="copyright" horiz-adv-x="1435" unicode="©"/><glyph d="M558 1353q131 0 203 -69t48 -199l-72 -407h-92l-3 75q-92 -92 -243 -93q-106 0 -164.5 49t-58.5 131q0 111 87 177.5t218 66.5q116 0 208 -51l11 59q14 79 -30.5 119t-130.5 40q-102 0 -208 -55l-29 94q130 63 256 63zM437 754q92 0 153.5 48t80.5 125l3 18 q-82 49 -191 50q-89 0 -141 -36.5t-52 -101.5q0 -103 147 -103z" glyph-name="ordfeminine" horiz-adv-x="761" unicode="ª"/><glyph d="M560 790l-330 -317l217 -318l-101 -82l-259 400l401 399zM882 790l-327 -317l216 -318l-102 -82l-259 400l401 399z" glyph-name="guillemotleft" horiz-adv-x="981" unicode="«"/><glyph d="M891 729l116 1l-72 -399h-118l50 285h-679l19 114z" glyph-name="logicalnot" horiz-adv-x="1121" unicode="¬"/><glyph d="M592 1353q135 0 213.5 -81.5t78.5 -216.5q0 -179 -119.5 -303t-298.5 -124q-137 0 -216 82t-79 217q0 183 120 304.5t301 121.5zM476 688q148 0 244 101.5t96 254.5q0 111 -62.5 178.5t-173.5 67.5q-150 0 -245.5 -101.5t-95.5 -254.5q0 -111 62 -178.5t175 -67.5z M553 1184q145 0 145 -107q0 -118 -118 -145l72 -144h-85l-57 137h-3h-55l-24 -137h-71l70 396h126zM517 986q108 0 108 79q0 56 -84 56h-55l-22 -135h53z" glyph-name="registered" horiz-adv-x="872" unicode="®"/><glyph d="M290 1174l21 106h597l-21 -106h-597z" glyph-name="macron" horiz-adv-x="930" unicode="¯"/><glyph d="M428 1353q75 0 120.5 -44t45.5 -118q0 -96 -69 -166.5t-170 -70.5q-77 0 -121.5 47t-44.5 122q0 102 65.5 166t173.5 64zM410 1253q-51 0 -84.5 -31.5t-33.5 -79.5q0 -36 22 -59t60 -23q49 0 82.5 34t33.5 78q0 36 -21 58.5t-59 22.5z" glyph-name="degree" horiz-adv-x="542" unicode="°"/><glyph d="M633 705h338l-22 -118h-336l-45 -252h-123l43 252h-333l21 120h333l41 233h124zM72 111l20 119h795l-22 -119h-793z" glyph-name="plusminus" horiz-adv-x="1034" unicode="±"/><glyph d="M468 1005l-111 -87l256 7l-9 -104h-413l7 94l201 155q41 34 62.5 54.5t37.5 48.5t16 59q0 44 -30.5 66.5t-71.5 22.5q-75 0 -131 -82l-70 68q75 109 215 110q89 0 145 -45.5t56 -122.5q0 -119 -160 -244z" glyph-name="uni00B2" horiz-adv-x="624" unicode="²"/><glyph d="M608 1401l-6 -94l-169 -146q79 -7 123.5 -51.5t44.5 -107.5q0 -79 -60 -136t-176 -57q-67 0 -117 25.5t-69 61.5l79 63q34 -55 114 -54q56 0 85 29.5t29 69.5q0 36 -25.5 61.5t-76.5 25.5q-36 0 -68 -7l-22 80l169 138l-236 -8l7 107h374z" glyph-name="uni00B3" horiz-adv-x="595" unicode="³"/><glyph d="M365 1056l-22 62l360 213l34 -116z" glyph-name="acute" horiz-adv-x="826" unicode="´"/><glyph d="M913 939h133l-165 -939h-111l8 171q-166 -198 -365 -198q-142 0 -213 70l-98 -555h-119l150 857l5 37l98 557h133l-98 -553q-48 -278 185 -278q189 0 356 261z" glyph-name="uni00B5" unicode="µ"/><glyph d="M1341 1318l-285 -1625h-119l263 1498h-243l-262 -1498h-118l131 752h-126q-205 0 -317.5 93t-112.5 266q0 239 158.5 376.5t423.5 137.5h607z" glyph-name="paragraph" horiz-adv-x="1368" unicode="¶"/><glyph d="M276 744q32 0 51 -20.5t19 -52.5q0 -46 -31.5 -78.5t-75.5 -32.5q-32 0 -51 19.5t-19 51.5q0 49 29.5 81t77.5 32z" glyph-name="periodcentered" horiz-adv-x="450" unicode="·"/><glyph d="M276 24l74 -12l-29 -97q17 -2 40 -8t53.5 -19.5t48.5 -36t28.5 -56.5t-8.5 -80q-24 -70 -94 -103.5t-147.5 -27.5t-137.5 41l46 81q22 -14 66.5 -28t100 -6.5t72.5 55.5q10 17 5 31.5t-7.5 25.5t-17 19.5t-24.5 14.5t-29 10.5t-30 6t-29 3.5t-25.5 2.5t-18.5 0.5z" glyph-name="cedilla" horiz-adv-x="785" unicode="¸"/><glyph d="M408 1401h70l-41 -580h-113l33 469l-111 -39l-24 94z" glyph-name="uni00B9" horiz-adv-x="501" unicode="¹"/><glyph d="M606 1353q131 0 209 -77.5t78 -208.5q0 -167 -113.5 -287.5t-294.5 -120.5q-133 0 -210 77.5t-77 207.5q0 177 117 293t291 116zM589 1251q-119 0 -197 -84.5t-78 -205.5q0 -87 49.5 -143.5t138.5 -56.5q119 0 197 85.5t78 206.5q0 87 -49.5 142.5t-138.5 55.5z" glyph-name="ordmasculine" horiz-adv-x="902" unicode="º"/><glyph d="M312 872l261 -399l-402 -400l-70 82l327 319l-216 316zM635 872l259 -399l-401 -400l-71 82l329 319l-217 316z" glyph-name="guillemotright" horiz-adv-x="981" unicode="»"/><glyph d="M1280 1352l84 -53l-1135 -1302l-84 49zM336 1203l-114 -37l-14 94l191 56h70l-100 -580h-113zM1258 580l-60 -346l75 2l-17 -98h-75l-24 -138h-102l24 138h-270l-15 98l361 344h103zM901 225l193 5l39 219z" glyph-name="onequarter" horiz-adv-x="1384" unicode="¼"/><glyph d="M1280 1352l84 -53l-1135 -1302l-84 49zM336 1203l-114 -37l-14 94l191 56h70l-100 -580h-113zM1357 444q0 -55 -31.5 -107t-66.5 -82.5t-88 -70.5l-121 -87l259 7l-20 -104h-415l19 94l216 155q51 39 73.5 58t43 49.5t20.5 63.5q0 41 -29 60.5t-67 19.5q-77 0 -141 -82 l-64 68q90 109 229 110q82 0 132.5 -41t50.5 -111z" glyph-name="onehalf" horiz-adv-x="1452" unicode="½"/><glyph d="M1312 1352l84 -53l-1135 -1302l-84 49zM565 930q0 -82 -66 -144t-192 -62q-65 0 -112.5 25.5t-63.5 61.5l86 63q26 -55 107 -55q61 0 94 33.5t33 74.5q0 32 -23.5 55t-70.5 23q-39 0 -69 -7l-15 81l184 138l-237 -9l21 108h372l-16 -94l-184 -147q72 -7 112 -47t40 -98z M1290 580l-59 -346l75 2l-17 -98h-76l-23 -138h-103l24 138h-270l-15 98l362 344h102zM934 225l192 5l40 219z" glyph-name="threequarters" horiz-adv-x="1416" unicode="¾"/><glyph d="M649 882q-34 0 -53 20.5t-19 56.5q0 49 31.5 83.5t77.5 34.5q34 0 53.5 -20.5t19.5 -54.5q0 -53 -31 -86.5t-79 -33.5zM782 -133l88 -75q-84 -94 -216 -162.5t-282 -68.5q-172 0 -268.5 98.5t-96.5 250.5q0 203 148.5 354t358.5 178l58 237h99l-34 -338 q-220 0 -358.5 -122.5t-138.5 -288.5q0 -108 67.5 -178.5t190.5 -70.5q116 0 216.5 56.5t167.5 129.5z" glyph-name="questiondown" horiz-adv-x="1107" unicode="¿"/><glyph d="M985 1498l-43 -61l-319 159l77 116zM1080 0l-83 355h-676l-207 -355h-138l778 1319h145l320 -1319h-139zM396 483h570l-164 698z" glyph-name="Agrave" horiz-adv-x="1356" unicode="À"/><glyph d="M1118 1596l-372 -159l-22 61l360 214zM1080 0l-83 355h-676l-207 -355h-138l778 1319h145l320 -1319h-139zM396 483h570l-164 698z" glyph-name="Aacute" horiz-adv-x="1356" unicode="Á"/><glyph d="M879 1633l-176 -155l-56 60l205 201h92l131 -201l-78 -60zM1080 0l-83 355h-676l-207 -355h-138l778 1319h145l320 -1319h-139zM396 483h570l-164 698z" glyph-name="Acircumflex" horiz-adv-x="1356" unicode="Â"/><glyph d="M753 1604q-80 0 -96 -95h-106q15 90 76.5 144.5t140.5 54.5q61 0 126 -51t104 -51q75 0 94 94h106q-19 -92 -78.5 -146t-136.5 -54q-49 0 -88.5 26.5t-72.5 52t-69 25.5zM1080 0l-83 355h-676l-207 -355h-138l778 1319h145l320 -1319h-139zM396 483h570l-164 698z" glyph-name="Atilde" horiz-adv-x="1356" unicode="Ã"/><glyph d="M688 1521q-32 0 -51 19.5t-19 51.5q0 46 29 77t73 31q31 0 49.5 -20.5t18.5 -53.5q0 -44 -28.5 -74.5t-71.5 -30.5zM1036 1521q-32 0 -51 19.5t-19 51.5q0 46 29 77t73 31q31 0 50 -20.5t19 -53.5q0 -44 -29 -74.5t-72 -30.5zM1080 0l-83 355h-676l-207 -355h-138 l778 1319h145l320 -1319h-139zM396 483h570l-164 698z" glyph-name="Adieresis" horiz-adv-x="1356" unicode="Ä"/><glyph d="M847 1428q-68 0 -107 43t-39 113q0 97 58 158.5t152 61.5q67 0 107 -42.5t40 -111.5q0 -89 -61 -155.5t-150 -66.5zM898 1715q-48 0 -80.5 -33t-32.5 -83q0 -36 20.5 -58t56.5 -22q46 0 77.5 35t31.5 81q0 36 -20.5 58t-52.5 22zM1080 0l-83 355h-676l-207 -355h-138 l778 1319h145l320 -1319h-139zM396 483h570l-164 698z" glyph-name="Aring" horiz-adv-x="1356" unicode="Å"/><glyph d="M1843 1191h-703l-78 -445h496l-22 -126h-497l-85 -492h705l-24 -128h-831l66 377h-460l-306 -377h-150l1079 1319h832zM505 497h386l106 607z" glyph-name="AE" horiz-adv-x="1827" unicode="Æ"/><glyph d="M899 1224q-266 0 -445 -193t-179 -481q0 -207 113.5 -331.5t312.5 -124.5q125 0 240 53t202 150l94 -77q-102 -114 -239.5 -179t-285.5 -73l-16 -53q17 -2 40 -8t54 -19.5t49 -36t28 -56.5t-9 -80q-24 -70 -93.5 -103.5t-147.5 -27.5t-137 41l46 81q22 -14 66.5 -28 t100 -6.5t72.5 55.5q10 17 5 31.5t-8 25.5t-17.5 19.5t-24.5 14.5t-29 10.5t-30 6t-29 3.5t-25.5 2.5t-17.5 0.5l44 128q-227 14 -358.5 167.5t-131.5 394.5q0 348 224 583.5t555 235.5q157 0 280.5 -66.5t190.5 -189.5l-120 -77q-116 207 -374 207z" glyph-name="Ccedilla" horiz-adv-x="1373" unicode="Ç"/><glyph d="M918 1498l-42 -61l-320 159l77 116zM1164 1195h-724l-78 -449h531l-23 -126h-530l-86 -495h724l-22 -125h-854l231 1319h853z" glyph-name="Egrave" horiz-adv-x="1155" unicode="È"/><glyph d="M1051 1596l-372 -159l-22 61l360 214zM1164 1195h-724l-78 -449h531l-23 -126h-530l-86 -495h724l-22 -125h-854l231 1319h853z" glyph-name="Eacute" horiz-adv-x="1155" unicode="É"/><glyph d="M812 1633l-175 -155l-57 60l205 201h92l132 -201l-79 -60zM1164 1195h-724l-78 -449h531l-23 -126h-530l-86 -495h724l-22 -125h-854l231 1319h853z" glyph-name="Ecircumflex" horiz-adv-x="1155" unicode="Ê"/><glyph d="M621 1521q-32 0 -51 19.5t-19 51.5q0 46 29 77t74 31q31 0 49.5 -20.5t18.5 -53.5q0 -44 -29 -74.5t-72 -30.5zM969 1521q-32 0 -51 19.5t-19 51.5q0 46 29 77t74 31q31 0 49.5 -20.5t18.5 -53.5q0 -44 -29 -74.5t-72 -30.5zM1164 1195h-724l-78 -449h531l-23 -126h-530 l-86 -495h724l-22 -125h-854l231 1319h853z" glyph-name="Edieresis" horiz-adv-x="1155" unicode="Ë"/><glyph d="M514 1437l-319 159l76 116l285 -214zM234 0h-132l231 1319h131z" glyph-name="Igrave" horiz-adv-x="496" unicode="Ì"/><glyph d="M317 1437l-22 61l360 214l34 -116zM234 0h-132l231 1319h131z" glyph-name="Iacute" horiz-adv-x="496" unicode="Í"/><glyph d="M423 1739h92l132 -201l-79 -60l-117 155l-176 -155l-57 60zM234 0h-132l231 1319h131z" glyph-name="Icircumflex" horiz-adv-x="496" unicode="Î"/><glyph d="M292 1700q31 0 49.5 -20.5t18.5 -53.5q0 -44 -29 -74.5t-72 -30.5q-32 0 -51 19.5t-19 51.5q0 46 29.5 77t73.5 31zM640 1700q31 0 49.5 -20.5t18.5 -53.5q0 -44 -29 -74.5t-71 -30.5q-32 0 -51 19.5t-19 51.5q0 46 29 77t73 31zM234 0h-132l231 1319h131z" glyph-name="Idieresis" horiz-adv-x="496" unicode="Ï"/><glyph d="M923 1319q224 0 354.5 -148.5t130.5 -383.5q0 -208 -94 -389t-259.5 -289.5t-361.5 -108.5h-539l104 601h-135l24 128h135l102 590h539zM715 128q154 0 283.5 89.5t202 237t72.5 315.5q0 186 -98 303.5t-276 117.5h-404l-80 -462h401l-24 -128h-401l-82 -473h406z" glyph-name="Eth" horiz-adv-x="1488" unicode="Ð"/><glyph d="M858 1604q-80 0 -95 -95h-106q15 90 76.5 144.5t140.5 54.5q61 0 126 -51t104 -51q75 0 94 94h106q-19 -92 -78.5 -146t-136.5 -54q-49 0 -88.5 26.5t-73 52t-69.5 25.5zM1350 1319h133l-230 -1319h-133q17 96 -3.5 179.5t-91.5 167t-119 126t-160 133.5q-2 3 -4 3 q-90 72 -135.5 111t-110 106.5t-102.5 130.5l-167 -957h-133l230 1319h133v-1q-14 -79 3.5 -153t45.5 -126.5t93 -119.5t107 -102t127 -104q92 -73 139 -112.5t111 -106t101 -127.5z" glyph-name="Ntilde" horiz-adv-x="1510" unicode="Ñ"/><glyph d="M1027 1437l-319 159l77 116l285 -214zM916 1352q247 0 389 -154.5t142 -409.5q0 -348 -221.5 -584t-551.5 -236q-247 0 -389 156t-142 407q0 348 222 584.5t551 236.5zM894 1225q-265 0 -442 -192.5t-177 -482.5q0 -205 111.5 -329.5t309.5 -124.5q266 0 443 192.5 t177 477.5q0 207 -113 333t-309 126z" glyph-name="Ograve" horiz-adv-x="1525" unicode="Ò"/><glyph d="M831 1437l-22 61l360 214l34 -116zM916 1352q247 0 389 -154.5t142 -409.5q0 -348 -221.5 -584t-551.5 -236q-247 0 -389 156t-142 407q0 348 222 584.5t551 236.5zM894 1225q-265 0 -442 -192.5t-177 -482.5q0 -205 111.5 -329.5t309.5 -124.5q266 0 443 192.5 t177 477.5q0 207 -113 333t-309 126z" glyph-name="Oacute" horiz-adv-x="1525" unicode="Ó"/><glyph d="M937 1739h92l132 -201l-79 -60l-118 155l-176 -155l-56 60zM916 1352q247 0 389 -154.5t142 -409.5q0 -348 -221.5 -584t-551.5 -236q-247 0 -389 156t-142 407q0 348 222 584.5t551 236.5zM894 1225q-265 0 -442 -192.5t-177 -482.5q0 -205 111.5 -329.5t309.5 -124.5 q266 0 443 192.5t177 477.5q0 207 -113 333t-309 126z" glyph-name="Ocircumflex" horiz-adv-x="1525" unicode="Ô"/><glyph d="M742 1509h-105q15 90 76.5 144.5t139.5 54.5q61 0 126 -51t105 -51q75 0 94 94h105q-19 -92 -78.5 -146t-136.5 -54q-49 0 -88.5 26.5t-72.5 52t-69 25.5q-81 1 -96 -95zM916 1352q247 0 389 -154.5t142 -409.5q0 -348 -221.5 -584t-551.5 -236q-247 0 -389 156t-142 407 q0 348 222 584.5t551 236.5zM894 1225q-265 0 -442 -192.5t-177 -482.5q0 -205 111.5 -329.5t309.5 -124.5q266 0 443 192.5t177 477.5q0 207 -113 333t-309 126z" glyph-name="Otilde" horiz-adv-x="1525" unicode="Õ"/><glyph d="M806 1700q31 0 49.5 -20.5t18.5 -53.5q0 -44 -29 -74.5t-72 -30.5q-32 0 -51 19.5t-19 51.5q0 46 29.5 77t73.5 31zM1154 1700q31 0 49.5 -20.5t18.5 -53.5q0 -44 -29 -74.5t-72 -30.5q-32 0 -51 19.5t-19 51.5q0 46 29.5 77t73.5 31zM916 1352q247 0 389 -154.5 t142 -409.5q0 -348 -221.5 -584t-551.5 -236q-247 0 -389 156t-142 407q0 348 222 584.5t551 236.5zM894 1225q-265 0 -442 -192.5t-177 -482.5q0 -205 111.5 -329.5t309.5 -124.5q266 0 443 192.5t177 477.5q0 207 -113 333t-309 126z" glyph-name="Odieresis" horiz-adv-x="1525" unicode="Ö"/><glyph d="M828 922l-255 -217l193 -232l-109 -91l-191 231l-253 -215l-73 87l254 215l-181 218l108 92l181 -218l256 217z" glyph-name="multiply" horiz-adv-x="902" unicode="×"/><glyph d="M1551 1229l-167 -144q65 -126 65 -297q0 -346 -222 -583t-549 -237q-259 0 -405 172l-154 -130l-71 86l162 138q-65 130 -65 297q0 348 222 584.5t551 236.5q259 0 403 -171l159 135zM280 550q0 -126 41 -221l891 758q-113 137 -316 137q-266 0 -441 -192t-175 -482z M1314 766q0 123 -43 224l-890 -758q113 -137 315 -136q266 0 442 192.5t176 477.5z" glyph-name="Oslash" horiz-adv-x="1524" unicode="Ø"/><glyph d="M988 1437l-319 159l77 116l285 -214zM1410 1319l-133 -763q-46 -265 -221 -426t-426 -161t-368 161.5t-71 425.5l133 763h132l-133 -756q-38 -218 51.5 -346t275.5 -128q184 0 321 126t174 348l133 756h132z" glyph-name="Ugrave" horiz-adv-x="1437" unicode="Ù"/><glyph d="M792 1437l-22 61l360 214l34 -116zM1410 1319l-133 -763q-46 -265 -221 -426t-426 -161t-368 161.5t-71 425.5l133 763h132l-133 -756q-38 -218 51.5 -346t275.5 -128q184 0 321 126t174 348l133 756h132z" glyph-name="Uacute" horiz-adv-x="1437" unicode="Ú"/><glyph d="M898 1739h92l131 -201l-78 -60l-118 155l-176 -155l-56 60zM1410 1319l-133 -763q-46 -265 -221 -426t-426 -161t-368 161.5t-71 425.5l133 763h132l-133 -756q-38 -218 51.5 -346t275.5 -128q184 0 321 126t174 348l133 756h132z" glyph-name="Ucircumflex" horiz-adv-x="1437" unicode="Û"/><glyph d="M766 1700q31 0 50 -20.5t19 -53.5q0 -44 -29 -74.5t-72 -30.5q-32 0 -51 19.5t-19 51.5q0 46 29 77t73 31zM1114 1700q31 0 50 -20.5t19 -53.5q0 -44 -29 -74.5t-72 -30.5q-32 0 -51 19.5t-19 51.5q0 46 29 77t73 31zM1410 1319l-133 -763q-46 -265 -221 -426t-426 -161 t-368 161.5t-71 425.5l133 763h132l-133 -756q-38 -218 51.5 -346t275.5 -128q184 0 321 126t174 348l133 756h132z" glyph-name="Udieresis" horiz-adv-x="1437" unicode="Ü"/><glyph d="M1055 1594l-372 -159l-23 62l361 213zM1326 1319l-645 -848l-82 -471h-133l82 473l-345 846h147l285 -734l543 734h148z" glyph-name="Yacute" horiz-adv-x="1228" unicode="Ý"/><glyph d="M766 1147q205 0 317.5 -95t112.5 -265q0 -241 -158.5 -376.5t-423.5 -135.5h-332l-48 -275h-132l231 1318h131l-29 -171h331zM637 399q193 0 308 94t115 275q0 126 -83 189.5t-231 63.5h-333l-109 -622h333z" glyph-name="Thorn" horiz-adv-x="1249" unicode="Þ"/><glyph d="M56 -246q80 171 116 372l132 753q38 210 154.5 325t299.5 115q140 0 210.5 -68t70.5 -166q0 -77 -39 -134t-87.5 -85t-122 -68t-112.5 -71q-32 -26 -50.5 -50.5t-18.5 -65.5q0 -53 46 -84.5t112 -48.5t132.5 -40t112.5 -75t46 -134q0 -104 -105 -178.5t-265 -74.5 q-220 0 -324 125l78 83q89 -106 263 -105q102 0 168 41.5t66 118.5q0 53 -47 86t-113 50.5t-132.5 37.5t-113.5 67t-47 121q0 113 134 205q36 26 127 72.5t133 86.5t42 98t-47 99t-133 41q-125 0 -205.5 -84.5t-109.5 -237.5l-133 -755q-34 -210 -120 -402z" glyph-name="germandbls" horiz-adv-x="1221" unicode="ß"/><glyph d="M811 1118l-43 -62l-319 159l77 116zM1126 119l4 -105q-111 -39 -174 -25t-87 58.5t-16 114.5q-143 -189 -385 -189q-172 0 -269.5 109t-97.5 288q0 256 151.5 426t382.5 170q246 0 321 -217l32 190h128l-128 -743q-12 -65 18.5 -82t119.5 5zM509 94q143 0 249 90.5 t140 237.5l10 56q3 44 3 66q0 137 -72.5 219t-200.5 82q-176 0 -290 -129t-114 -320q0 -137 72.5 -219.5t202.5 -82.5z" glyph-name="agrave" horiz-adv-x="1286" unicode="à"/><glyph d="M944 1215l-372 -159l-22 62l360 213zM1126 119l4 -105q-111 -39 -174 -25t-87 58.5t-16 114.5q-143 -189 -385 -189q-172 0 -269.5 109t-97.5 288q0 256 151.5 426t382.5 170q246 0 321 -217l32 190h128l-128 -743q-12 -65 18.5 -82t119.5 5zM509 94q143 0 249 90.5 t140 237.5l10 56q3 44 3 66q0 137 -72.5 219t-200.5 82q-176 0 -290 -129t-114 -320q0 -137 72.5 -219.5t202.5 -82.5z" glyph-name="aacute" horiz-adv-x="1286" unicode="á"/><glyph d="M705 1253l-176 -156l-56 60l205 202h92l131 -202l-78 -60zM1126 119l4 -105q-111 -39 -174 -25t-87 58.5t-16 114.5q-143 -189 -385 -189q-172 0 -269.5 109t-97.5 288q0 256 151.5 426t382.5 170q246 0 321 -217l32 190h128l-128 -743q-12 -65 18.5 -82t119.5 5zM509 94 q143 0 249 90.5t140 237.5l10 56q3 44 3 66q0 137 -72.5 219t-200.5 82q-176 0 -290 -129t-114 -320q0 -137 72.5 -219.5t202.5 -82.5z" glyph-name="acircumflex" horiz-adv-x="1286" unicode="â"/><glyph d="M584 1224q-80 0 -96 -96h-106q15 90 77 145t140 55q61 0 126 -51.5t104 -51.5q75 0 94 94h106q-19 -92 -78.5 -145.5t-136.5 -53.5q-49 0 -88.5 25.5t-72.5 52t-69 26.5zM1126 119l4 -105q-111 -39 -174 -25t-87 58.5t-16 114.5q-143 -189 -385 -189q-172 0 -269.5 109 t-97.5 288q0 256 151.5 426t382.5 170q246 0 321 -217l32 190h128l-128 -743q-12 -65 18.5 -82t119.5 5zM509 94q143 0 249 90.5t140 237.5l10 56q3 44 3 66q0 137 -72.5 219t-200.5 82q-176 0 -290 -129t-114 -320q0 -137 72.5 -219.5t202.5 -82.5z" glyph-name="atilde" horiz-adv-x="1286" unicode="ã"/><glyph d="M514 1140q-32 0 -51 19.5t-19 52.5q0 46 29 76.5t73 30.5q31 0 49.5 -20.5t18.5 -52.5q0 -44 -28.5 -75t-71.5 -31zM862 1140q-32 0 -51 19.5t-19 52.5q0 46 29 76.5t73 30.5q31 0 50 -20.5t19 -52.5q0 -44 -29 -75t-72 -31zM1126 119l4 -105q-111 -39 -174 -25t-87 58.5 t-16 114.5q-143 -189 -385 -189q-172 0 -269.5 109t-97.5 288q0 256 151.5 426t382.5 170q246 0 321 -217l32 190h128l-128 -743q-12 -65 18.5 -82t119.5 5zM509 94q143 0 249 90.5t140 237.5l10 56q3 44 3 66q0 137 -72.5 219t-200.5 82q-176 0 -290 -129t-114 -320 q0 -137 72.5 -219.5t202.5 -82.5z" glyph-name="adieresis" horiz-adv-x="1286" unicode="ä"/><glyph d="M672 1048q-68 0 -106.5 42.5t-38.5 112.5q0 97 58 158.5t152 61.5q67 0 107 -42.5t40 -110.5q0 -89 -61.5 -155.5t-150.5 -66.5zM724 1335q-48 0 -80.5 -33.5t-32.5 -82.5q0 -36 20.5 -58.5t56.5 -22.5q46 0 77.5 35t31.5 81q0 36 -20.5 58.5t-52.5 22.5zM1126 119 l4 -105q-111 -39 -174 -25t-87 58.5t-16 114.5q-143 -189 -385 -189q-172 0 -269.5 109t-97.5 288q0 256 151.5 426t382.5 170q246 0 321 -217l32 190h128l-128 -743q-12 -65 18.5 -82t119.5 5zM509 94q143 0 249 90.5t140 237.5l10 56q3 44 3 66q0 137 -72.5 219t-200.5 82 q-176 0 -290 -129t-114 -320q0 -137 72.5 -219.5t202.5 -82.5z" glyph-name="aring" horiz-adv-x="1286" unicode="å"/><glyph d="M1693 688q-63 -350 -758 -362q10 -121 87 -177.5t190 -56.5q92 0 184 36t155 99l70 -82q-82 -80 -192.5 -126t-228.5 -46q-128 0 -227 58.5t-137 176.5q-135 -230 -426 -230q-155 0 -246.5 71.5t-91.5 191.5q0 154 123.5 249t342.5 95q135 0 286 -49l2 8q24 137 -47 218 t-207 81q-147 0 -321 -78l-38 114q193 87 378 87q135 0 225 -63t121 -176q79 113 197.5 176t256.5 63q150 0 237 -75t65 -203zM1572 686q12 68 -40 114.5t-156 46.5q-172 0 -290 -116.5t-146 -285.5q68 0 132.5 3t155.5 16.5t158.5 38t120.5 71.5t65 112zM439 96 q155 0 247 85t118 239h2v2q-138 46 -272 46q-329 0 -331 -203q-2 -79 61.5 -124t174.5 -45z" glyph-name="ae" horiz-adv-x="1786" unicode="æ"/><glyph d="M526 89q181 0 305 138l92 -70q-152 -171 -389 -184l-17 -58q17 -2 40 -8t54 -19.5t49 -36t28 -56.5t-9 -80q-24 -70 -94 -103.5t-147.5 -27.5t-137.5 41l46 81q22 -14 66.5 -28t100 -6.5t72.5 55.5q10 17 5 31.5t-7.5 25.5t-17 19.5t-24.5 14.5t-29 10.5t-30 6t-29 3.5 t-25.5 2.5t-17.5 0.5l46 133q-167 15 -261 124.5t-94 283.5q0 244 164.5 414t410.5 170q121 0 214 -48.5t141 -137.5l-113 -68q-75 135 -261 135q-184 0 -305.5 -129t-121.5 -314q0 -142 79.5 -228.5t216.5 -86.5z" glyph-name="ccedilla" horiz-adv-x="1049" unicode="ç"/><glyph d="M840 1118l-43 -62l-319 159l77 116zM503 87q99 0 193 44.5t149 95.5l68 -82q-82 -80 -196.5 -126t-233.5 -46q-167 0 -277 93t-110 280q0 259 171.5 439.5t415.5 180.5q135 0 221 -61.5t86 -170.5q0 -85 -37 -152.5t-102.5 -109.5t-139.5 -72t-167 -45t-166.5 -21 t-153.5 -8q10 -123 88 -181t191 -58zM669 852q-174 0 -293.5 -119t-146.5 -288q75 0 146.5 5.5t165.5 23.5t163 45t117 78.5t48 117.5q0 60 -53 98.5t-147 38.5z" glyph-name="egrave" horiz-adv-x="1078" unicode="è"/><glyph d="M973 1215l-372 -159l-22 62l360 213zM503 87q99 0 193 44.5t149 95.5l68 -82q-82 -80 -196.5 -126t-233.5 -46q-167 0 -277 93t-110 280q0 259 171.5 439.5t415.5 180.5q135 0 221 -61.5t86 -170.5q0 -85 -37 -152.5t-102.5 -109.5t-139.5 -72t-167 -45t-166.5 -21 t-153.5 -8q10 -123 88 -181t191 -58zM669 852q-174 0 -293.5 -119t-146.5 -288q75 0 146.5 5.5t165.5 23.5t163 45t117 78.5t48 117.5q0 60 -53 98.5t-147 38.5z" glyph-name="eacute" horiz-adv-x="1078" unicode="é"/><glyph d="M734 1253l-176 -156l-56 60l205 202h92l131 -202l-78 -60zM503 87q99 0 193 44.5t149 95.5l68 -82q-82 -80 -196.5 -126t-233.5 -46q-167 0 -277 93t-110 280q0 259 171.5 439.5t415.5 180.5q135 0 221 -61.5t86 -170.5q0 -85 -37 -152.5t-102.5 -109.5t-139.5 -72 t-167 -45t-166.5 -21t-153.5 -8q10 -123 88 -181t191 -58zM669 852q-174 0 -293.5 -119t-146.5 -288q75 0 146.5 5.5t165.5 23.5t163 45t117 78.5t48 117.5q0 60 -53 98.5t-147 38.5z" glyph-name="ecircumflex" horiz-adv-x="1078" unicode="ê"/><glyph d="M543 1140q-32 0 -51 19.5t-19 52.5q0 46 29 76.5t73 30.5q31 0 49.5 -20.5t18.5 -52.5q0 -44 -28.5 -75t-71.5 -31zM891 1140q-32 0 -51 19.5t-19 52.5q0 46 29 76.5t73 30.5q31 0 50 -20.5t19 -52.5q0 -44 -29 -75t-72 -31zM990 734q0 -85 -37 -152.5t-102.5 -109.5 t-139.5 -72t-167 -45t-166.5 -21t-153.5 -8q10 -123 88.5 -181t190.5 -58q99 0 193 44.5t149 95.5l68 -82q-82 -80 -196.5 -126t-233.5 -46q-167 0 -277 93t-110 280q0 259 171.5 439.5t415.5 180.5q135 0 221 -61.5t86 -170.5zM229 445q75 0 146.5 5.5t165.5 23.5t163 45 t117 78.5t48 117.5q0 60 -53 98.5t-147 38.5q-174 0 -293.5 -119t-146.5 -288z" glyph-name="edieresis" horiz-adv-x="1078" unicode="ë"/><glyph d="M463 1056l-320 159l77 116l285 -213zM422 119l3 -105q-116 -43 -180 -25t-85.5 66.5t-9.5 123.5l133 760h128l-128 -743q-12 -65 19 -82t120 5z" glyph-name="igrave" horiz-adv-x="508" unicode="ì"/><glyph d="M266 1056l-22 62l360 213l34 -116zM422 119l3 -105q-116 -43 -180 -25t-85.5 66.5t-9.5 123.5l133 760h128l-128 -743q-12 -65 19 -82t120 5z" glyph-name="iacute" horiz-adv-x="508" unicode="í"/><glyph d="M372 1359h92l132 -202l-79 -60l-118 156l-175 -156l-57 60zM422 119l3 -105q-116 -43 -180 -25t-85.5 66.5t-9.5 123.5l133 760h128l-128 -743q-12 -65 19 -82t120 5z" glyph-name="icircumflex" horiz-adv-x="508" unicode="î"/><glyph d="M241 1319q31 0 49.5 -20.5t18.5 -52.5q0 -44 -29 -75t-72 -31q-32 0 -51 19.5t-19 52.5q0 46 29.5 76.5t73.5 30.5zM589 1319q31 0 49.5 -20.5t18.5 -52.5q0 -44 -29 -75t-72 -31q-32 0 -51 19.5t-19 52.5q0 46 29.5 76.5t73.5 30.5zM422 119l3 -105q-116 -43 -180 -25 t-85.5 66.5t-9.5 123.5l133 760h128l-128 -743q-12 -65 19 -82t120 5z" glyph-name="idieresis" horiz-adv-x="508" unicode="ï"/><glyph d="M1183 1215l-205 -75q89 -157 89 -362q0 -125 -24 -241.5t-74.5 -220t-123 -180t-175 -121t-223.5 -44.5q-135 0 -221 60.5t-115 155.5t-14 211q27 213 169 335t330 122q143 0 223 -71t104 -180q12 77 12 152q0 198 -88 336l-248 -90l-22 102l201 75q-84 84 -235 149 l68 119q183 -63 307 -216l241 88zM478 96q258 0 377 268q2 39 2.5 86t-17 97t-45 91t-83 67.5t-130.5 26.5q-147 0 -238 -88.5t-115 -227.5q-24 -135 37.5 -227.5t211.5 -92.5z" glyph-name="eth" horiz-adv-x="1186" unicode="ð"/><glyph d="M558 1224q-80 0 -95 -96h-106q15 90 76.5 145t139.5 55q61 0 126.5 -51.5t104.5 -51.5q75 0 94 94h106q-19 -92 -79 -145.5t-137 -53.5q-49 0 -88.5 25.5t-72.5 52t-69 26.5zM712 966q343 0 271 -410l-97 -556h-132l98 560q49 278 -181 278q-191 0 -359 -263l-1 2 l-101 -577h-131l163 939h110l-7 -171v-3q162 201 367 201z" glyph-name="ntilde" unicode="ñ"/><glyph d="M795 1056l-319 159l77 116l285 -213zM681 966q186 0 295 -112t109 -296q0 -246 -163 -415.5t-415 -169.5q-188 0 -296.5 112.5t-108.5 295.5q0 253 166 419t413 166zM660 845q-184 0 -304 -129t-120 -317q0 -137 76.5 -221t214.5 -84q183 0 303.5 129t120.5 316 q0 137 -77 221.5t-214 84.5z" glyph-name="ograve" horiz-adv-x="1187" unicode="ò"/><glyph d="M599 1056l-22 62l360 213l34 -116zM681 966q186 0 295 -112t109 -296q0 -246 -163 -415.5t-415 -169.5q-188 0 -296.5 112.5t-108.5 295.5q0 253 166 419t413 166zM660 845q-184 0 -304 -129t-120 -317q0 -137 76.5 -221t214.5 -84q183 0 303.5 129t120.5 316 q0 137 -77 221.5t-214 84.5z" glyph-name="oacute" horiz-adv-x="1187" unicode="ó"/><glyph d="M705 1359h92l131 -202l-78 -60l-118 156l-176 -156l-56 60zM681 966q186 0 295 -112t109 -296q0 -246 -163 -415.5t-415 -169.5q-188 0 -296.5 112.5t-108.5 295.5q0 253 166 419t413 166zM660 845q-184 0 -304 -129t-120 -317q0 -137 76.5 -221t214.5 -84 q183 0 303.5 129t120.5 316q0 137 -77 221.5t-214 84.5z" glyph-name="ocircumflex" horiz-adv-x="1187" unicode="ô"/><glyph d="M510 1128h-106q15 90 77 145t140 55q61 0 126 -51.5t105 -51.5q75 0 93 94h106q-19 -92 -78.5 -145.5t-136.5 -53.5q-49 0 -88.5 25.5t-72.5 52t-69 26.5q-81 0 -96 -96zM681 966q186 0 295 -112t109 -296q0 -246 -163 -415.5t-415 -169.5q-188 0 -296.5 112.5 t-108.5 295.5q0 253 166 419t413 166zM660 845q-184 0 -304 -129t-120 -317q0 -137 76.5 -221t214.5 -84q183 0 303.5 129t120.5 316q0 137 -77 221.5t-214 84.5z" glyph-name="otilde" horiz-adv-x="1187" unicode="õ"/><glyph d="M573 1319q31 0 50 -20.5t19 -52.5q0 -44 -29 -75t-72 -31q-32 0 -51 19.5t-19 52.5q0 46 29 76.5t73 30.5zM922 1319q31 0 49.5 -20.5t18.5 -52.5q0 -44 -29 -75t-72 -31q-32 0 -51 19.5t-19 52.5q0 46 29.5 76.5t73.5 30.5zM681 966q186 0 295 -112t109 -296 q0 -246 -163 -415.5t-415 -169.5q-188 0 -296.5 112.5t-108.5 295.5q0 253 166 419t413 166zM660 845q-184 0 -304 -129t-120 -317q0 -137 76.5 -221t214.5 -84q183 0 303.5 129t120.5 316q0 137 -77 221.5t-214 84.5z" glyph-name="odieresis" horiz-adv-x="1187" unicode="ö"/><glyph d="M620 1073q32 0 51.5 -20t19.5 -55q0 -46 -28 -77.5t-74 -31.5q-34 0 -53 20.5t-19 53.5q0 48 29.5 79t73.5 31zM930 761l-20 -112h-744l20 114zM524 521q32 0 52 -21.5t20 -55.5q0 -46 -29 -77t-75 -31q-34 0 -54 19.5t-20 54.5q0 48 30 79.5t76 31.5z" glyph-name="divide" horiz-adv-x="1015" unicode="÷"/><glyph d="M1164 879l-123 -104q51 -92 51 -217q0 -246 -162 -415.5t-415 -169.5q-179 0 -290 106l-133 -115l-58 70l135 114q-60 99 -60 233q0 253 166.5 419t413.5 166q191 0 301 -119l118 100zM246 399q0 -87 32 -157l606 516q-79 87 -218 87q-183 0 -301.5 -129t-118.5 -317z M959 539q0 82 -27 142l-601 -512q79 -75 205 -75q184 0 303.5 128.5t119.5 316.5z" glyph-name="oslash" horiz-adv-x="1204" unicode="ø"/><glyph d="M811 1118l-43 -62l-319 159l77 116zM911 939h133l-163 -939h-110l4 169q-164 -196 -365 -196q-340 0 -272 409l98 557h133l-96 -553q-26 -142 18.5 -210t160.5 -68q186 0 357 256z" glyph-name="ugrave" unicode="ù"/><glyph d="M944 1215l-372 -159l-22 62l360 213zM911 939h133l-163 -939h-110l4 169q-164 -196 -365 -196q-340 0 -272 409l98 557h133l-96 -553q-26 -142 18.5 -210t160.5 -68q186 0 357 256z" glyph-name="uacute" unicode="ú"/><glyph d="M705 1253l-176 -156l-56 60l205 202h92l131 -202l-78 -60zM911 939h133l-163 -939h-110l4 169q-164 -196 -365 -196q-340 0 -272 409l98 557h133l-96 -553q-26 -142 18.5 -210t160.5 -68q186 0 357 256z" glyph-name="ucircumflex" unicode="û"/><glyph d="M514 1140q-32 0 -51 19.5t-19 52.5q0 46 29 76.5t73 30.5q31 0 49.5 -20.5t18.5 -52.5q0 -44 -28.5 -75t-71.5 -31zM862 1140q-32 0 -51 19.5t-19 52.5q0 46 29 76.5t73 30.5q31 0 50 -20.5t19 -52.5q0 -44 -29 -75t-72 -31zM911 939h133l-163 -939h-110l4 169 q-164 -196 -365 -196q-340 0 -272 409l98 557h133l-96 -553q-26 -142 18.5 -210t160.5 -68q186 0 357 256z" glyph-name="udieresis" unicode="ü"/><glyph d="M939 1215l-372 -159l-23 62l361 213zM944 939h133l-159 -907q-41 -239 -191 -391.5t-382 -152.5q-128 0 -222 53t-143 143l114 75q80 -148 268 -148q164 0 278 115t148 312l24 134q-164 -200 -367 -199q-340 0 -271 409l97 557h132l-98 -553q-48 -278 183 -278 q188 0 357 257z" glyph-name="yacute" horiz-adv-x="1157" unicode="ý"/><glyph d="M722 966q177 0 273.5 -110t96.5 -289q0 -256 -152 -425t-392 -169q-210 0 -306 157l-112 -642h-132l343 1963h132l-96 -558l-12 -64q147 137 357 137zM560 94q186 0 292.5 129.5t106.5 327.5q0 135 -69 214.5t-201 79.5q-138 0 -234.5 -76t-135.5 -204l-24 -142 q-2 -12 -1 -37q0 -133 68 -212.5t198 -79.5z" glyph-name="thorn" horiz-adv-x="1192" unicode="þ"/><glyph d="M509 1140q-32 0 -51 19.5t-19 52.5q0 46 29 76.5t73 30.5q31 0 49.5 -20.5t18.5 -52.5q0 -44 -28.5 -75t-71.5 -31zM857 1140q-32 0 -51 19.5t-19 52.5q0 46 29 76.5t73 30.5q31 0 49.5 -20.5t18.5 -52.5q0 -44 -28.5 -75t-71.5 -31zM944 939h133l-159 -907 q-41 -239 -191 -391.5t-382 -152.5q-128 0 -222 53t-143 143l114 75q80 -148 268 -148q164 0 278 115t148 312l24 134q-164 -200 -367 -199q-340 0 -271 409l97 557h132l-98 -553q-48 -278 183 -278q188 0 357 257z" glyph-name="ydieresis" horiz-adv-x="1157" unicode="ÿ"/><glyph d="M1188 1661l-21 -106h-597l21 106h597zM1080 0l-83 355h-676l-207 -355h-138l778 1319h145l320 -1319h-139zM396 483h570l-164 698z" glyph-name="Amacron" horiz-adv-x="1356" unicode="Ā"/><glyph d="M1014 1280l-21 -106h-597l20 106h598zM1126 119l4 -105q-111 -39 -174 -25t-87 58.5t-16 114.5q-143 -189 -385 -189q-172 0 -269.5 109t-97.5 288q0 256 151.5 426t382.5 170q246 0 321 -217l32 190h128l-128 -743q-12 -65 18.5 -82t119.5 5zM509 94q143 0 249 90.5 t140 237.5l10 56q3 44 3 66q0 137 -72.5 219t-200.5 82q-176 0 -290 -129t-114 -320q0 -137 72.5 -219.5t202.5 -82.5z" glyph-name="amacron" horiz-adv-x="1286" unicode="ā"/><glyph d="M853 1478q-106 0 -164 59.5t-52 162.5h107q2 -51 34.5 -85.5t91.5 -34.5q114 0 169 120h106q-32 -99 -108 -160.5t-184 -61.5zM1080 0l-83 355h-676l-207 -355h-138l778 1319h145l320 -1319h-139zM396 483h570l-164 698z" glyph-name="Abreve" horiz-adv-x="1356" unicode="Ă"/><glyph d="M679 1097q-106 0 -164 60t-52 162h107q2 -51 34.5 -85t91.5 -34q114 0 169 119h106q-32 -99 -108 -160.5t-184 -61.5zM1126 119l4 -105q-111 -39 -174 -25t-87 58.5t-16 114.5q-143 -189 -385 -189q-172 0 -269.5 109t-97.5 288q0 256 151.5 426t382.5 170 q246 0 321 -217l32 190h128l-128 -743q-12 -65 18.5 -82t119.5 5zM509 94q143 0 249 90.5t140 237.5l10 56q3 44 3 66q0 137 -72.5 219t-200.5 82q-176 0 -290 -129t-114 -320q0 -137 72.5 -219.5t202.5 -82.5z" glyph-name="abreve" horiz-adv-x="1286" unicode="ă"/><glyph d="M1036 -305q51 0 99 52l49 -58q-90 -90 -175 -90q-70 0 -105 35t-32 95q5 126 208 271l-83 355h-676l-207 -355h-138l778 1319h145l320 -1319h-47q-63 -60 -92.5 -90.5t-62 -76.5t-32.5 -80q0 -58 51 -58zM396 483h570l-164 698z" glyph-name="Aogonek" horiz-adv-x="1356" unicode="Ą"/><glyph d="M945.5 -307q51.5 0 98.5 53l50 -58q-90 -90 -176 -91q-70 0 -105 35t-31 95q5 119 191 259q-138 10 -120 176q-143 -189 -385 -189q-172 0 -269.5 109t-97.5 288q0 256 151.5 426t382.5 170q246 0 321 -217l32 190h128l-128 -743q-12 -65 19 -82t119 5l4 -105 q-43 -14 -46 -14q-63 -60 -94 -90.5t-63.5 -77.5t-32.5 -81q0 -58 51.5 -58zM509 94q143 0 249 90.5t140 237.5l10 56q3 44 3 66q0 137 -72.5 219t-200.5 82q-176 0 -290 -129t-114 -320q0 -137 72.5 -219.5t202.5 -82.5z" glyph-name="aogonek" horiz-adv-x="1286" unicode="ą"/><glyph d="M812 1437l-22 61l360 214l34 -116zM1393 1094l-120 -77q-116 207 -374 207q-266 0 -445 -193t-179 -481q0 -207 113.5 -331.5t312.5 -124.5q125 0 240 53t202 150l94 -77q-109 -121 -255.5 -186.5t-303.5 -65.5q-247 0 -391 155t-144 408q0 348 224 583.5t555 235.5 q157 0 280.5 -66.5t190.5 -189.5z" glyph-name="Cacute" horiz-adv-x="1373" unicode="Ć"/><glyph d="M582 1056l-22 62l360 213l34 -116zM101 382q0 244 164.5 414t410.5 170q121 0 214 -48.5t141 -137.5l-113 -68q-75 135 -261 135q-184 0 -305.5 -129t-121.5 -314q0 -142 79.5 -228.5t216.5 -86.5q181 0 305 138l92 -70q-166 -184 -418 -184q-188 0 -296 110.5 t-108 298.5z" glyph-name="cacute" horiz-adv-x="1049" unicode="ć"/><glyph d="M963 1710q34 0 55 -23t21 -57q0 -49 -31.5 -83.5t-79.5 -34.5q-36 0 -56 22t-20 58q0 51 31.5 84.5t79.5 33.5zM1393 1094l-120 -77q-116 207 -374 207q-266 0 -445 -193t-179 -481q0 -207 113.5 -331.5t312.5 -124.5q125 0 240 53t202 150l94 -77 q-109 -121 -255.5 -186.5t-303.5 -65.5q-247 0 -391 155t-144 408q0 348 224 583.5t555 235.5q157 0 280.5 -66.5t190.5 -189.5z" glyph-name="Cdotaccent" horiz-adv-x="1373" unicode="Ċ"/><glyph d="M732 1329q34 0 55.5 -23t21.5 -57q0 -49 -31.5 -83t-79.5 -34q-36 0 -56.5 22t-20.5 58q0 51 31.5 84t79.5 33zM101 382q0 244 164.5 414t410.5 170q121 0 214 -48.5t141 -137.5l-113 -68q-75 135 -261 135q-184 0 -305.5 -129t-121.5 -314q0 -142 79.5 -228.5 t216.5 -86.5q181 0 305 138l92 -70q-166 -184 -418 -184q-188 0 -296 110.5t-108 298.5z" glyph-name="cdotaccent" horiz-adv-x="1049" unicode="ċ"/><glyph d="M874 1466l-135 203l75 58l123 -155l172 155l57 -58l-202 -203h-90zM1393 1094l-120 -77q-116 207 -374 207q-266 0 -445 -193t-179 -481q0 -207 113.5 -331.5t312.5 -124.5q125 0 240 53t202 150l94 -77q-109 -121 -255.5 -186.5t-303.5 -65.5q-247 0 -391 155t-144 408 q0 348 224 583.5t555 235.5q157 0 280.5 -66.5t190.5 -189.5z" glyph-name="Ccaron" horiz-adv-x="1373" unicode="Č"/><glyph d="M643 1085l-134 204l75 58l123 -156l172 156l56 -58l-201 -204h-91zM101 382q0 244 164.5 414t410.5 170q121 0 214 -48.5t141 -137.5l-113 -68q-75 135 -261 135q-184 0 -305.5 -129t-121.5 -314q0 -142 79.5 -228.5t216.5 -86.5q181 0 305 138l92 -70 q-166 -184 -418 -184q-188 0 -296 110.5t-108 298.5z" glyph-name="ccaron" horiz-adv-x="1049" unicode="č"/><glyph d="M886 1466h-91l-135 203l76 58l122 -155l173 155l56 -58zM884 1319q225 0 355 -148.5t130 -383.5q0 -208 -94 -389t-259.5 -289.5t-361.5 -108.5h-552l231 1319h551zM676 126q154 0 283.5 89.5t202 237.5t72.5 317q0 188 -98 305.5t-274 117.5h-420l-186 -1067h420z" glyph-name="Dcaron" horiz-adv-x="1442" unicode="Ď"/><glyph d="M1391 1476l114 -42l-194 -357l-65 20zM942 771l123 697h130l-258 -1468h-116l5 108l5 30q-135 -166 -365 -165q-176 0 -270 109t-94 288q0 258 149.5 427t390.5 169q228 0 300 -195zM502 94q137 0 231.5 71.5t136.5 194.5l31 174v19q0 133 -68 212.5t-200 79.5 q-186 0 -292.5 -130t-106.5 -328q0 -135 68.5 -214t199.5 -79z" glyph-name="dcaron" horiz-adv-x="1208" unicode="ď"/><glyph d="M923 1319q224 0 354.5 -148.5t130.5 -383.5q0 -208 -94 -389t-259.5 -289.5t-361.5 -108.5h-539l104 601h-135l24 128h135l102 590h539zM715 128q154 0 283.5 89.5t202 237t72.5 315.5q0 186 -98 303.5t-276 117.5h-404l-80 -462h401l-24 -128h-401l-82 -473h406z" glyph-name="Dcroat" horiz-adv-x="1488" unicode="Đ"/><glyph d="M1265 1266l-21 -109h-107l-202 -1157h-114l2 113q-145 -140 -359 -140q-179 0 -273.5 108t-94.5 288q0 259 151.5 428t392.5 169q210 0 304 -159l61 350h-276l20 109h275l36 202h131l-36 -202h110zM498 97q137 0 231 71t136 194l31 170v21q0 131 -68.5 209.5t-199.5 78.5 q-186 0 -292 -127t-106 -328q0 -133 68.5 -211t199.5 -78z" glyph-name="dcroat" horiz-adv-x="1208" unicode="đ"/><glyph d="M1121 1661l-20 -106h-598l21 106h597zM1164 1195h-724l-78 -449h531l-23 -126h-530l-86 -495h724l-22 -125h-854l231 1319h853z" glyph-name="Emacron" horiz-adv-x="1155" unicode="Ē"/><glyph d="M445 1280h598l-21 -106h-597zM990 734q0 -85 -37 -152.5t-102.5 -109.5t-139.5 -72t-167 -45t-166.5 -21t-153.5 -8q10 -123 88.5 -181t190.5 -58q99 0 193 44.5t149 95.5l68 -82q-82 -80 -196.5 -126t-233.5 -46q-167 0 -277 93t-110 280q0 259 171.5 439.5t415.5 180.5 q135 0 221 -61.5t86 -170.5zM229 445q75 0 146.5 5.5t165.5 23.5t163 45t117 78.5t48 117.5q0 60 -53 98.5t-147 38.5q-174 0 -293.5 -119t-146.5 -288z" glyph-name="emacron" horiz-adv-x="1078" unicode="ē"/><glyph d="M795 1512q-36 0 -56 22t-20 58q0 51 31.5 84.5t78.5 33.5q34 0 55.5 -23t21.5 -57q0 -49 -31.5 -83.5t-79.5 -34.5zM1164 1195h-724l-78 -449h531l-23 -126h-530l-86 -495h724l-22 -125h-854l231 1319h853z" glyph-name="Edotaccent" horiz-adv-x="1155" unicode="Ė"/><glyph d="M717 1132q-36 0 -56.5 22t-20.5 58q0 51 31.5 84t79.5 33q34 0 55.5 -23t21.5 -57q0 -49 -31.5 -83t-79.5 -34zM503 87q99 0 193 44.5t149 95.5l68 -82q-82 -80 -196.5 -126t-233.5 -46q-167 0 -277 93t-110 280q0 259 171.5 439.5t415.5 180.5q135 0 221 -61.5 t86 -170.5q0 -85 -37 -152.5t-102.5 -109.5t-139.5 -72t-167 -45t-166.5 -21t-153.5 -8q10 -123 88 -181t191 -58zM669 852q-174 0 -293.5 -119t-146.5 -288q75 0 146.5 5.5t165.5 23.5t163 45t117 78.5t48 117.5q0 60 -53 98.5t-147 38.5z" glyph-name="edotaccent" horiz-adv-x="1078" unicode="ė"/><glyph d="M1164 1195h-724l-78 -449h531l-23 -126h-530l-86 -495h724l-22 -125h-96q-60 -56 -91.5 -88.5t-63 -78.5t-31.5 -79q0 -58 51.5 -58t98.5 53l50 -58q-90 -90 -176 -90q-70 0 -105 35t-32 94q5 125 205 270h-664l231 1319h853z" glyph-name="Eogonek" horiz-adv-x="1155" unicode="Ę"/><glyph d="M877 113q-60 -56 -91.5 -89t-63 -79t-31.5 -78q0 -58 51.5 -58t98.5 53l50 -58q-90 -90 -176 -91q-70 0 -105 35t-31 95q2 70 73 154q-85 -24 -169 -24q-167 0 -277 93t-110 280q0 259 171.5 439.5t415.5 180.5q135 0 221 -61.5t86 -170.5q0 -85 -37 -152.5 t-102.5 -109.5t-139.5 -72t-167 -45t-166.5 -21t-153.5 -8q10 -123 88.5 -181t190.5 -58q99 0 193 44.5t149 95.5l68 -82q-12 -12 -36 -32zM669 852q-174 0 -293.5 -119t-146.5 -288q75 0 146.5 5.5t165.5 23.5t163 45t117 78.5t48 117.5q0 60 -53 98.5t-147 38.5z" glyph-name="eogonek" horiz-adv-x="1078" unicode="ę"/><glyph d="M831 1466h-90l-135 203l75 58l123 -155l172 155l57 -58zM1164 1195h-724l-78 -449h531l-23 -126h-530l-86 -495h724l-22 -125h-854l231 1319h853z" glyph-name="Ecaron" horiz-adv-x="1155" unicode="Ě"/><glyph d="M753 1085h-91l-135 204l75 58l123 -156l173 156l56 -58zM503 87q99 0 193 44.5t149 95.5l68 -82q-82 -80 -196.5 -126t-233.5 -46q-167 0 -277 93t-110 280q0 259 171.5 439.5t415.5 180.5q135 0 221 -61.5t86 -170.5q0 -85 -37 -152.5t-102.5 -109.5t-139.5 -72 t-167 -45t-166.5 -21t-153.5 -8q10 -123 88 -181t191 -58zM669 852q-174 0 -293.5 -119t-146.5 -288q75 0 146.5 5.5t165.5 23.5t163 45t117 78.5t48 117.5q0 60 -53 98.5t-147 38.5z" glyph-name="ecaron" horiz-adv-x="1078" unicode="ě"/><glyph d="M935 1478q-106 0 -164 59.5t-52 162.5h107q2 -51 34.5 -85.5t91.5 -34.5q114 0 169 120h106q-32 -99 -108 -160.5t-184 -61.5zM1309 652l-73 -420q-227 -261 -562 -261q-247 0 -389 156t-142 407q0 348 222 583.5t546 235.5q162 0 287.5 -67t187.5 -194l-116 -77 q-48 101 -149.5 156.5t-231.5 55.5q-259 0 -436 -192t-177 -482q0 -205 112 -329.5t310 -124.5q242 0 411 179l41 248h-319l22 126h456z" glyph-name="Gbreve" horiz-adv-x="1442" unicode="Ğ"/><glyph d="M681 1097q-106 0 -164 60t-53 162h108q2 -51 34 -85t92 -34q114 0 169 119h106q-32 -99 -108 -160.5t-184 -61.5zM997 939h111l-159 -907q-41 -239 -191 -391.5t-379 -152.5q-130 0 -224.5 52t-144.5 144l115 75q84 -148 269 -148q164 0 277.5 115t147.5 312l21 117 q-131 -162 -367 -162q-177 0 -271 107t-94 281q0 253 147.5 419t386.5 166q234 0 307 -196l2 12zM509 114q142 0 239 78t134 207l21 113q2 14 2 44q0 131 -68.5 210t-198.5 79q-186 0 -291.5 -125.5t-105.5 -318.5q0 -131 68.5 -209t199.5 -78z" glyph-name="gbreve" horiz-adv-x="1191" unicode="ğ"/><glyph d="M944 1512q-36 0 -56.5 22t-20.5 58q0 51 31.5 84.5t79.5 33.5q34 0 55.5 -23t21.5 -57q0 -49 -31.5 -83.5t-79.5 -34.5zM1309 652l-73 -420q-227 -261 -562 -261q-247 0 -389 156t-142 407q0 348 222 583.5t546 235.5q162 0 287.5 -67t187.5 -194l-116 -77 q-48 101 -149.5 156.5t-231.5 55.5q-259 0 -436 -192t-177 -482q0 -205 112 -329.5t310 -124.5q242 0 411 179l41 248h-319l22 126h456z" glyph-name="Gdotaccent" horiz-adv-x="1442" unicode="Ġ"/><glyph d="M689 1132q-36 0 -56 22t-20 58q0 51 31.5 84t79.5 33q34 0 55 -23t21 -57q0 -49 -31.5 -83t-79.5 -34zM997 939h111l-159 -907q-41 -239 -191 -391.5t-379 -152.5q-130 0 -224.5 52t-144.5 144l115 75q84 -148 269 -148q164 0 277.5 115t147.5 312l21 117 q-131 -162 -367 -162q-177 0 -271 107t-94 281q0 253 147.5 419t386.5 166q234 0 307 -196l2 12zM509 114q142 0 239 78t134 207l21 113q2 14 2 44q0 131 -68.5 210t-198.5 79q-186 0 -291.5 -125.5t-105.5 -318.5q0 -131 68.5 -209t199.5 -78z" glyph-name="gdotaccent" horiz-adv-x="1191" unicode="ġ"/><glyph d="M1309 652l-73 -420q-227 -261 -562 -261q-247 0 -389 156t-142 407q0 348 222 583.5t546 235.5q162 0 287.5 -67t187.5 -194l-116 -77q-48 101 -149.5 156.5t-231.5 55.5q-259 0 -436 -192t-177 -482q0 -205 112 -329.5t310 -124.5q242 0 411 179l41 248h-319l22 126h456 zM657 -135q73 0 73 -85q0 -24 -8 -46q-27 -137 -174 -171l-7 60q63 17 92 56h-10q-32 0 -52 21.5t-20 55.5q0 46 31 77.5t75 31.5z" glyph-name="Gcommaaccent" horiz-adv-x="1442" unicode="Ģ"/><glyph d="M683 1132q-31 0 -50.5 22t-19.5 65q0 80 47.5 138t134.5 75l7 -58q-67 -17 -90 -56h8q32 0 52 -21.5t20 -55.5q0 -46 -30.5 -77.5t-78.5 -31.5zM997 939h111l-159 -907q-41 -239 -191 -391.5t-379 -152.5q-130 0 -224.5 52t-144.5 144l115 75q84 -148 269 -148 q164 0 277.5 115t147.5 312l21 117q-131 -162 -367 -162q-177 0 -271 107t-94 281q0 253 147.5 419t386.5 166q234 0 307 -196l2 12zM509 114q142 0 239 78t134 207l21 113q2 14 2 44q0 131 -68.5 210t-198.5 79q-186 0 -291.5 -125.5t-105.5 -318.5q0 -131 68.5 -209 t199.5 -78z" glyph-name="gcommaaccent" horiz-adv-x="1191" unicode="ģ"/><glyph d="M1613 1024l-17 -97h-139l-163 -927h-132l104 596h-809l-104 -596h-133l164 927h-137l18 97h136l51 295h133l-51 -295h809l51 295h132l-51 -295h138zM1290 724l36 203h-809l-36 -203h809z" glyph-name="Hbar" horiz-adv-x="1684" unicode="Ħ"/><glyph d="M836 966q343 0 272 -410l-98 -556h-131l99 563q49 280 -181 280q-189 0 -358 -263l-103 -580h-133l201 1150h-116l19 110h118l32 189h134l-33 -189h328l-21 -110h-327l-65 -375q162 191 363 191z" glyph-name="hbar" horiz-adv-x="1249" unicode="ħ"/><glyph d="M229 1509h-106q15 90 76.5 144.5t140.5 54.5q61 0 126 -51t104 -51q75 0 94 94h106q-19 -92 -79 -146t-136 -54q-49 0 -88.5 26.5t-73 52t-69.5 25.5q-80 1 -95 -95zM234 0h-132l231 1319h131z" glyph-name="Itilde" horiz-adv-x="496" unicode="Ĩ"/><glyph d="M177 1128h-105q15 90 76.5 145t139.5 55q61 0 126.5 -51.5t104.5 -51.5q75 0 94 94h106q-19 -92 -79 -145.5t-137 -53.5q-49 0 -88.5 25.5t-72.5 52t-69 26.5q-81 0 -96 -96zM422 119l3 -105q-116 -43 -180 -25t-85.5 66.5t-9.5 123.5l133 760h128l-128 -743 q-12 -65 19 -82t120 5z" glyph-name="itilde" horiz-adv-x="508" unicode="ĩ"/><glyph d="M142 1555l20 106h597l-20 -106h-597zM234 0h-132l231 1319h131z" glyph-name="Imacron" horiz-adv-x="496" unicode="Ī"/><glyph d="M90 1174l21 106h597l-20 -106h-598zM422 119l3 -105q-116 -43 -180 -25t-85.5 66.5t-9.5 123.5l133 760h128l-128 -743q-12 -65 19 -82t120 5z" glyph-name="imacron" horiz-adv-x="508" unicode="ī"/><glyph d="M193 0q-60 -56 -91.5 -87.5t-62 -78t-30.5 -78.5q0 -58 51 -58t99 53l49 -58q-90 -90 -176 -91q-70 0 -105 35t-31 95q5 121 206 271l231 1316h131l-230 -1319h-41z" glyph-name="Iogonek" horiz-adv-x="496" unicode="Į"/><glyph d="M416 1329q34 0 55.5 -23t21.5 -57q0 -49 -31.5 -83t-79.5 -34q-36 0 -56.5 22t-20.5 58q0 51 31.5 84t79.5 33zM282 -14q-55 -53 -85 -83.5t-57 -73t-27 -73.5q0 -58 51 -58t99 53l49 -58q-90 -90 -175 -91q-70 0 -105 35t-32 95q5 121 207 271q-77 43 -57 176l133 760 h128l-128 -743q-12 -65 19 -82t120 5l3 -105q-85 -31 -143 -28z" glyph-name="iogonek" horiz-adv-x="508" unicode="į"/><glyph d="M468 1710q34 0 55 -23t21 -57q0 -49 -31.5 -83.5t-79.5 -34.5q-36 0 -56 22t-20 58q0 51 31.5 84.5t79.5 33.5zM234 0h-132l231 1319h131z" glyph-name="Idotaccent" horiz-adv-x="496" unicode="İ"/><glyph d="M422 119l3 -105q-116 -43 -180 -25t-85.5 66.5t-9.5 123.5l133 760h128l-128 -743q-12 -65 19 -82t120 5z" glyph-name="dotlessi" horiz-adv-x="508" unicode="ı"/><glyph d="M137 166l112 73q82 -147 265 -147q160 0 272 115.5t146 311.5l140 800h133l-142 -807q-41 -239 -189.5 -391t-376.5 -152q-125 0 -218.5 52.5t-141.5 144.5zM314 463h-131l150 856h131z" glyph-name="IJ" horiz-adv-x="1235" unicode="Ĳ"/><glyph d="M403 1468q41 0 65 -25t24 -64q0 -55 -37 -92.5t-90 -37.5q-39 0 -61 24t-22 65q0 58 34 94t87 36zM966 1468q41 0 64 -25t23 -66q0 -53 -36 -91t-89 -38q-39 0 -61 24.5t-22 65.5q0 56 35 93t86 37zM396 119l3 -105q-116 -43 -180 -25t-85 66.5t-9 123.5l133 760h128 l-128 -743q-12 -65 18.5 -82t119.5 5zM969 939l-170 -975q-31 -174 -137.5 -297.5t-258.5 -192.5l-34 110l27 13q26 12 65 42t80 71t76 106.5t49 139.5l170 983h133z" glyph-name="ij" horiz-adv-x="1042" unicode="ĳ"/><glyph d="M1285 1319l-655 -659l464 -660h-172l-412 596h-172l-104 -596h-132l231 1319h131l-104 -595h172l589 595h164zM541 -135q73 0 73 -85q0 -24 -8 -46q-27 -137 -174 -171l-7 60q63 17 92 56h-10q-32 0 -52 21.5t-20 55.5q0 46 31 77.5t75 31.5z" glyph-name="Kcommaaccent" horiz-adv-x="1213" unicode="Ķ"/><glyph d="M587 478q34 -34 64 -101.5t51.5 -118.5t80 -91.5t151.5 -40.5l-23 -126q-116 0 -188.5 42.5t-104 102.5t-55.5 120.5t-65.5 103t-111.5 42.5h-96l-72 -411h-131l246 1399h131l-152 -860h104q22 0 53 -3l393 403h164zM440 -135q73 0 74 -85q0 -24 -9 -46 q-27 -137 -174 -171l-7 60q63 17 92 56h-10q-32 0 -51.5 21.5t-19.5 55.5q0 46 30.5 77.5t74.5 31.5z" glyph-name="kcommaaccent" horiz-adv-x="1030" unicode="ķ"/><glyph d="M695 1596l-372 -159l-23 61l360 214zM256 126h700l-22 -126h-832l231 1319h131z" glyph-name="Lacute" horiz-adv-x="1097" unicode="Ĺ"/><glyph d="M328 1568l-23 62l361 213l34 -116zM393 116l1 -109q-162 -55 -228.5 -3.5t-47.5 170.5l220 1251h130l-215 -1234q-12 -63 19 -80t121 5z" glyph-name="lacute" horiz-adv-x="529" unicode="ĺ"/><glyph d="M256 126h700l-22 -126h-832l231 1319h131zM517 -135q73 0 74 -85q0 -24 -9 -46q-27 -137 -174 -171l-7 60q63 17 92 56h-10q-32 0 -52 21.5t-20 55.5q0 46 31 77.5t75 31.5z" glyph-name="Lcommaaccent" horiz-adv-x="1097" unicode="Ļ"/><glyph d="M253 191q-12 -63 18.5 -80t121.5 5l1 -109q-162 -55 -228.5 -3.5t-47.5 170.5l220 1251h130zM225 -135q73 0 74 -85q0 -24 -9 -46q-27 -137 -174 -171l-7 60q63 17 92 56h-10q-32 0 -52 21.5t-20 55.5q0 46 31 77.5t75 31.5z" glyph-name="lcommaaccent" horiz-adv-x="529" unicode="ļ"/><glyph d="M778 1285l-194 -357l-65 21l145 379zM256 126h700l-22 -126h-832l231 1319h131z" glyph-name="Lcaron" horiz-adv-x="1097" unicode="Ľ"/><glyph d="M589 1060l-65 20l145 379l114 -42zM393 116l1 -109q-162 -55 -228.5 -3.5t-47.5 170.5l220 1251h130l-215 -1234q-12 -63 19 -80t121 5z" glyph-name="lcaron" horiz-adv-x="546" unicode="ľ"/><glyph d="M249 128h700l-22 -128h-833l89 510l-147 -61l22 118l145 61l121 691h133l-111 -631l297 124l-20 -119l-297 -123z" glyph-name="Lslash" horiz-adv-x="1097" unicode="Ł"/><glyph d="M336 713l-87 -501q-12 -63 19.5 -80.5t118.5 5.5l4 -110q-166 -55 -231.5 -2.5t-45.5 171.5l81 456l-140 -58l20 119l140 58l120 680h131l-109 -620l169 70l-21 -118z" glyph-name="lslash" horiz-adv-x="522" unicode="ł"/><glyph d="M1219 1596l-372 -159l-23 61l360 214zM1350 1319h133l-230 -1319h-133q17 96 -3.5 179.5t-91.5 167t-119 126t-160 133.5q-2 3 -4 3q-90 72 -135.5 111t-110 106.5t-102.5 130.5l-167 -957h-133l230 1319h133v-1q-14 -79 3.5 -153t45.5 -126.5t93 -119.5t107 -102 t127 -104q92 -73 139 -112.5t111 -106t101 -127.5z" glyph-name="Nacute" horiz-adv-x="1510" unicode="Ń"/><glyph d="M923 1215l-372 -159l-22 62l360 213zM712 966q343 0 271 -410l-97 -556h-132l98 560q49 278 -181 278q-191 0 -359 -263l-1 2l-101 -577h-131l163 939h110l-7 -171v-3q162 201 367 201z" glyph-name="nacute" unicode="ń"/><glyph d="M1350 1319h133l-230 -1319h-133q17 96 -3.5 179.5t-91.5 167t-119 126t-160 133.5q-2 3 -4 3q-90 72 -135.5 111t-110 106.5t-102.5 130.5l-167 -957h-133l230 1319h133v-1q-14 -79 3.5 -153t45.5 -126.5t93 -119.5t107 -102t127 -104q92 -73 139 -112.5t111 -106 t101 -127.5zM664 -135q73 0 73 -85q0 -24 -8 -46q-27 -137 -174 -171l-7 60q63 17 92 56h-10q-32 0 -52 21.5t-20 55.5q0 46 31 77.5t75 31.5z" glyph-name="Ncommaaccent" horiz-adv-x="1510" unicode="Ņ"/><glyph d="M712 966q343 0 271 -410l-97 -556h-132l98 560q49 278 -181 278q-191 0 -359 -263l-1 2l-101 -577h-131l163 939h110l-7 -171v-3q162 201 367 201zM481 -135q73 0 74 -85q0 -24 -9 -46q-27 -137 -174 -171l-7 60q63 17 92 56h-10q-32 0 -52 21.5t-20 55.5q0 46 31 77.5 t75 31.5z" glyph-name="ncommaaccent" unicode="ņ"/><glyph d="M998 1466h-90l-135 203l75 58l123 -155l172 155l57 -58zM1350 1319h133l-230 -1319h-133q17 96 -3.5 179.5t-91.5 167t-119 126t-160 133.5q-2 3 -4 3q-90 72 -135.5 111t-110 106.5t-102.5 130.5l-167 -957h-133l230 1319h133v-1q-14 -79 3.5 -153t45.5 -126.5 t93 -119.5t107 -102t127 -104q92 -73 139 -112.5t111 -106t101 -127.5z" glyph-name="Ncaron" horiz-adv-x="1510" unicode="Ň"/><glyph d="M703 1085h-90l-135 204l75 58l123 -156l172 156l57 -58zM712 966q343 0 271 -410l-97 -556h-132l98 560q49 278 -181 278q-191 0 -359 -263l-1 2l-101 -577h-131l163 939h110l-7 -171v-3q162 201 367 201z" glyph-name="ncaron" unicode="ň"/><glyph d="M1483 1319l-210 -1206l-25 -149q-31 -172 -138.5 -296t-257.5 -194l-38 113l27 13.5t62.5 42t83 72.5t74 105.5t50.5 141.5l14 72q5 53 -4.5 104t-24 91.5t-49.5 87.5t-59.5 76t-77 75.5t-80.5 69.5t-88 71q-90 72 -135.5 111t-110 106.5t-102.5 130.5l-167 -957h-133 l230 1319h133v-1q-14 -79 3.5 -153t45.5 -126.5t93 -119.5t107 -102t127 -104q92 -73 139 -112.5t111 -106t101 -127.5l166 952h133z" glyph-name="Eng" horiz-adv-x="1512" unicode="Ŋ"/><glyph d="M712 966q343 0 271 -410l-97 -556h-2l-5 -36q-27 -172 -134.5 -296t-259.5 -194l-36 110l14 6q14 7 36.5 21.5t51 35t59 52t58 68.5t48.5 86.5t30 102.5l29 174h2l75 433q26 143 -19 211.5t-161 68.5q-193 0 -360 -264h-1l-101 -579h-131l163 939h110l-6 -157l-1 -11 q162 195 367 195z" glyph-name="eng" unicode="ŋ"/><glyph d="M655 1555l21 106h597l-20 -106h-598zM916 1352q247 0 389 -154.5t142 -409.5q0 -348 -221.5 -584t-551.5 -236q-247 0 -389 156t-142 407q0 348 222 584.5t551 236.5zM894 1225q-265 0 -442 -192.5t-177 -482.5q0 -205 111.5 -329.5t309.5 -124.5q266 0 443 192.5 t177 477.5q0 207 -113 333t-309 126z" glyph-name="Omacron" horiz-adv-x="1525" unicode="Ō"/><glyph d="M423 1174l21 106h597l-20 -106h-598zM681 966q186 0 295 -112t109 -296q0 -246 -163 -415.5t-415 -169.5q-188 0 -296.5 112.5t-108.5 295.5q0 253 166 419t413 166zM660 845q-184 0 -304 -129t-120 -317q0 -137 76.5 -221t214.5 -84q183 0 303.5 129t120.5 316 q0 137 -77 221.5t-214 84.5z" glyph-name="omacron" horiz-adv-x="1187" unicode="ō"/><glyph d="M862 1440l-62 23l115 266l111 -45zM1033 1440l-62 23l114 266l113 -45zM916 1352q247 0 389 -154.5t142 -409.5q0 -348 -221.5 -584t-551.5 -236q-247 0 -389 156t-142 407q0 348 222 584.5t551 236.5zM894 1225q-265 0 -442 -192.5t-177 -482.5q0 -205 111.5 -329.5 t309.5 -124.5q266 0 443 192.5t177 477.5q0 207 -113 333t-309 126z" glyph-name="Ohungarumlaut" horiz-adv-x="1525" unicode="Ő"/><glyph d="M630 1060l-62 22l115 266l111 -44zM800 1060l-61 22l114 266l113 -44zM681 966q186 0 295 -112t109 -296q0 -246 -163 -415.5t-415 -169.5q-188 0 -296.5 112.5t-108.5 295.5q0 253 166 419t413 166zM660 845q-184 0 -304 -129t-120 -317q0 -137 76.5 -221t214.5 -84 q183 0 303.5 129t120.5 316q0 137 -77 221.5t-214 84.5z" glyph-name="ohungarumlaut" horiz-adv-x="1187" unicode="ő"/><glyph d="M2243 1191h-704l-78 -445h497l-23 -126h-496l-86 -492h702l-22 -128h-832l40 227q-106 -123 -252 -191t-315 -68q-244 0 -385 156t-141 407q0 229 100 416.5t276.5 296t391.5 108.5q169 0 290.5 -76t182.5 -213l45 256h831zM701 96q266 0 442 192.5t176 477.5 q0 205 -112.5 331.5t-307.5 126.5q-265 0 -441 -193t-176 -481q0 -205 110.5 -329.5t308.5 -124.5z" glyph-name="OE" horiz-adv-x="2227" unicode="Œ"/><glyph d="M1811 688q-61 -350 -758 -362q10 -121 88 -177.5t188 -56.5q94 0 185.5 36t154.5 99l70 -82q-80 -80 -191 -126t-229 -46q-128 0 -226 58t-137 172q-77 -108 -195 -169t-264 -61q-179 0 -287 112.5t-108 295.5q0 251 164 418t405 167q142 0 239 -67.5t134 -186.5 q79 118 201 186t264 68q150 0 237 -75t65 -203zM1690 686q12 70 -39.5 115.5t-155.5 45.5q-174 0 -292 -116.5t-145 -285.5q68 0 132 3t155.5 16.5t159 38t120.5 71.5t65 112zM527 94q183 0 303.5 129t120.5 316q0 137 -77 221.5t-214 84.5q-184 0 -304 -129t-120 -317 q0 -137 76.5 -221t214.5 -84z" glyph-name="oe" horiz-adv-x="1904" unicode="œ"/><glyph d="M1077 1596l-372 -159l-22 61l360 214zM1256 978q0 -184 -106.5 -303.5t-296.5 -157.5l239 -517h-152l-223 502h-36h-360l-87 -502h-132l231 1319h490q205 0 319 -89.5t114 -251.5zM703 625q193 0 306.5 83.5t113.5 250.5q0 118 -85.5 177t-237.5 59h-358l-99 -570h360z " glyph-name="Racute" horiz-adv-x="1227" unicode="Ŕ"/><glyph d="M782 1215l-372 -159l-23 62l361 213zM659 966q82 0 143 -34l-80 -125q-46 29 -106 29q-101 0 -182.5 -88t-133.5 -216l-92 -532h-129l163 939h108l-10 -183v-2q131 212 319 212z" glyph-name="racute" horiz-adv-x="790" unicode="ŕ"/><glyph d="M1256 978q0 -184 -106.5 -303.5t-296.5 -157.5l239 -517h-152l-223 502h-36h-360l-87 -502h-132l231 1319h490q205 0 319 -89.5t114 -251.5zM703 625q193 0 306.5 83.5t113.5 250.5q0 118 -85.5 177t-237.5 59h-358l-99 -570h360zM556 -135q73 0 74 -85q0 -24 -9 -46 q-27 -137 -174 -171l-7 60q63 17 92 56h-10q-32 0 -51.5 21.5t-19.5 55.5q0 46 30.5 77.5t74.5 31.5z" glyph-name="Rcommaaccent" horiz-adv-x="1227" unicode="Ŗ"/><glyph d="M659 966q82 0 143 -34l-80 -125q-46 29 -106 29q-101 0 -182.5 -88t-133.5 -216l-92 -532h-129l163 939h108l-10 -183v-2q131 212 319 212zM128 -135q73 0 73 -85q0 -24 -8 -46q-27 -137 -174 -171l-7 60q63 17 92 56h-10q-32 0 -52 21.5t-20 55.5q0 46 31 77.5t75 31.5z " glyph-name="rcommaaccent" horiz-adv-x="790" unicode="ŗ"/><glyph d="M857 1466h-91l-135 203l76 58l122 -155l173 155l56 -58zM1256 978q0 -184 -106.5 -303.5t-296.5 -157.5l239 -517h-152l-223 502h-36h-360l-87 -502h-132l231 1319h490q205 0 319 -89.5t114 -251.5zM703 625q193 0 306.5 83.5t113.5 250.5q0 118 -85.5 177t-237.5 59 h-358l-99 -570h360z" glyph-name="Rcaron" horiz-adv-x="1227" unicode="Ř"/><glyph d="M561 1085h-90l-135 204l75 58l123 -156l173 156l56 -58zM659 966q82 0 143 -34l-80 -125q-46 29 -106 29q-101 0 -182.5 -88t-133.5 -216l-92 -532h-129l163 939h108l-10 -183v-2q131 212 319 212z" glyph-name="rcaron" horiz-adv-x="790" unicode="ř"/><glyph d="M715 1435l-22 62l360 213l34 -116zM58 186l114 89q135 -176 422 -176q184 0 285.5 69t101.5 189q0 96 -74 157t-179 95t-210 71t-179 110.5t-74 187.5q0 118 80 205.5t199.5 128.5t255.5 41q292 0 420 -184l-109 -82q-94 142 -336 142q-157 0 -259.5 -66.5t-102.5 -172.5 q0 -61 40 -106.5t103.5 -73.5t141 -54t154 -55.5t140 -69t103.5 -105t40 -152.5q0 -179 -153.5 -289.5t-392.5 -110.5q-162 0 -310 58t-221 154z" glyph-name="Sacute" horiz-adv-x="1266" unicode="Ś"/><glyph d="M490 1089l-22 61l360 214l34 -116zM44 140l98 80q99 -125 295 -124q119 0 183 42.5t64 119.5q0 63 -51 104t-123.5 65.5t-144 52t-123 82t-51.5 134.5q0 123 115.5 196.5t272.5 73.5q213 0 308 -130l-97 -78q-68 96 -232 95q-101 0 -165 -41t-64 -107q0 -53 51.5 -89.5 t124 -61.5t146 -54t124.5 -87t51 -142q0 -130 -109 -210t-282 -80q-121 0 -228.5 44.5t-162.5 114.5z" glyph-name="sacute" horiz-adv-x="967" unicode="ś"/><glyph d="M413 990q0 -61 40 -106.5t103.5 -73.5t141 -54t154 -55.5t140 -69t103.5 -105t40 -152.5q0 -179 -153.5 -289.5t-392.5 -110.5h-10l-18 -59q17 -2 40.5 -8t54 -19.5t48.5 -36t28 -56.5t-8 -80q-24 -70 -94 -103.5t-148 -27.5t-137 41l46 81q22 -14 66.5 -28t100 -6.5 t72.5 55.5q10 17 5 31.5t-7.5 25.5t-17 19.5t-25 14.5t-29 10.5t-30 6t-29 3.5t-25.5 2.5t-18 0.5l48 139q-140 14 -260.5 69t-183.5 137l114 89q135 -176 422 -176q184 0 285.5 69t101.5 189q0 96 -74 157t-179 95t-210 71t-179 110.5t-74 187.5q0 118 80 205.5 t199.5 128.5t255.5 41q292 0 420 -184l-109 -82q-94 142 -336 142q-157 0 -259.5 -66.5t-102.5 -172.5z" glyph-name="Scedilla" horiz-adv-x="1266" unicode="Ş"/><glyph d="M329 705q0 -53 51.5 -89.5t124 -61.5t146 -54t124.5 -87t51 -142q0 -130 -109 -210t-282 -80h-3l-21 -66q24 -2 53 -11.5t66.5 -31.5t48 -59t-3.5 -95q-20 -61 -74 -92.5t-114 -38.5q-55 -5 -112 8.5t-80 29.5l46 81q22 -14 66.5 -28t100 -6.5t72.5 55.5q10 17 5 31.5 t-8 25.5t-17.5 19.5t-24.5 14.5t-29 10.5t-30 6t-29 3.5t-25.5 2.5t-17.5 0.5l49 145q-99 14 -181.5 55t-127.5 99l98 80q99 -125 295 -124q119 0 183 42.5t64 119.5q0 63 -51 104t-123.5 65.5t-144 52t-123 82t-51.5 134.5q0 123 115.5 196.5t272.5 73.5q213 0 308 -130 l-97 -78q-68 96 -232 95q-101 0 -165 -40.5t-64 -107.5z" glyph-name="scedilla" horiz-adv-x="967" unicode="ş"/><glyph d="M777 1464l-135 203l75 58l123 -155l172 155l56 -58l-201 -203h-90zM58 186l114 89q135 -176 422 -176q184 0 285.5 69t101.5 189q0 96 -74 157t-179 95t-210 71t-179 110.5t-74 187.5q0 118 80 205.5t199.5 128.5t255.5 41q292 0 420 -184l-109 -82q-94 142 -336 142 q-157 0 -259.5 -66.5t-102.5 -172.5q0 -61 40 -106.5t103.5 -73.5t141 -54t154 -55.5t140 -69t103.5 -105t40 -152.5q0 -179 -153.5 -289.5t-392.5 -110.5q-162 0 -310 58t-221 154z" glyph-name="Scaron" horiz-adv-x="1266" unicode="Š"/><glyph d="M551 1118l-135 203l76 58l122 -155l173 155l56 -58l-201 -203h-91zM44 140l98 80q99 -125 295 -124q119 0 183 42.5t64 119.5q0 63 -51 104t-123.5 65.5t-144 52t-123 82t-51.5 134.5q0 123 115.5 196.5t272.5 73.5q213 0 308 -130l-97 -78q-68 96 -232 95 q-101 0 -165 -41t-64 -107q0 -53 51.5 -89.5t124 -61.5t146 -54t124.5 -87t51 -142q0 -130 -109 -210t-282 -80q-121 0 -228.5 44.5t-162.5 114.5z" glyph-name="scaron" horiz-adv-x="967" unicode="š"/><glyph d="M589 0h-28l-25 -85q17 -2 40 -8t53.5 -19.5t48.5 -36t28.5 -56.5t-8.5 -80q-24 -70 -94 -103.5t-147.5 -27.5t-137.5 41l46 81q22 -14 66.5 -28t100 -6.5t72.5 55.5q10 17 5 31.5t-7.5 25.5t-17 19.5t-24.5 14.5t-29 10.5t-30 6t-29 3.5t-25.5 2.5t-18.5 0.5l55 159h-24 l210 1193h-471l20 126h1072l-20 -126h-471z" glyph-name="Tcommaaccent" horiz-adv-x="1213" unicode="Ţ"/><glyph d="M428 819l-92 -522q-24 -133 58 -184.5t249 20.5l14 -109q-113 -53 -215 -53l-17 -56q17 -2 40 -8t54 -19.5t48.5 -36t28 -56.5t-8.5 -80q-24 -70 -94 -103.5t-147.5 -27.5t-137.5 41l46 81q22 -14 66.5 -28t100 -6.5t72.5 55.5q10 17 5 31.5t-7.5 25.5t-17 19.5 t-24.5 14.5t-29 10.5t-30 6t-29 3.5t-25.5 2.5t-18.5 0.5l48 140q-96 27 -138.5 113.5t-19.5 207.5l90 517h-159l21 120h158l52 295h131l-51 -295h322l-25 -120h-318z" glyph-name="tcommaaccent" horiz-adv-x="812" unicode="ţ"/><glyph d="M828 1466h-91l-135 203l76 58l122 -155l173 155l56 -58zM1290 1319l-20 -126h-471l-210 -1193h-130l210 1193h-471l20 126h1072z" glyph-name="Tcaron" horiz-adv-x="1213" unicode="Ť"/><glyph d="M855 1422l-195 -357l-64 20l145 379zM500 1234l-51 -295h322l-25 -120h-318l-92 -522q-24 -133 58 -184.5t249 20.5l14 -109q-232 -99 -359 -11t-91 289l90 517h-159l21 120h158l52 295h131z" glyph-name="tcaron" horiz-adv-x="812" unicode="ť"/><glyph d="M1268 1191h-469l-69 -392h333l-24 -128h-331l-117 -671h-134l118 671h-334l24 128h332l69 392h-470l24 128h1072z" glyph-name="Tbar" horiz-adv-x="1211" unicode="Ŧ"/><glyph d="M746 819h-318l-39 -218h275l-24 -113h-270l-35 -203q-22 -133 58.5 -183.5t248.5 21.5l15 -111q-234 -99 -361 -11t-93 289l34 198h-123l19 113h125l37 218h-157l21 120h158l52 295h131l-51 -295h322z" glyph-name="tbar" horiz-adv-x="814" unicode="ŧ"/><glyph d="M703 1509h-106q15 90 77 144.5t140 54.5q61 0 126 -51t104 -51q75 0 94 94h106q-19 -92 -78.5 -146t-136.5 -54q-49 0 -88.5 26.5t-72.5 52t-69 25.5q-81 1 -96 -95zM1410 1319l-133 -763q-46 -265 -221 -426t-426 -161t-368 161.5t-71 425.5l133 763h132l-133 -756 q-38 -218 51.5 -346t275.5 -128q184 0 321 126t174 348l133 756h132z" glyph-name="Utilde" horiz-adv-x="1437" unicode="Ũ"/><glyph d="M579 1224q-80 0 -96 -96h-106q15 90 76.5 145t140.5 55q61 0 126 -51.5t104 -51.5q75 0 94 94h106q-19 -92 -78.5 -145.5t-136.5 -53.5q-49 0 -88.5 25.5t-72.5 52t-69 26.5zM911 939h133l-163 -939h-110l4 169q-164 -196 -365 -196q-340 0 -272 409l98 557h133l-96 -553 q-26 -142 18.5 -210t160.5 -68q186 0 357 256z" glyph-name="utilde" unicode="ũ"/><glyph d="M616 1555l21 106h597l-21 -106h-597zM1410 1319l-133 -763q-46 -265 -221 -426t-426 -161t-368 161.5t-71 425.5l133 763h132l-133 -756q-38 -218 51.5 -346t275.5 -128q184 0 321 126t174 348l133 756h132z" glyph-name="Umacron" horiz-adv-x="1437" unicode="Ū"/><glyph d="M1014 1280l-21 -106h-597l20 106h598zM911 939h133l-163 -939h-110l4 169q-164 -196 -365 -196q-340 0 -272 409l98 557h133l-96 -553q-26 -142 18.5 -210t160.5 -68q186 0 357 256z" glyph-name="umacron" unicode="ū"/><glyph d="M957 1804q67 0 107 -42.5t40 -111.5q0 -89 -61.5 -155.5t-149.5 -66.5q-68 0 -106.5 43t-38.5 113q0 97 57.5 158.5t151.5 61.5zM944 1715q-48 0 -80.5 -33t-32.5 -83q0 -36 20.5 -58t56.5 -22q46 0 77.5 35t31.5 81q0 36 -20.5 58t-52.5 22zM1410 1319l-133 -763 q-46 -265 -221 -426t-426 -161t-368 161.5t-71 425.5l133 763h132l-133 -756q-38 -218 51.5 -346t275.5 -128q184 0 321 126t174 348l133 756h132z" glyph-name="Uring" horiz-adv-x="1437" unicode="Ů"/><glyph d="M672 1048q-68 0 -106.5 42.5t-38.5 112.5q0 97 58 158.5t152 61.5q67 0 107 -42.5t40 -110.5q0 -89 -61.5 -155.5t-150.5 -66.5zM724 1335q-48 0 -80.5 -33.5t-32.5 -82.5q0 -36 20.5 -58.5t56.5 -22.5q46 0 77.5 35t31.5 81q0 36 -20.5 58.5t-52.5 22.5zM911 939h133 l-163 -939h-110l4 169q-164 -196 -365 -196q-340 0 -272 409l98 557h133l-96 -553q-26 -142 18.5 -210t160.5 -68q186 0 357 256z" glyph-name="uring" unicode="ů"/><glyph d="M823 1440l-62 23l115 266l110 -45zM993 1440l-61 23l114 266l113 -45zM1410 1319l-133 -763q-46 -265 -221 -426t-426 -161t-368 161.5t-71 425.5l133 763h132l-133 -756q-38 -218 51.5 -346t275.5 -128q184 0 321 126t174 348l133 756h132z" glyph-name="Uhungarumlaut" horiz-adv-x="1437" unicode="Ű"/><glyph d="M766 1304l-164 -244l-61 22l114 266zM773 1060l-61 22l114 266l113 -44zM911 939h133l-163 -939h-110l4 169q-164 -196 -365 -196q-340 0 -272 409l98 557h133l-96 -553q-26 -142 18.5 -210t160.5 -68q186 0 357 256z" glyph-name="uhungarumlaut" unicode="ű"/><glyph d="M1278 1319h132l-133 -763q-34 -200 -145 -344t-279 -205q-56 -53 -89.5 -86.5t-63 -78.5t-29.5 -78q0 -58 51 -58t99 53l49 -58q-90 -90 -175 -90q-70 0 -105 35t-32 95q3 106 159 233q-44 -5 -87 -5q-251 0 -368 161.5t-71 425.5l133 763h132l-133 -756 q-38 -218 51.5 -346t275.5 -128q184 0 321 126t174 348z" glyph-name="Uogonek" horiz-adv-x="1437" unicode="Ų"/><glyph d="M858 0q-60 -56 -91 -87.5t-62 -78t-31 -78.5q0 -58 51.5 -58t98.5 53l50 -58q-90 -90 -176 -91q-70 0 -105 35t-32 95q5 126 210 273l4 164q-164 -196 -365 -196q-340 0 -272 409l98 557h133l-96 -553q-26 -142 18.5 -210t160.5 -68q186 0 357 256l102 575h133l-163 -939 h-23z" glyph-name="uogonek" unicode="ų"/><glyph d="M1046 1633l-176 -155l-56 60l205 201h92l131 -201l-78 -60zM1623 1319h138l-541 -1319h-133l-142 1055l-517 -1055h-133l-73 1319h135l53 -1097l518 1041h115l141 -1043z" glyph-name="Wcircumflex" horiz-adv-x="1684" unicode="Ŵ"/><glyph d="M968 1253l-176 -156l-56 60l204 202h93l131 -202l-79 -60zM1469 939h134l-99 -528q-43 -227 -149 -332.5t-300 -105.5q-113 0 -195 53t-106 160q-150 -213 -360 -213q-324 0 -256 409l98 557h131l-97 -560q-49 -280 170 -280q87 0 169 65t139 169q3 34 6 49l96 557h133 l-97 -558q-24 -138 29.5 -210t163.5 -72q232 0 288 285z" glyph-name="wcircumflex" horiz-adv-x="1682" unicode="ŵ"/><glyph d="M816 1632l-176 -156l-56 60l204 201h93l131 -201l-78 -60zM1326 1319l-645 -848l-82 -471h-133l82 473l-345 846h147l285 -734l543 734h148z" glyph-name="Ycircumflex" horiz-adv-x="1228" unicode="Ŷ"/><glyph d="M700 1253l-176 -156l-56 60l204 202h93l131 -202l-79 -60zM944 939h133l-159 -907q-41 -239 -191 -391.5t-382 -152.5q-128 0 -222 53t-143 143l114 75q80 -148 268 -148q164 0 278 115t148 312l24 134q-164 -200 -367 -199q-340 0 -271 409l97 557h132l-98 -553 q-48 -278 183 -278q188 0 357 257z" glyph-name="ycircumflex" horiz-adv-x="1157" unicode="ŷ"/><glyph d="M625 1519q-32 0 -51 19.5t-19 52.5q0 46 29 76.5t73 30.5q31 0 49.5 -20.5t18.5 -52.5q0 -44 -28.5 -75t-71.5 -31zM973 1519q-32 0 -51 19.5t-19 52.5q0 46 29 76.5t73 30.5q31 0 49.5 -20.5t18.5 -52.5q0 -44 -28.5 -75t-71.5 -31zM1326 1319l-645 -848l-82 -471h-133 l82 473l-345 846h147l285 -734l543 734h148z" glyph-name="Ydieresis" horiz-adv-x="1228" unicode="Ÿ"/><glyph d="M1085 1596l-372 -159l-22 61l360 214zM1341 1318l-12 -62l-1073 -1131l879 3l-24 -128h-1080l12 67l1068 1126l-874 -3l24 128h1080z" glyph-name="Zacute" horiz-adv-x="1295" unicode="Ź"/><glyph d="M887 1215l-372 -159l-22 62l360 213zM980 939l-24 -128l-700 -649q61 7 136.5 -11t136 -38.5t158.5 -19.5t207 38l-22 -126q-109 -38 -205.5 -37.5t-165 21.5t-134 42.5t-138 17t-149.5 -48.5l-60 89l775 727l-618 -5l24 128h779z" glyph-name="zacute" horiz-adv-x="1039" unicode="ź"/><glyph d="M829 1512q-36 0 -56 22t-20 58q0 51 31.5 84.5t79.5 33.5q34 0 55 -23t21 -57q0 -49 -31.5 -83.5t-79.5 -34.5zM1341 1318l-12 -62l-1073 -1131l879 3l-24 -128h-1080l12 67l1068 1126l-874 -3l24 128h1080z" glyph-name="Zdotaccent" horiz-adv-x="1295" unicode="Ż"/><glyph d="M631 1132q-36 0 -56 22t-20 58q0 51 31.5 84t79.5 33q34 0 55 -23t21 -57q0 -49 -31.5 -83t-79.5 -34zM980 939l-24 -128l-700 -649q61 7 136.5 -11t136 -38.5t158.5 -19.5t207 38l-22 -126q-109 -38 -205.5 -37.5t-165 21.5t-134 42.5t-138 17t-149.5 -48.5l-60 89 l775 727l-618 -5l24 128h779z" glyph-name="zdotaccent" horiz-adv-x="1039" unicode="ż"/><glyph d="M865 1466h-90l-135 203l75 58l123 -155l172 155l57 -58zM1341 1318l-12 -62l-1073 -1131l879 3l-24 -128h-1080l12 67l1068 1126l-874 -3l24 128h1080z" glyph-name="Zcaron" horiz-adv-x="1295" unicode="Ž"/><glyph d="M667 1085h-90l-135 204l75 58l123 -156l172 156l57 -58zM980 939l-24 -128l-700 -649q61 7 136.5 -11t136 -38.5t158.5 -19.5t207 38l-22 -126q-109 -38 -205.5 -37.5t-165 21.5t-134 42.5t-138 17t-149.5 -48.5l-60 89l775 727l-618 -5l24 128h779z" glyph-name="zcaron" horiz-adv-x="1039" unicode="ž"/><glyph d="M355 1103q24 128 86 214t143.5 117.5t165 31.5t156.5 -32l-20 -115q-92 34 -173.5 34t-144.5 -62t-83 -178l-265 -1526h-128l213 1229h-167l22 123h166z" glyph-name="longs" horiz-adv-x="774" unicode="ſ"/><glyph d="M1526 1468q-5 -118 -51.5 -177t-160.5 -59h-46q179 -154 179 -444q0 -348 -221.5 -584t-551.5 -236q-247 0 -389 156t-142 407q0 348 221 583.5t551 237.5h3h2q56 0 118.5 -1t138.5 -2.5t118 -1.5q63 0 88 27t25 94h118zM1316 766q0 207 -112.5 333t-309.5 126 q-265 0 -442 -192.5t-177 -482.5q0 -205 111.5 -329.5t309.5 -124.5q266 0 443 192.5t177 477.5z" glyph-name="Ohorn" horiz-adv-x="1515" unicode="Ơ"/><glyph d="M1208 1087q-3 -118 -52.5 -178.5t-174.5 -53.5h-6q109 -113 109 -297q0 -246 -162.5 -415.5t-414.5 -169.5q-188 0 -297 112.5t-109 295.5q0 253 166 419t414 166q43 0 299 -3q63 0 87.5 29t23.5 95h117zM527 94q183 0 302.5 129t119.5 316q0 137 -77 221.5t-213 84.5 q-184 0 -304.5 -129t-120.5 -317q0 -137 77.5 -221t215.5 -84z" glyph-name="ohorn" horiz-adv-x="1182" unicode="ơ"/><glyph d="M1548 1446h118q-7 -116 -54 -177t-163 -61h-67l-112 -648q-48 -265 -222 -426t-425 -161q-253 0 -369.5 161t-70.5 426l133 759h133l-133 -752q-38 -218 51.5 -346.5t275.5 -128.5q184 0 321 126.5t174 348.5l133 752h164q61 -2 87 29t26 98z" glyph-name="Uhorn" horiz-adv-x="1448" unicode="Ư"/><glyph d="M1152 1065h118q-7 -116 -55 -176.5t-164 -60.5h-27l-145 -828h-109l5 169q-164 -196 -367 -196q-341 0 -270 409l98 557h133l-98 -553q-24 -142 20 -210t160 -68q184 0 358 256l102 575h132q60 0 84.5 29.5t24.5 96.5z" glyph-name="uhorn" horiz-adv-x="1191" unicode="ư"/><glyph d="M898 1466h-91l-135 203l76 58l122 -155l173 155l56 -58zM1080 0l-83 355h-676l-207 -355h-138l778 1319h145l320 -1319h-139zM396 483h570l-164 698z" glyph-name="uni01CD" horiz-adv-x="1356" unicode="Ǎ"/><glyph d="M724 1085h-91l-135 204l75 58l123 -156l173 156l56 -58zM1126 119l4 -105q-111 -39 -174 -25t-87 58.5t-16 114.5q-143 -189 -385 -189q-172 0 -269.5 109t-97.5 288q0 256 151.5 426t382.5 170q246 0 321 -217l32 190h128l-128 -743q-12 -65 18.5 -82t119.5 5zM509 94 q143 0 249 90.5t140 237.5l10 56q3 44 3 66q0 137 -72.5 219t-200.5 82q-176 0 -290 -129t-114 -320q0 -137 72.5 -219.5t202.5 -82.5z" glyph-name="uni01CE" horiz-adv-x="1286" unicode="ǎ"/><glyph d="M379 1466l-135 203l75 58l123 -155l172 155l57 -58l-202 -203h-90zM234 0h-132l231 1319h131z" glyph-name="uni01CF" horiz-adv-x="496" unicode="Ǐ"/><glyph d="M328 1085l-135 204l75 58l123 -156l172 156l57 -58l-202 -204h-90zM422 119l3 -105q-116 -43 -180 -25t-85.5 66.5t-9.5 123.5l133 760h128l-128 -743q-12 -65 19 -82t120 5z" glyph-name="uni01D0" horiz-adv-x="508" unicode="ǐ"/><glyph d="M893 1466l-135 203l75 58l123 -155l172 155l56 -58l-201 -203h-90zM916 1352q247 0 389 -154.5t142 -409.5q0 -348 -221.5 -584t-551.5 -236q-247 0 -389 156t-142 407q0 348 222 584.5t551 236.5zM894 1225q-265 0 -442 -192.5t-177 -482.5q0 -205 111.5 -329.5 t309.5 -124.5q266 0 443 192.5t177 477.5q0 207 -113 333t-309 126z" glyph-name="uni01D1" horiz-adv-x="1525" unicode="Ǒ"/><glyph d="M660 1085l-134 204l75 58l123 -156l172 156l56 -58l-201 -204h-91zM681 966q186 0 295 -112t109 -296q0 -246 -163 -415.5t-415 -169.5q-188 0 -296.5 112.5t-108.5 295.5q0 253 166 419t413 166zM660 845q-184 0 -304 -129t-120 -317q0 -137 76.5 -221t214.5 -84 q183 0 303.5 129t120.5 316q0 137 -77 221.5t-214 84.5z" glyph-name="uni01D2" horiz-adv-x="1187" unicode="ǒ"/><glyph d="M853 1466l-134 203l75 58l122 -155l173 155l56 -58l-201 -203h-91zM1410 1319l-133 -763q-46 -265 -221 -426t-426 -161t-368 161.5t-71 425.5l133 763h132l-133 -756q-38 -218 51.5 -346t275.5 -128q184 0 321 126t174 348l133 756h132z" glyph-name="uni01D3" horiz-adv-x="1437" unicode="Ǔ"/><glyph d="M724 1085h-91l-135 204l75 58l123 -156l173 156l56 -58zM911 939h133l-163 -939h-110l4 169q-164 -196 -365 -196q-340 0 -272 409l98 557h133l-96 -553q-26 -142 18.5 -210t160.5 -68q186 0 357 256z" glyph-name="uni01D4" unicode="ǔ"/><glyph d="M684 1935l21 106h597l-20 -106h-598zM766 1700q31 0 50 -20.5t19 -53.5q0 -44 -29 -74.5t-72 -30.5q-32 0 -51 19.5t-19 51.5q0 46 29 77t73 31zM1114 1700q31 0 50 -20.5t19 -53.5q0 -44 -29 -74.5t-72 -30.5q-32 0 -51 19.5t-19 51.5q0 46 29 77t73 31zM1410 1319 l-133 -763q-46 -265 -221 -426t-426 -161t-368 161.5t-71 425.5l133 763h132l-133 -756q-38 -218 51.5 -346t275.5 -128q184 0 321 126t174 348l133 756h132z" glyph-name="uni01D5" horiz-adv-x="1437" unicode="Ǖ"/><glyph d="M485 1661h597l-20 -106h-598zM514 1140q-32 0 -51 19.5t-19 52.5q0 46 29 76.5t73 30.5q31 0 49.5 -20.5t18.5 -52.5q0 -44 -28.5 -75t-71.5 -31zM963 1246q0 -44 -29 -75t-72 -31q-32 0 -51 19.5t-19 52.5q0 46 29 76.5t73 30.5q31 0 50 -20.5t19 -52.5zM809 364 l102 575h133l-163 -939h-110l4 169q-164 -196 -365 -196q-340 0 -272 409l98 557h133l-96 -553q-26 -142 18.5 -210t160.5 -68q186 0 357 256z" glyph-name="uni01D6" unicode="ǖ"/><glyph d="M860 1818l-22 61l360 213l34 -116zM766 1700q31 0 50 -20.5t19 -53.5q0 -44 -29 -74.5t-72 -30.5q-32 0 -51 19.5t-19 51.5q0 46 29 77t73 31zM1114 1700q31 0 50 -20.5t19 -53.5q0 -44 -29 -74.5t-72 -30.5q-32 0 -51 19.5t-19 51.5q0 46 29 77t73 31zM1410 1319 l-133 -763q-46 -265 -221 -426t-426 -161t-368 161.5t-71 425.5l133 763h132l-133 -756q-38 -218 51.5 -346t275.5 -128q184 0 321 126t174 348l133 756h132z" glyph-name="uni01D7" horiz-adv-x="1437" unicode="Ǘ"/><glyph d="M1012 1596l-372 -159l-22 61l360 214zM514 1140q-32 0 -51 19.5t-19 52.5q0 46 29 76.5t73 30.5q31 0 49.5 -20.5t18.5 -52.5q0 -44 -28.5 -75t-71.5 -31zM792 1212q0 46 29 76.5t73 30.5q31 0 50 -20.5t19 -52.5q0 -44 -29 -75t-72 -31q-32 0 -51 20t-19 52zM911 939 h133l-163 -939h-110l4 169q-164 -196 -365 -196q-340 0 -272 409l98 557h133l-96 -553q-26 -142 18.5 -210t160.5 -68q186 0 357 256z" glyph-name="uni01D8" unicode="ǘ"/><glyph d="M922 1847l-135 203l75 58l123 -156l172 156l56 -58l-201 -203h-90zM766 1700q31 0 50 -20.5t19 -53.5q0 -44 -29 -74.5t-72 -30.5q-32 0 -51 19.5t-19 51.5q0 46 29 77t73 31zM1114 1700q31 0 50 -20.5t19 -53.5q0 -44 -29 -74.5t-72 -30.5q-32 0 -51 19.5t-19 51.5 q0 46 29 77t73 31zM1410 1319l-133 -763q-46 -265 -221 -426t-426 -161t-368 161.5t-71 425.5l133 763h132l-133 -756q-38 -218 51.5 -346t275.5 -128q184 0 321 126t174 348l133 756h132z" glyph-name="uni01D9" horiz-adv-x="1437" unicode="Ǚ"/><glyph d="M792 1466h-91l-134 203l75 58l123 -155l172 155l56 -58zM514 1140q-32 0 -51 19.5t-19 52.5q0 46 29 76.5t73 30.5q31 0 49.5 -20.5t18.5 -52.5q0 -44 -28.5 -75t-71.5 -31zM792 1212q0 46 29 76.5t73 30.5q31 0 50 -20.5t19 -52.5q0 -44 -29 -75t-72 -31q-32 0 -51 20 t-19 52zM911 939h133l-163 -939h-110l4 169q-164 -196 -365 -196q-340 0 -272 409l98 557h133l-96 -553q-26 -142 18.5 -210t160.5 -68q186 0 357 256z" glyph-name="uni01DA" unicode="ǚ"/><glyph d="M1056 1818l-319 158l77 116l285 -213zM766 1700q31 0 50 -20.5t19 -53.5q0 -44 -29 -74.5t-72 -30.5q-32 0 -51 19.5t-19 51.5q0 46 29 77t73 31zM1114 1700q31 0 50 -20.5t19 -53.5q0 -44 -29 -74.5t-72 -30.5q-32 0 -51 19.5t-19 51.5q0 46 29 77t73 31zM1410 1319 l-133 -763q-46 -265 -221 -426t-426 -161t-368 161.5t-71 425.5l133 763h132l-133 -756q-38 -218 51.5 -346t275.5 -128q184 0 321 126t174 348l133 756h132z" glyph-name="uni01DB" horiz-adv-x="1437" unicode="Ǜ"/><glyph d="M879 1498l-43 -61l-319 159l77 116zM514 1140q-32 0 -51 19.5t-19 52.5q0 46 29 76.5t73 30.5q31 0 49.5 -20.5t18.5 -52.5q0 -44 -28.5 -75t-71.5 -31zM792 1212q0 46 29 76.5t73 30.5q31 0 50 -20.5t19 -52.5q0 -44 -29 -75t-72 -31q-32 0 -51 20t-19 52zM911 939h133 l-163 -939h-110l4 169q-164 -196 -365 -196q-340 0 -272 409l98 557h133l-96 -553q-26 -142 18.5 -210t160.5 -68q186 0 357 256z" glyph-name="uni01DC" unicode="ǜ"/><glyph d="M659 2041h597l-20 -106h-598zM788 1626q0 -44 -29 -74.5t-71 -30.5q-32 0 -51 19.5t-19 51.5q0 46 29 77t73 31q31 0 49.5 -21t18.5 -53zM1137 1626q0 -44 -29 -74.5t-72 -30.5q-32 0 -51 19.5t-19 51.5q0 46 29 77t73 31q31 0 50 -21t19 -53zM754 1319h145l320 -1319 h-139l-83 355h-676l-207 -355h-138zM396 483h570l-164 698z" glyph-name="uni01DE" horiz-adv-x="1356" unicode="Ǟ"/><glyph d="M1082 1661l-20 -106h-598l21 106h597zM514 1140q-32 0 -51 19.5t-19 52.5q0 46 29 76.5t73 30.5q31 0 49.5 -20.5t18.5 -52.5q0 -44 -28.5 -75t-71.5 -31zM792 1212q0 46 29 76.5t73 30.5q31 0 50 -20.5t19 -52.5q0 -44 -29 -75t-72 -31q-32 0 -51 20t-19 52zM1126 119 l4 -105q-111 -39 -174 -25t-87 58.5t-16 114.5q-143 -189 -385 -189q-172 0 -269.5 109t-97.5 288q0 256 151.5 426t382.5 170q246 0 321 -217l32 190h128l-128 -743q-12 -65 18.5 -82t119.5 5zM509 94q143 0 249 90.5t140 237.5l10 56q3 44 3 66q0 137 -72.5 219t-200.5 82 q-176 0 -290 -129t-114 -320q0 -137 72.5 -219.5t202.5 -82.5z" glyph-name="uni01DF" horiz-adv-x="1286" unicode="ǟ"/><glyph d="M980 1466h-91l-135 203l75 58l123 -155l173 155l56 -58zM1309 652l-73 -420q-227 -261 -562 -261q-247 0 -389 156t-142 407q0 348 222 583.5t546 235.5q162 0 287.5 -67t187.5 -194l-116 -77q-48 101 -149.5 156.5t-231.5 55.5q-259 0 -436 -192t-177 -482 q0 -205 112 -329.5t310 -124.5q242 0 411 179l41 248h-319l22 126h456z" glyph-name="Gcaron" horiz-adv-x="1442" unicode="Ǧ"/><glyph d="M725 1085h-90l-135 204l75 58l123 -156l172 156l57 -58zM997 939h111l-159 -907q-41 -239 -191 -391.5t-379 -152.5q-130 0 -224.5 52t-144.5 144l115 75q84 -148 269 -148q164 0 277.5 115t147.5 312l21 117q-131 -162 -367 -162q-177 0 -271 107t-94 281 q0 253 147.5 419t386.5 166q234 0 307 -196l2 12zM509 114q142 0 239 78t134 207l21 113q2 14 2 44q0 131 -68.5 210t-198.5 79q-186 0 -291.5 -125.5t-105.5 -318.5q0 -131 68.5 -209t199.5 -78z" glyph-name="gcaron" horiz-adv-x="1191" unicode="ǧ"/><glyph d="M1248 1215l-372 -159l-23 62l360 213zM1693 688q-63 -350 -758 -362q10 -121 87 -177.5t190 -56.5q92 0 184 36t155 99l70 -82q-82 -80 -192.5 -126t-228.5 -46q-128 0 -227 58.5t-137 176.5q-135 -230 -426 -230q-155 0 -246.5 71.5t-91.5 191.5q0 154 123.5 249 t342.5 95q135 0 286 -49l2 8q24 137 -47 218t-207 81q-147 0 -321 -78l-38 114q193 87 378 87q135 0 225 -63t121 -176q79 113 197.5 176t256.5 63q150 0 237 -75t65 -203zM1572 686q12 68 -40 114.5t-156 46.5q-172 0 -290 -116.5t-146 -285.5q68 0 132.5 3t155.5 16.5 t158.5 38t120.5 71.5t65 112zM439 96q155 0 247 85t118 239h2v2q-138 46 -272 46q-329 0 -331 -203q-2 -79 61.5 -124t174.5 -45z" glyph-name="aeacute" horiz-adv-x="1786" unicode="ǽ"/><glyph d="M1205 1596l-372 -159l-22 61l360 214zM1551 1229l-167 -144q65 -126 65 -297q0 -346 -222 -583t-549 -237q-259 0 -405 172l-154 -130l-71 86l162 138q-65 130 -65 297q0 348 222 584.5t551 236.5q259 0 403 -171l159 135zM280 550q0 -126 41 -221l891 758 q-113 137 -316 137q-266 0 -441 -192t-175 -482zM1314 766q0 123 -43 224l-890 -758q113 -137 315 -136q266 0 442 192.5t176 477.5z" glyph-name="Oslashacute" horiz-adv-x="1524" unicode="Ǿ"/><glyph d="M976 1215l-372 -159l-22 62l360 213zM1164 879l-123 -104q51 -92 51 -217q0 -246 -162 -415.5t-415 -169.5q-179 0 -290 106l-133 -115l-58 70l135 114q-60 99 -60 233q0 253 166.5 419t413.5 166q191 0 301 -119l118 100zM246 399q0 -87 32 -157l606 516q-79 87 -218 87 q-183 0 -301.5 -129t-118.5 -317zM959 539q0 82 -27 142l-601 -512q79 -75 205 -75q184 0 303.5 128.5t119.5 316.5z" glyph-name="oslashacute" horiz-adv-x="1204" unicode="ǿ"/><glyph d="M413 990q0 -61 40 -106.5t103.5 -73.5t141 -54t154 -55.5t140 -69t103.5 -105t40 -152.5q0 -179 -153.5 -289.5t-392.5 -110.5q-162 0 -310 58t-221 154l114 89q135 -176 422 -176q184 0 285.5 69t101.5 189q0 96 -74 157t-179 95t-210 71t-179 110.5t-74 187.5 q0 118 80 205.5t199.5 128.5t255.5 41q292 0 420 -184l-109 -82q-94 142 -336 142q-157 0 -259.5 -66.5t-102.5 -172.5zM529 -135q73 0 73 -85q0 -24 -8 -46q-27 -137 -174 -171l-7 60q63 17 92 56h-10q-32 0 -52 21.5t-20 55.5q0 46 31 77.5t75 31.5z" glyph-name="Scommaaccent" horiz-adv-x="1266" unicode="Ș"/><glyph d="M329 705q0 -53 51.5 -89.5t124 -61.5t146 -54t124.5 -87t51 -142q0 -130 -109 -210t-282 -80q-121 0 -228.5 44.5t-162.5 114.5l98 80q99 -125 295 -124q119 0 183 42.5t64 119.5q0 63 -51 104t-123.5 65.5t-144 52t-123 82t-51.5 134.5q0 123 115.5 196.5t272.5 73.5 q213 0 308 -130l-97 -78q-68 96 -232 95q-101 0 -165 -40.5t-64 -107.5zM379 -135q73 0 73 -85q0 -24 -8 -46q-27 -137 -174 -171l-7 60q63 17 92 56h-10q-32 0 -52 21.5t-20 55.5q0 46 31 77.5t75 31.5z" glyph-name="scommaaccent" horiz-adv-x="967" unicode="ș"/><glyph d="M1290 1319l-20 -126h-471l-210 -1193h-130l210 1193h-471l20 126h1072zM503 -135q73 0 74 -85q0 -24 -9 -46q-27 -137 -174 -171l-7 60q63 17 93 56h-11q-32 0 -51.5 21.5t-19.5 55.5q0 46 30.5 77.5t74.5 31.5z" glyph-name="uni021A" horiz-adv-x="1213" unicode="Ț"/><glyph d="M428 819l-92 -522q-24 -133 58 -184.5t249 20.5l14 -109q-232 -99 -359 -11t-91 289l90 517h-159l21 120h158l52 295h131l-51 -295h322l-25 -120h-318zM393 -135q73 0 73 -85q0 -24 -9 -46q-27 -137 -174 -171l-7 60q63 17 93 56h-11q-32 0 -51.5 21.5t-19.5 55.5 q0 46 31 77.5t75 31.5z" glyph-name="uni021B" horiz-adv-x="812" unicode="ț"/><glyph d="M1164 1195h-724l-78 -449h531l-23 -126h-530l-86 -495h724l-22 -125h-395l-25 -85q24 -2 53 -11.5t66.5 -31.5t47.5 -59t-3 -95q-20 -61 -74 -92.5t-114 -38.5q-55 -5 -112 8.5t-81 29.5l46 81q22 -14 66.5 -28t100 -6.5t72.5 55.5q10 17 5 31.5t-7.5 25.5t-17 19.5 t-24.5 14.5t-29 10.5t-30 6t-29 3.5t-25.5 2.5t-18.5 0.5l55 159h-381l231 1319h853z" glyph-name="uni0228" horiz-adv-x="1155" unicode="Ȩ"/><glyph d="M913 145q-162 -160 -398 -171l-17 -59q24 -2 53 -11.5t66.5 -31.5t48 -59t-3.5 -95q-20 -61 -74 -92.5t-114 -38.5q-55 -5 -112 8.5t-80 29.5l46 81q22 -14 66.5 -28t100 -6.5t72.5 55.5q10 17 5 31.5t-8 25.5t-17.5 19.5t-24.5 14.5t-29 10.5t-30 6t-29 3.5t-25.5 2.5 t-17.5 0.5l46 133q-150 12 -245.5 105t-95.5 267q0 259 171.5 439.5t415.5 180.5q135 0 221 -61.5t86 -170.5q0 -85 -37 -152.5t-102.5 -109.5t-139.5 -72t-167 -45t-166.5 -21t-153.5 -8q10 -123 88.5 -181t190.5 -58q99 0 193 44.5t149 95.5zM669 852q-174 0 -293.5 -119 t-146.5 -288q75 0 146.5 5.5t165.5 23.5t163 45t117 78.5t48 117.5q0 60 -53 98.5t-147 38.5z" glyph-name="uni0229" horiz-adv-x="1078" unicode="ȩ"/><glyph d="M724 1935l20 106h597l-20 -106h-597zM806 1700q31 0 49.5 -20.5t18.5 -53.5q0 -44 -29 -74.5t-72 -30.5q-32 0 -51 19.5t-19 51.5q0 46 29.5 77t73.5 31zM1154 1700q31 0 49.5 -20.5t18.5 -53.5q0 -44 -29 -74.5t-72 -30.5q-32 0 -51 19.5t-19 51.5q0 46 29.5 77t73.5 31 zM916 1352q247 0 389 -154.5t142 -409.5q0 -348 -221.5 -584t-551.5 -236q-247 0 -389 156t-142 407q0 348 222 584.5t551 236.5zM894 1225q-265 0 -442 -192.5t-177 -482.5q0 -205 111.5 -329.5t309.5 -124.5q266 0 443 192.5t177 477.5q0 207 -113 333t-309 126z" glyph-name="uni022A" horiz-adv-x="1525" unicode="Ȫ"/><glyph d="M492 1555l20 106h597l-20 -106h-597zM573 1319q31 0 50 -20.5t19 -52.5q0 -44 -29 -75t-72 -31q-32 0 -51 19.5t-19 52.5q0 46 29 76.5t73 30.5zM922 1319q31 0 49.5 -20.5t18.5 -52.5q0 -44 -29 -75t-72 -31q-32 0 -51 19.5t-19 52.5q0 46 29.5 76.5t73.5 30.5zM681 966 q186 0 295 -112t109 -296q0 -246 -163 -415.5t-415 -169.5q-188 0 -296.5 112.5t-108.5 295.5q0 253 166 419t413 166zM660 845q-184 0 -304 -129t-120 -317q0 -137 76.5 -221t214.5 -84q183 0 303.5 129t120.5 316q0 137 -77 221.5t-214 84.5z" glyph-name="uni022B" horiz-adv-x="1187" unicode="ȫ"/><glyph d="M601 939l-171 -975q-31 -174 -137.5 -297.5t-258.5 -192.5l-34 110l27 13q26 12 65 42t80 71t76 106.5t49 139.5l171 983h133z" glyph-name="uni0237" horiz-adv-x="779" unicode="ȷ"/><glyph d="M1608 940l-17 -97h-137l-49 -283q-46 -265 -221 -426t-426 -161q-253 0 -370 161t-69 426l50 281h-137l17 98h137l66 380h132l-67 -380l823 1l66 379h132l-67 -379h137zM1275 567l48 276l-823 -2l-49 -274q-38 -218 52.5 -346.5t278.5 -128.5q183 0 318.5 126.5 t174.5 348.5z" glyph-name="uni0244" horiz-adv-x="1693" unicode="Ʉ"/><glyph d="M205 449l-17 -94q-20 -126 45.5 -190t193.5 -64q154 0 303 87l36 -113q-169 -97 -362 -97q-186 0 -282 98t-64 284l102 584h116l-5 -108q135 130 354 130q157 0 243 -69t86 -185q0 -157 -122 -250t-311 -93q-174 0 -316 80zM592 848q-157 0 -251 -76t-114 -199l-2 -10 q126 -82 299 -82q138 0 216.5 55t78.5 155q0 75 -59 116t-168 41z" glyph-name="uni0250" horiz-adv-x="1024" unicode="ɐ"/><glyph d="M1126 119l4 -105q-111 -39 -174 -25t-87 58.5t-16 114.5q-143 -189 -385 -189q-172 0 -269.5 109t-97.5 288q0 256 151.5 426t382.5 170q246 0 321 -217l32 190h128l-128 -743q-12 -65 18.5 -82t119.5 5zM509 94q143 0 249 90.5t140 237.5l10 56q3 44 3 66 q0 137 -72.5 219t-200.5 82q-176 0 -290 -129t-114 -320q0 -137 72.5 -219.5t202.5 -82.5z" glyph-name="uni0251" horiz-adv-x="1286" unicode="ɑ"/><glyph d="M985 565q0 -275 -158 -433.5t-390 -158.5q-222 0 -304 140.5t-12 410.5h732q12 150 -58.5 236.5t-214.5 86.5q-90 0 -182.5 -36t-156.5 -99l-65 82q80 82 193.5 127t231.5 45q181 0 282.5 -109t101.5 -292zM833 416h-609q-26 -154 31 -240.5t201 -86.5q148 0 249 87.5 t128 239.5z" glyph-name="uni0259" horiz-adv-x="1087" unicode="ə"/><glyph d="M1200 621l-17 -97h-130l-94 -524h-111l9 171v1q-164 -200 -365 -199q-345 0 -274 409l24 140h-131l17 98h131l55 319h135l-56 -319l544 1l56 318h133l-56 -318h130zM893 370l27 154l-545 -2l-23 -136q-49 -278 182 -278q185 -1 359 262z" glyph-name="uni0289" horiz-adv-x="1285" unicode="ʉ"/><glyph d="M534 1359h92l132 -202l-79 -60l-118 156l-175 -156l-57 60z" glyph-name="circumflex" horiz-adv-x="844" unicode="ˆ"/><glyph d="M488 1085l-135 204l75 58l123 -156l173 156l56 -58l-201 -204h-91z" glyph-name="caron" horiz-adv-x="844" unicode="ˇ"/><glyph d="M744 1319h106q-32 -99 -108 -160.5t-184 -61.5q-106 0 -164 60t-53 162h108q2 -51 34 -85t92 -34q114 0 169 119z" glyph-name="breve" horiz-adv-x="892" unicode="˘"/><glyph d="M591 1329q34 0 55 -23t21 -57q0 -49 -31.5 -83t-79.5 -34q-36 0 -56 22t-20 58q0 51 31.5 84t79.5 33z" glyph-name="dotaccent" horiz-adv-x="877" unicode="˙"/><glyph d="M584 1423q67 0 106.5 -42.5t39.5 -110.5q0 -89 -61 -155.5t-150 -66.5q-68 0 -106.5 42.5t-38.5 112.5q0 97 58 158.5t152 61.5zM570 1335q-48 0 -80.5 -33.5t-32.5 -82.5q0 -36 20.5 -58.5t56.5 -22.5q46 0 77.5 35t31.5 81q0 36 -20.5 58.5t-52.5 22.5z" glyph-name="ring" horiz-adv-x="831" unicode="˚"/><glyph d="M353 14h92q-63 -60 -93.5 -91t-63 -77.5t-32.5 -81.5q0 -58 51 -58t99 53l50 -58q-90 -90 -176 -90q-70 0 -105 35t-32 95q5 126 210 273z" glyph-name="ogonek" horiz-adv-x="802" unicode="˛"/><glyph d="M403 1128h-106q15 90 76.5 145t140.5 55q61 0 126 -51.5t104 -51.5q75 0 94 94h106q-19 -92 -78.5 -145.5t-136.5 -53.5q-49 0 -88.5 25.5t-73 52t-69.5 26.5q-80 0 -95 -96z" glyph-name="tilde" horiz-adv-x="1034" unicode="˜"/><glyph d="M328 1058l-62 22l115 267l111 -45zM498 1058l-61 22l114 267l113 -45z" glyph-name="hungarumlaut" horiz-adv-x="672" unicode="˝"/><glyph d="M-155 1056l-319 159l76 116l285 -213z" glyph-name="gravecomb" horiz-adv-x="0" unicode="̀"/><glyph d="M-461 1056l-22 62l360 213l34 -116z" glyph-name="acutecomb" horiz-adv-x="0" unicode="́"/><glyph d="M-311 1359h93l131 -202l-79 -60l-117 156l-176 -156l-56 60z" glyph-name="uni0302" horiz-adv-x="0" unicode="̂"/><glyph d="M-631 1128h-106q15 90 76.5 145t139.5 55q61 0 126.5 -51.5t104.5 -51.5q75 0 94 94h106q-19 -92 -79 -145.5t-136 -53.5q-49 0 -88.5 25.5t-73 52t-69.5 26.5q-80 0 -95 -96z" glyph-name="tildecomb" horiz-adv-x="0" unicode="̃"/><glyph d="M-640 1174l20 106h598l-21 -106h-597z" glyph-name="uni0304" horiz-adv-x="0" unicode="̄"/><glyph d="M-148 1319h105q-32 -99 -108 -160.5t-184 -61.5q-106 0 -163.5 60t-52.5 162h107q2 -51 34.5 -85t92.5 -34q114 0 169 119z" glyph-name="uni0306" horiz-adv-x="0" unicode="̆"/><glyph d="M-287 1329q34 0 55.5 -23t21.5 -57q0 -49 -31.5 -83t-79.5 -34q-36 0 -56.5 22t-20.5 58q0 51 31.5 84t79.5 33z" glyph-name="uni0307" horiz-adv-x="0" unicode="̇"/><glyph d="M-454 1319q31 0 49.5 -20.5t18.5 -52.5q0 -44 -29 -75t-71 -31q-32 0 -51 19.5t-19 52.5q0 46 29 76.5t73 30.5zM-106 1319q31 0 49.5 -20.5t18.5 -52.5q0 -44 -29 -75t-71 -31q-32 0 -51 19.5t-19 52.5q0 46 29 76.5t73 30.5z" glyph-name="uni0308" horiz-adv-x="0" unicode="̈"/><glyph d="M-205 1051h-90q14 12 44.5 41t44 42t36 37t32.5 39t18.5 35t8.5 37q0 58 -53 58q-41 0 -99 -51l-48 58q82 89 178 88q68 2 103 -34t32 -94q-2 -22 -9 -44t-16 -39t-26.5 -38.5t-29 -33.5t-35 -30.5t-32 -25.5t-33 -25t-26.5 -20z" glyph-name="hookabovecomb" horiz-adv-x="0" unicode="̉"/><glyph d="M-247 1423q67 0 106.5 -42.5t39.5 -110.5q0 -89 -61.5 -155.5t-149.5 -66.5q-68 0 -106.5 42.5t-38.5 112.5q0 97 58 158.5t152 61.5zM-261 1335q-48 0 -80.5 -33.5t-32.5 -82.5q0 -36 20.5 -58.5t56.5 -22.5q46 0 77.5 35t31.5 81q0 36 -20.5 58.5t-52.5 22.5z" glyph-name="uni030A" horiz-adv-x="0" unicode="̊"/><glyph d="M-345 1058l-61 22l114 267l111 -45zM-174 1058l-62 22l115 267l112 -45z" glyph-name="uni030B" horiz-adv-x="0" unicode="̋"/><glyph d="M-357 1085l-135 204l76 58l122 -156l173 156l56 -58l-201 -204h-91z" glyph-name="uni030C" horiz-adv-x="0" unicode="̌"/><glyph d="M-113 1241q0 -46 -30.5 -77.5t-78.5 -31.5q-31 0 -50.5 22t-19.5 65q0 80 48 138t135 75l7 -58q-67 -17 -91 -56h9q32 0 51.5 -21.5t19.5 -55.5z" glyph-name="uni0312" horiz-adv-x="0" unicode="̒"/><glyph d="M-548 -152q34 0 55.5 -23t21.5 -59q0 -49 -31.5 -82.5t-79.5 -33.5q-36 0 -57 21.5t-21 57.5q0 51 32 85t80 34z" glyph-name="dotbelowcomb" horiz-adv-x="0" unicode="̣"/><glyph d="M-370 -220q0 -24 -9 -46q-27 -137 -174 -171l-7 60q63 17 92 56h-10q-32 0 -52 21.5t-20 55.5q0 46 31 77.5t75 31.5q74 0 74 -85z" glyph-name="uni0326" horiz-adv-x="0" unicode="̦"/><glyph d="M-509 24l74 -12l-29 -97q24 -2 53 -11.5t66.5 -31.5t47.5 -59t-3 -95q-20 -61 -74 -92.5t-114 -38.5q-55 -5 -112 8.5t-81 29.5l46 81q22 -14 66.5 -28t100 -6.5t72.5 55.5q10 17 5 31.5t-7.5 25.5t-17 19.5t-25 14.5t-29 10.5t-29.5 6t-29 3.5t-25.5 2.5t-18.5 0.5z" glyph-name="uni0327" horiz-adv-x="0" unicode="̧"/><glyph d="M-449 14h92q-63 -60 -93.5 -91t-63 -77.5t-32.5 -81.5q0 -58 51 -58t99 53l50 -58q-90 -90 -176 -90q-70 0 -105 35t-32 95q5 126 210 273z" glyph-name="uni0328" horiz-adv-x="0" unicode="̨"/><glyph d="M-591 -171h91l133 -203l-78 -58l-118 156l-176 -156l-56 58z" glyph-name="uni032D" horiz-adv-x="0" unicode="̭"/><glyph d="M-896 -276l20 105h598l-21 -105h-597z" glyph-name="uni0331" horiz-adv-x="0" unicode="̱"/><glyph d="M882 618q65 -22 106 -89.5t41 -153.5q0 -157 -108.5 -266t-263.5 -109h-131l-28 -159h-95l27 159h-329l203 1161h329l27 158h96l-27 -158h85q111 0 175 -68.5t64 -181.5q0 -111 -59 -195t-112 -98zM613 1044h-207l-66 -384h206zM787 1044h-79l-66 -384h104q82 0 137.5 66 t55.5 156q0 77 -43.5 119.5t-108.5 42.5zM244 116h207l75 428h-207zM659 116q102 0 178 73.5t76 180.5q0 77 -47 125.5t-125 48.5h-120l-75 -428h113z" glyph-name="uni0E3F" horiz-adv-x="1170" unicode="฿"/><glyph d="M969 701q77 -26 123 -100.5t46 -173.5q0 -177 -122.5 -302t-298.5 -125h-615l231 1319h563q125 0 197.5 -77.5t72.5 -205.5t-68.5 -223t-128.5 -112zM869 1195h-429l-78 -447h459q97 0 161 76.5t64 184.5q0 85 -51 135.5t-126 50.5zM720 125q118 0 206 85t88 208 q0 92 -54 148.5t-143 56.5h-476l-87 -498h466zM532 -152q34 0 55.5 -23t21.5 -59q0 -49 -31.5 -82.5t-79.5 -33.5q-36 0 -57 21.5t-21 57.5q0 51 32 85t80 34z" glyph-name="uni1E04" horiz-adv-x="1271" unicode="Ḅ"/><glyph d="M724 966q176 0 270.5 -107.5t94.5 -286.5q0 -254 -147.5 -426.5t-391.5 -172.5q-230 0 -303 198l-11 -63l-31 -108h-116l256 1468h129l-117 -668q135 166 367 166zM558 94q186 0 292 129.5t106 329.5q0 135 -67.5 213.5t-199.5 78.5q-143 0 -240 -81t-137 -218l-18 -104 q-2 -19 -2 -56q0 -135 67.5 -213.5t198.5 -78.5zM526 -152q34 0 55 -23t21 -59q0 -49 -31.5 -82.5t-78.5 -33.5q-36 0 -57.5 21.5t-21.5 57.5q0 51 32.5 85t80.5 34z" glyph-name="uni1E05" horiz-adv-x="1189" unicode="ḅ"/><glyph d="M884 1319q225 0 355 -148.5t130 -383.5q0 -208 -94 -389t-259.5 -289.5t-361.5 -108.5h-552l231 1319h551zM676 126q154 0 283.5 89.5t202 237.5t72.5 317q0 188 -98 305.5t-274 117.5h-420l-186 -1067h420zM594 -152q34 0 55.5 -23t21.5 -59q0 -49 -31.5 -82.5 t-79.5 -33.5q-36 0 -57.5 21.5t-21.5 57.5q0 51 32.5 85t80.5 34z" glyph-name="uni1E0C" horiz-adv-x="1442" unicode="Ḍ"/><glyph d="M1065 1468h130l-258 -1468h-116l5 108l5 30q-135 -166 -365 -165q-176 0 -270 109t-94 288q0 258 149.5 427t390.5 169q229 0 300 -195zM502 94q137 0 231.5 71.5t136.5 194.5l31 174v19q0 133 -68 212.5t-200 79.5q-186 0 -292.5 -130t-106.5 -328q0 -135 68.5 -214 t199.5 -79zM480 -152q34 0 55 -23t21 -59q0 -49 -31.5 -82.5t-79.5 -33.5q-36 0 -57 21.5t-21 57.5q0 51 32.5 85t80.5 34z" glyph-name="uni1E0D" horiz-adv-x="1191" unicode="ḍ"/><glyph d="M884 1319q225 0 355 -148.5t130 -383.5q0 -208 -94 -389t-259.5 -289.5t-361.5 -108.5h-552l231 1319h551zM676 126q154 0 283.5 89.5t202 237.5t72.5 317q0 188 -98 305.5t-274 117.5h-420l-186 -1067h420zM273 -276l21 105h597l-21 -105h-597z" glyph-name="uni1E0E" horiz-adv-x="1442" unicode="Ḏ"/><glyph d="M1065 1468h130l-258 -1468h-116l5 108l5 30q-135 -166 -365 -165q-176 0 -270 109t-94 288q0 258 149.5 427t390.5 169q229 0 300 -195zM502 94q137 0 231.5 71.5t136.5 194.5l31 174v19q0 133 -68 212.5t-200 79.5q-186 0 -292.5 -130t-106.5 -328q0 -135 68.5 -214 t199.5 -79zM159 -276l20 105h598l-21 -105h-597z" glyph-name="uni1E0F" horiz-adv-x="1191" unicode="ḏ"/><glyph d="M884 1319q225 0 355 -148.5t130 -383.5q0 -208 -94 -389t-259.5 -289.5t-361.5 -108.5h-552l231 1319h551zM676 126q154 0 283.5 89.5t202 237.5t72.5 317q0 188 -98 305.5t-274 117.5h-420l-186 -1067h420zM541 -171h90l134 -203l-79 -58l-118 156l-175 -156l-57 58z " glyph-name="uni1E12" horiz-adv-x="1442" unicode="Ḓ"/><glyph d="M1065 1468h130l-258 -1468h-116l5 108l5 30q-135 -166 -365 -165q-176 0 -270 109t-94 288q0 258 149.5 427t390.5 169q229 0 300 -195zM502 94q137 0 231.5 71.5t136.5 194.5l31 174v19q0 133 -68 212.5t-200 79.5q-186 0 -292.5 -130t-106.5 -328q0 -135 68.5 -214 t199.5 -79zM427 -171h90l133 -203l-78 -58l-118 156l-176 -156l-56 58z" glyph-name="uni1E13" horiz-adv-x="1191" unicode="ḓ"/><glyph d="M1289 1319h131l-230 -1319h-132l104 596h-824l-104 -596h-132l231 1319h131l-104 -595h824zM647 -152q34 0 55.5 -23t21.5 -59q0 -49 -32 -82.5t-79 -33.5q-36 0 -57.5 21.5t-21.5 57.5q0 51 32.5 85t80.5 34z" glyph-name="uni1E24" horiz-adv-x="1455" unicode="Ḥ"/><glyph d="M720 966q343 0 272 -410l-98 -556h-133l99 560q49 278 -181 278q-189 0 -360 -263l-101 -575h-131l254 1449h132l-121 -691q158 208 368 208zM485 -152q34 0 55 -23t21 -59q0 -49 -31.5 -82.5t-78.5 -33.5q-36 0 -57.5 21.5t-21.5 57.5q0 51 32.5 85t80.5 34z" glyph-name="uni1E25" horiz-adv-x="1133" unicode="ḥ"/><glyph d="M386 1818l-22 61l360 213l34 -116zM292 1700q31 0 49.5 -20.5t18.5 -53.5q0 -44 -29 -74.5t-72 -30.5q-32 0 -51 19.5t-19 51.5q0 46 29.5 77t73.5 31zM640 1700q31 0 49.5 -20.5t18.5 -53.5q0 -44 -29 -74.5t-71 -30.5q-32 0 -51 19.5t-19 51.5q0 46 29 77t73 31zM234 0 h-132l231 1319h131z" glyph-name="uni1E2E" horiz-adv-x="496" unicode="Ḯ"/><glyph d="M335 1437l-23 61l360 214l35 -116zM241 1319q31 0 49.5 -20.5t18.5 -52.5q0 -44 -29 -75t-72 -31q-32 0 -51 19.5t-19 52.5q0 46 29.5 76.5t73.5 30.5zM589 1319q31 0 49.5 -20.5t18.5 -52.5q0 -44 -29 -75t-72 -31q-32 0 -51 19.5t-19 52.5q0 46 29.5 76.5t73.5 30.5z M422 119l3 -105q-116 -43 -180 -25t-85.5 66.5t-9.5 123.5l133 760h128l-128 -743q-12 -65 19 -82t120 5z" glyph-name="uni1E2F" horiz-adv-x="508" unicode="ḯ"/><glyph d="M256 126h700l-22 -126h-832l231 1319h131zM514 -152q34 0 55.5 -23t21.5 -59q0 -49 -32 -82.5t-79 -33.5q-36 0 -57.5 21.5t-21.5 57.5q0 51 32.5 85t80.5 34z" glyph-name="uni1E36" horiz-adv-x="1097" unicode="Ḷ"/><glyph d="M393 116l1 -109q-162 -55 -228.5 -3.5t-47.5 170.5l220 1251h130l-215 -1234q-12 -63 19 -80t121 5zM222 -152q34 0 55.5 -23t21.5 -59q0 -49 -31.5 -82.5t-79.5 -33.5q-36 0 -57.5 21.5t-21.5 57.5q0 51 32.5 85t80.5 34z" glyph-name="uni1E37" horiz-adv-x="529" unicode="ḷ"/><glyph d="M256 126h700l-22 -126h-832l231 1319h131zM461 -171h90l133 -203l-78 -58l-118 156l-176 -156l-56 58z" glyph-name="uni1E3C" horiz-adv-x="1097" unicode="Ḽ"/><glyph d="M393 116l1 -109q-162 -55 -228.5 -3.5t-47.5 170.5l220 1251h130l-215 -1234q-12 -63 19 -80t121 5zM169 -171h90l134 -203l-79 -58l-118 156l-176 -156l-56 58z" glyph-name="uni1E3D" horiz-adv-x="529" unicode="ḽ"/><glyph d="M1270 1596l-372 -159l-22 61l360 214zM1440 1318h157l-145 -1318h-129l117 1097l-643 -1097h-92l-260 1087l-264 -1087h-132l316 1318h159l261 -1122z" glyph-name="uni1E3E" horiz-adv-x="1665" unicode="Ḿ"/><glyph d="M1254 1215l-372 -159l-22 62l360 213zM1364 966q340 0 268 -410l-98 -556h-129l99 563q26 143 -18 211.5t-160 68.5q-184 0 -350 -251l-5 -36l-97 -556h-130l99 563q24 143 -19.5 211.5t-159.5 68.5q-186 0 -352 -256l-102 -587h-131l163 939h110l-7 -171v-3 q159 201 358 201q254 0 278 -234q166 234 383 234z" glyph-name="uni1E3F" horiz-adv-x="1769" unicode="ḿ"/><glyph d="M963 1512q-36 0 -56.5 22t-20.5 58q0 51 31.5 84.5t79.5 33.5q34 0 55 -23t21 -57q0 -49 -31 -83.5t-79 -34.5zM1350 1319h133l-230 -1319h-133q17 96 -3.5 179.5t-91.5 167t-119 126t-160 133.5q-2 3 -4 3q-90 72 -135.5 111t-110 106.5t-102.5 130.5l-167 -957h-133 l230 1319h133v-1q-14 -79 3.5 -153t45.5 -126.5t93 -119.5t107 -102t127 -104q92 -73 139 -112.5t111 -106t101 -127.5z" glyph-name="uni1E44" horiz-adv-x="1510" unicode="Ṅ"/><glyph d="M667 1132q-36 0 -56 22t-20 58q0 51 31.5 84t78.5 33q34 0 55.5 -23t21.5 -57q0 -49 -31.5 -83t-79.5 -34zM712 966q343 0 271 -410l-97 -556h-132l98 560q49 278 -181 278q-191 0 -359 -263l-1 2l-101 -577h-131l163 939h110l-7 -171v-3q162 201 367 201z" glyph-name="uni1E45" unicode="ṅ"/><glyph d="M1350 1319h133l-230 -1319h-133q17 96 -3.5 179.5t-91.5 167t-119 126t-160 133.5q-2 3 -4 3q-90 72 -135.5 111t-110 106.5t-102.5 130.5l-167 -957h-133l230 1319h133v-1q-14 -79 3.5 -153t45.5 -126.5t93 -119.5t107 -102t127 -104q92 -73 139 -112.5t111 -106 t101 -127.5zM660 -152q34 0 55.5 -23t21.5 -59q0 -49 -31.5 -82.5t-79.5 -33.5q-36 0 -57 21.5t-21 57.5q0 51 32 85t80 34z" glyph-name="uni1E46" horiz-adv-x="1510" unicode="Ṇ"/><glyph d="M712 966q343 0 271 -410l-97 -556h-132l98 560q49 278 -181 278q-191 0 -359 -263l-1 2l-101 -577h-131l163 939h110l-7 -171v-3q162 201 367 201zM478 -152q34 0 55.5 -23t21.5 -59q0 -49 -31.5 -82.5t-79.5 -33.5q-36 0 -57.5 21.5t-21.5 57.5q0 51 32.5 85t80.5 34z " glyph-name="uni1E47" unicode="ṇ"/><glyph d="M1350 1319h133l-230 -1319h-133q17 96 -3.5 179.5t-91.5 167t-119 126t-160 133.5q-2 3 -4 3q-90 72 -135.5 111t-110 106.5t-102.5 130.5l-167 -957h-133l230 1319h133v-1q-14 -79 3.5 -153t45.5 -126.5t93 -119.5t107 -102t127 -104q92 -73 139 -112.5t111 -106 t101 -127.5zM608 -171h90l133 -203l-78 -58l-118 156l-176 -156l-56 58z" glyph-name="uni1E4A" horiz-adv-x="1510" unicode="Ṋ"/><glyph d="M712 966q343 0 271 -410l-97 -556h-132l98 560q49 278 -181 278q-191 0 -359 -263l-1 2l-101 -577h-131l163 939h110l-7 -171v-3q162 201 367 201zM425 -171h90l134 -203l-79 -58l-118 156l-176 -156l-56 58z" glyph-name="uni1E4B" unicode="ṋ"/><glyph d="M915 1818l-22 61l360 213l34 -116zM748 1509h-106q15 90 76.5 144.5t139.5 54.5q61 0 126.5 -51t104.5 -51q75 0 94 94h106q-19 -92 -79 -146t-137 -54q-49 0 -88.5 26.5t-72.5 52t-69 25.5q-80 1 -95 -95zM916 1352q247 0 389 -154.5t142 -409.5q0 -348 -221.5 -584 t-551.5 -236q-247 0 -389 156t-142 407q0 348 222 584.5t551 236.5zM894 1225q-265 0 -442 -192.5t-177 -482.5q0 -205 111.5 -329.5t309.5 -124.5q266 0 443 192.5t177 477.5q0 207 -113 333t-309 126z" glyph-name="uni1E4C" horiz-adv-x="1525" unicode="Ṍ"/><glyph d="M683 1437l-23 61l361 214l34 -116zM515 1128h-105q15 90 76.5 145t139.5 55q61 0 126 -51.5t105 -51.5q75 0 94 94h105q-19 -92 -78.5 -145.5t-136.5 -53.5q-49 0 -88.5 25.5t-72.5 52t-69 26.5q-81 0 -96 -96zM681 966q186 0 295 -112t109 -296q0 -246 -163 -415.5 t-415 -169.5q-188 0 -296.5 112.5t-108.5 295.5q0 253 166 419t413 166zM660 845q-184 0 -304 -129t-120 -317q0 -137 76.5 -221t214.5 -84q183 0 303.5 129t120.5 316q0 137 -77 221.5t-214 84.5z" glyph-name="uni1E4D" horiz-adv-x="1187" unicode="ṍ"/><glyph d="M1094 1818l-319 158l77 116l285 -213zM655 1555l21 106h597l-20 -106h-598zM916 1352q247 0 389 -154.5t142 -409.5q0 -348 -221.5 -584t-551.5 -236q-247 0 -389 156t-142 407q0 348 222 584.5t551 236.5zM894 1225q-265 0 -442 -192.5t-177 -482.5q0 -205 111.5 -329.5 t309.5 -124.5q266 0 443 192.5t177 477.5q0 207 -113 333t-309 126z" glyph-name="uni1E50" horiz-adv-x="1525" unicode="Ṑ"/><glyph d="M862 1437l-319 159l77 116l285 -214zM423 1174l21 106h597l-20 -106h-598zM681 966q186 0 295 -112t109 -296q0 -246 -163 -415.5t-415 -169.5q-188 0 -296.5 112.5t-108.5 295.5q0 253 166 419t413 166zM660 845q-184 0 -304 -129t-120 -317q0 -137 76.5 -221t214.5 -84 q183 0 303.5 129t120.5 316q0 137 -77 221.5t-214 84.5z" glyph-name="uni1E51" horiz-adv-x="1187" unicode="ṑ"/><glyph d="M898 1818l-22 61l360 213l34 -116zM655 1555l21 106h597l-20 -106h-598zM916 1352q247 0 389 -154.5t142 -409.5q0 -348 -221.5 -584t-551.5 -236q-247 0 -389 156t-142 407q0 348 222 584.5t551 236.5zM894 1225q-265 0 -442 -192.5t-177 -482.5q0 -205 111.5 -329.5 t309.5 -124.5q266 0 443 192.5t177 477.5q0 207 -113 333t-309 126z" glyph-name="uni1E52" horiz-adv-x="1525" unicode="Ṓ"/><glyph d="M666 1437l-23 61l361 214l34 -116zM423 1174l21 106h597l-20 -106h-598zM681 966q186 0 295 -112t109 -296q0 -246 -163 -415.5t-415 -169.5q-188 0 -296.5 112.5t-108.5 295.5q0 253 166 419t413 166zM660 845q-184 0 -304 -129t-120 -317q0 -137 76.5 -221t214.5 -84 q183 0 303.5 129t120.5 316q0 137 -77 221.5t-214 84.5z" glyph-name="uni1E53" horiz-adv-x="1187" unicode="ṓ"/><glyph d="M58 186l114 89q135 -176 422 -176q184 0 285.5 69t101.5 189q0 96 -74 157t-179 95t-210 71t-179 110.5t-74 187.5q0 118 80 205.5t199.5 128.5t255.5 41q292 0 420 -184l-109 -82q-94 142 -336 142q-157 0 -259.5 -66.5t-102.5 -172.5q0 -61 40 -106.5t103.5 -73.5 t141 -54t154 -55.5t140 -69t103.5 -105t40 -152.5q0 -179 -153.5 -289.5t-392.5 -110.5q-162 0 -310 58t-221 154zM526 -152q34 0 55 -23t21 -59q0 -49 -31.5 -82.5t-78.5 -33.5q-36 0 -57.5 21.5t-21.5 57.5q0 51 32.5 85t80.5 34z" glyph-name="uni1E62" horiz-adv-x="1266" unicode="Ṣ"/><glyph d="M44 140l98 80q99 -125 295 -124q119 0 183 42.5t64 119.5q0 63 -51 104t-123.5 65.5t-144 52t-123 82t-51.5 134.5q0 123 115.5 196.5t272.5 73.5q213 0 308 -130l-97 -78q-68 96 -232 95q-101 0 -165 -41t-64 -107q0 -53 51.5 -89.5t124 -61.5t146 -54t124.5 -87 t51 -142q0 -130 -109 -210t-282 -80q-121 0 -228.5 44.5t-162.5 114.5zM375 -152q34 0 55.5 -23t21.5 -59q0 -49 -31.5 -82.5t-79.5 -33.5q-36 0 -57 21.5t-21 57.5q0 51 32 85t80 34z" glyph-name="uni1E63" horiz-adv-x="967" unicode="ṣ"/><glyph d="M1290 1319l-20 -126h-471l-210 -1193h-130l210 1193h-471l20 126h1072zM500 -152q34 0 55.5 -23t21.5 -59q0 -49 -31.5 -82.5t-79.5 -33.5q-36 0 -57.5 21.5t-21.5 57.5q0 51 32.5 85t80.5 34z" glyph-name="uni1E6C" horiz-adv-x="1213" unicode="Ṭ"/><glyph d="M428 819l-92 -522q-24 -133 58 -184.5t249 20.5l14 -109q-232 -99 -359 -11t-91 289l90 517h-159l21 120h158l52 295h131l-51 -295h322l-25 -120h-318zM389 -152q34 0 55.5 -23t21.5 -59q0 -49 -31.5 -82.5t-79.5 -33.5q-36 0 -57.5 21.5t-21.5 57.5q0 51 32.5 85 t80.5 34z" glyph-name="uni1E6D" horiz-adv-x="812" unicode="ṭ"/><glyph d="M1290 1319l-20 -126h-471l-210 -1193h-130l210 1193h-471l20 126h1072zM179 -276l21 105h597l-20 -105h-598z" glyph-name="uni1E6E" horiz-adv-x="1213" unicode="Ṯ"/><glyph d="M449 939h322l-25 -120h-318l-92 -522q-24 -133 58 -184.5t249 20.5l14 -109q-232 -99 -359 -11t-91 289l90 517h-159l21 120h158l52 295h131zM68 -276l21 105h597l-20 -105h-598z" glyph-name="uni1E6F" horiz-adv-x="812" unicode="ṯ"/><glyph d="M1290 1319l-20 -126h-471l-210 -1193h-130l210 1193h-471l20 126h1072zM447 -171h91l133 -203l-79 -58l-118 156l-175 -156l-57 58z" glyph-name="uni1E70" horiz-adv-x="1213" unicode="Ṱ"/><glyph d="M428 819l-92 -522q-24 -133 58 -184.5t249 20.5l14 -109q-232 -99 -359 -11t-91 289l90 517h-159l21 120h158l52 295h131l-51 -295h322l-25 -120h-318zM336 -171h91l133 -203l-79 -58l-117 156l-176 -156l-57 58z" glyph-name="uni1E71" horiz-adv-x="812" unicode="ṱ"/><glyph d="M1152 1498l-43 -61l-319 159l77 116zM1623 1319h138l-541 -1319h-133l-142 1055l-517 -1055h-133l-73 1319h135l53 -1097l518 1041h115l141 -1043z" glyph-name="Wgrave" horiz-adv-x="1684" unicode="Ẁ"/><glyph d="M1073 1118l-42 -62l-319 159l76 116zM1469 939h134l-99 -528q-43 -227 -149 -332.5t-300 -105.5q-113 0 -195 53t-106 160q-150 -213 -360 -213q-324 0 -256 409l98 557h131l-97 -560q-49 -280 170 -280q87 0 169 65t139 169q3 34 6 49l96 557h133l-97 -558 q-24 -138 29.5 -210t163.5 -72q232 0 288 285z" glyph-name="wgrave" horiz-adv-x="1682" unicode="ẁ"/><glyph d="M1285 1596l-372 -159l-22 61l360 214zM1623 1319h138l-541 -1319h-133l-142 1055l-517 -1055h-133l-73 1319h135l53 -1097l518 1041h115l141 -1043z" glyph-name="Wacute" horiz-adv-x="1684" unicode="Ẃ"/><glyph d="M1207 1215l-372 -159l-23 62l360 213zM1469 939h134l-99 -528q-43 -227 -149 -332.5t-300 -105.5q-113 0 -195 53t-106 160q-150 -213 -360 -213q-324 0 -256 409l98 557h131l-97 -560q-49 -280 170 -280q87 0 169 65t139 169q3 34 6 49l96 557h133l-97 -558 q-24 -138 29.5 -210t163.5 -72q232 0 288 285z" glyph-name="wacute" horiz-adv-x="1682" unicode="ẃ"/><glyph d="M855 1521q-32 0 -51 19.5t-19 51.5q0 46 29 77t73 31q31 0 50 -20.5t19 -53.5q0 -44 -29 -74.5t-72 -30.5zM1203 1521q-32 0 -51 19.5t-19 51.5q0 46 29 77t74 31q31 0 49.5 -20.5t18.5 -53.5q0 -44 -29 -74.5t-72 -30.5zM1623 1319h138l-541 -1319h-133l-142 1055 l-517 -1055h-133l-73 1319h135l53 -1097l518 1041h115l141 -1043z" glyph-name="Wdieresis" horiz-adv-x="1684" unicode="Ẅ"/><glyph d="M777 1140q-32 0 -51 19.5t-19 52.5q0 46 29 76.5t73 30.5q31 0 49.5 -20.5t18.5 -52.5q0 -44 -28.5 -75t-71.5 -31zM1125 1140q-32 0 -51 19.5t-19 52.5q0 46 29 76.5t73 30.5q31 0 49.5 -20.5t18.5 -52.5q0 -44 -28.5 -75t-71.5 -31zM1469 939h134l-99 -528 q-43 -227 -149 -332.5t-300 -105.5q-113 0 -195 53t-106 160q-150 -213 -360 -213q-324 0 -256 409l98 557h131l-97 -560q-49 -280 170 -280q87 0 169 65t139 169q3 34 6 49l96 557h133l-97 -558q-24 -138 29.5 -210t163.5 -72q232 0 288 285z" glyph-name="wdieresis" horiz-adv-x="1682" unicode="ẅ"/><glyph d="M1341 1318l-12 -62l-1073 -1131l879 3l-24 -128h-1080l12 67l1068 1126l-874 -3l24 128h1080zM563 -152q34 0 55.5 -23t21.5 -59q0 -49 -31.5 -82.5t-79.5 -33.5q-36 0 -57 21.5t-21 57.5q0 51 32 85t80 34z" glyph-name="uni1E92" horiz-adv-x="1295" unicode="Ẓ"/><glyph d="M980 939l-24 -128l-700 -649q61 7 136.5 -11t136 -38.5t158.5 -19.5t207 38l-22 -126q-109 -38 -205.5 -37.5t-165 21.5t-134 42.5t-138 17t-149.5 -48.5l-60 89l775 727l-618 -5l24 128h779zM415 -152q34 0 55.5 -23t21.5 -59q0 -49 -32 -82.5t-79 -33.5 q-36 0 -57.5 21.5t-21.5 57.5q0 51 32.5 85t80.5 34z" glyph-name="uni1E93" horiz-adv-x="1024" unicode="ẓ"/><glyph d="M1174 1195l2 -2l-417 -408h26q162 0 245 -82t83 -229q0 -222 -118.5 -348t-369.5 -126h-246l22 119h242q181 0 257 85.5t76 246.5q0 215 -213 215q-61 0 -154 -31l-41 102l447 456h-293q-135 2 -220.5 -71.5t-108.5 -210.5l-159 -911h-133l160 910q34 198 158 303.5 t322 105.5h455z" glyph-name="uni1E9E" horiz-adv-x="1242" unicode="ẞ"/><glyph d="M1219 0h-139l-83 355h-676l-207 -355h-138l778 1319h145zM396 483h570l-164 698zM589 -152q34 0 55.5 -23t21.5 -59q0 -49 -32 -82.5t-79 -33.5q-36 0 -57.5 21.5t-21.5 57.5q0 51 32.5 85t80.5 34z" glyph-name="uni1EA0" horiz-adv-x="1356" unicode="Ạ"/><glyph d="M1126 119l4 -105q-111 -39 -174 -25t-87 58.5t-16 114.5q-143 -189 -385 -189q-172 0 -269.5 109t-97.5 288q0 256 151.5 426t382.5 170q246 0 321 -217l32 190h128l-128 -743q-12 -65 18.5 -82t119.5 5zM509 94q143 0 249 90.5t140 237.5l10 56q3 44 3 66 q0 137 -72.5 219t-200.5 82q-176 0 -290 -129t-114 -320q0 -137 72.5 -219.5t202.5 -82.5zM485 -152q34 0 55 -23t21 -59q0 -49 -31.5 -82.5t-78.5 -33.5q-36 0 -57.5 21.5t-21.5 57.5q0 51 32.5 85t80.5 34z" glyph-name="uni1EA1" horiz-adv-x="1286" unicode="ạ"/><glyph d="M934 1720q-41 0 -99 -51l-48 58q82 89 177 89q68 2 103.5 -34t31.5 -94q-2 -22 -8.5 -44.5t-16 -39.5t-26.5 -38t-29 -33t-35 -31t-31.5 -26t-33.5 -24.5t-26 -19.5h-91q14 12 44.5 41t44.5 41.5t36 36.5t32 39.5t18.5 35t8.5 36.5q1 58 -52 58zM1080 0l-83 355h-676 l-207 -355h-138l778 1319h145l320 -1319h-139zM396 483h570l-164 698z" glyph-name="uni1EA2" horiz-adv-x="1356" unicode="Ả"/><glyph d="M759 1340q-41 0 -99 -51l-47 58q82 89 177 88q68 2 103 -34t32 -94q-2 -22 -8.5 -44t-16 -39t-26.5 -38.5t-29 -33.5t-35 -30.5t-31.5 -25.5t-33.5 -25t-26 -20h-91q14 12 44.5 41t44 42t36 37t32.5 39t18.5 35t8.5 37q0 58 -53 58zM1126 119l4 -105q-111 -39 -174 -25 t-87 58.5t-16 114.5q-143 -189 -385 -189q-172 0 -269.5 109t-97.5 288q0 256 151.5 426t382.5 170q246 0 321 -217l32 190h128l-128 -743q-12 -65 18.5 -82t119.5 5zM509 94q143 0 249 90.5t140 237.5l10 56q3 44 3 66q0 137 -72.5 219t-200.5 82q-176 0 -290 -129 t-114 -320q0 -137 72.5 -219.5t202.5 -82.5z" glyph-name="uni1EA3" horiz-adv-x="1286" unicode="ả"/><glyph d="M1183 1976l-372 -158l-23 61l361 213zM879 1633l-176 -155l-56 60l205 201h92l131 -201l-78 -60zM1080 0l-83 355h-676l-207 -355h-138l778 1319h145l320 -1319h-139zM396 483h570l-164 698z" glyph-name="uni1EA4" horiz-adv-x="1356" unicode="Ấ"/><glyph d="M1009 1596l-372 -159l-23 61l361 214zM705 1253l-176 -156l-56 60l205 202h92l131 -202l-78 -60zM1126 119l4 -105q-111 -39 -174 -25t-87 58.5t-16 114.5q-143 -189 -385 -189q-172 0 -269.5 109t-97.5 288q0 256 151.5 426t382.5 170q246 0 321 -217l32 190h128 l-128 -743q-12 -65 18.5 -82t119.5 5zM509 94q143 0 249 90.5t140 237.5l10 56q3 44 3 66q0 137 -72.5 219t-200.5 82q-176 0 -290 -129t-114 -320q0 -137 72.5 -219.5t202.5 -82.5z" glyph-name="uni1EA5" horiz-adv-x="1286" unicode="ấ"/><glyph d="M1050 1879l-43 -61l-319 158l77 116zM879 1633l-176 -155l-56 60l205 201h92l131 -201l-78 -60zM1080 0l-83 355h-676l-207 -355h-138l778 1319h145l320 -1319h-139zM396 483h570l-164 698z" glyph-name="uni1EA6" horiz-adv-x="1356" unicode="Ầ"/><glyph d="M876 1498l-43 -61l-319 159l77 116zM705 1253l-176 -156l-56 60l205 202h92l131 -202l-78 -60zM1126 119l4 -105q-111 -39 -174 -25t-87 58.5t-16 114.5q-143 -189 -385 -189q-172 0 -269.5 109t-97.5 288q0 256 151.5 426t382.5 170q246 0 321 -217l32 190h128 l-128 -743q-12 -65 18.5 -82t119.5 5zM509 94q143 0 249 90.5t140 237.5l10 56q3 44 3 66q0 137 -72.5 219t-200.5 82q-176 0 -290 -129t-114 -320q0 -137 72.5 -219.5t202.5 -82.5z" glyph-name="uni1EA7" horiz-adv-x="1286" unicode="ầ"/><glyph d="M998 2101q-41 0 -99 -51l-47 58q82 89 177 88q68 2 103 -33.5t32 -94.5q-2 -22 -8.5 -44t-16 -39t-26.5 -38.5t-29 -33.5t-35 -30.5t-31.5 -25.5t-33.5 -25t-27 -20h-90q14 12 44.5 41t44 42t36 37t32.5 39.5t18.5 35t8.5 36.5q0 58 -53 58zM879 1633l-176 -155l-56 60 l205 201h92l131 -201l-78 -60zM1080 0l-83 355h-676l-207 -355h-138l778 1319h145l320 -1319h-139zM396 483h570l-164 698z" glyph-name="uni1EA8" horiz-adv-x="1356" unicode="Ẩ"/><glyph d="M824 1720q-41 0 -99 -51l-47 58q82 89 177 89q68 2 103 -34t32 -94q-2 -22 -8.5 -44.5t-16 -39.5t-26.5 -38t-29 -33t-35 -31t-31.5 -26t-33.5 -24.5t-27 -19.5h-90q14 12 44.5 41t44 41.5t36 36.5t32.5 39.5t18.5 35t8.5 36.5q0 58 -53 58zM705 1253l-176 -156l-56 60 l205 202h92l131 -202l-78 -60zM1126 119l4 -105q-111 -39 -174 -25t-87 58.5t-16 114.5q-143 -189 -385 -189q-172 0 -269.5 109t-97.5 288q0 256 151.5 426t382.5 170q246 0 321 -217l32 190h128l-128 -743q-12 -65 18.5 -82t119.5 5zM509 94q143 0 249 90.5t140 237.5 l10 56q3 44 3 66q0 137 -72.5 219t-200.5 82q-176 0 -290 -129t-114 -320q0 -137 72.5 -219.5t202.5 -82.5z" glyph-name="uni1EA9" horiz-adv-x="1286" unicode="ẩ"/><glyph d="M823 1985q-80 0 -96 -96h-106q15 90 76.5 145t140.5 55q61 0 126 -51t104 -51q75 0 94 93h106q-19 -92 -78.5 -145.5t-136.5 -53.5q-49 0 -88.5 25.5t-72.5 52t-69 26.5zM852 1739h92l131 -201l-78 -60l-118 155l-176 -155l-56 60zM754 1319h145l320 -1319h-139l-83 355 h-676l-207 -355h-138zM396 483h570l-164 698z" glyph-name="uni1EAA" horiz-adv-x="1356" unicode="Ẫ"/><glyph d="M649 1604q-80 0 -96 -95h-106q15 90 76.5 144.5t140.5 54.5q61 0 126 -51t104 -51q75 0 94 94h106q-19 -92 -78.5 -146t-136.5 -54q-49 0 -88.5 26.5t-72.5 52t-69 25.5zM678 1359h92l131 -202l-78 -60l-118 156l-176 -156l-56 60zM1126 119l4 -105q-111 -39 -174 -25 t-87 58.5t-16 114.5q-143 -189 -385 -189q-172 0 -269.5 109t-97.5 288q0 256 151.5 426t382.5 170q246 0 321 -217l32 190h128l-128 -743q-12 -65 18.5 -82t119.5 5zM509 94q143 0 249 90.5t140 237.5l10 56q3 44 3 66q0 137 -72.5 219t-200.5 82q-176 0 -290 -129 t-114 -320q0 -137 72.5 -219.5t202.5 -82.5z" glyph-name="uni1EAB" horiz-adv-x="1286" unicode="ẫ"/><glyph d="M879 1633l-176 -155l-56 60l205 201h92l131 -201l-78 -60zM1219 0h-139l-83 355h-676l-207 -355h-138l778 1319h145zM396 483h570l-164 698zM589 -152q34 0 55.5 -23t21.5 -59q0 -49 -32 -82.5t-79 -33.5q-36 0 -57.5 21.5t-21.5 57.5q0 51 32.5 85t80.5 34z" glyph-name="uni1EAC" horiz-adv-x="1356" unicode="Ậ"/><glyph d="M705 1253l-176 -156l-56 60l205 202h92l131 -202l-78 -60zM1126 119l4 -105q-111 -39 -174 -25t-87 58.5t-16 114.5q-143 -189 -385 -189q-172 0 -269.5 109t-97.5 288q0 256 151.5 426t382.5 170q246 0 321 -217l32 190h128l-128 -743q-12 -65 18.5 -82t119.5 5zM509 94 q143 0 249 90.5t140 237.5l10 56q3 44 3 66q0 137 -72.5 219t-200.5 82q-176 0 -290 -129t-114 -320q0 -137 72.5 -219.5t202.5 -82.5zM485 -152q34 0 55 -23t21 -59q0 -49 -31.5 -82.5t-78.5 -33.5q-36 0 -57.5 21.5t-21.5 57.5q0 51 32.5 85t80.5 34z" glyph-name="uni1EAD" horiz-adv-x="1286" unicode="ậ"/><glyph d="M1184 1976l-372 -158l-22 61l360 213zM853 1478q-106 0 -164 59.5t-52 162.5h107q2 -51 34.5 -85.5t91.5 -34.5q114 0 169 120h106q-32 -99 -108 -160.5t-184 -61.5zM1080 0l-83 355h-676l-207 -355h-138l778 1319h145l320 -1319h-139zM396 483h570l-164 698z" glyph-name="uni1EAE" horiz-adv-x="1356" unicode="Ắ"/><glyph d="M1010 1596l-372 -159l-22 61l360 214zM679 1097q-106 0 -164 60t-52 162h107q2 -51 34.5 -85t91.5 -34q114 0 169 119h106q-32 -99 -108 -160.5t-184 -61.5zM1126 119l4 -105q-111 -39 -174 -25t-87 58.5t-16 114.5q-143 -189 -385 -189q-172 0 -269.5 109t-97.5 288 q0 256 151.5 426t382.5 170q246 0 321 -217l32 190h128l-128 -743q-12 -65 18.5 -82t119.5 5zM509 94q143 0 249 90.5t140 237.5l10 56q3 44 3 66q0 137 -72.5 219t-200.5 82q-176 0 -290 -129t-114 -320q0 -137 72.5 -219.5t202.5 -82.5z" glyph-name="uni1EAF" horiz-adv-x="1286" unicode="ắ"/><glyph d="M1051 1879l-42 -61l-320 158l77 116zM853 1478q-106 0 -164 59.5t-52 162.5h107q2 -51 34.5 -85.5t91.5 -34.5q114 0 169 120h106q-32 -99 -108 -160.5t-184 -61.5zM1080 0l-83 355h-676l-207 -355h-138l778 1319h145l320 -1319h-139zM396 483h570l-164 698z" glyph-name="uni1EB0" horiz-adv-x="1356" unicode="Ằ"/><glyph d="M877 1498l-42 -61l-320 159l77 116zM679 1097q-106 0 -164 60t-52 162h107q2 -51 34.5 -85t91.5 -34q114 0 169 119h106q-32 -99 -108 -160.5t-184 -61.5zM1126 119l4 -105q-111 -39 -174 -25t-87 58.5t-16 114.5q-143 -189 -385 -189q-172 0 -269.5 109t-97.5 288 q0 256 151.5 426t382.5 170q246 0 321 -217l32 190h128l-128 -743q-12 -65 18.5 -82t119.5 5zM509 94q143 0 249 90.5t140 237.5l10 56q3 44 3 66q0 137 -72.5 219t-200.5 82q-176 0 -290 -129t-114 -320q0 -137 72.5 -219.5t202.5 -82.5z" glyph-name="uni1EB1" horiz-adv-x="1286" unicode="ằ"/><glyph d="M1000 2101q-41 0 -99 -51l-48 58q82 89 178 88q68 2 103 -33.5t32 -94.5q-2 -22 -9 -44t-16 -39t-26.5 -38.5t-29.5 -33.5t-35 -30.5t-31.5 -25.5t-33 -25t-26.5 -20h-90q14 12 44.5 41t44 42t35.5 37t32.5 39.5t19 35t8.5 36.5q0 58 -53 58zM853 1478q-106 0 -164 59.5 t-52 162.5h107q2 -51 34.5 -85.5t91.5 -34.5q114 0 169 120h106q-32 -99 -108 -160.5t-184 -61.5zM1080 0l-83 355h-676l-207 -355h-138l778 1319h145l320 -1319h-139zM396 483h570l-164 698z" glyph-name="uni1EB2" horiz-adv-x="1356" unicode="Ẳ"/><glyph d="M826 1720q-41 0 -99 -51l-48 58q82 89 178 89q68 2 103 -34t32 -94q-2 -22 -9 -44.5t-16.5 -39.5t-26.5 -38t-29 -33t-35 -31t-31.5 -26t-33 -24.5t-26.5 -19.5h-90q14 12 44.5 41t44 41.5t35.5 36.5t32.5 39.5t19 35t8.5 36.5q0 58 -53 58zM679 1097q-106 0 -164 60 t-52 162h107q2 -51 34.5 -85t91.5 -34q114 0 169 119h106q-32 -99 -108 -160.5t-184 -61.5zM1126 119l4 -105q-111 -39 -174 -25t-87 58.5t-16 114.5q-143 -189 -385 -189q-172 0 -269.5 109t-97.5 288q0 256 151.5 426t382.5 170q246 0 321 -217l32 190h128l-128 -743 q-12 -65 18.5 -82t119.5 5zM509 94q143 0 249 90.5t140 237.5l10 56q3 44 3 66q0 137 -72.5 219t-200.5 82q-176 0 -290 -129t-114 -320q0 -137 72.5 -219.5t202.5 -82.5z" glyph-name="uni1EB3" horiz-adv-x="1286" unicode="ẳ"/><glyph d="M824 1985q-80 0 -95 -96h-106q15 90 76.5 145t140.5 55q61 0 126 -51t104 -51q75 0 94 93h106q-19 -92 -78.5 -145.5t-136.5 -53.5q-49 0 -88.5 25.5t-73 52t-69.5 26.5zM870 1580q114 0 169 120h106q-32 -99 -108 -160.5t-184 -61.5q-106 0 -164 59.5t-52 162.5h107 q2 -51 34 -85.5t92 -34.5zM754 1319h145l320 -1319h-139l-83 355h-676l-207 -355h-138zM396 483h570l-164 698z" glyph-name="uni1EB4" horiz-adv-x="1356" unicode="Ẵ"/><glyph d="M650 1604q-80 0 -95 -95h-106q15 90 76.5 144.5t140.5 54.5q61 0 126 -51t104 -51q75 0 94 94h106q-19 -92 -79 -146t-136 -54q-49 0 -88.5 26.5t-73 52t-69.5 25.5zM696 1200q114 0 169 119h106q-32 -99 -108 -160.5t-184 -61.5q-106 0 -164 60t-52 162h107 q2 -51 34 -85t92 -34zM1126 119l4 -105q-111 -39 -174 -25t-87 58.5t-16 114.5q-143 -189 -385 -189q-172 0 -269.5 109t-97.5 288q0 256 151.5 426t382.5 170q246 0 321 -217l32 190h128l-128 -743q-12 -65 18.5 -82t119.5 5zM509 94q143 0 249 90.5t140 237.5l10 56 q3 44 3 66q0 137 -72.5 219t-200.5 82q-176 0 -290 -129t-114 -320q0 -137 72.5 -219.5t202.5 -82.5z" glyph-name="uni1EB5" horiz-adv-x="1286" unicode="ẵ"/><glyph d="M853 1478q-106 0 -164 59.5t-52 162.5h107q2 -51 34.5 -85.5t91.5 -34.5q114 0 169 120h106q-32 -99 -108 -160.5t-184 -61.5zM1219 0h-139l-83 355h-676l-207 -355h-138l778 1319h145zM396 483h570l-164 698zM589 -152q34 0 55.5 -23t21.5 -59q0 -49 -32 -82.5 t-79 -33.5q-36 0 -57.5 21.5t-21.5 57.5q0 51 32.5 85t80.5 34z" glyph-name="uni1EB6" horiz-adv-x="1356" unicode="Ặ"/><glyph d="M679 1097q-106 0 -164 60t-52 162h107q2 -51 34.5 -85t91.5 -34q114 0 169 119h106q-32 -99 -108 -160.5t-184 -61.5zM1126 119l4 -105q-111 -39 -174 -25t-87 58.5t-16 114.5q-143 -189 -385 -189q-172 0 -269.5 109t-97.5 288q0 256 151.5 426t382.5 170 q246 0 321 -217l32 190h128l-128 -743q-12 -65 18.5 -82t119.5 5zM509 94q143 0 249 90.5t140 237.5l10 56q3 44 3 66q0 137 -72.5 219t-200.5 82q-176 0 -290 -129t-114 -320q0 -137 72.5 -219.5t202.5 -82.5zM485 -152q34 0 55 -23t21 -59q0 -49 -31.5 -82.5t-78.5 -33.5 q-36 0 -57.5 21.5t-21.5 57.5q0 51 32.5 85t80.5 34z" glyph-name="uni1EB7" horiz-adv-x="1286" unicode="ặ"/><glyph d="M1164 1195h-724l-78 -449h531l-23 -126h-530l-86 -495h724l-22 -125h-854l231 1319h853zM500 -152q34 0 55.5 -23t21.5 -59q0 -49 -31.5 -82.5t-79.5 -33.5q-36 0 -57.5 21.5t-21.5 57.5q0 51 32.5 85t80.5 34z" glyph-name="uni1EB8" horiz-adv-x="1155" unicode="Ẹ"/><glyph d="M503 87q99 0 193 44.5t149 95.5l68 -82q-82 -80 -196.5 -126t-233.5 -46q-167 0 -277 93t-110 280q0 259 171.5 439.5t415.5 180.5q135 0 221 -61.5t86 -170.5q0 -85 -37 -152.5t-102.5 -109.5t-139.5 -72t-167 -45t-166.5 -21t-153.5 -8q10 -123 88 -181t191 -58z M669 852q-174 0 -293.5 -119t-146.5 -288q75 0 146.5 5.5t165.5 23.5t163 45t117 78.5t48 117.5q0 60 -53 98.5t-147 38.5zM463 -152q34 0 55 -23t21 -59q0 -49 -31.5 -82.5t-79.5 -33.5q-36 0 -57 21.5t-21 57.5q0 51 32.5 85t80.5 34z" glyph-name="uni1EB9" horiz-adv-x="1078" unicode="ẹ"/><glyph d="M867 1720q-41 0 -99 -51l-48 58q82 89 178 89q68 2 103 -34t32 -94q-2 -22 -9 -44.5t-16.5 -39.5t-26.5 -38t-29 -33t-35 -31t-31.5 -26t-33 -24.5t-26.5 -19.5h-90q14 12 44.5 41t44 41.5t35.5 36.5t32.5 39.5t19 35t8.5 36.5q0 58 -53 58zM1164 1195h-724l-78 -449h531 l-23 -126h-530l-86 -495h724l-22 -125h-854l231 1319h853z" glyph-name="uni1EBA" horiz-adv-x="1155" unicode="Ẻ"/><glyph d="M788 1340q-41 0 -99 -51l-47 58q82 89 177 88q68 2 103 -34t32 -94q-2 -22 -8.5 -44t-16 -39t-26.5 -38.5t-29 -33.5t-35 -30.5t-31.5 -25.5t-33.5 -25t-26 -20h-91q14 12 44.5 41t44 42t36 37t32.5 39t18.5 35t8.5 37q0 58 -53 58zM503 87q99 0 193 44.5t149 95.5 l68 -82q-82 -80 -196.5 -126t-233.5 -46q-167 0 -277 93t-110 280q0 259 171.5 439.5t415.5 180.5q135 0 221 -61.5t86 -170.5q0 -85 -37 -152.5t-102.5 -109.5t-139.5 -72t-167 -45t-166.5 -21t-153.5 -8q10 -123 88 -181t191 -58zM669 852q-174 0 -293.5 -119t-146.5 -288 q75 0 146.5 5.5t165.5 23.5t163 45t117 78.5t48 117.5q0 60 -53 98.5t-147 38.5z" glyph-name="uni1EBB" horiz-adv-x="1078" unicode="ẻ"/><glyph d="M686 1604q-80 0 -95 -95h-106q15 90 76.5 144.5t139.5 54.5q61 0 126.5 -51t104.5 -51q75 0 94 94h106q-19 -92 -79 -146t-137 -54q-49 0 -88.5 26.5t-72.5 52t-69 25.5zM1164 1195h-724l-78 -449h531l-23 -126h-530l-86 -495h724l-22 -125h-854l231 1319h853z" glyph-name="uni1EBC" horiz-adv-x="1155" unicode="Ẽ"/><glyph d="M613 1224q-80 0 -96 -96h-106q15 90 77 145t140 55q61 0 126 -51.5t104 -51.5q75 0 94 94h106q-19 -92 -78.5 -145.5t-136.5 -53.5q-49 0 -88.5 25.5t-72.5 52t-69 26.5zM990 734q0 -85 -37 -152.5t-102.5 -109.5t-139.5 -72t-167 -45t-166.5 -21t-153.5 -8 q10 -123 88.5 -181t190.5 -58q99 0 193 44.5t149 95.5l68 -82q-82 -80 -196.5 -126t-233.5 -46q-167 0 -277 93t-110 280q0 259 171.5 439.5t415.5 180.5q135 0 221 -61.5t86 -170.5zM229 445q75 0 146.5 5.5t165.5 23.5t163 45t117 78.5t48 117.5q0 60 -53 98.5t-147 38.5 q-174 0 -293.5 -119t-146.5 -288z" glyph-name="uni1EBD" horiz-adv-x="1078" unicode="ẽ"/><glyph d="M1116 1976l-372 -158l-22 61l360 213zM812 1633l-175 -155l-57 60l205 201h92l132 -201l-79 -60zM1164 1195h-724l-78 -449h531l-23 -126h-530l-86 -495h724l-22 -125h-854l231 1319h853z" glyph-name="uni1EBE" horiz-adv-x="1155" unicode="Ế"/><glyph d="M1038 1596l-372 -159l-23 61l361 214zM734 1253l-176 -156l-56 60l205 202h92l131 -202l-78 -60zM990 734q0 -85 -37 -152.5t-102.5 -109.5t-139.5 -72t-167 -45t-166.5 -21t-153.5 -8q10 -123 88.5 -181t190.5 -58q99 0 193 44.5t149 95.5l68 -82q-82 -80 -196.5 -126 t-233.5 -46q-167 0 -277 93t-110 280q0 259 171.5 439.5t415.5 180.5q135 0 221 -61.5t86 -170.5zM229 445q75 0 146.5 5.5t165.5 23.5t163 45t117 78.5t48 117.5q0 60 -53 98.5t-147 38.5q-174 0 -293.5 -119t-146.5 -288z" glyph-name="uni1EBF" horiz-adv-x="1078" unicode="ế"/><glyph d="M983 1879l-43 -61l-319 158l77 116zM812 1633l-175 -155l-57 60l205 201h92l132 -201l-79 -60zM1164 1195h-724l-78 -449h531l-23 -126h-530l-86 -495h724l-22 -125h-854l231 1319h853z" glyph-name="uni1EC0" horiz-adv-x="1155" unicode="Ề"/><glyph d="M905 1498l-43 -61l-319 159l77 116zM734 1253l-176 -156l-56 60l205 202h92l131 -202l-78 -60zM503 87q99 0 193 44.5t149 95.5l68 -82q-82 -80 -196.5 -126t-233.5 -46q-167 0 -277 93t-110 280q0 259 171.5 439.5t415.5 180.5q135 0 221 -61.5t86 -170.5 q0 -85 -37 -152.5t-102.5 -109.5t-139.5 -72t-167 -45t-166.5 -21t-153.5 -8q10 -123 88 -181t191 -58zM669 852q-174 0 -293.5 -119t-146.5 -288q75 0 146.5 5.5t165.5 23.5t163 45t117 78.5t48 117.5q0 60 -53 98.5t-147 38.5z" glyph-name="uni1EC1" horiz-adv-x="1078" unicode="ề"/><glyph d="M932 2101q-41 0 -99 -51l-48 58q82 89 178 88q68 2 103 -33.5t31 -94.5q-2 -22 -8.5 -44t-16 -39t-26.5 -38.5t-29 -33.5t-35 -30.5t-31.5 -25.5t-33 -25t-26.5 -20h-91q14 12 45 41t44.5 42t35.5 37t32.5 39.5t19 35t8.5 36.5q0 58 -53 58zM812 1633l-175 -155l-57 60 l205 201h92l132 -201l-79 -60zM1164 1195h-724l-78 -449h531l-23 -126h-530l-86 -495h724l-22 -125h-854l231 1319h853z" glyph-name="uni1EC2" horiz-adv-x="1155" unicode="Ể"/><glyph d="M884 1816q68 2 103 -34t32 -94q-2 -22 -8.5 -44.5t-16 -39.5t-26.5 -38t-29 -33t-35 -31t-31.5 -26t-33.5 -24.5t-27 -19.5h-90q14 12 44.5 41t44 41.5t36 36.5t32.5 39.5t18.5 35t8.5 36.5q0 58 -53 58q-41 0 -99 -51l-47 58q81 89 177 89zM734 1253l-176 -156l-56 60 l205 202h92l131 -202l-78 -60zM990 734q0 -85 -37 -152.5t-102.5 -109.5t-139.5 -72t-167 -45t-166.5 -21t-153.5 -8q10 -123 88.5 -181t190.5 -58q99 0 193 44.5t149 95.5l68 -82q-82 -80 -196.5 -126t-233.5 -46q-167 0 -277 93t-110 280q0 259 171.5 439.5t415.5 180.5 q135 0 221 -61.5t86 -170.5zM229 445q75 0 146.5 5.5t165.5 23.5t163 45t117 78.5t48 117.5q0 60 -53 98.5t-147 38.5q-174 0 -293.5 -119t-146.5 -288z" glyph-name="uni1EC3" horiz-adv-x="1078" unicode="ể"/><glyph d="M756 1985q-80 0 -96 -96h-105q15 90 76.5 145t139.5 55q61 0 126.5 -51t104.5 -51q75 0 94 93h105q-19 -92 -78.5 -145.5t-136.5 -53.5q-49 0 -88.5 25.5t-72.5 52t-69 26.5zM785 1739h92l132 -201l-79 -60l-118 155l-175 -155l-57 60zM102 0l231 1319h853l-22 -124h-724 l-78 -449h531l-23 -126h-530l-86 -495h724l-22 -125h-854z" glyph-name="uni1EC4" horiz-adv-x="1155" unicode="Ễ"/><glyph d="M1017 1700h106q-19 -92 -78.5 -146t-136.5 -54q-49 0 -88.5 26.5t-73 52t-68.5 25.5q-80 0 -96 -95h-106q15 90 76.5 144.5t140.5 54.5q61 0 126 -51t104 -51q75 0 94 94zM852 1097l-118 156l-176 -156l-56 60l205 202h92l131 -202zM990 734q0 -85 -37 -152.5 t-102.5 -109.5t-139.5 -72t-167 -45t-166.5 -21t-153.5 -8q10 -123 88.5 -181t190.5 -58q99 0 193 44.5t149 95.5l68 -82q-82 -80 -196.5 -126t-233.5 -46q-167 0 -277 93t-110 280q0 259 171.5 439.5t415.5 180.5q135 0 221 -61.5t86 -170.5zM229 445q75 0 146.5 5.5 t165.5 23.5t163 45t117 78.5t48 117.5q0 60 -53 98.5t-147 38.5q-174 0 -293.5 -119t-146.5 -288z" glyph-name="uni1EC5" horiz-adv-x="1078" unicode="ễ"/><glyph d="M812 1633l-175 -155l-57 60l205 201h92l132 -201l-79 -60zM1164 1195h-724l-78 -449h531l-23 -126h-530l-86 -495h724l-22 -125h-854l231 1319h853zM500 -152q34 0 55.5 -23t21.5 -59q0 -49 -31.5 -82.5t-79.5 -33.5q-36 0 -57.5 21.5t-21.5 57.5q0 51 32.5 85t80.5 34z " glyph-name="uni1EC6" horiz-adv-x="1155" unicode="Ệ"/><glyph d="M734 1253l-176 -156l-56 60l205 202h92l131 -202l-78 -60zM503 87q99 0 193 44.5t149 95.5l68 -82q-82 -80 -196.5 -126t-233.5 -46q-167 0 -277 93t-110 280q0 259 171.5 439.5t415.5 180.5q135 0 221 -61.5t86 -170.5q0 -85 -37 -152.5t-102.5 -109.5t-139.5 -72 t-167 -45t-166.5 -21t-153.5 -8q10 -123 88 -181t191 -58zM669 852q-174 0 -293.5 -119t-146.5 -288q75 0 146.5 5.5t165.5 23.5t163 45t117 78.5t48 117.5q0 60 -53 98.5t-147 38.5zM463 -152q34 0 55 -23t21 -59q0 -49 -31.5 -82.5t-79.5 -33.5q-36 0 -57 21.5t-21 57.5 q0 51 32.5 85t80.5 34z" glyph-name="uni1EC7" horiz-adv-x="1078" unicode="ệ"/><glyph d="M464 1432h-90q14 12 44.5 41t44 41.5t36 36.5t32.5 39.5t18.5 35t8.5 36.5q0 58 -53 58q-41 0 -99 -51l-48 58q82 89 178 89q68 2 103 -34t32 -94q-2 -22 -9 -44.5t-16 -39.5t-26.5 -38t-29 -33t-35 -31t-32 -26t-33 -24.5t-26.5 -19.5zM234 0h-132l231 1319h131z" glyph-name="uni1EC8" horiz-adv-x="496" unicode="Ỉ"/><glyph d="M413 1051h-90q14 12 44.5 41t44 42t35.5 37t32.5 39t19 35t8.5 37q0 58 -53 58q-41 0 -99 -51l-48 58q82 89 178 88q68 2 103 -34t32 -94q-2 -22 -9 -44t-16.5 -39t-26.5 -38.5t-29 -33.5t-35 -30.5t-31.5 -25.5t-33 -25t-26.5 -20zM422 119l3 -105q-116 -43 -180 -25 t-85.5 66.5t-9.5 123.5l133 760h128l-128 -743q-12 -65 19 -82t120 5z" glyph-name="uni1EC9" horiz-adv-x="508" unicode="ỉ"/><glyph d="M234 0h-132l231 1319h131zM145 -152q34 0 55.5 -23t21.5 -59q0 -49 -31.5 -82.5t-79.5 -33.5q-36 0 -57.5 21.5t-21.5 57.5q0 51 32.5 85t80.5 34z" glyph-name="uni1ECA" horiz-adv-x="496" unicode="Ị"/><glyph d="M403 1468q41 0 65 -25t24 -64q0 -55 -37 -92.5t-90 -37.5q-39 0 -61 24t-22 65q0 58 34 94t87 36zM396 119l3 -105q-116 -43 -180 -25t-85 66.5t-9 123.5l133 760h128l-128 -743q-12 -65 18.5 -82t119.5 5zM207 -152q34 0 55 -23t21 -59q0 -49 -31.5 -82.5t-79.5 -33.5 q-36 0 -57 21.5t-21 57.5q0 51 32.5 85t80.5 34z" glyph-name="uni1ECB" horiz-adv-x="556" unicode="ị"/><glyph d="M916 1352q247 0 389 -154.5t142 -409.5q0 -348 -221.5 -584t-551.5 -236q-247 0 -389 156t-142 407q0 348 222 584.5t551 236.5zM894 1225q-265 0 -442 -192.5t-177 -482.5q0 -205 111.5 -329.5t309.5 -124.5q266 0 443 192.5t177 477.5q0 207 -113 333t-309 126z M654 -152q34 0 55 -23t21 -59q0 -49 -31.5 -82.5t-78.5 -33.5q-36 0 -57.5 21.5t-21.5 57.5q0 51 32.5 85t80.5 34z" glyph-name="uni1ECC" horiz-adv-x="1525" unicode="Ọ"/><glyph d="M681 966q186 0 295 -112t109 -296q0 -246 -163 -415.5t-415 -169.5q-188 0 -296.5 112.5t-108.5 295.5q0 253 166 419t413 166zM660 845q-184 0 -304 -129t-120 -317q0 -137 76.5 -221t214.5 -84q183 0 303.5 129t120.5 316q0 137 -77 221.5t-214 84.5zM486 -152 q34 0 55.5 -23t21.5 -59q0 -49 -31.5 -82.5t-79.5 -33.5q-36 0 -57 21.5t-21 57.5q0 51 32 85t80 34z" glyph-name="uni1ECD" horiz-adv-x="1187" unicode="ọ"/><glyph d="M978 1432h-91q14 12 45 41t44.5 41.5t35.5 36.5t32.5 39.5t19 35t8.5 36.5q0 58 -53 58q-41 0 -99 -51l-48 58q82 89 178 89q68 2 103 -34t31 -94q-2 -22 -8.5 -44.5t-16 -39.5t-26.5 -38t-29 -33t-35 -31t-31.5 -26t-33 -24.5t-26.5 -19.5zM916 1352q247 0 389 -154.5 t142 -409.5q0 -348 -221.5 -584t-551.5 -236q-247 0 -389 156t-142 407q0 348 222 584.5t551 236.5zM894 1225q-265 0 -442 -192.5t-177 -482.5q0 -205 111.5 -329.5t309.5 -124.5q266 0 443 192.5t177 477.5q0 207 -113 333t-309 126z" glyph-name="uni1ECE" horiz-adv-x="1525" unicode="Ỏ"/><glyph d="M746 1051h-91q14 12 44.5 41t44.5 42t36 37t32.5 39t19 35t8.5 37q0 58 -53 58q-41 0 -99 -51l-48 58q82 89 177 88q68 2 103.5 -34t31.5 -94q-2 -22 -8.5 -44t-16 -39t-26.5 -38.5t-29 -33.5t-35 -30.5t-31.5 -25.5t-33 -25t-26.5 -20zM681 966q186 0 295 -112t109 -296 q0 -246 -163 -415.5t-415 -169.5q-188 0 -296.5 112.5t-108.5 295.5q0 253 166 419t413 166zM660 845q-184 0 -304 -129t-120 -317q0 -137 76.5 -221t214.5 -84q183 0 303.5 129t120.5 316q0 137 -77 221.5t-214 84.5z" glyph-name="uni1ECF" horiz-adv-x="1187" unicode="ỏ"/><glyph d="M896 1818l-22 61l360 213l34 -116zM937 1739h92l132 -201l-79 -60l-118 155l-176 -155l-56 60zM916 1352q247 0 389 -154.5t142 -409.5q0 -348 -221.5 -584t-551.5 -236q-247 0 -389 156t-142 407q0 348 222 584.5t551 236.5zM894 1225q-265 0 -442 -192.5t-177 -482.5 q0 -205 111.5 -329.5t309.5 -124.5q266 0 443 192.5t177 477.5q0 207 -113 333t-309 126z" glyph-name="uni1ED0" horiz-adv-x="1525" unicode="Ố"/><glyph d="M664 1437l-22 61l360 214l34 -116zM705 1359h92l131 -202l-78 -60l-118 156l-176 -156l-56 60zM681 966q186 0 295 -112t109 -296q0 -246 -163 -415.5t-415 -169.5q-188 0 -296.5 112.5t-108.5 295.5q0 253 166 419t413 166zM660 845q-184 0 -304 -129t-120 -317 q0 -137 76.5 -221t214.5 -84q183 0 303.5 129t120.5 316q0 137 -77 221.5t-214 84.5z" glyph-name="uni1ED1" horiz-adv-x="1187" unicode="ố"/><glyph d="M1092 1818l-319 158l77 116l285 -213zM937 1739h92l132 -201l-79 -60l-118 155l-176 -155l-56 60zM916 1352q247 0 389 -154.5t142 -409.5q0 -348 -221.5 -584t-551.5 -236q-247 0 -389 156t-142 407q0 348 222 584.5t551 236.5zM894 1225q-265 0 -442 -192.5 t-177 -482.5q0 -205 111.5 -329.5t309.5 -124.5q266 0 443 192.5t177 477.5q0 207 -113 333t-309 126z" glyph-name="uni1ED2" horiz-adv-x="1525" unicode="Ồ"/><glyph d="M860 1437l-319 159l77 116l285 -214zM705 1359h92l131 -202l-78 -60l-118 156l-176 -156l-56 60zM681 966q186 0 295 -112t109 -296q0 -246 -163 -415.5t-415 -169.5q-188 0 -296.5 112.5t-108.5 295.5q0 253 166 419t413 166zM660 845q-184 0 -304 -129t-120 -317 q0 -137 76.5 -221t214.5 -84q183 0 303.5 129t120.5 316q0 137 -77 221.5t-214 84.5z" glyph-name="uni1ED3" horiz-adv-x="1187" unicode="ồ"/><glyph d="M1043 1812h-91q14 12 44.5 41t44.5 42t36 37t32.5 39.5t19 35t8.5 36.5q0 58 -53 58q-41 0 -99 -51l-48 58q82 89 177 88q68 2 103.5 -33.5t31.5 -94.5q-2 -22 -8.5 -44t-16 -39t-26.5 -38.5t-29 -33.5t-35 -30.5t-31.5 -25.5t-33 -25t-26.5 -20zM937 1739h92l132 -201 l-79 -60l-118 155l-176 -155l-56 60zM916 1352q247 0 389 -154.5t142 -409.5q0 -348 -221.5 -584t-551.5 -236q-247 0 -389 156t-142 407q0 348 222 584.5t551 236.5zM894 1225q-265 0 -442 -192.5t-177 -482.5q0 -205 111.5 -329.5t309.5 -124.5q266 0 443 192.5t177 477.5 q0 207 -113 333t-309 126z" glyph-name="uni1ED4" horiz-adv-x="1525" unicode="Ổ"/><glyph d="M811 1432h-91q14 12 44.5 41t44.5 41.5t36 36.5t32 39.5t19 35t9 36.5q0 58 -53 58q-41 0 -99 -51l-48 58q82 89 177 89q68 2 103.5 -34t31.5 -94q-2 -22 -8.5 -44.5t-16 -39.5t-26.5 -38t-29 -33t-35 -31t-31.5 -26t-33 -24.5t-26.5 -19.5zM705 1359h92l131 -202 l-78 -60l-118 156l-176 -156l-56 60zM681 966q186 0 295 -112t109 -296q0 -246 -163 -415.5t-415 -169.5q-188 0 -296.5 112.5t-108.5 295.5q0 253 166 419t413 166zM660 845q-184 0 -304 -129t-120 -317q0 -137 76.5 -221t214.5 -84q183 0 303.5 129t120.5 316 q0 137 -77 221.5t-214 84.5z" glyph-name="uni1ED5" horiz-adv-x="1187" unicode="ổ"/><glyph d="M812 1889h-105q15 90 76.5 145t139.5 55q61 0 126 -51t105 -51q75 0 94 93h105q-19 -92 -78.5 -145.5t-136.5 -53.5q-49 0 -88.5 25.5t-72.5 52t-69 26.5q-81 0 -96 -96zM937 1739h92l132 -201l-79 -60l-118 155l-176 -155l-56 60zM916 1352q247 0 389 -154.5t142 -409.5 q0 -348 -221.5 -584t-551.5 -236q-247 0 -389 156t-142 407q0 348 222 584.5t551 236.5zM894 1225q-265 0 -442 -192.5t-177 -482.5q0 -205 111.5 -329.5t309.5 -124.5q266 0 443 192.5t177 477.5q0 207 -113 333t-309 126z" glyph-name="uni1ED6" horiz-adv-x="1525" unicode="Ỗ"/><glyph d="M580 1509h-106q15 90 77 144.5t140 54.5q61 0 126 -51t105 -51q75 0 93 94h106q-19 -92 -78.5 -146t-136.5 -54q-49 0 -88.5 26.5t-72.5 52t-69 25.5q-81 1 -96 -95zM705 1359h92l131 -202l-78 -60l-118 156l-176 -156l-56 60zM681 966q186 0 295 -112t109 -296 q0 -246 -163 -415.5t-415 -169.5q-188 0 -296.5 112.5t-108.5 295.5q0 253 166 419t413 166zM660 845q-184 0 -304 -129t-120 -317q0 -137 76.5 -221t214.5 -84q183 0 303.5 129t120.5 316q0 137 -77 221.5t-214 84.5z" glyph-name="uni1ED7" horiz-adv-x="1187" unicode="ỗ"/><glyph d="M937 1739h92l132 -201l-79 -60l-118 155l-176 -155l-56 60zM916 1352q247 0 389 -154.5t142 -409.5q0 -348 -221.5 -584t-551.5 -236q-247 0 -389 156t-142 407q0 348 222 584.5t551 236.5zM894 1225q-265 0 -442 -192.5t-177 -482.5q0 -205 111.5 -329.5t309.5 -124.5 q266 0 443 192.5t177 477.5q0 207 -113 333t-309 126zM654 -152q34 0 55 -23t21 -59q0 -49 -31.5 -82.5t-78.5 -33.5q-36 0 -57.5 21.5t-21.5 57.5q0 51 32.5 85t80.5 34z" glyph-name="uni1ED8" horiz-adv-x="1525" unicode="Ộ"/><glyph d="M705 1359h92l131 -202l-78 -60l-118 156l-176 -156l-56 60zM681 966q186 0 295 -112t109 -296q0 -246 -163 -415.5t-415 -169.5q-188 0 -296.5 112.5t-108.5 295.5q0 253 166 419t413 166zM660 845q-184 0 -304 -129t-120 -317q0 -137 76.5 -221t214.5 -84 q183 0 303.5 129t120.5 316q0 137 -77 221.5t-214 84.5zM486 -152q34 0 55.5 -23t21.5 -59q0 -49 -31.5 -82.5t-79.5 -33.5q-36 0 -57 21.5t-21 57.5q0 51 32 85t80 34z" glyph-name="uni1ED9" horiz-adv-x="1187" unicode="ộ"/><glyph d="M1200 1596l-372 -159l-22 61l360 214zM1526 1468q-5 -118 -51.5 -177t-160.5 -59h-46q179 -154 179 -444q0 -348 -221.5 -584t-551.5 -236q-247 0 -389 156t-142 407q0 348 221 583.5t551 237.5h3h2q56 0 118.5 -1t138.5 -2.5t118 -1.5q63 0 88 27t25 94h118zM1316 766 q0 207 -112.5 333t-309.5 126q-265 0 -442 -192.5t-177 -482.5q0 -205 111.5 -329.5t309.5 -124.5q266 0 443 192.5t177 477.5z" glyph-name="uni1EDA" horiz-adv-x="1515" unicode="Ớ"/><glyph d="M968 1215l-372 -159l-23 62l361 213zM1208 1087q-3 -118 -52.5 -178.5t-174.5 -53.5h-6q109 -113 109 -297q0 -246 -162.5 -415.5t-414.5 -169.5q-188 0 -297 112.5t-109 295.5q0 253 166 419t414 166q43 0 299 -3q63 0 87.5 29t23.5 95h117zM527 94q183 0 302.5 129 t119.5 316q0 137 -77 221.5t-213 84.5q-184 0 -304.5 -129t-120.5 -317q0 -137 77.5 -221t215.5 -84z" glyph-name="uni1EDB" horiz-adv-x="1182" unicode="ớ"/><glyph d="M1067 1498l-43 -61l-319 159l77 116zM1526 1468q-5 -118 -51.5 -177t-160.5 -59h-46q179 -154 179 -444q0 -348 -221.5 -584t-551.5 -236q-247 0 -389 156t-142 407q0 348 221 583.5t551 237.5h3h2q56 0 118.5 -1t138.5 -2.5t118 -1.5q63 0 88 27t25 94h118zM1316 766 q0 207 -112.5 333t-309.5 126q-265 0 -442 -192.5t-177 -482.5q0 -205 111.5 -329.5t309.5 -124.5q266 0 443 192.5t177 477.5z" glyph-name="uni1EDC" horiz-adv-x="1515" unicode="Ờ"/><glyph d="M835 1118l-43 -62l-319 159l77 116zM1208 1087q-3 -118 -52.5 -178.5t-174.5 -53.5h-6q109 -113 109 -297q0 -246 -162.5 -415.5t-414.5 -169.5q-188 0 -297 112.5t-109 295.5q0 253 166 419t414 166q43 0 299 -3q63 0 87.5 29t23.5 95h117zM527 94q183 0 302.5 129 t119.5 316q0 137 -77 221.5t-213 84.5q-184 0 -304.5 -129t-120.5 -317q0 -137 77.5 -221t215.5 -84z" glyph-name="uni1EDD" horiz-adv-x="1182" unicode="ờ"/><glyph d="M1015 1720q-41 0 -99 -51l-47 58q82 89 177 89q68 2 103 -34t32 -94q-2 -22 -8.5 -44.5t-16 -39.5t-26.5 -38t-29 -33t-35 -31t-31.5 -26t-33.5 -24.5t-26 -19.5h-91q14 12 44.5 41t44 41.5t36 36.5t32.5 39.5t18.5 35t8.5 36.5q0 58 -53 58zM1526 1468 q-5 -118 -51.5 -177t-160.5 -59h-46q179 -154 179 -444q0 -348 -221.5 -584t-551.5 -236q-247 0 -389 156t-142 407q0 348 221 583.5t551 237.5h3h2q56 0 118.5 -1t138.5 -2.5t118 -1.5q63 0 88 27t25 94h118zM1316 766q0 207 -112.5 333t-309.5 126q-265 0 -442 -192.5 t-177 -482.5q0 -205 111.5 -329.5t309.5 -124.5q266 0 443 192.5t177 477.5z" glyph-name="uni1EDE" horiz-adv-x="1515" unicode="Ở"/><glyph d="M783 1340q-41 0 -99 -51l-47 58q82 89 177 88q68 2 103 -34t32 -94q-2 -22 -8.5 -44t-16 -39t-26.5 -38.5t-29 -33.5t-35 -30.5t-31.5 -25.5t-33.5 -25t-27 -20h-90q14 12 44.5 41t44 42t36 37t32.5 39t18.5 35t8.5 37q0 58 -53 58zM1208 1087q-3 -118 -52.5 -178.5 t-174.5 -53.5h-6q109 -113 109 -297q0 -246 -162.5 -415.5t-414.5 -169.5q-188 0 -297 112.5t-109 295.5q0 253 166 419t414 166q43 0 299 -3q63 0 87.5 29t23.5 95h117zM527 94q183 0 302.5 129t119.5 316q0 137 -77 221.5t-213 84.5q-184 0 -304.5 -129t-120.5 -317 q0 -137 77.5 -221t215.5 -84z" glyph-name="uni1EDF" horiz-adv-x="1182" unicode="ở"/><glyph d="M840 1604q-80 0 -96 -95h-106q15 90 77 144.5t140 54.5q61 0 126 -51t104 -51q75 0 94 94h106q-19 -92 -78.5 -146t-136.5 -54q-49 0 -88.5 26.5t-72.5 52t-69 25.5zM1526 1468q-5 -118 -51.5 -177t-160.5 -59h-46q179 -154 179 -444q0 -348 -221.5 -584t-551.5 -236 q-247 0 -389 156t-142 407q0 348 221 583.5t551 237.5h3h2q56 0 118.5 -1t138.5 -2.5t118 -1.5q63 0 88 27t25 94h118zM1316 766q0 207 -112.5 333t-309.5 126q-265 0 -442 -192.5t-177 -482.5q0 -205 111.5 -329.5t309.5 -124.5q266 0 443 192.5t177 477.5z" glyph-name="uni1EE0" horiz-adv-x="1515" unicode="Ỡ"/><glyph d="M608 1224q-80 0 -96 -96h-106q15 90 76.5 145t140.5 55q61 0 126 -51.5t104 -51.5q75 0 94 94h106q-19 -92 -78.5 -145.5t-136.5 -53.5q-49 0 -88.5 25.5t-72.5 52t-69 26.5zM1208 1087q-3 -118 -52.5 -178.5t-174.5 -53.5h-6q109 -113 109 -297q0 -246 -162.5 -415.5 t-414.5 -169.5q-188 0 -297 112.5t-109 295.5q0 253 166 419t414 166q43 0 299 -3q63 0 87.5 29t23.5 95h117zM527 94q183 0 302.5 129t119.5 316q0 137 -77 221.5t-213 84.5q-184 0 -304.5 -129t-120.5 -317q0 -137 77.5 -221t215.5 -84z" glyph-name="uni1EE1" horiz-adv-x="1182" unicode="ỡ"/><glyph d="M1526 1468q-5 -118 -51.5 -177t-160.5 -59h-46q179 -154 179 -444q0 -348 -221.5 -584t-551.5 -236q-247 0 -389 156t-142 407q0 348 221 583.5t551 237.5h3h2q56 0 118.5 -1t138.5 -2.5t118 -1.5q63 0 88 27t25 94h118zM1316 766q0 207 -112.5 333t-309.5 126 q-265 0 -442 -192.5t-177 -482.5q0 -205 111.5 -329.5t309.5 -124.5q266 0 443 192.5t177 477.5zM654 -152q34 0 55 -23t21 -59q0 -49 -31.5 -82.5t-78.5 -33.5q-36 0 -57.5 21.5t-21.5 57.5q0 51 32.5 85t80.5 34z" glyph-name="uni1EE2" horiz-adv-x="1515" unicode="Ợ"/><glyph d="M1208 1087q-3 -118 -52.5 -178.5t-174.5 -53.5h-6q109 -113 109 -297q0 -246 -162.5 -415.5t-414.5 -169.5q-188 0 -297 112.5t-109 295.5q0 253 166 419t414 166q43 0 299 -3q63 0 87.5 29t23.5 95h117zM527 94q183 0 302.5 129t119.5 316q0 137 -77 221.5t-213 84.5 q-184 0 -304.5 -129t-120.5 -317q0 -137 77.5 -221t215.5 -84zM486 -152q34 0 55.5 -23t21.5 -59q0 -49 -31.5 -82.5t-79.5 -33.5q-36 0 -57 21.5t-21 57.5q0 51 32 85t80 34z" glyph-name="uni1EE3" horiz-adv-x="1182" unicode="ợ"/><glyph d="M1410 1319l-133 -763q-46 -265 -221 -426t-426 -161t-368 161.5t-71 425.5l133 763h132l-133 -756q-38 -218 51.5 -346t275.5 -128q184 0 321 126t174 348l133 756h132zM611 -152q34 0 55.5 -23t21.5 -59q0 -49 -31.5 -82.5t-79.5 -33.5q-36 0 -57.5 21.5t-21.5 57.5 q0 51 32.5 85t80.5 34z" glyph-name="uni1EE4" horiz-adv-x="1437" unicode="Ụ"/><glyph d="M911 939h133l-163 -939h-110l4 169q-164 -196 -365 -196q-340 0 -272 409l98 557h133l-96 -553q-26 -142 18.5 -210t160.5 -68q186 0 357 256zM427 -152q34 0 55 -23t21 -59q0 -49 -31.5 -82.5t-78.5 -33.5q-36 0 -57.5 21.5t-21.5 57.5q0 51 32.5 85t80.5 34z" glyph-name="uni1EE5" unicode="ụ"/><glyph d="M939 1432h-91q14 12 44.5 41t44.5 41.5t36 36.5t32 39.5t19 35t9 36.5q0 58 -53 58q-41 0 -99 -51l-48 58q82 89 177 89q68 2 103.5 -34t31.5 -94q-2 -22 -8.5 -44.5t-16 -39.5t-26.5 -38t-29 -33t-35 -31t-31.5 -26t-33 -24.5t-26.5 -19.5zM1410 1319l-133 -763 q-46 -265 -221 -426t-426 -161t-368 161.5t-71 425.5l133 763h132l-133 -756q-38 -218 51.5 -346t275.5 -128q184 0 321 126t174 348l133 756h132z" glyph-name="uni1EE6" horiz-adv-x="1437" unicode="Ủ"/><glyph d="M759 1340q-41 0 -99 -51l-47 58q82 89 177 88q68 2 103 -34t32 -94q-2 -22 -8.5 -44t-16 -39t-26.5 -38.5t-29 -33.5t-35 -30.5t-31.5 -25.5t-33.5 -25t-26 -20h-91q14 12 44.5 41t44 42t36 37t32.5 39t18.5 35t8.5 37q0 58 -53 58zM911 939h133l-163 -939h-110l4 169 q-164 -196 -365 -196q-340 0 -272 409l98 557h133l-96 -553q-26 -142 18.5 -210t160.5 -68q186 0 357 256z" glyph-name="uni1EE7" unicode="ủ"/><glyph d="M1154 1596l-372 -159l-23 61l361 214zM1548 1446h118q-7 -116 -54 -177t-163 -61h-67l-112 -648q-48 -265 -222 -426t-425 -161q-253 0 -369.5 161t-70.5 426l133 759h133l-133 -752q-38 -218 51.5 -346.5t275.5 -128.5q184 0 321 126.5t174 348.5l133 752h164 q61 -2 87 29t26 98z" glyph-name="uni1EE8" horiz-adv-x="1448" unicode="Ứ"/><glyph d="M951 1215l-372 -159l-23 62l360 213zM1152 1065h118q-7 -116 -55 -176.5t-164 -60.5h-27l-145 -828h-109l5 169q-164 -196 -367 -196q-341 0 -270 409l98 557h133l-98 -553q-24 -142 20 -210t160 -68q184 0 358 256l102 575h132q60 0 84.5 29.5t24.5 96.5z" glyph-name="uni1EE9" horiz-adv-x="1191" unicode="ứ"/><glyph d="M1021 1498l-43 -61l-319 159l77 116zM1548 1446h118q-7 -116 -54 -177t-163 -61h-67l-112 -648q-48 -265 -222 -426t-425 -161q-253 0 -369.5 161t-70.5 426l133 759h133l-133 -752q-38 -218 51.5 -346.5t275.5 -128.5q184 0 321 126.5t174 348.5l133 752h164 q61 -2 87 29t26 98z" glyph-name="uni1EEA" horiz-adv-x="1448" unicode="Ừ"/><glyph d="M817 1118l-42 -62l-319 159l76 116zM1152 1065h118q-7 -116 -55 -176.5t-164 -60.5h-27l-145 -828h-109l5 169q-164 -196 -367 -196q-341 0 -270 409l98 557h133l-98 -553q-24 -142 20 -210t160 -68q184 0 358 256l102 575h132q60 0 84.5 29.5t24.5 96.5z" glyph-name="uni1EEB" horiz-adv-x="1191" unicode="ừ"/><glyph d="M969 1720q-41 0 -99 -51l-47 58q82 89 177 89q68 2 103 -34t32 -94q-2 -22 -8.5 -44.5t-16 -39.5t-26.5 -38t-29 -33t-35 -31t-31.5 -26t-33.5 -24.5t-27 -19.5h-90q14 12 44.5 41t44 41.5t36 36.5t32.5 39.5t18.5 35t8.5 36.5q0 58 -53 58zM1548 1446h118 q-7 -116 -54 -177t-163 -61h-67l-112 -648q-48 -265 -222 -426t-425 -161q-253 0 -369.5 161t-70.5 426l133 759h133l-133 -752q-38 -218 51.5 -346.5t275.5 -128.5q184 0 321 126.5t174 348.5l133 752h164q61 -2 87 29t26 98z" glyph-name="uni1EEC" horiz-adv-x="1448" unicode="Ử"/><glyph d="M766 1340q-41 0 -99 -51l-47 58q82 89 177 88q68 2 103 -34t32 -94q-2 -22 -9 -44t-16 -39t-26 -38.5t-29 -33.5t-35 -30.5t-31.5 -25.5t-33.5 -25t-27 -20h-90q14 12 44.5 41t44 42t36 37t32.5 39t18.5 35t8.5 37q0 58 -53 58zM1152 1065h118q-7 -116 -55 -176.5 t-164 -60.5h-27l-145 -828h-109l5 169q-164 -196 -367 -196q-341 0 -270 409l98 557h133l-98 -553q-24 -142 20 -210t160 -68q184 0 358 256l102 575h132q60 0 84.5 29.5t24.5 96.5z" glyph-name="uni1EED" horiz-adv-x="1191" unicode="ử"/><glyph d="M794 1604q-80 0 -96 -95h-106q15 90 76.5 144.5t140.5 54.5q61 0 126 -51t104 -51q75 0 94 94h106q-19 -92 -78.5 -146t-136.5 -54q-49 0 -88.5 26.5t-72.5 52t-69 25.5zM1548 1446h118q-7 -116 -54 -177t-163 -61h-67l-112 -648q-48 -265 -222 -426t-425 -161 q-253 0 -369.5 161t-70.5 426l133 759h133l-133 -752q-38 -218 51.5 -346.5t275.5 -128.5q184 0 321 126.5t174 348.5l133 752h164q61 -2 87 29t26 98z" glyph-name="uni1EEE" horiz-adv-x="1448" unicode="Ữ"/><glyph d="M591 1224q-80 0 -96 -96h-106q15 90 76.5 145t140.5 55q61 0 126 -51.5t104 -51.5q75 0 94 94h106q-19 -92 -78.5 -145.5t-136.5 -53.5q-49 0 -88.5 25.5t-72.5 52t-69 26.5zM1152 1065h118q-7 -116 -55 -176.5t-164 -60.5h-27l-145 -828h-109l5 169q-164 -196 -367 -196 q-341 0 -270 409l98 557h133l-98 -553q-24 -142 20 -210t160 -68q184 0 358 256l102 575h132q60 0 84.5 29.5t24.5 96.5z" glyph-name="uni1EEF" horiz-adv-x="1191" unicode="ữ"/><glyph d="M1548 1446h118q-7 -116 -54 -177t-163 -61h-67l-112 -648q-48 -265 -222 -426t-425 -161q-253 0 -369.5 161t-70.5 426l133 759h133l-133 -752q-38 -218 51.5 -346.5t275.5 -128.5q184 0 321 126.5t174 348.5l133 752h164q61 -2 87 29t26 98zM602 -152q34 0 55.5 -23 t21.5 -59q0 -49 -31.5 -82.5t-79.5 -33.5q-36 0 -57 21.5t-21 57.5q0 51 32 85t80 34z" glyph-name="uni1EF0" horiz-adv-x="1448" unicode="Ự"/><glyph d="M1152 1065h118q-7 -116 -55 -176.5t-164 -60.5h-27l-145 -828h-109l5 169q-164 -196 -367 -196q-341 0 -270 409l98 557h133l-98 -553q-24 -142 20 -210t160 -68q184 0 358 256l102 575h132q60 0 84.5 29.5t24.5 96.5zM391 -152q34 0 55.5 -23t21.5 -59q0 -49 -32 -82.5 t-79 -33.5q-36 0 -57.5 21.5t-21.5 57.5q0 51 32.5 85t80.5 34z" glyph-name="uni1EF1" horiz-adv-x="1191" unicode="ự"/><glyph d="M922 1497l-43 -62l-319 159l77 116zM1326 1319l-645 -848l-82 -471h-133l82 473l-345 846h147l285 -734l543 734h148z" glyph-name="Ygrave" horiz-adv-x="1228" unicode="Ỳ"/><glyph d="M806 1118l-43 -62l-319 159l77 116zM944 939h133l-159 -907q-41 -239 -191 -391.5t-382 -152.5q-128 0 -222 53t-143 143l114 75q80 -148 268 -148q164 0 278 115t148 312l24 134q-164 -200 -367 -199q-340 0 -271 409l97 557h132l-98 -553q-48 -278 183 -278 q188 0 357 257z" glyph-name="ygrave" horiz-adv-x="1157" unicode="ỳ"/><glyph d="M1326 1319l-645 -848l-82 -471h-133l82 473l-345 846h147l285 -734l543 734h148zM507 -152q34 0 55.5 -23t21.5 -59q0 -49 -31.5 -82.5t-79.5 -33.5q-36 0 -57.5 21.5t-21.5 57.5q0 51 32.5 85t80.5 34z" glyph-name="uni1EF4" horiz-adv-x="1228" unicode="Ỵ"/><glyph d="M944 939h133l-159 -907q-41 -239 -191 -391.5t-382 -152.5q-128 0 -222 53t-143 143l114 75q80 -148 268 -148q164 0 278 115t148 312l24 134q-164 -200 -367 -199q-340 0 -271 409l97 557h132l-98 -553q-48 -278 183 -278q188 0 357 257zM364 -664q34 0 55 -23t21 -59 q0 -49 -31.5 -82.5t-79.5 -33.5q-36 0 -57 21.5t-21 57.5q0 51 32.5 85t80.5 34z" glyph-name="uni1EF5" horiz-adv-x="1157" unicode="ỵ"/><glyph d="M870 1719q-41 0 -99 -52l-47 58q82 89 177 89q68 2 103 -34t32 -94q-2 -22 -8.5 -44t-16 -39.5t-26.5 -38.5t-29 -33t-35 -31t-31.5 -25.5t-33.5 -24.5t-27 -20h-90q14 12 44.5 41t44 42t36 37t32.5 39t18.5 35t8.5 37q0 58 -53 58zM1326 1319l-645 -848l-82 -471h-133 l82 473l-345 846h147l285 -734l543 734h148z" glyph-name="uni1EF6" horiz-adv-x="1228" unicode="Ỷ"/><glyph d="M754 1340q-41 0 -99 -51l-47 58q82 89 177 88q68 2 103 -34t32 -94q-2 -22 -8.5 -44t-16 -39t-26.5 -38.5t-29 -33.5t-35 -30.5t-31.5 -25.5t-33.5 -25t-27 -20h-90q14 12 44.5 41t44 42t36 37t32.5 39t18.5 35t8.5 37q0 58 -53 58zM944 939h133l-159 -907 q-41 -239 -191 -391.5t-382 -152.5q-128 0 -222 53t-143 143l114 75q80 -148 268 -148q164 0 278 115t148 312l24 134q-164 -200 -367 -199q-340 0 -271 409l97 557h132l-98 -553q-48 -278 183 -278q188 0 357 257z" glyph-name="uni1EF7" horiz-adv-x="1157" unicode="ỷ"/><glyph d="M689 1603q-80 0 -95 -96h-106q15 90 76.5 145t140.5 55q61 0 126 -51.5t104 -51.5q75 0 94 94h106q-19 -92 -78.5 -146t-136.5 -54q-49 0 -88.5 26t-73 52.5t-69.5 26.5zM1326 1319l-645 -848l-82 -471h-133l82 473l-345 846h147l285 -734l543 734h148z" glyph-name="uni1EF8" horiz-adv-x="1228" unicode="Ỹ"/><glyph d="M579 1224q-80 0 -96 -96h-106q15 90 76.5 145t140.5 55q61 0 126 -51.5t104 -51.5q75 0 94 94h106q-19 -92 -78.5 -145.5t-136.5 -53.5q-49 0 -88.5 25.5t-72.5 52t-69 26.5zM944 939h133l-159 -907q-41 -239 -191 -391.5t-382 -152.5q-128 0 -222 53t-143 143l114 75 q80 -148 268 -148q164 0 278 115t148 312l24 134q-164 -200 -367 -199q-340 0 -271 409l97 557h132l-98 -553q-48 -278 183 -278q188 0 357 257z" glyph-name="uni1EF9" horiz-adv-x="1157" unicode="ỹ"/><glyph glyph-name="uni2009" horiz-adv-x="281" unicode=" "/><glyph d="M923 669l-22 -116h-771l24 116h769z" glyph-name="endash" horiz-adv-x="1005" unicode="–"/><glyph d="M1632 671l-23 -118h-1479l24 118h1478z" glyph-name="emdash" horiz-adv-x="1713" unicode="—"/><glyph d="M340 1022q-90 0 -91 104q0 87 57.5 177t164.5 165q5 -7 38 -46q-133 -104 -149 -181q14 3 29 3q38 0 60 -24.5t22 -65.5q0 -55 -37.5 -93.5t-93.5 -38.5z" glyph-name="quoteleft" horiz-adv-x="442" unicode="‘"/><glyph d="M326 1468q89 0 89 -104q0 -87 -56.5 -177t-165.5 -165l-38 46q128 101 149 181q-12 -3 -28 -3q-39 0 -62 24.5t-23 65.5q0 55 39.5 93.5t95.5 38.5z" glyph-name="quoteright" horiz-adv-x="341" unicode="’"/><glyph d="M162 195q89 0 89 -105q0 -87 -56.5 -176.5t-165.5 -164.5q-31 36 -38 46q128 101 149 181q-12 -3 -27 -3q-39 0 -63 24.5t-24 65.5q0 55 40 93.5t96 38.5z" glyph-name="quotesinglbase" horiz-adv-x="1024" unicode="‚"/><glyph d="M340 1022q-90 0 -91 104q0 87 57.5 177t164.5 165q5 -7 38 -46q-133 -104 -149 -181q14 3 29 3q38 0 60 -24.5t22 -65.5q0 -55 -37.5 -93.5t-93.5 -38.5zM630 1022q-90 0 -91 104q0 87 57.5 177t164.5 165q5 -7 38 -46q-133 -104 -149 -181q14 3 29 3q38 0 60 -24.5 t22 -65.5q0 -55 -37.5 -93.5t-93.5 -38.5z" glyph-name="quotedblleft" horiz-adv-x="732" unicode="“"/><glyph d="M377 1468q89 0 89 -104q0 -87 -56.5 -177t-165.5 -165l-37 46q128 101 148 181q-12 -3 -27 -3q-39 0 -62.5 24.5t-23.5 65.5q0 55 39.5 93.5t95.5 38.5zM667 1468q89 0 89 -104q0 -87 -56.5 -177t-165.5 -165l-37 46q128 101 148 181q-12 -3 -27 -3q-39 0 -62.5 24.5 t-23.5 65.5q0 55 39.5 93.5t95.5 38.5z" glyph-name="quotedblright" horiz-adv-x="733" unicode="”"/><glyph d="M162 195q89 0 89 -105q0 -87 -56.5 -176.5t-165.5 -164.5q-31 36 -38 46q128 101 149 181q-12 -3 -27 -3q-39 0 -63 24.5t-24 65.5q0 55 40 93.5t96 38.5z" glyph-name="quotedblbase" horiz-adv-x="380" unicode="„"/><glyph d="M811 1205h85l-24 -132h-85l-190 6l-49 -323l-33 -184h-133l33 184l65 323l-195 -6h-85l24 132h85l189 -7l28 184l15 86h131l-15 -86l-39 -184z" glyph-name="dagger" horiz-adv-x="863" unicode="†"/><glyph d="M807 1178h86l-24 -132h-86l-191 5l-32 -240l-16 -86l-64 -319l194 9h85l-23 -133h-86l-189 6l-34 -221l-29 -171h-132l29 171l46 221l-193 -6h-85l24 133h85l190 -9l49 318h-1l17 87l47 240l-192 -5h-86l24 132h85l192 -7l24 184l20 113h131l-18 -113l-38 -184z" glyph-name="daggerdbl" horiz-adv-x="865" unicode="‡"/><glyph d="M381 940q77 0 120 -46t43 -124q0 -106 -72.5 -183.5t-176.5 -77.5q-77 0 -119.5 48.5t-42.5 125.5q0 113 70 185t178 72z" glyph-name="bullet" horiz-adv-x="588" unicode="•"/><glyph d="M164 154q31 0 49.5 -20.5t18.5 -54.5q0 -44 -30.5 -77t-75.5 -33q-32 0 -51 20t-19 52q0 49 30 81t78 32zM497 154q32 0 51 -20.5t19 -54.5q0 -44 -32 -77t-74 -33q-34 0 -53 20t-19 52q0 48 31 80.5t77 32.5zM828 154q32 0 51 -20.5t19 -54.5q0 -44 -31 -77t-75 -33 q-34 0 -53 20t-19 52q0 48 31 80.5t77 32.5z" glyph-name="ellipsis" horiz-adv-x="1097" unicode="…"/><glyph d="M321 -19l-91 51l864 1315l90 -52zM521 1338q106 0 169 -66.5t63 -177.5q0 -142 -93 -247.5t-244 -105.5q-108 0 -170 66.5t-62 177.5q0 154 97 253.5t240 99.5zM500 1234q-87 0 -142.5 -68.5t-55.5 -165.5q0 -67 35 -110t96 -43q85 0 141.5 69t56.5 163q0 70 -34 112.5 t-97 42.5zM1007 572q108 0 170 -66.5t62 -177.5q0 -142 -91.5 -248t-242.5 -106q-108 0 -170.5 67t-62.5 177q0 154 96.5 254t238.5 100zM1630 572q106 0 169 -66.5t63 -177.5q0 -142 -92 -248t-244 -106q-106 0 -169 67t-63 177q0 154 97 254t239 100zM990 468 q-85 0 -140.5 -68.5t-55.5 -163.5q0 -68 34 -112t95 -44q85 0 141.5 68.5t56.5 163.5q0 70 -34 113t-97 43zM1611 468q-85 0 -140.5 -68.5t-55.5 -163.5q0 -68 34 -112t96 -44q85 0 141.5 68.5t56.5 163.5q0 70 -34.5 113t-97.5 43z" glyph-name="perthousand" horiz-adv-x="1933" unicode="‰"/><glyph d="M563 782l-331 -309l222 -309l-108 -91l-259 400l401 399z" glyph-name="guilsinglleft" horiz-adv-x="657" unicode="‹"/><glyph d="M311 872l259 -399l-401 -400l-75 91l331 310l-222 308z" glyph-name="guilsinglright" horiz-adv-x="657" unicode="›"/><glyph d="M1120 1137q0 -207 -150.5 -359.5t-361.5 -178.5l-58 -232h-93l75 493l59 294h139l-58 -294l-37 -148q167 34 262.5 148.5t95.5 255.5q0 108 -69 178.5t-194 70.5q-116 0 -216.5 -55.5t-168.5 -130.5l-89 75q80 92 215 161.5t285 69.5q172 0 268 -98t96 -250zM463 164 q34 0 53.5 -21.5t19.5 -55.5q0 -48 -32.5 -82t-78.5 -34q-36 0 -55.5 20.5t-19.5 52.5q0 53 32 86.5t81 33.5z" glyph-name="uni203D" horiz-adv-x="1109" unicode="‽"/><glyph d="M739 1352l84 -53l-1135 -1302l-84 49z" glyph-name="fraction" horiz-adv-x="337" unicode="⁄"/><glyph d="M427 809q-108 0 -168.5 77.5t-60.5 198.5q0 142 74 237t199 95q108 0 168.5 -78t60.5 -199q0 -142 -75 -236.5t-198 -94.5zM464 1321q-77 0 -116 -71t-39 -159q0 -75 30 -130.5t94 -55.5q73 0 114.5 65.5t41.5 164.5q0 77 -30 131.5t-95 54.5z" glyph-name="uni2070" horiz-adv-x="670" unicode="⁰"/><glyph d="M650 1056l-7 -97h-75l-10 -138h-102l10 138h-270l-25 97l326 345h102l-24 -346zM278 1046l195 5l15 219z" glyph-name="uni2074" horiz-adv-x="626" unicode="⁴"/><glyph d="M389 1191q82 0 136.5 -50t54.5 -131q0 -85 -58 -143t-169 -58q-140 0 -201 101l68 65q46 -73 132 -74q58 0 88.5 31.5t30.5 81.5q0 43 -25.5 69t-75.5 26q-44 0 -83 -29l-82 52l44 269h318l-9 -106l-227 9l-19 -125q41 12 77 12z" glyph-name="uni2075" horiz-adv-x="571" unicode="⁵"/><glyph d="M447 1196q84 0 138.5 -51t47.5 -140q-7 -84 -65.5 -140t-157.5 -56q-108 0 -161 71.5t-53 189.5q0 152 72 249.5t193 97.5q104 0 169 -62l-79 -72q-39 36 -99 36q-118 0 -143 -176q56 53 138 53zM518.5 1005q3.5 41 -21 68.5t-70.5 27.5q-73 0 -123 -63q10 -130 109 -130 q51 0 76.5 28t29 69z" glyph-name="uni2076" horiz-adv-x="622" unicode="⁶"/><glyph d="M253 1401h401l-9 -95l-258 -485h-121l268 481l-290 -10z" glyph-name="uni2077" horiz-adv-x="563" unicode="⁷"/><glyph d="M527 1123q90 -44 91 -131q0 -73 -62.5 -128t-169.5 -55q-92 0 -150.5 44.5t-58.5 117.5q0 106 110 154q-73 39 -73.5 117.5t59.5 126.5t154 48q87 0 140.5 -42t53.5 -110q0 -96 -94 -142zM420 1326q-51 0 -78.5 -24t-27.5 -63q0 -34 25.5 -56t71.5 -22q48 0 78 25.5 t30 62.5q0 77 -99 77zM391 905q55 0 87 25.5t32 64.5q0 38 -28 61t-78 23q-55 0 -87 -27.5t-32 -66.5q0 -38 27.5 -59t78.5 -21z" glyph-name="uni2078" horiz-adv-x="602" unicode="⁸"/><glyph d="M440 1417q108 0 161 -73t53 -190q0 -152 -71 -248.5t-192 -96.5q-108 0 -171 63l75 72q44 -38 101 -38q118 0 143 174q-56 -51 -136 -51q-85 0 -139 51.5t-47 141.5q5 82 65.5 138.5t157.5 56.5zM423 1126q75 0 121 60q-7 133 -109 133q-51 0 -76.5 -28t-29.5 -69 q-3 -43 21.5 -69.5t72.5 -26.5z" glyph-name="uni2079" horiz-adv-x="616" unicode="⁹"/><glyph d="M879 1080q-147 0 -252.5 -87.5t-158.5 -243.5h471l-34 -90h-463q-19 -92 -20 -161h426l-34 -90h-394q9 -154 79.5 -241.5t205.5 -87.5q181 0 312 174l89 -60q-176 -225 -423 -225q-171 0 -272.5 117.5t-110.5 322.5h-145l33 90h114q5 84 21 161h-125l34 90h116 q67 205 214.5 325.5t333.5 120.5q246 0 346 -229l-109 -61q-71 175 -254 175z" glyph-name="Euro" horiz-adv-x="1288" unicode="€"/><glyph d="M1336 829l-12 -83h-140q-32 -160 -155.5 -245.5t-313.5 -85.5h-314l-73 -415h-128l131 746h-97l12 83h100l58 332h444q166 0 256.5 -79.5t90.5 -224.5v-28h141zM510 1034l-36 -205h588v6q0 101 -66 150t-177 49h-309zM732 538q126 0 210.5 51t108.5 157h-592l-36 -208 h309z" glyph-name="uni20B1" horiz-adv-x="1373" unicode="₱"/><glyph d="M876 1161q167 0 258 -77t91 -222q0 -210 -128 -322.5t-351 -112.5h-307l-24 -140h280l-19 -98h-278l-34 -189h-127l34 189h-138l17 98h138l24 140h-138l22 123h139l107 611h434zM759 550q154 0 243 70.5t89 220.5q0 193 -246 193h-299l-85 -484h298z" glyph-name="uni20BD" horiz-adv-x="1264" unicode="₽"/><glyph d="M882 618q65 -22 106 -89.5t41 -153.5q0 -157 -108.5 -266t-263.5 -109h-56l-26 -159h-94l26 159h-77l-26 -159h-93l25 159h-235l203 1161h235l29 158h94l-27 -158h75l29 158h94l-27 -158h8q111 0 175 -68.5t64 -181.5q0 -111 -59 -195t-112 -98zM787 1044h-381l-66 -384 h406q82 0 137.5 66t55.5 156q0 77 -43.5 119.5t-108.5 42.5zM659 116q102 0 178 73.5t76 180.5q0 77 -47 125.5t-125 48.5h-422l-75 -428h415z" glyph-name="uni20BF" horiz-adv-x="1170" unicode="₿"/><glyph d="M1923 1353q154 0 244.5 -92t90.5 -246q0 -205 -135 -344.5t-343 -139.5q-157 0 -247.5 93t-90.5 246q0 208 137 345.5t344 137.5zM995 236l189 1083h128l-230 -1319h-119l-511 1082l-189 -1082h-130l231 1319h121zM1804 652q142 0 234 99t92 246q0 106 -59 170.5 t-165 64.5q-142 0 -235.5 -99.5t-93.5 -245.5q0 -104 60.5 -169.5t166.5 -65.5zM1377 275l21 121h703l-22 -121h-702z" glyph-name="afii61352" horiz-adv-x="2261" unicode="№"/><glyph d="M852 1251q218 0 356.5 -135.5t138.5 -356.5q0 -198 -99 -356.5t-259 -243t-342 -84.5q-218 0 -356.5 135.5t-138.5 356.5q0 295 209 489.5t491 194.5zM664 171q237 0 411 161t174 414q0 184 -116 296.5t-297 112.5q-239 0 -414 -160t-175 -413q0 -188 116.5 -299.5 t300.5 -111.5zM800 920q99 0 148.5 -39.5t49.5 -107.5q0 -99 -65.5 -152.5t-195.5 -53.5h-61l-31 -174h-101l93 527h163zM753 652q138 0 138 106q0 73 -106 73h-63l-31 -179h62z" glyph-name="uni2117" horiz-adv-x="1430" unicode="℗"/><glyph d="M618 1220h-164l-73 -428h-106l73 428h-159l18 99h428zM1087 1319h130l-58 -527h-104l42 367l-177 -367h-84l-48 357l-85 -357h-104l126 527h132l49 -379z" glyph-name="trademark" horiz-adv-x="1192" unicode="™"/><glyph d="M423 631v-339q0 -22 16 -38q160 -160 423 -160q299 0 462 181h82q-92 -113 -236 -176t-312 -63q-285 0 -488 181q-201 179 -201 438q0 258 201.5 440.5t487.5 182.5q290 0 492 -182q203 -184 203 -441v-17h-1121q-9 0 -9 -7zM432 695h858q7 0 7 12v317q0 24 -15 41 q-159 159 -420 159q-256 0 -422 -166q-17 -12 -17 -41v-310q0 -12 9 -12z" glyph-name="estimated" horiz-adv-x="1650" unicode="℮"/><glyph d="M1280 1352l84 -53l-1135 -1302l-84 49zM336 1203l-114 -37l-14 94l191 56h70l-100 -580h-113zM1265 302q79 -39 78 -119q0 -77 -69 -136t-185 -59q-87 0 -139 40t-52 109q0 116 126 167q-61 36 -61 107q0 82 65.5 133.5t164.5 51.5q82 0 131.5 -38.5t49.5 -103.5 q0 -103 -109 -152zM1181 505q-56 0 -87 -26.5t-31 -68.5q0 -31 22.5 -50.5t64.5 -19.5q51 0 83.5 28t32.5 69q0 68 -85 68zM1106 85q58 0 93 27.5t35 68.5q0 34 -25.5 55.5t-71.5 21.5q-58 0 -94 -29t-36 -72q0 -32 25.5 -52t73.5 -20z" glyph-name="oneeighth" horiz-adv-x="1471" unicode="⅛"/><glyph d="M1312 1352l84 -53l-1135 -1302l-84 49zM565 930q0 -82 -66 -144t-192 -62q-65 0 -112.5 25.5t-63.5 61.5l86 63q26 -55 107 -55q61 0 94 33.5t33 74.5q0 32 -23.5 55t-70.5 23q-39 0 -69 -7l-15 81l184 138l-237 -9l21 108h372l-16 -94l-184 -147q72 -7 112 -47t40 -98z M1297 302q79 -39 79 -119q0 -77 -69.5 -136t-185.5 -59q-87 0 -139 40t-52 109q0 116 126 167q-61 36 -61 107q0 82 65.5 133.5t164.5 51.5q82 0 131.5 -38.5t49.5 -103.5q0 -103 -109 -152zM1213 505q-56 0 -86.5 -26.5t-30.5 -68.5q0 -31 22 -50.5t65 -19.5q51 0 83.5 28 t32.5 69q-1 68 -86 68zM1138 85q58 0 93 27.5t35 68.5q0 34 -25.5 55.5t-71.5 21.5q-58 0 -94 -29t-36 -72q0 -32 25.5 -52t73.5 -20z" glyph-name="threeeighths" horiz-adv-x="1503" unicode="⅜"/><glyph d="M1319 1352l84 -53l-1135 -1302l-84 49zM575 942q0 -90 -65 -154t-182 -64q-142 0 -191 100l75 65q38 -73 123 -73q63 0 97 35t34 88q0 85 -89 85q-43 0 -87 -29l-78 51l73 270h317l-18 -106l-227 9l-31 -125q41 12 77 12q75 0 123.5 -45.5t48.5 -118.5zM1304 302 q79 -39 78 -119q0 -77 -69 -136t-185 -59q-87 0 -139 40t-52 109q0 116 126 167q-61 36 -61 107q0 82 65.5 133.5t164.5 51.5q82 0 131.5 -38.5t49.5 -103.5q0 -103 -109 -152zM1220 505q-56 0 -86.5 -26.5t-30.5 -68.5q0 -31 22 -50.5t65 -19.5q51 0 83.5 28t32.5 69 q-1 68 -86 68zM1145 85q58 0 93 27.5t35 68.5q0 34 -25.5 55.5t-71.5 21.5q-58 0 -94 -29t-36 -72q0 -32 25.5 -52t73.5 -20z" glyph-name="fiveeighths" horiz-adv-x="1510" unicode="⅝"/><glyph d="M1239 1352l84 -53l-1135 -1302l-84 49zM312 736h-121l319 481l-292 -10l21 109h401l-19 -96zM1224 302q79 -39 78 -119q0 -77 -69 -136t-185 -59q-87 0 -139 40t-52 109q0 116 126 167q-61 36 -61 107q0 82 65.5 133.5t164.5 51.5q82 0 131.5 -38.5t49.5 -103.5 q0 -103 -109 -152zM1140 505q-56 0 -87 -26.5t-31 -68.5q0 -31 22.5 -50.5t64.5 -19.5q51 0 83.5 28t32.5 69q0 68 -85 68zM1065 85q58 0 93 27.5t35 68.5q0 34 -25.5 55.5t-71.5 21.5q-58 0 -94 -29t-36 -72q0 -32 25.5 -52t73.5 -20z" glyph-name="seveneighths" horiz-adv-x="1430" unicode="⅞"/><glyph d="M688 1043h-135l-164 -925h137l-21 -118h-404l20 118h137l164 925h-139l22 118h405z" glyph-name="uni2160" horiz-adv-x="769" unicode="Ⅰ"/><glyph d="M1101 1043h-135l-164 -925h137l-21 -118h-817l20 118h137l164 925h-139l22 118h818zM671 118l164 925h-282l-164 -925h282z" glyph-name="uni2161" horiz-adv-x="1181" unicode="Ⅱ"/><glyph d="M1517 1043h-136l-164 -925h136l-20 -118h-1232l20 118h137l164 925h-139l22 118h1233zM389 118h282l164 925h-282zM1085 118l164 925h-283l-164 -925h283z" glyph-name="uni2162" horiz-adv-x="1597" unicode="Ⅲ"/><glyph d="M1632 1161h143l-654 -1161h-150l-218 1043h-200l-164 -925h137l-21 -118h-404l20 118h137l164 925h-139l22 118h564l203 -1024z" glyph-name="uni2163" horiz-adv-x="1711" unicode="Ⅳ"/><glyph d="M1227 1161l-652 -1161h-150l-246 1161h144l201 -1024l560 1024h143z" glyph-name="uni2164" horiz-adv-x="1163" unicode="Ⅴ"/><glyph d="M1628 1043h-136l-164 -925h138l-22 -118h-405l23 118h134l164 925h-199l-588 -1043h-150l-244 1161h145l200 -1024l561 1024h564z" glyph-name="uni2165" horiz-adv-x="1708" unicode="Ⅵ"/><glyph d="M2041 1043h-135l-163 -925h136l-22 -118h-818l23 118h134l164 925h-199l-588 -1043h-150l-244 1161h145l200 -1024l561 1024h977zM1611 118l164 925h-283l-164 -925h283z" glyph-name="uni2166" horiz-adv-x="2121" unicode="Ⅶ"/><glyph d="M2459 1043h-135l-163 -925h136l-20 -118h-1238l23 118h134l164 925h-199l-588 -1043h-150l-244 1161h145l200 -1024l561 1024h1396zM1328 118h283l164 925h-283zM2029 118l164 925h-287l-163 -925h286z" glyph-name="uni2167" horiz-adv-x="2541" unicode="Ⅷ"/><glyph d="M1628 1161l-483 -570l301 -591h-152l-241 476l-408 -476h-544l20 118h137l164 925h-139l22 118h555l229 -460l391 460h148zM596 118l404 473l-230 452h-217l-164 -925h207z" glyph-name="uni2168" horiz-adv-x="1580" unicode="Ⅸ"/><glyph d="M-26 0l504 591l-290 570h150l232 -460l387 460h149l-481 -570l300 -591h-150l-244 476l-406 -476h-151z" glyph-name="uni2169" horiz-adv-x="1059" unicode="Ⅹ"/><glyph d="M1498 1043h-136l-164 -925h138l-22 -118h-543l-240 476l-410 -476h-150l509 591l-284 570h150l227 -460l391 460h555zM1067 118l164 925h-217l-388 -452l238 -473h203z" glyph-name="uni216A" horiz-adv-x="1578" unicode="Ⅺ"/><glyph d="M1922 1043h-135l-164 -925h137l-23 -118h-964l-241 476l-409 -476h-150l507 591l-291 570h151l228 -460l391 460h983zM865 118h214l163 925h-233l-384 -452zM1492 118l163 925h-281l-164 -925h282z" glyph-name="uni216B" horiz-adv-x="2001" unicode="Ⅻ"/><glyph d="M254 126h700l-22 -126h-831l203 1161h131z" glyph-name="uni216C" horiz-adv-x="1095" unicode="Ⅼ"/><glyph d="M1222 963l-116 -76q-44 84 -128 131t-190 47q-225 0 -377.5 -165.5t-152.5 -414.5q0 -176 96.5 -283.5t265.5 -107.5q220 0 373 176l94 -75q-97 -108 -225 -165t-265 -57q-217 0 -342 135.5t-125 359.5q0 305 196 512.5t485 207.5q138 0 245.5 -58.5t165.5 -166.5z" glyph-name="uni216D" horiz-adv-x="1228" unicode="Ⅽ"/><glyph d="M823 1161q213 0 337.5 -133.5t124.5 -343.5q0 -280 -193.5 -482t-471.5 -202h-519l203 1161h519zM642 123q213 0 360.5 163t147.5 383q0 164 -91 266.5t-257 102.5h-391l-158 -915h389z" glyph-name="uni216E" horiz-adv-x="1375" unicode="Ⅾ"/><glyph d="M1374 1159h157l-120 -1159h-129l95 956l-600 -956h-93l-268 945l-237 -945h-130l287 1159h157l272 -970z" glyph-name="uni216F" horiz-adv-x="1624" unicode="Ⅿ"/><glyph d="M1420 717l-22 -118h-1110l210 -251l-88 -78l-320 389l86 75l1 -2l371 318l63 -77l-304 -256h1113z" glyph-name="arrowleft" horiz-adv-x="1431" unicode="←"/><glyph d="M947 930l-90 -77l-207 256l-194 -1109h-118l196 1113l-302 -260l-65 77l459 389l63 -73l-1 -2z" glyph-name="arrowup" horiz-adv-x="952" unicode="↑"/><glyph d="M1410 659l-458 -389l-65 78l301 251h-1109l22 118h1112l-213 256l89 77z" glyph-name="arrowright" horiz-adv-x="1443" unicode="→"/><glyph d="M766 466l65 -77l-457 -389l-63 73l1 2l-261 314l89 77l210 -259l196 1112h120l-195 -1107z" glyph-name="arrowdown" horiz-adv-x="911" unicode="↓"/><glyph d="M1304 1050l319 -391l-457 -389l-65 78l300 251h-1113l210 -251l-88 -78l-320 389l86 75l1 -2l371 318l63 -77l-304 -256h1120l-214 256z" glyph-name="arrowboth" horiz-adv-x="1646" unicode="↔"/><glyph d="M860 963l-206 254l-193 -1111l293 252l67 -76l-457 -388l-64 74l2 1l-263 313l91 76l210 -257l198 1119l-302 -257l-64 76l372 314l87 74l62 -74l261 -314z" glyph-name="arrowupdn" horiz-adv-x="926" unicode="↕"/><glyph d="M1068 234l-99 -84l-648 784l-60 -359h-109l95 550l553 3l-18 -109l-364 2z" glyph-name="uni2196" horiz-adv-x="1162" unicode="↖"/><glyph d="M587 1128l551 -3l-95 -550h-109l64 355l-918 -780l-70 84l927 787l-367 -2z" glyph-name="uni2197" horiz-adv-x="1160" unicode="↗"/><glyph d="M968 724h107l-99 -552l-549 -1l17 109l358 -2l-647 784l99 85l651 -789z" glyph-name="uni2198" horiz-adv-x="1163" unicode="↘"/><glyph d="M1212 1062l-918 -784l358 2l-19 -109l-549 1l92 552h109l-65 -364l923 787z" glyph-name="uni2199" horiz-adv-x="1160" unicode="↙"/><glyph d="M707 1234q159 0 243 -118t84 -317q0 -217 -72.5 -403t-217.5 -304t-333 -118q-181 0 -255 117t-37 288q43 188 178 293t302 105q125 0 193 -70t80 -176q32 125 33 254q0 148 -55.5 238.5t-171.5 90.5q-138 0 -267 -99l-61 91q68 56 164.5 92t192.5 36zM447 96 q229 0 353 239q10 46 1 102t-29.5 105.5t-71 83t-120.5 33.5q-131 0 -216.5 -79.5t-114.5 -200.5q-27 -116 23 -199.5t175 -83.5z" glyph-name="partialdiff" horiz-adv-x="1126" unicode="∂"/><glyph d="M1195 934l-173 -147q58 -97 58 -229q0 -246 -163.5 -415.5t-416.5 -169.5q-186 0 -297 114l-165 -140l-58 68l168 145q-53 96 -52 221q0 253 165.5 419t414.5 166q181 0 292 -108l170 146zM220 398q0 -84 29 -152l620 529q-80 80 -214 80q-188 0 -311.5 -132t-123.5 -325 zM954 541q0 85 -32 159l-622 -529q79 -87 221 -87q188 0 310.5 133t122.5 324z" glyph-name="emptyset" horiz-adv-x="1179" unicode="∅"/><glyph d="M1142 1319l-22 -128h-178l-208 -1191h-133l208 1191h-287l-208 -1191h-131l208 1191h-181l22 128h910z" glyph-name="product" horiz-adv-x="1097" unicode="∏"/><glyph d="M981 1161l-22 -128l-594 5l277 -591l-485 -594l599 5l-24 -128h-742l22 122h2l-2 1l485 594l-279 592l21 122h742z" glyph-name="summation" horiz-adv-x="969" unicode="∑"/><glyph d="M862 766l-21 -123h-675l20 125z" glyph-name="minus" horiz-adv-x="947" unicode="−"/><glyph d="M981 876q111 0 177 -64t66 -169q0 -137 -97.5 -229.5t-239.5 -92.5q-166 0 -240 177q-140 -177 -302 -177q-106 0 -171 65t-65 169q0 138 98 229.5t242 91.5q177 0 239 -171q65 84 132 127.5t161 43.5zM358 422q75 0 133.5 45t122.5 135q-24 92 -65.5 133.5t-116.5 41.5 q-101 0 -164 -58.5t-63 -150.5q0 -68 41.5 -107t111.5 -39zM908 422q96 0 157 58t61 151q0 67 -41.5 106.5t-116.5 39.5q-77 0 -128.5 -41t-120.5 -139q32 -97 75.5 -136t113.5 -39z" glyph-name="infinity" horiz-adv-x="1285" unicode="∞"/><glyph d="M-254 -512l22 126h80q79 0 129 43t64 123l218 1242q22 135 118 216t231 81h80l-21 -126h-78q-80 0 -131.5 -43.5t-64.5 -122.5l-217 -1242q-24 -135 -119.5 -216t-228.5 -81h-82z" glyph-name="integral" horiz-adv-x="597" unicode="∫"/><glyph d="M329 742h-121q19 102 90 165.5t163 63.5q77 0 159.5 -60.5t132.5 -60.5q101 0 116 109h121q-17 -104 -89 -165.5t-165 -61.5q-49 0 -91.5 19.5t-67 42t-59.5 42t-71 19.5q-99 0 -118 -113zM276 444h-121q19 102 90 164.5t163 62.5q77 0 159.5 -60.5t132.5 -60.5 q97 0 116 110h121q-17 -104 -88 -165.5t-165 -61.5q-61 0 -110.5 31t-92 61.5t-87.5 30.5q-99 1 -118 -112z" glyph-name="approxequal" horiz-adv-x="1066" unicode="≈"/><glyph d="M981 1113l-174 -208h130l-21 -118h-209l-156 -186h333l-20 -118h-412l-249 -295l-75 53l205 242h-169l20 119h248l155 185h-370l20 119l451 -1l220 262z" glyph-name="notequal" horiz-adv-x="1034" unicode="≠"/><glyph d="M795 806l-529 -190l464 -184l-51 -113l-553 229l21 116l3 19l632 237zM53 125l19 109l623 2l-21 -111h-621z" glyph-name="lessequal" horiz-adv-x="873" unicode="≤"/><glyph d="M797 683l-19 -115h-1l-4 -20l-631 -229l-12 113l529 184l-464 190l51 114zM77 125l17 111l625 -2l-19 -109h-623z" glyph-name="greaterequal" horiz-adv-x="875" unicode="≥"/><glyph d="M753 1161l300 -591l-503 -570h-125l-300 570l503 591h125zM268 572l225 -441h34l381 439l-224 459h-32z" glyph-name="lozenge" horiz-adv-x="1140" unicode="◊"/><glyph d="M611 445l-336 -199l165 345l-245 218l360 12l181 340l63 -340l355 -12l-323 -218l41 -345z" glyph-name="uni2605" horiz-adv-x="1228" unicode="★"/><glyph d="M611 445l-336 -199l165 345l-245 218l360 12l181 340l63 -340l355 -12l-323 -218l41 -345zM630 550l136 -106l-22 181l171 114l-188 7l-32 179l-94 -179l-191 -7l131 -114l-89 -181z" glyph-name="uni2606" horiz-adv-x="1228" unicode="☆"/><glyph d="M1352 191q-10 -63 21.5 -80t119.5 5l4 -109q-164 -55 -230.5 -3t-46.5 170l17 97q-99 -143 -250.5 -223t-339.5 -80q-237 0 -370.5 152.5t-133.5 401.5q0 230 95 420t266.5 300t384.5 110q188 0 309 -90.5t167 -252.5l55 310h131zM696 96q212 0 371.5 126t219.5 331 l27 159q2 19 2 54q0 207 -112.5 333t-309.5 126q-266 0 -442 -192.5t-176 -482.5q0 -205 111 -329.5t309 -124.5z" glyph-name="uni2C6D" horiz-adv-x="1631" unicode="Ɑ"/><glyph d="M218 1319h1072l-22 -126h-1072zM142 876l22 126h1072l-23 -126h-471l-153 -876h-130l154 876h-471z" glyph-name="uni3012" horiz-adv-x="1213" unicode="〒"/><glyph d="M1043 973q51 -171 51 -398q0 -58 -14 -118q-3 -9 -8 -1q-9 19 -21.5 35t-23.5 24l-8 7q2 -3 5 -9t11.5 -25t12 -36t5.5 -43.5t-7 -48.5q-17 -48 -58 -84q-7 -3 -7 4q-2 17 -7.5 30.5t-10.5 20.5l-6 5q0 -5 -0.5 -12.5t-8.5 -31.5t-19 -46t-36.5 -51t-59.5 -52 q-2 0 -4.5 -1.5t-4 -3t-3.5 -1.5q-5 -3 -8.5 -1t-0.5 7q5 12 8 23t3 17l-2 5q-5 -9 -15.5 -24.5t-50.5 -45t-88 -43.5q-48 14 -87 42t-54 50l-16 21q-5 -19 7 -45q2 -5 0 -7.5t-7 1.5q-3 2 -7.5 4t-5.5 2q-55 36 -86.5 84t-35.5 78l-3 31q-19 -19 -24 -56q0 -7 -7 -4 q-41 34 -56 84q-10 43 -4 78.5t19 59.5l12 24q-34 -26 -53 -66q-9 -10 -10 1q-14 60 -13 118q0 101 12.5 201t24.5 149l14 48q3 15 12 17q114 31 210 43l13 34q2 2 4 1q44 -15 61 -10q38 9 75 75q3 3 5 0q38 -67 75 -75q22 -5 62 10q3 0 3 -1l14 -34q68 -9 210 -43 q9 -3 12 -17zM457 975q-2 0 3.5 -26.5t10.5 -54.5l5 -27q41 39 96 39h3q15 0 27 -5q24 -7 40.5 -24t19.5 -30l5 -12q2 3 3.5 7.5t4.5 18t1 23.5q20 12 40 18t36 5t31.5 -4.5t25.5 -9.5t18.5 -11.5t12.5 -11.5l5 -3l15 111l-58 -44l-29 87l-58 -58l-56 100l-60 -97l-51 58 l-31 -92zM393 823q20 -2 30 -21q15 15 41 26q-5 10 -16 17.5t-21 11.5l-9 1l22 14q-56 14 -85 -39q-14 -29 -9.5 -53t16.5 -39l12 -14q3 17 15 36q9 15 9.5 29.5t-2.5 23.5zM945 727q5 5 11.5 14.5t15.5 38.5t-8 53q-14 24 -35 33.5t-35 7.5l-15 -2l22 -14q-34 -9 -46 -30 q24 -10 43 -26q5 9 11.5 14t12.5 7h5q-15 -24 3 -58zM858 561q9 0 17.5 -5t11.5 -10l6 -5q0 58 -40 82q2 7 4.5 17t1.5 39t-9.5 51.5t-36.5 43.5t-72 26l15 21q-63 7 -97 -46q-15 24 -40 35t-42 11h-16q15 -14 16 -21q-70 -9 -98 -53t-22 -85l7 -39q-17 -10 -27 -30.5 t-10 -36.5l-2 -15q15 20 34 20q-3 -5 -7.5 -13.5t-8.5 -39t11 -61.5l20 -37q20 24 45 42q-19 31 -19 58q0 48 43 87q-24 -41 -19 -82q12 -39 32 -39q10 0 46 25.5t41 39.5q10 27 2 50q-12 10 -28 17.5t-26 9.5l-11 3q7 20 22 29q7 3 28.5 -2.5t28.5 -5.5t28 6t28 2.5 t12 -11.5t7 -13l2 -5q-39 -7 -64 -30q-3 -5 -2 -21.5t6 -28.5q3 -14 39 -39.5t48 -25.5q7 0 17 13t14 26q5 41 -19 82q41 -38 41 -87q0 -12 -4.5 -26.5t-9.5 -22.5l-3 -9l44 -42q10 14 19 37q12 36 12 61.5t-7 39.5zM522 707l-25 15q60 -3 94 -15q-3 -17 -13.5 -36 t-17.5 -29l-9 -12l4 30h-11q-12 0 -21 9t-9.5 19t8.5 19zM766 630q-27 32 -37 77q15 5 38 9t39 4l17 2l-24 -14q5 -10 5 -17q0 -29 -31 -29q-2 0 -5 1t-5 1zM717 369q14 12 22.5 29t8.5 27l1 10q-17 24 -47.5 48t-42.5 24t-43 -24t-46 -48q-5 -39 27 -60v14q31 -24 62 -24 q14 0 34 7q22 10 22 27q3 -7 4 -14.5t0 -12.5z" glyph-name="uniF8FF" horiz-adv-x="1274" unicode=""/><glyph d="M916 1352q247 0 389 -155.5t142 -408.5q0 -348 -221.5 -584t-551.5 -236q-247 0 -389 156t-142 407q0 348 222 584.5t551 236.5zM570 980l77 -60q96 104 206 104q63 0 100 -36.5t37 -96.5q0 -89 -72.5 -151t-200.5 -62l-16 -205h91l32 123q123 24 202.5 107.5t79.5 201.5 q0 96 -61.5 157t-172.5 61q-94 0 -174 -41.5t-128 -101.5zM722 343q-31 0 -51.5 -22t-20.5 -53q0 -55 51 -55q31 0 51.5 23t20.5 54q0 53 -51 53z" glyph-name="uniFFFD" horiz-adv-x="1525" unicode="�"/><glyph d="M1055 0q-12 176 -40 357h-739q-90 -183 -162 -357h-138q319 754 765 1319h146q254 -579 304 -1319h-136zM341 485h654q-72 387 -203 711q-233 -296 -451 -711z" glyph-name="A.salt" horiz-adv-x="1331"/><glyph d="M1106 1596l-372 -159l-22 61l360 214zM1055 0q-12 176 -40 357h-739q-90 -183 -162 -357h-138q319 754 765 1319h146q254 -579 304 -1319h-136zM341 485h654q-72 387 -203 711q-233 -296 -451 -711z" glyph-name="Aacute.salt" horiz-adv-x="1331"/><glyph d="M841 1478q-106 0 -163.5 59.5t-52.5 162.5h107q2 -51 34.5 -85.5t91.5 -34.5q114 0 169 120h106q-32 -99 -108 -160.5t-184 -61.5zM1055 0q-12 176 -40 357h-739q-90 -183 -162 -357h-138q319 754 765 1319h146q254 -579 304 -1319h-136zM341 485h654q-72 387 -203 711 q-233 -296 -451 -711z" glyph-name="Abreve.salt" horiz-adv-x="1331"/><glyph d="M886 1466h-91l-135 203l76 58l122 -155l173 155l56 -58zM1055 0q-12 176 -40 357h-739q-90 -183 -162 -357h-138q319 754 765 1319h146q254 -579 304 -1319h-136zM341 485h654q-72 387 -203 711q-233 -296 -451 -711z" glyph-name="uni01CD.salt" horiz-adv-x="1331"/><glyph d="M867 1633l-176 -155l-56 60l205 201h92l131 -201l-78 -60zM1055 0q-12 176 -40 357h-739q-90 -183 -162 -357h-138q319 754 765 1319h146q254 -579 304 -1319h-136zM341 485h654q-72 387 -203 711q-233 -296 -451 -711z" glyph-name="Acircumflex.salt" horiz-adv-x="1331"/><glyph d="M676 1521q-32 0 -51 19.5t-19 51.5q0 46 29 77t73 31q31 0 50 -20.5t19 -53.5q0 -44 -29 -74.5t-72 -30.5zM1024 1521q-32 0 -51 19.5t-19 51.5q0 46 29 77t73 31q31 0 50 -20.5t19 -53.5q0 -44 -29 -74.5t-72 -30.5zM1055 0q-12 176 -40 357h-739q-90 -183 -162 -357 h-138q319 754 765 1319h146q254 -579 304 -1319h-136zM341 485h654q-72 387 -203 711q-233 -296 -451 -711z" glyph-name="Adieresis.salt" horiz-adv-x="1331"/><glyph d="M973 1498l-43 -61l-319 159l77 116zM1055 0q-12 176 -40 357h-739q-90 -183 -162 -357h-138q319 754 765 1319h146q254 -579 304 -1319h-136zM341 485h654q-72 387 -203 711q-233 -296 -451 -711z" glyph-name="Agrave.salt" horiz-adv-x="1331"/><glyph d="M1176 1661l-21 -106h-597l21 106h597zM1055 0q-12 176 -40 357h-739q-90 -183 -162 -357h-138q319 754 765 1319h146q254 -579 304 -1319h-136zM341 485h654q-72 387 -203 711q-233 -296 -451 -711z" glyph-name="Amacron.salt" horiz-adv-x="1331"/><glyph d="M1010.5 -305q51.5 0 98.5 52l50 -58q-90 -90 -176 -90q-70 0 -105 35t-31 95q5 126 208 271q-12 176 -40 357h-739q-90 -183 -162 -357h-138q319 754 765 1319h146q254 -579 304 -1319h-44q-63 -60 -93 -90.5t-62.5 -76.5t-32.5 -80q0 -58 51.5 -58zM341 485h654 q-72 387 -203 711q-233 -296 -451 -711z" glyph-name="Aogonek.salt" horiz-adv-x="1331"/><glyph d="M835 1428q-68 0 -107 43t-39 113q0 97 58.5 158.5t151.5 61.5q67 0 107 -42.5t40 -111.5q0 -89 -61 -155.5t-150 -66.5zM886 1715q-48 0 -80.5 -33t-32.5 -83q0 -36 20.5 -58t56.5 -22q46 0 77.5 35t31.5 81q0 36 -20.5 58t-52.5 22zM1055 0q-12 176 -40 357h-739 q-90 -183 -162 -357h-138q319 754 765 1319h146q254 -579 304 -1319h-136zM341 485h654q-72 387 -203 711q-233 -296 -451 -711z" glyph-name="Aring.salt" horiz-adv-x="1331"/><glyph d="M741 1604q-80 0 -96 -95h-106q15 90 77 144.5t140 54.5q61 0 126 -51t104 -51q75 0 94 94h106q-19 -92 -78.5 -146t-136.5 -54q-49 0 -88.5 26.5t-72.5 52t-69 25.5zM1055 0q-12 176 -40 357h-739q-90 -183 -162 -357h-138q319 754 765 1319h146q254 -579 304 -1319h-136 zM341 485h654q-72 387 -203 711q-233 -296 -451 -711z" glyph-name="Atilde.salt" horiz-adv-x="1331"/><glyph d="M1435 659l-3 -24q-44 -290 -258.5 -477t-501.5 -187q-246 0 -387.5 154.5t-141.5 406.5q0 355 222 588t555 233q169 0 289 -70t182 -199l-123 -65q-109 213 -374 213q-266 0 -442 -197t-176 -485q0 -205 111 -331.5t308 -126.5q205 0 363.5 124t218.5 320h-415l22 123 h551z" glyph-name="G.salt" horiz-adv-x="1520"/><glyph d="M935 1478q-106 0 -164 59.5t-52 162.5h107q2 -51 34.5 -85.5t91.5 -34.5q114 0 169 120h106q-32 -99 -108 -160.5t-184 -61.5zM1435 659l-3 -24q-44 -290 -258.5 -477t-501.5 -187q-246 0 -387.5 154.5t-141.5 406.5q0 355 222 588t555 233q169 0 289 -70t182 -199 l-123 -65q-109 213 -374 213q-266 0 -442 -197t-176 -485q0 -205 111 -331.5t308 -126.5q205 0 363.5 124t218.5 320h-415l22 123h551z" glyph-name="Gbreve.salt" horiz-adv-x="1520"/><glyph d="M980 1466h-91l-135 203l75 58l123 -155l173 155l56 -58zM1435 659l-3 -24q-44 -290 -258.5 -477t-501.5 -187q-246 0 -387.5 154.5t-141.5 406.5q0 355 222 588t555 233q169 0 289 -70t182 -199l-123 -65q-109 213 -374 213q-266 0 -442 -197t-176 -485 q0 -205 111 -331.5t308 -126.5q205 0 363.5 124t218.5 320h-415l22 123h551z" glyph-name="Gcaron.salt" horiz-adv-x="1520"/><glyph d="M1435 659l-3 -24q-44 -290 -258.5 -477t-501.5 -187q-246 0 -387.5 154.5t-141.5 406.5q0 355 222 588t555 233q169 0 289 -70t182 -199l-123 -65q-109 213 -374 213q-266 0 -442 -197t-176 -485q0 -205 111 -331.5t308 -126.5q205 0 363.5 124t218.5 320h-415l22 123 h551zM657 -135q73 0 73 -85q0 -24 -8 -46q-27 -137 -174 -171l-7 60q63 17 92 56h-10q-32 0 -52 21.5t-20 55.5q0 46 31 77.5t75 31.5z" glyph-name="Gcommaaccent.salt" horiz-adv-x="1520"/><glyph d="M944 1512q-36 0 -56.5 22t-20.5 58q0 51 31.5 84.5t79.5 33.5q34 0 55.5 -23t21.5 -57q0 -49 -31.5 -83.5t-79.5 -34.5zM1435 659l-3 -24q-44 -290 -258.5 -477t-501.5 -187q-246 0 -387.5 154.5t-141.5 406.5q0 355 222 588t555 233q169 0 289 -70t182 -199l-123 -65 q-109 213 -374 213q-266 0 -442 -197t-176 -485q0 -205 111 -331.5t308 -126.5q205 0 363.5 124t218.5 320h-415l22 123h551z" glyph-name="Gdotaccent.salt" horiz-adv-x="1520"/><glyph d="M60 -297l112 75q82 -148 265 -148q160 0 272 115t146 311l217 1263h133l-219 -1270q-41 -239 -189 -390.5t-377 -151.5q-125 0 -218 53t-142 143zM237 0h-131l227 1319h131z" glyph-name="IJ.aalt" horiz-adv-x="1240"/><glyph d="M481 1319l-237 -1355q-31 -171 -140 -299t-259 -196l-33 118l14 7q14 7 37 21.5t51 35.5t58.5 52.5t57 67.5t48 85.5t31.5 102.5l237 1360h135z" glyph-name="J.salt" horiz-adv-x="522"/><glyph d="M1522 1318q34 -189 54 -401t20 -458.5t-28 -458.5h-131q60 474 -22 1125l-558 -1125h-84l-167 1108q-113 -218 -230 -518t-181 -590h-132q60 283 200.5 645t306.5 673h137l157 -1036l517 1036h141z" glyph-name="M.salt" horiz-adv-x="1795"/></font>
</defs>
</svg>
