<svg xmlns="http://www.w3.org/2000/svg">
<defs>
<font horiz-adv-x="1508" id="ywftsvg"><font-face ascent="1638" bbox="-922 -829 2528 2193.09" cap-height="1319" descent="-410" font-family="" font-stretch="normal" font-weight="600" panose-1="2 11 0 3 5 4 1 2 5 4" underline-position="0" underline-thickness="0" unicode-range="U+0020-FFFD" units-per-em="2048" x-height="939"/><missing-glyph d="M1007 973q51 -171 51 -398q0 -58 -14 -118q-3 -9 -8 -1q-9 19 -21.5 35t-21.5 24l-10 7q2 -3 5.5 -9t12 -25t11.5 -36t5 -43.5t-7 -48.5q-17 -48 -58 -84q-7 -3 -7 4q-2 17 -7.5 30.5t-10.5 20.5l-5 5q0 -5 -1 -12.5t-8.5 -31.5t-19 -46t-37 -51t-59.5 -52 q-2 0 -4.5 -1.5t-4 -3t-3.5 -1.5q-5 -3 -8.5 -1t0.5 7q5 12 7.5 23t0.5 17v5q-5 -9 -15.5 -24.5t-50.5 -45t-88 -43.5q-48 14 -87 42t-54 50l-16 21q-5 -19 7 -45q2 -5 0.5 -7.5t-7.5 1.5q-3 2 -6.5 4t-6.5 2q-55 36 -85.5 84t-34.5 78l-5 31q-19 -19 -24 -56q0 -7 -7 -4 q-41 34 -56 84q-10 43 -4 78.5t18 59.5l13 24q-34 -26 -52 -66q-9 -10 -11 1q-14 60 -13 118q0 101 12.5 201t26.5 149l12 48q3 15 12 17q114 31 210 43l13 34q2 2 4 1q44 -15 61 -10q38 9 75 75q2 3 5 0q38 -67 76 -75q22 -5 61 10q3 0 3 -1l14 -34q68 -9 210 -43 q9 -3 12 -17zM422 975q-2 0 3 -26.5t10 -54.5l5 -27q41 39 96 39h3q14 0 28 -5q24 -7 40 -24t21 -30l3 -12q2 3 4 7.5t4.5 18t0.5 23.5q20 12 40 18t36 5t31.5 -4.5t25.5 -9.5t18.5 -11.5t14.5 -11.5l3 -3l15 111l-58 -44l-29 87l-58 -58l-56 100l-60 -97l-51 58l-31 -92z M357 823q20 -2 30 -21q15 15 41 26q-5 10 -16 17.5t-19 11.5l-11 1l22 14q-56 14 -85 -39q-14 -29 -9.5 -53t16.5 -39l12 -14q3 17 15 36q9 15 10 29.5t-3 23.5zM910 727q5 5 11 14.5t15 38.5t-8 53q-14 24 -35 33.5t-36 7.5l-14 -2l22 -14q-34 -9 -46 -30q24 -10 43 -26 q5 9 12 14t12 7h5q-15 -24 3 -58zM823 561q9 0 17 -5t13 -10l4 -5q0 58 -40 82q2 7 4.5 17t2 39t-9 51.5t-37 43.5t-72.5 26l15 21q-63 7 -97 -46q-15 24 -40 35t-40 11h-17q15 -14 15 -21q-70 -9 -98 -53t-21 -85l6 -39q-17 -10 -27 -30.5t-12 -36.5v-15q15 20 34 20 q-3 -5 -7.5 -13.5t-8.5 -39t11 -61.5l21 -37q20 24 44 42q-19 31 -19 58q0 48 43 87q-24 -41 -19 -82q12 -39 33 -39q10 0 45.5 25.5t41.5 39.5q10 27 1 50q-12 10 -28 17.5t-26 9.
<glyph d="M1248 1280q-65 26 -121.5 30t-105 -12t-76 -70t-27.5 -139v-150h307v-168h-307v-771h-186v771h-379v-771h-186v771h-102v168h102v119q0 121 46 209t118.5 127.5t158 48t169 -19t147.5 -80.5q70 99 196 121.5t246 -30.5v-154zM353 939h379v134q0 72 12 122 q-73 75 -164.5 92t-159 -42t-67.5 -183v-123z" glyph-name="f_f.liga" horiz-adv-x="1290" unicode="ff"/><glyph d="M1514 939v-939h-190v771h-406v-771h-186v771h-379v-771h-186v771h-102v168h102v119q0 121 46 209t118.5 127.5t158 48t169 -18t147.5 -79.5q68 87 193.5 112.5t256 -1t251.5 -86.5l-67 -150q-102 46 -194 66.5t-166.5 12t-118 -58.5t-43.5 -139v-162h596zM353 939h379 v158q0 49 9 101q-73 73 -164 89.5t-157.5 -42.5t-66.5 -183v-123z" glyph-name="f_f_i.liga" horiz-adv-x="1650" unicode="ffi"/><glyph d="M1708 160l29 -148q-171 -60 -264.5 -5.5t-93.5 213.5v1057q-108 32 -186.5 41.5t-143 -6t-98 -72t-33.5 -151.5v-150h302v-168h-302v-771h-186v771h-379v-771h-187v771h-101v168h101v119q0 150 69.5 246.5t168.5 123t208.5 6t189.5 -86.5q167 225 763 49v-1154 q0 -65 34 -83t109 1zM353 939h379v157q0 51 9 102q-73 73 -164 89.5t-157.5 -42.5t-66.5 -183v-123z" glyph-name="f_f_l.liga" horiz-adv-x="1824" unicode="ffl"/><glyph d="M1007 973q51 -171 51 -398q0 -58 -14 -118q-3 -9 -8 -1q-9 19 -21.5 35t-21.5 24l-10 7q2 -3 5.5 -9t12 -25t11.5 -36t5 -43.5t-7 -48.5q-17 -48 -58 -84q-7 -3 -7 4q-2 17 -7.5 30.5t-10.5 20.5l-5 5q0 -5 -1 -12.5t-8.5 -31.5t-19 -46t-37 -51t-59.5 -52 q-2 0 -4.5 -1.5t-4 -3t-3.5 -1.5q-5 -3 -8.5 -1t0.5 7q5 12 7.5 23t0.5 17v5q-5 -9 -15.5 -24.5t-50.5 -45t-88 -43.5q-48 14 -87 42t-54 50l-16 21q-5 -19 7 -45q2 -5 0.5 -7.5t-7.5 1.5q-3 2 -6.5 4t-6.5 2q-55 36 -85.5 84t-34.5 78l-5 31q-19 -19 -24 -56q0 -7 -7 -4 q-41 34 -56 84q-10 43 -4 78.5t18 59.5l13 24q-34 -26 -52 -66q-9 -10 -11 1q-14 60 -13 118q0 101 12.5 201t26.5 149l12 48q3 15 12 17q114 31 210 43l13 34q2 2 4 1q44 -15 61 -10q38 9 75 75q2 3 5 0q38 -67 76 -75q22 -5 61 10q3 0 3 -1l14 -34q68 -9 210 -43 q9 -3 12 -17zM422 975q-2 0 3 -26.5t10 -54.5l5 -27q41 39 96 39h3q14 0 28 -5q24 -7 40 -24t21 -30l3 -12q2 3 4 7.5t4.5 18t0.5 23.5q20 12 40 18t36 5t31.5 -4.5t25.5 -9.5t18.5 -11.5t14.5 -11.5l3 -3l15 111l-58 -44l-29 87l-58 -58l-56 100l-60 -97l-51 58l-31 -92z M357 823q20 -2 30 -21q15 15 41 26q-5 10 -16 17.5t-19 11.5l-11 1l22 14q-56 14 -85 -39q-14 -29 -9.5 -53t16.5 -39l12 -14q3 17 15 36q9 15 10 29.5t-3 23.5zM910 727q5 5 11 14.5t15 38.5t-8 53q-14 24 -35 33.5t-36 7.5l-14 -2l22 -14q-34 -9 -46 -30q24 -10 43 -26 q5 9 12 14t12 7h5q-15 -24 3 -58zM823 561q9 0 17 -5t13 -10l4 -5q0 58 -40 82q2 7 4.5 17t2 39t-9 51.5t-37 43.5t-72.5 26l15 21q-63 7 -97 -46q-15 24 -40 35t-40 11h-17q15 -14 15 -21q-70 -9 -98 -53t-21 -85l6 -39q-17 -10 -27 -30.5t-12 -36.5v-15q15 20 34 20 q-3 -5 -7.5 -13.5t-8.5 -39t11 -61.5l21 -37q20 24 44 42q-19 31 -19 58q0 48 43 87q-24 -41 -19 -82q12 -39 33 -39q10 0 45.5 25.5t41.5 39.5q10 27 1 50q-12 10 -28 17.5t-26 9.5l-11 3q7 20 23 29q7 3 28 -2.5t28 -5.5t28 6t28 2.5t12 -11.5t7 -13l2 -5q-39 -7 -63 -30 q-3 -5 -2.5 -21.5t5.5 -28.5q3 -14 39 -39.5t48 -25.5q7 0 17 13t14 26q5 41 -19 82q41 -38 41 -87q0 -12 -4.5 -26.5t-7.5 -22.5l-5 -9l44 -42q10 14 19 37q12 36 12 61.5t-9 39.5zM486 707l-25 15q60 -3 94 -15q-3 -17 -13.5 -36t-19.5 -29l-7 -12l4 30h-10q-12 0 -21.5 9 t-10 19t8.5 19zM730 630q-27 32 -37 77q15 5 38 9t40 4l16 2l-24 -14q5 -10 5 -17q0 -29 -31 -29q-2 0 -5 1t-5 1zM681 369q14 12 22.5 29t9.5 27v10q-17 24 -47.5 48t-42.5 24t-42.5 -24t-46.5 -48q-5 -39 27 -60v14q31 -24 62 -24q14 0 34 7q22 10 22 27q3 -7 4 -14.5 t0 -12.5z" glyph-name=".notdef" horiz-adv-x="1256"/><glyph glyph-name="glyph1" horiz-adv-x="0"/><glyph glyph-name="glyph2" horiz-adv-x="682"/><glyph glyph-name="space" horiz-adv-x="481" unicode=" "/><glyph d="M329 391h-112l-29 606l-12 471h193l-9 -471zM271 193q46 0 75 -31t29 -80q0 -46 -28 -78.5t-75.5 -32.5t-76 30.5t-28.5 80.5q0 51 28 81t76 30z" glyph-name="exclam" horiz-adv-x="542" unicode="!"/><glyph d="M191 1056h-106l-34 412h169zM445 1056h-107l-34 412h169z" glyph-name="quotedbl" horiz-adv-x="525" unicode="&quot;"/><glyph d="M1084 715h-183l-65 -278h174v-137h-206l-72 -300h-145l72 300l-287 2l-72 -302h-148l72 302h-145v135h177l65 280h-171v135h203l74 309h146l-73 -309h287l73 309h147l-73 -309h150v-137zM689 437l67 278l-287 2l-66 -280h286z" glyph-name="numbersign" horiz-adv-x="1162" unicode="#"/><glyph d="M853 382q0 -114 -82 -186.5t-210 -84.5l7 -111h-124l8 111q-184 20 -304 159l99 107q106 -126 267 -126q77 0 126 33t49 86q0 55 -51 92.5t-122.5 60.5t-144 51t-124 84.5t-51.5 140.5q0 101 74.5 166.5t198.5 78.5l-8 117h126l-7 -118q150 -17 248 -121l-106 -103 q-32 41 -90.5 66.5t-116.5 25.5q-68 0 -110.5 -31.5t-42.5 -75.5q0 -51 50.5 -85.5t123 -57.5t145 -52t122.5 -86t50 -141z" glyph-name="dollar" horiz-adv-x="1012" unicode="$"/><glyph d="M459 -22l-124 70l657 1165l124 -70zM386 1193q123 0 203 -74.5t80 -193.5q0 -106 -72.5 -185.5t-210.5 -79.5q-123 0 -202.5 73t-79.5 192q0 121 79.5 194.5t202.5 73.5zM385.5 1063q-59.5 0 -93 -39t-33.5 -99q0 -56 34.5 -96.5t92.5 -40.5q60 0 94 40.5t34 96.5 q0 58 -34.5 98t-94 40zM1070 514q123 0 202.5 -73.5t79.5 -193.5q0 -108 -72.5 -187t-209.5 -79q-125 0 -203.5 72.5t-78.5 194t78.5 194t203.5 72.5zM1070 386q-60 0 -94 -40.5t-34 -98.5t34 -97t94 -39q58 0 93 39t35 97t-34 98.5t-94 40.5z" glyph-name="percent" horiz-adv-x="1455" unicode="%"/><glyph d="M1171 102l-128 -124l-174 188q-172 -193 -403 -193q-159 0 -270.5 106.5t-111.5 261.5q0 114 64 207.5t185 195.5q-82 89 -123 161.5t-41 164.5q0 121 97.5 202t218.5 81q137 0 225.5 -88.5t89.5 -202.5q0 -72 -34 -136t-72.5 -100t-109.5 -90l264 -287q55 111 94 254 l172 -46q-48 -191 -138 -345zM485 1203q-63 0 -102.5 -36.5t-39.5 -99.5q0 -34 16 -69t32.5 -55t45.5 -49.5t36 -38.5q46 32 75 56t55.5 66t26.5 85q0 63 -39 102t-106 39zM481 152q152 0 268 142l-304 329q-174 -157 -172 -282q0 -75 59 -132t149 -57z" glyph-name="ampersand" horiz-adv-x="1233" unicode="&amp;"/><glyph d="M191 1056h-106l-34 412h169z" glyph-name="quotesingle" horiz-adv-x="269" unicode="'"/><glyph d="M560 1398q-137 -150 -209.5 -366t-72.5 -453q0 -236 70 -447t207 -362l-111 -81q-341 357 -342 893q0 539 347 896z" glyph-name="parenleft" horiz-adv-x="648" unicode="("/><glyph d="M80 1398l113 80q346 -357 346 -896q0 -536 -343 -893l-109 81q137 152 207 362.5t70 446.5q0 239 -73 454t-211 365z" glyph-name="parenright" horiz-adv-x="628" unicode=")"/><glyph d="M176 812l164 183l-221 65l57 135l194 -99l-22 233h150l-22 -233l195 99l54 -135l-220 -65l164 -183l-116 -87l-130 202l-129 -202z" glyph-name="asterisk" horiz-adv-x="844" unicode="*"/><glyph d="M963 620v-171h-325v-345h-181v345h-320v171h320v327h181v-327h325z" glyph-name="plus" horiz-adv-x="1100" unicode="+"/><glyph d="M186 203q55 0 87 -38.5t32 -108.5q0 -183 -160 -312q-3 3 -23.5 23t-25.5 25q113 104 112 184q-14 -3 -27 -3q-46 0 -77 33t-31 84q0 48 32 80.5t81 32.5z" glyph-name="comma" horiz-adv-x="436" unicode=","/><glyph d="M707 591v-164h-579v164h579z" glyph-name="hyphen" horiz-adv-x="836" unicode="-"/><glyph d="M237 205q48 0 78 -32.5t30 -83.5q0 -48 -30 -82t-78 -34t-77.5 32.5t-29.5 83.5q0 53 29 84.5t78 31.5z" glyph-name="period" horiz-adv-x="474" unicode="."/><glyph d="M290 -142h-191l599 1417h189z" glyph-name="slash" horiz-adv-x="996" unicode="/"/><glyph d="M623 -24q-229 0 -362 172.5t-133 435.5q0 261 133 433.5t364 172.5q227 0 361 -171t134 -435q0 -261 -134 -434.5t-363 -173.5zM625 1026q-148 0 -227 -129t-79 -313q0 -114 29 -210t100 -164t175 -68q142 0 224.5 122.5t82.5 315.5q0 183 -76.5 314.5t-228.5 131.5z" glyph-name="zero" horiz-adv-x="1245" unicode="0"/><glyph d="M447 1161h121v-1161h-194v969l-220 -80l-57 159z" glyph-name="one" horiz-adv-x="781" unicode="1"/><glyph d="M401 167l555 12v-179h-825v160l388 321q123 102 180 175t57 161q0 97 -71.5 153t-170.5 56q-89 0 -160 -48t-110 -120l-133 111q61 102 168.5 161.5t246.5 59.5q183 0 300.5 -96.5t117.5 -257.5q0 -137 -81 -247.5t-218 -221.5z" glyph-name="two" horiz-adv-x="1100" unicode="2"/><glyph d="M550 688q174 -9 276 -106t102 -242q0 -154 -110 -259t-325 -105q-135 0 -239 53t-146 133l133 106q67 -135 252 -135q111 0 177.5 61.5t66.5 153.5q0 94 -67.5 153t-176.5 59q-58 0 -147 -14l-47 126l375 320l-534 -12v181h742v-164z" glyph-name="three" horiz-adv-x="1063" unicode="3"/><glyph d="M1007 464v-169h-152v-295h-176v295h-546l-37 169l583 697h176v-697h152zM299 464h380v458z" glyph-name="four" horiz-adv-x="1112" unicode="4"/><glyph d="M538 741q177 0 292 -101t115 -273q0 -169 -109 -280t-312 -111q-147 0 -251 59t-160 153l116 109q96 -162 285 -162q116 0 180 65.5t64 166.5q0 104 -61.5 169t-179.5 65q-108 0 -188 -69l-145 89l46 540h637v-181l-481 13l-24 -281q87 29 176 29z" glyph-name="five" horiz-adv-x="1071" unicode="5"/><glyph d="M623 758q162 0 271.5 -103.5t109.5 -280.5q0 -166 -106 -281t-313 -115q-121 0 -212 50.5t-143.5 135.5t-78 188.5t-25.5 220.5q0 259 125.5 438.5t352.5 179.5q108 0 199 -35.5t148 -87.5l-98 -124q-108 90 -240 90q-75 0 -132.5 -35t-90.5 -95.5t-51 -128.5t-23 -147 q121 130 307 130zM582 133q111 0 171.5 67.5t60.5 175t-60.5 177.5t-156.5 70q-84 0 -158.5 -42.5t-121.5 -112.5q31 -335 265 -335z" glyph-name="six" horiz-adv-x="1134" unicode="6"/><glyph d="M87 1161h797v-168l-468 -993h-208l485 988l-606 -15v188z" glyph-name="seven" horiz-adv-x="971" unicode="7"/><glyph d="M782 606q212 -89 211 -285q0 -143 -114 -244t-324 -101q-196 0 -319 93t-123 248q0 200 208 289q-174 84 -174 261q0 145 111.5 234t292.5 89t294.5 -88t113.5 -232q0 -84 -46.5 -152.5t-130.5 -111.5zM551 1041q-106 0 -165.5 -50.5t-59.5 -135.5q0 -80 60.5 -132 t164.5 -52q106 0 167.5 52t61.5 132q0 85 -60.5 135.5t-168.5 50.5zM551 140q118 0 186.5 53t68.5 138q0 84 -68.5 138.5t-186.5 54.5q-116 0 -183.5 -54.5t-67.5 -138.5q0 -85 66.5 -138t184.5 -53z" glyph-name="eight" horiz-adv-x="1109" unicode="8"/><glyph d="M546 1191q121 0 212.5 -50t143.5 -136.5t77 -189t25 -219.5q0 -259 -125 -438.5t-352 -179.5q-108 0 -199.5 36.5t-146.5 87.5l95 123q113 -90 243 -90q75 0 131.5 35t89.5 95.5t51 128t23 145.5q-121 -128 -307 -128q-160 0 -270.5 104.5t-110.5 279.5q0 164 106.5 280 t313.5 116zM534 546q82 0 157 42.5t121 111.5q-29 336 -262 336q-113 0 -175.5 -67.5t-62.5 -173.5q0 -108 61.5 -178.5t160.5 -70.5z" glyph-name="nine" horiz-adv-x="1122" unicode="9"/><glyph d="M234 748q48 0 77.5 -32t29.5 -83q0 -48 -29.5 -82t-77.5 -34t-78 32.5t-30 83.5q0 53 29.5 84t78.5 31zM234 201q46 0 76.5 -32t30.5 -81.5t-29.5 -83t-77.5 -33.5t-78 32.5t-30 83.5t29.5 82.5t78.5 31.5z" glyph-name="colon" horiz-adv-x="467" unicode=":"/><glyph d="M188 748q48 0 77.5 -32t29.5 -83q0 -48 -29.5 -82t-77.5 -34t-78 33.5t-30 82.5q0 53 29.5 84t78.5 31zM195 203q55 0 87 -38.5t32 -108.5q0 -184 -160 -312l-50 48q113 101 113 184q-14 -3 -28 -3q-46 0 -76.5 33t-30.5 84q0 48 32 80.5t81 32.5z" glyph-name="semicolon" horiz-adv-x="452" unicode=";"/><glyph d="M794 761l-514 -237l512 -237l-70 -156l-591 296v194l591 295z" glyph-name="less" horiz-adv-x="919" unicode="&lt;"/><glyph d="M862 761v-155h-700v157zM862 437v-155h-700v157z" glyph-name="equal" horiz-adv-x="1025" unicode="="/><glyph d="M195 916l592 -295v-194l-592 -296l-70 156l513 237l-513 237z" glyph-name="greater" horiz-adv-x="919" unicode=">"/><glyph d="M568 1485q210 0 335.5 -124t125.5 -306q0 -174 -105 -293.5t-279 -155.5l-20 -203h-147l-38 336q193 0 295.5 88.5t102.5 225.5q0 116 -76 192t-195 76q-188 0 -313 -176l-146 101q61 97 182 168t278 71zM548 218q53 0 84.5 -33t31.5 -88q0 -53 -31.5 -88.5t-84.5 -35.5 q-51 0 -83 35t-32 89.5t31 87.5t84 33z" glyph-name="question" horiz-adv-x="1129" unicode="?"/><glyph d="M710 1188q266 0 431.5 -170t165.5 -436q0 -142 -54.5 -223t-167.5 -81q-63 0 -114 36t-68 101q-72 -126 -236 -127q-125 0 -199.5 84t-74.5 215.5t74 215.5t200 84q159 0 231 -119l30 77h65v-374q0 -36 24 -61.5t62 -25.5q121 0 121 198q0 229 -136.5 363.5t-353.5 134.5 q-212 0 -351 -130.5t-139 -367.5q0 -230 136.5 -365t353.5 -135q166 0 288 84l58 -93q-145 -101 -346 -100q-275 0 -436 175.5t-161 433.5q0 271 166 438.5t431 167.5zM698 393q85 0 134 52.5t49 141.5t-49 142.5t-134 53.5t-135.5 -53.5t-50.5 -142.5t50.5 -141.5 t135.5 -52.5z" glyph-name="at" horiz-adv-x="1421" unicode="@"/><glyph d="M1138 0l-128 326h-628l-128 -326h-198l533 1319h215l532 -1319h-198zM452 505h488l-244 620z" glyph-name="A" horiz-adv-x="1394" unicode="A"/><glyph d="M964 705q94 -34 153 -125.5t59 -205.5q0 -164 -99 -269t-256 -105h-647v1319h594q147 0 237.5 -96.5t90.5 -249.5q0 -99 -42 -170.5t-90 -97.5zM749 1147h-391v-384h408q73 0 120.5 53.5t47.5 137.5q0 87 -55 140t-130 53zM794 172q89 0 150 61t61 153q0 96 -59.5 155.5 t-148.5 59.5h-439v-429h436z" glyph-name="B" horiz-adv-x="1285" unicode="B"/><glyph d="M1290 1094l-152 -109q-140 189 -372 189q-212 0 -339 -143.5t-127 -371.5q0 -227 127.5 -370.5t338.5 -143.5q114 0 210.5 49.5t160.5 138.5l153 -109q-90 -123 -227.5 -189.5t-296.5 -66.5q-290 0 -471.5 193.5t-181.5 497.5t180.5 497.5t472.5 193.5q160 0 297.5 -66.5 t226.5 -189.5z" glyph-name="C" horiz-adv-x="1375" unicode="C"/><glyph d="M761 1319q268 0 435.5 -184t167.5 -471q0 -285 -168.5 -474.5t-434.5 -189.5h-587v1319h587zM761 176q184 0 297 140t113 348t-112 343.5t-298 135.5h-399v-967h399z" glyph-name="D" horiz-adv-x="1474" unicode="D"/><glyph d="M1041 1147h-684v-381l510 -1v-168h-510v-425h684v-172h-867v1319h867v-172z" glyph-name="E" horiz-adv-x="1165" unicode="E"/><glyph d="M1041 1143h-679v-401h505v-170h-505v-572h-188v1319h867v-176z" glyph-name="F" horiz-adv-x="1150" unicode="F"/><glyph d="M1268 683v-453q-89 -125 -223 -191t-294 -66q-285 0 -461.5 192.5t-176.5 496.5q0 305 175.5 498t459.5 193q162 0 298.5 -67t223.5 -190l-142 -113q-61 90 -162.5 142.5t-221.5 52.5q-201 0 -322.5 -143.5t-121.5 -370.5q0 -229 123 -372.5t331 -143.5q205 0 316 149 v210h-283v176h481z" glyph-name="G" horiz-adv-x="1423" unicode="G"/><glyph d="M1092 1319h188v-1319h-188v570h-730v-570h-188v1319h188v-571h730v571z" glyph-name="H" horiz-adv-x="1457" unicode="H"/><glyph d="M362 0h-188v1319h188v-1319z" glyph-name="I" horiz-adv-x="534" unicode="I"/><glyph d="M82 179l133 103q106 -143 263 -144q135 0 217.5 97.5t82.5 276.5v807h188v-824q0 -230 -118.5 -377t-355.5 -147q-135 0 -242.5 57t-167.5 151z" glyph-name="J" horiz-adv-x="1138" unicode="J"/><glyph d="M975 0l-489 570h-124v-570h-188v1318h188v-570h119l466 570h234l-553 -659l589 -659h-242z" glyph-name="K" horiz-adv-x="1250" unicode="K"/><glyph d="M362 176h679v-176h-867v1319h188v-1143z" glyph-name="L" horiz-adv-x="1129" unicode="L"/><glyph d="M1529 0h-184l-67 1029l-380 -1029h-140l-377 1005l-67 -1005h-188l86 1319h230l386 -1048l385 1048h231z" glyph-name="M" horiz-adv-x="1658" unicode="M"/><glyph d="M1183 1319h184v-1319h-179l-830 1015v-1015h-184v1319h179l830 -1015v1015z" glyph-name="N" horiz-adv-x="1541" unicode="N"/><glyph d="M754.5 1350q288.5 0 464 -192t175.5 -498q0 -304 -175.5 -497.5t-464.5 -193.5q-287 0 -464 193t-177 498q0 302 176.5 496t465 194zM754 1176q-208 0 -331 -143.5t-123 -372t122 -372t332 -143.5q208 0 331 143.5t123 372t-123.5 372t-330.5 143.5z" glyph-name="O" unicode="O"/><glyph d="M633 1318q254 0 391 -119t137 -332t-137 -332t-391 -119h-271v-416h-188v1318h459zM633 596q160 0 248 69t88 204q0 138 -89.5 208t-246.5 70h-271v-551h271z" glyph-name="P" horiz-adv-x="1262" unicode="P"/><glyph d="M1394 660q0 -304 -172 -494l157 -166l-138 -125l-164 174q-145 -80 -324 -80q-287 0 -463.5 194t-176.5 497.5t175.5 497.5t464 194t465 -192.5t176.5 -499.5zM300 660.5q0 -228.5 121.5 -371t331.5 -142.5q212 0 333 142.5t121 370.5q0 230 -122 373t-332 143 q-208 0 -330.5 -143.5t-122.5 -372z" glyph-name="Q" horiz-adv-x="1506" unicode="Q"/><glyph d="M1205 0h-208l-280 476q-14 -2 -46 -2h-309v-474h-188v1319h507q263 0 390 -110t127 -313q0 -311 -302 -394zM362 642h309q336 0 336 252q0 254 -326 255h-319v-507z" glyph-name="R" horiz-adv-x="1264" unicode="R"/><glyph d="M97 200l139 121q159 -177 385 -178q131 0 214 55t83 152q0 67 -41.5 114.5t-107.5 77.5t-147 55.5t-161 56t-146 70t-107.5 107.5t-41.5 159q0 169 129.5 266t335.5 97q276 0 441 -184l-132 -113q-128 133 -315 134q-119 0 -191 -52.5t-72 -135.5q0 -60 41.5 -104.5 t107.5 -72.5t146 -52.5t161 -56.5t147 -73.5t107.5 -111.5t41.5 -162q0 -183 -142.5 -289.5t-353.5 -106.5q-154 0 -293 60.5t-228 166.5z" glyph-name="S" horiz-adv-x="1221" unicode="S"/><glyph d="M1140 1319v-176h-444v-1143h-186v1143h-442v176h1072z" glyph-name="T" horiz-adv-x="1210" unicode="T"/><glyph d="M1273 1319v-734q0 -285 -141.5 -450.5t-411.5 -165.5q-271 0 -412.5 165.5t-141.5 450.5v734h187v-717q0 -234 101 -350.5t266 -116.5q164 0 264.5 117t100.5 350v717h188z" glyph-name="U" horiz-adv-x="1438" unicode="U"/><glyph d="M1268 1318l-493 -1318h-225l-494 1318h212l394 -1129l393 1129h213z" glyph-name="V" horiz-adv-x="1324" unicode="V"/><glyph d="M1434 1319h206l-311 -1319h-187l-289 964l-305 -964h-184l-296 1319h197l204 -1008l316 952h143l297 -951z" glyph-name="W" horiz-adv-x="1708" unicode="W"/><glyph d="M55 0l428 664l-428 655h220l314 -491l307 491h218l-418 -655l439 -664h-220l-323 493l-317 -493h-220z" glyph-name="X" horiz-adv-x="1184" unicode="X"/><glyph d="M1169 1319l-466 -829v-490h-194v495l-463 824h212l350 -677l349 677h212z" glyph-name="Y" horiz-adv-x="1216" unicode="Y"/><glyph d="M1205 1318v-99l-819 -1050l819 10v-179h-1094v101l817 1048l-817 -11v180h1094z" glyph-name="Z" horiz-adv-x="1307" unicode="Z"/><glyph d="M531 1405v-147h-210v-1348h210v-147h-372v1642h372z" glyph-name="bracketleft" horiz-adv-x="641" unicode="["/><glyph d="M928 34l-172 -82l-713 1528l172 80z" glyph-name="backslash" horiz-adv-x="989" unicode="\"/><glyph d="M106 1405h372v-1642h-372v147h211v1348h-211v147z" glyph-name="bracketright" horiz-adv-x="641" unicode="]"/><glyph d="M944 739l-156 -70l-271 519l-271 -521l-156 72l330 580h194z" glyph-name="asciicircum" horiz-adv-x="1037" unicode="^"/><glyph d="M869 -68v-150h-814v150h814z" glyph-name="underscore" horiz-adv-x="925" unicode="_"/><glyph d="M553 1060l-370 141l63 151l345 -217z" glyph-name="grave" horiz-adv-x="814" unicode="`"/><glyph d="M862 939h179v-939h-150l-29 118v37q-104 -183 -330 -182q-201 0 -321.5 136.5t-120.5 358t120.5 360t318.5 138.5q225 0 333 -186v159zM568 142q131 0 210.5 90.5t79.5 237t-78.5 237t-211.5 90.5t-212.5 -90.5t-79.5 -237t79.5 -237t212.5 -90.5z" glyph-name="a" horiz-adv-x="1198" unicode="a"/><glyph d="M652 966q207 0 324.5 -137.5t117.5 -357.5t-117 -359t-322 -139q-218 0 -322 165v-3l-34 -135h-151v1468h185v-664q104 162 319 162zM619.5 142q134.5 0 211.5 89.5t77 238t-77 238t-211.5 89.5t-210.5 -89.5t-76 -238t76 -238t210.5 -89.5z" glyph-name="b" horiz-adv-x="1184" unicode="b"/><glyph d="M94 467.5q0 223.5 135.5 361t355.5 137.5q261 0 403 -191l-135 -92q-92 119 -262 119q-143 0 -229 -93t-86 -241q0 -145 85.5 -238t227.5 -93q172 0 263 119l136 -94q-137 -189 -403 -189q-220 0 -355.5 135.5t-135.5 359z" glyph-name="c" horiz-adv-x="1051" unicode="c"/><glyph d="M852 1468h182v-1468h-148l-34 135v5q-104 -167 -323 -167q-205 0 -322 139t-117 359t118 357.5t324 137.5q217 0 320 -162v664zM565 142q135 0 211 89.5t76 238t-76 238t-211 89.5t-212 -89.5t-77 -238t77 -238t212 -89.5z" glyph-name="d" horiz-adv-x="1184" unicode="d"/><glyph d="M90 471q0 227 124 361t336 134q230 0 337.5 -146t76.5 -414h-681q14 -128 87.5 -203t199.5 -75q177 0 302 119l91 -126q-157 -148 -393 -148q-220 0 -350 136.5t-130 361.5zM283 532h517q0 126 -60.5 205.5t-186.5 79.5q-128 0 -199 -81t-71 -204z" glyph-name="e" horiz-adv-x="1070" unicode="e"/><glyph d="M683 1280q-65 26 -121.5 30t-105 -12t-76 -70t-27.5 -139v-150h307v-168h-307v-771h-182v771h-106v168h106v134q0 108 29.5 189t81 126.5t117 66t138 14.5t146.5 -35v-154z" glyph-name="f" horiz-adv-x="725" unicode="f"/><glyph d="M886 939h152v-927q0 -229 -123 -376.5t-364 -147.5q-287 0 -430 208l138 103q46 -61 119 -103t163 -42q138 0 224.5 98t86.5 277v138q-104 -155 -320 -155q-207 0 -324.5 133t-117.5 343q0 213 118 345.5t321 132.5q222 0 328 -167zM565 172q135 0 211 86.5t76 227.5 q0 140 -76 225.5t-211 85.5t-212 -85.5t-77 -225.5q0 -142 76 -228t213 -86z" glyph-name="g" horiz-adv-x="1184" unicode="g"/><glyph d="M652 964q343 0 343 -399v-565h-191l2 548q0 241 -192 240q-152 0 -274 -213v-575h-192v1449h192v-657q128 172 312 172z" glyph-name="h" horiz-adv-x="1129" unicode="h"/><glyph d="M244 1469q53 0 87 -35.5t34 -92.5q0 -55 -33 -92t-88 -37q-53 0 -86 36.5t-33 92.5q0 58 33 93t86 35zM345 0h-186v939h186v-939z" glyph-name="i" horiz-adv-x="500" unicode="i"/><glyph d="M258 1468q53 0 86 -36t33 -92q0 -55 -33 -91.5t-86 -36.5t-87 35.5t-34 92.5q0 58 33 93t88 35zM360 939v-968q0 -350 -322 -510l-81 145l12 5q10 7 29 20.5t41 32.5t45.5 48t42 62t30.5 79t12 96v990h191z" glyph-name="j" horiz-adv-x="518" unicode="j"/><glyph d="M800 -2l-331 396h-133v-394h-188v1399h188v-827h132l288 367h237l-368 -456l425 -485h-250z" glyph-name="k" horiz-adv-x="1073" unicode="k"/><glyph d="M473 160l29 -148q-171 -60 -265 -5.5t-94 213.5v1205h186v-1183q0 -65 34.5 -83t109.5 1z" glyph-name="l" horiz-adv-x="588" unicode="l"/><glyph d="M1246 964q333 0 333 -399v-565h-185l2 560q0 241 -184 240q-142 0 -258 -191q2 -15 2 -44v-565h-185l2 560q0 241 -184 240q-143 0 -258 -192v-608h-189v939h152l30 -142q125 167 299 167q232 0 302 -198q130 198 321 198z" glyph-name="m" horiz-adv-x="1713" unicode="m"/><glyph d="M645 964q157 0 250 -93.5t93 -305.5v-565h-191v548q0 241 -189 240q-150 0 -277 -213v-575h-189v939h152l32 -151q135 176 319 176z" glyph-name="n" horiz-adv-x="1124" unicode="n"/><glyph d="M584 966q217 0 354 -137.5t137 -360.5q0 -208 -130.5 -351.5t-360.5 -143.5q-220 0 -357 136.5t-137 358.5q0 224 137 361t357 137zM584 800q-143 0 -223.5 -94.5t-80.5 -237.5q0 -142 80 -236t224 -94q140 0 221 95t81 235q0 143 -80 237.5t-222 94.5z" glyph-name="o" horiz-adv-x="1167" unicode="o"/><glyph d="M654 966q203 0 320 -139t117 -359.5t-118 -357.5t-323 -137q-218 0 -321 162v-647h-182v1451h148l34 -135v-5q110 167 325 167zM616 142q137 0 213.5 89.5t76.5 238t-76.5 238t-213.5 89.5q-135 0 -211 -90.5t-76 -237.5q0 -148 76 -237.5t211 -89.5z" glyph-name="p" horiz-adv-x="1181" unicode="p"/><glyph d="M886 939h150v-1451h-184v647q-102 -162 -320 -162q-207 0 -324.5 137t-117.5 357.5t117 359.5t322 139q218 0 323 -167v5zM565 142q135 0 211 89.5t76 238t-76 238t-211 89.5t-212 -89.5t-77 -238t77 -238t212 -89.5z" glyph-name="q" horiz-adv-x="1177" unicode="q"/><glyph d="M573 966q89 0 168 -44l-82 -173q-56 31 -115 31q-96 0 -152.5 -95.5t-67.5 -215.5v-469h-182v939h145l34 -162q88 189 252 189z" glyph-name="r" horiz-adv-x="786" unicode="r"/><glyph d="M476 -27q-121 0 -233 38t-171 97l85 133q53 -48 143.5 -83t180.5 -35q96 0 154 34t58 97q0 60 -60.5 92.5t-147 49.5t-171.5 40t-145.5 83.5t-60.5 161.5q0 125 102 205t268 80q212 0 372 -126l-91 -125q-126 101 -281 101q-191 0 -191 -121q0 -51 43.5 -83.5t109 -44.5 t142.5 -32t142.5 -44.5t109 -81.5t43.5 -144q0 -133 -110 -212.5t-291 -79.5z" glyph-name="s" horiz-adv-x="964" unicode="s"/><glyph d="M713 167l17 -152q-215 -90 -366.5 4t-151.5 333v431h-152v156h152v293h184v-293h287l-12 -156h-275v-445q0 -147 93.5 -190.5t223.5 19.5z" glyph-name="t" horiz-adv-x="795" unicode="t"/><glyph d="M792 939h189v-939h-152l-32 150q-135 -176 -319 -176q-341 0 -341 400v565h191l-2 -531q0 -241 189 -241q154 0 277 210v562z" glyph-name="u" horiz-adv-x="1124" unicode="u"/><glyph d="M814 939h196l-387 -939h-193l-391 939h198l289 -739z" glyph-name="v" horiz-adv-x="1053" unicode="v"/><glyph d="M1222 939h198l-307 -939h-185l-191 700l-193 -700h-186l-307 939h190l201 -686l210 658h169l208 -653z" glyph-name="w" horiz-adv-x="1474" unicode="w"/><glyph d="M39 939h226l220 -331l220 331h213l-319 -461l335 -478h-224l-229 340l-225 -340h-220l331 473z" glyph-name="x" horiz-adv-x="967" unicode="x"/><glyph d="M753 939h189l-381 -1041q-79 -222 -198 -305t-324 -25l12 179q63 -26 112 -27.5t83 14t64 56.5t50.5 87t47.5 121l-355 941h191l258 -732z" glyph-name="y" horiz-adv-x="979" unicode="y"/><glyph d="M872 939v-178l-587 -595l587 11v-177h-799v177l574 596l-574 -12v178h799z" glyph-name="z" horiz-adv-x="943" unicode="z"/><glyph d="M538 -254q-154 0 -234 78.5t-80 228.5v331q0 60 -23.5 86.5t-84.5 26.5h-39v141h39q61 0 84.5 27.5t23.5 87.5v327q0 150 80 229.5t234 79.5v-155q-84 0 -119 -39.5t-35 -139.5v-289q0 -87 -25.5 -130.5t-102.5 -68.5q77 -26 102.5 -68.5t25.5 -129.5v-289 q0 -101 35 -141t119 -40v-153z" glyph-name="braceleft" horiz-adv-x="658" unicode="{"/><glyph d="M375 -375h-191v1694h191v-1694z" glyph-name="bar" horiz-adv-x="561" unicode="|"/><glyph d="M101 1389q154 0 234 -79t80 -230v-327q0 -60 23 -87.5t84 -27.5h39v-141h-39q-61 0 -84 -26.5t-23 -86.5v-331q0 -150 -80.5 -228.5t-233.5 -78.5v153q84 0 118.5 40.5t34.5 140.5v289q0 87 25.5 129.5t104.5 68.5q-79 26 -104.5 69t-25.5 130v289q0 101 -35 140t-118 39 v155z" glyph-name="braceright" horiz-adv-x="665" unicode="}"/><glyph d="M305 572h-143q0 111 67.5 179t163.5 68q61 0 113 -29t98 -59t89 -30q87 0 87 108h142q0 -119 -64 -183.5t-162 -64.5q-48 0 -92 19t-72.5 42t-64 42t-69.5 19q-93 0 -93 -111z" glyph-name="asciitilde" horiz-adv-x="1085" unicode="~"/><glyph d="M273 864q-44 0 -72.5 29t-28.5 76q0 44 28.5 76t72.5 32t71.5 -31t27.5 -77q0 -48 -27.5 -76.5t-71.5 -28.5zM220 689h99l41 -686l14 -426h-205l14 426z" glyph-name="exclamdown" horiz-adv-x="542" unicode="¡"/><glyph d="M565 263q148 0 239 112l131 -88q-118 -166 -343 -178l4 -109h-115l4 114q-172 26 -272 149.5t-100 311.5q0 189 100.5 314.5t272.5 149.5v122h110l-4 -118q222 -14 343 -174l-131 -91q-84 113 -239 113q-133 0 -205.5 -88t-72.5 -228t72.5 -226t205.5 -86z" glyph-name="cent" horiz-adv-x="1018" unicode="¢"/><glyph d="M415 495v-328h524v-167h-828v125l121 29v341h-121v140h121v123q0 193 112 311.5t291 118.5q203 0 319 -150l-109 -110q-72 102 -202 103q-109 0 -168.5 -78.5t-59.5 -194.5v-123h348v-140h-348z" glyph-name="sterling" horiz-adv-x="1013" unicode="£"/><glyph d="M881 582q0 -128 -57 -213l123 -111l-95 -96l-111 120q-85 -60 -212 -60q-128 0 -217 63l-112 -125l-96 96l125 116q-56 89 -57 210q0 125 58 215l-126 114l96 96l114 -125q85 60 213 60q121 0 212 -58l113 123l95 -96l-124 -112q58 -91 58 -217zM527.5 360 q95.5 0 146.5 60t51 160q0 106 -51 164t-147 58q-97 0 -147.5 -59t-50.5 -161t51.5 -162t147 -60z" glyph-name="currency" horiz-adv-x="1051" unicode="¤"/><glyph d="M1143 1161l-414 -647h177v-120h-626v120h179l-413 647h208l338 -579l343 579h208zM280 179v121h626v-121h-220v-179h-186v179h-220z" glyph-name="yen" horiz-adv-x="1191" unicode="¥"/><glyph d="M375 621h-191v698h191v-698zM375 -375h-191v739h191v-739z" glyph-name="brokenbar" horiz-adv-x="561" unicode="¦"/><glyph d="M763 271q148 -89 148 -261q0 -162 -111.5 -241.5t-284.5 -79.5q-261 0 -418 174l98 118q125 -145 315 -145q56 0 102.5 12t84 52t37.5 105q0 82 -61.5 133t-149.5 77.5t-176 57.5t-149 96.5t-61 169.5q0 169 151 243q-152 84 -151 247q0 152 108 238t269 86 q116 0 214 -45t159 -117l-100 -107q-106 125 -272 124q-92 0 -147.5 -43.5t-55.5 -123.5t61.5 -128.5t149.5 -74.5t176.5 -55.5t150 -97t61.5 -176.5q0 -171 -148 -238zM312 558q0 -75 55 -116t160 -77q85 -24 148.5 7.5t63.5 115.5q0 77 -54 119.5t-158 80.5 q-84 17 -149.5 -14.5t-65.5 -115.5z" glyph-name="section" horiz-adv-x="1018" unicode="§"/><glyph d="M270 1319q41 0 67.5 -28t26.5 -72q0 -43 -26 -72t-68.5 -29t-68 28t-25.5 73q0 46 25.5 73t68.5 27zM612.5 1319q42.5 0 68.5 -28t26 -72q0 -43 -26 -72t-68.5 -29t-68 28t-25.5 73q0 46 25.5 73t68 27z" glyph-name="dieresis" horiz-adv-x="882" unicode="¨"/><glyph d="M708 1251q249 0 418 -164t169 -423q0 -263 -169 -426t-418 -163t-419 164t-170 425q0 259 170 423t419 164zM708.5 1138q-201.5 0 -338 -131t-136.5 -343q0 -213 136.5 -344.5t338 -131.5t338 131.5t136.5 344.5t-136.5 343.5t-338 130.5zM427 662q0 133 79 216t211 83 q155 0 239 -116l-96 -63q-48 68 -141 68q-79 0 -123.5 -52t-44.5 -135.5t44.5 -136t123.5 -52.5q89 0 141 69l96 -63q-80 -116 -239 -116q-131 0 -210.5 81.5t-79.5 216.5z" glyph-name="copyright" horiz-adv-x="1430" unicode="©"/><glyph d="M364 1353q137 0 223.5 -68t86.5 -201v-406h-123l-20 76q-72 -94 -217 -94q-114 0 -180.5 57.5t-66.5 146.5q0 101 72.5 158.5t191.5 57.5q106 0 196 -36v40q0 72 -47 108.5t-125 36.5q-102 0 -191 -51l-51 117q103 58 251 58zM353 777q75 0 123 46t51 121q-75 36 -163 36 q-68 0 -107.5 -26.5t-39.5 -74.5t35.5 -75t100.5 -27z" glyph-name="ordfeminine" horiz-adv-x="773" unicode="ª"/><glyph d="M572 761l-265 -287l265 -290l-123 -117l-338 406l338 406zM945 761l-264 -287l264 -290l-122 -117l-338 406l338 406z" glyph-name="guillemotleft" horiz-adv-x="1109" unicode="«"/><glyph d="M993 751v-434h-155v289h-676v145h831z" glyph-name="logicalnot" horiz-adv-x="1155" unicode="¬"/><glyph d="M440 1353q155 0 252.5 -100.5t97.5 -262.5q0 -157 -96.5 -260.5t-253.5 -101.5q-159 0 -255 100.5t-96 261t97 262t254 101.5zM440 688q128 0 205 84.5t77 217.5t-77 216.5t-205 83.5q-130 0 -206.5 -83.5t-76.5 -216.5t76.5 -217.5t206.5 -84.5zM597 1053 q0 -96 -90 -123l94 -142h-91l-77 134h-6h-50v-134h-77v396h127q170 0 170 -131zM377 1116v-130h50q92 0 92 65t-92 65h-50z" glyph-name="registered" horiz-adv-x="880" unicode="®"/><glyph d="M159 1149v128h597v-128h-597z" glyph-name="macron" horiz-adv-x="913" unicode="¯"/><glyph d="M273 1355q89 0 144.5 -55.5t55.5 -144.5q0 -82 -55.5 -141.5t-144.5 -59.5q-90 0 -145 56.5t-55 144.5q0 92 53 146t147 54zM273 1241q-41 0 -64 -24t-23 -61.5t24 -62.5t63 -25t63 26t24 61q0 38 -24.5 62t-62.5 24z" glyph-name="degree" horiz-adv-x="546" unicode="°"/><glyph d="M611 737h305v-157h-305v-225h-171v225h-303v159h303v208h171v-210zM137 104v159h779v-159h-779z" glyph-name="plusminus" horiz-adv-x="1046" unicode="±"/><glyph d="M276 939l224 8v-126h-416v111l184 152q32 27 48.5 43t30 41t13.5 52q0 44 -30 63t-60 19q-60 0 -118 -77l-87 82q77 109 213 110q92 0 153 -48t61 -133q0 -118 -135 -231z" glyph-name="uni00B2" horiz-adv-x="585" unicode="²"/><glyph d="M331 1155q77 -12 119.5 -56t42.5 -106q0 -77 -54.5 -130.5t-173.5 -53.5q-65 0 -117 23t-75 54l89 78q39 -39 103 -39q48 0 69 23t21 50q0 31 -21.5 54t-68.5 23q-38 0 -62 -3l-32 95l133 113l-202 -9v130h372v-112z" glyph-name="uni00B3" horiz-adv-x="583" unicode="³"/><glyph d="M261 1060l-36 75l343 217l63 -151z" glyph-name="acute" horiz-adv-x="814" unicode="´"/><glyph d="M792 939h189v-939h-152l-32 150q-135 -176 -319 -176q-109 0 -186 45v-531h-155v1451h191l-2 -531q0 -241 189 -241q154 0 277 210v562z" glyph-name="uni00B5" horiz-adv-x="1124" unicode="µ"/><glyph d="M1210 1318v-1625h-157v1452h-222v-1452h-155v746h-67q-256 0 -392.5 113.5t-136.5 326.5q0 207 137.5 323t391.5 116h601z" glyph-name="paragraph" horiz-adv-x="1382" unicode="¶"/><glyph d="M236 758q44 0 71.5 -29t27.5 -77q0 -44 -27.5 -76t-72 -32t-72.5 31t-28 77q0 48 27.5 77t73.5 29z" glyph-name="periodcentered" horiz-adv-x="469" unicode="·"/><glyph d="M367 22l80 -10l-10 -99q27 -2 59.5 -12t70 -30.5t59 -61.5t12.5 -94q-12 -80 -78.5 -115t-145 -26.5t-149.5 40.5l32 98q26 -15 73.5 -30t98 -7t57.5 52q5 34 -14.5 57t-60.5 32.5t-61 11t-50 3.5z" glyph-name="cedilla" horiz-adv-x="810" unicode="¸"/><glyph d="M268 1401h84v-580h-137v447l-104 -36l-38 111z" glyph-name="uni00B9" horiz-adv-x="481" unicode="¹"/><glyph d="M418 1353q154 0 251 -95.5t97 -252.5q0 -143 -91 -244.5t-257 -101.5q-155 0 -252.5 94.5t-97.5 251.5t97.5 252.5t252.5 95.5zM418 1219q-92 0 -141.5 -61.5t-49.5 -152.5q0 -89 50.5 -150t140.5 -61q89 0 140 62t51 149q0 90 -50.5 152t-140.5 62z" glyph-name="ordmasculine" horiz-adv-x="836" unicode="º"/><glyph d="M290 879l336 -406l-336 -406l-124 117l264 290l-264 287zM660 879l337 -406l-337 -406l-124 117l264 290l-264 287z" glyph-name="guillemotright" horiz-adv-x="1109" unicode="»"/><glyph d="M1130 1369l118 -67l-884 -1314l-117 61zM352 736h-137v447l-104 -36l-38 111l195 58h84v-580zM1389 242v-117h-77v-125h-122v125h-258l-41 117l299 338h122v-341zM1014 229l176 7v189z" glyph-name="onequarter" horiz-adv-x="1460" unicode="¼"/><glyph d="M1130 1369l118 -67l-884 -1314l-117 61zM352 736h-137v447l-104 -36l-38 111l195 58h84v-580zM1190 118l223 8v-126h-416v111l184 152q32 27 48.5 43.5t30 41t13.5 51.5q0 44 -30 63t-60 19q-60 0 -118 -77l-87 82q77 109 213 110q92 0 153 -48t61 -133q0 -118 -135 -231 z" glyph-name="onehalf" horiz-adv-x="1498" unicode="½"/><glyph d="M1181 1369l118 -67l-884 -1314l-116 61zM493 908q0 -77 -54.5 -130.5t-173.5 -53.5q-65 0 -117 23t-75 53l89 79q39 -39 103 -39q48 0 69 23t21 50q0 31 -21.5 54t-68.5 23q-38 0 -62 -4l-32 96l133 113l-202 -9v130h372v-113l-143 -133q77 -12 119.5 -56.5t42.5 -105.5z M1440 242v-117h-76v-125h-123v125h-258l-41 117l299 338h123v-341zM1065 229l176 7v189z" glyph-name="threequarters" horiz-adv-x="1512" unicode="¾"/><glyph d="M584 840q-49 0 -81 33t-32 84.5t30.5 85.5t80 34t80.5 -34t31 -87q0 -51 -30.5 -83.5t-78.5 -32.5zM876 -99l146 -101q-61 -97 -182 -168t-277 -71q-210 0 -335.5 124t-125.5 306q0 176 106 295.5t280 153.5l27 224h128l46 -357q-193 0 -295 -88.5t-102 -225.5 q0 -116 76 -192t195 -76q106 0 186.5 54t126.5 122z" glyph-name="questiondown" horiz-adv-x="1129" unicode="¿"/><glyph d="M824 1516l-37 -76l-371 142l64 150zM1138 0l-128 326h-628l-128 -326h-198l533 1319h215l532 -1319h-198zM452 505h488l-244 620z" glyph-name="Agrave" horiz-adv-x="1394" unicode="À"/><glyph d="M969 1582l-370 -142l-36 76l343 216zM1138 0l-128 326h-628l-128 -326h-198l533 1319h215l532 -1319h-198zM452 505h488l-244 620z" glyph-name="Aacute" horiz-adv-x="1394" unicode="Á"/><glyph d="M698 1606l-172 -142l-70 74l198 211h88l197 -211l-70 -74zM1138 0l-128 326h-628l-128 -326h-198l533 1319h215l532 -1319h-198zM452 505h488l-244 620z" glyph-name="Acircumflex" horiz-adv-x="1394" unicode="Â"/><glyph d="M573 1582q-77 0 -76 -97h-128q0 101 58.5 161.5t140.5 60.5q63 0 135 -51.5t111 -51.5q68 0 68 96h127q0 -108 -55 -166t-137 -58q-65 0 -136.5 53t-107.5 53zM1138 0l-128 326h-628l-128 -326h-198l533 1319h215l532 -1319h-198zM452 505h488l-244 620z" glyph-name="Atilde" horiz-adv-x="1394" unicode="Ã"/><glyph d="M529 1498q-43 0 -68.5 28.5t-25.5 72.5q0 46 25.5 73.5t68.5 27.5q41 0 67.5 -28t26.5 -73q0 -43 -25.5 -72t-68.5 -29zM872 1498q-43 0 -68.5 28.5t-25.5 72.5q0 46 25.5 73.5t68.5 27.5t68.5 -28t25.5 -73q0 -43 -25.5 -72t-68.5 -29zM1138 0l-128 326h-628l-128 -326 h-198l533 1319h215l532 -1319h-198zM452 505h488l-244 620z" glyph-name="Adieresis" horiz-adv-x="1394" unicode="Ä"/><glyph d="M698 1423q-82 0 -132.5 55.5t-50.5 141.5q0 89 49 140.5t134 51.5q80 0 130.5 -53.5t50.5 -138.5q0 -80 -50.5 -138.5t-130.5 -58.5zM698 1712q-39 0 -62 -25.5t-23 -66.5t23.5 -67.5t61.5 -26.5t61 27t23 66.5t-24 66t-60 26.5zM1138 0l-128 326h-628l-128 -326h-198 l533 1319h215l532 -1319h-198zM452 505h488l-244 620z" glyph-name="Aring" horiz-adv-x="1394" unicode="Å"/><glyph d="M1753 1140h-654v-374h447v-179h-447v-408h654v-179h-833v341h-439l-213 -341h-212l860 1319h837v-179zM579 497h341v544z" glyph-name="AE" horiz-adv-x="1879" unicode="Æ"/><glyph d="M766 145q114 0 210.5 49.5t160.5 138.5l153 -109q-85 -116 -212 -182t-276 -73l-5 -56q27 -2 59.5 -12t70 -30.5t59 -61.5t12.5 -94q-12 -80 -78.5 -115t-145 -26.5t-149.5 40.5l32 98q26 -15 73.5 -30t98 -7t57.5 52q5 34 -14.5 57t-60.5 32.5t-61 11t-50 3.5l20 138 q-271 17 -439 208.5t-168 481.5q0 304 180.5 497.5t472.5 193.5q160 0 297.5 -66.5t226.5 -189.5l-152 -109q-140 189 -372 189q-212 0 -339 -143.5t-127 -371.5q0 -227 127 -370.5t339 -143.5z" glyph-name="Ccedilla" horiz-adv-x="1375" unicode="Ç"/><glyph d="M732 1516l-37 -76l-371 142l63 150zM1041 1147h-684v-381l510 -1v-168h-510v-425h684v-172h-867v1319h867v-172z" glyph-name="Egrave" horiz-adv-x="1165" unicode="È"/><glyph d="M877 1582l-370 -142l-36 76l343 216zM1041 1147h-684v-381l510 -1v-168h-510v-425h684v-172h-867v1319h867v-172z" glyph-name="Eacute" horiz-adv-x="1165" unicode="É"/><glyph d="M606 1606l-173 -142l-69 74l197 211h89l197 -211l-70 -74zM1041 1147h-684v-381l510 -1v-168h-510v-425h684v-172h-867v1319h867v-172z" glyph-name="Ecircumflex" horiz-adv-x="1165" unicode="Ê"/><glyph d="M437 1498q-43 0 -68.5 28.5t-25.5 72.5q0 46 25.5 73.5t68.5 27.5q41 0 67.5 -28t26.5 -73q0 -43 -25.5 -72t-68.5 -29zM780 1498q-43 0 -68.5 28.5t-25.5 72.5q0 46 25.5 73.5t68.5 27.5t68.5 -28t25.5 -73q0 -43 -25.5 -72t-68.5 -29zM1041 1147h-684v-381l510 -1v-168 h-510v-425h684v-172h-867v1319h867v-172z" glyph-name="Edieresis" horiz-adv-x="1165" unicode="Ë"/><glyph d="M358 1440l-370 142l63 150l345 -216zM362 0h-188v1319h188v-1319z" glyph-name="Igrave" horiz-adv-x="534" unicode="Ì"/><glyph d="M171 1440l-36 76l343 216l63 -150zM362 0h-188v1319h188v-1319z" glyph-name="Iacute" horiz-adv-x="534" unicode="Í"/><glyph d="M225 1749h89l196 -211l-70 -74l-170 142l-173 -142l-70 74zM362 0h-188v1319h188v-1319z" glyph-name="Icircumflex" horiz-adv-x="534" unicode="Î"/><glyph d="M101 1700q41 0 67.5 -28t26.5 -73q0 -43 -26 -72t-68.5 -29t-68 28.5t-25.5 72.5q0 46 25.5 73.5t68.5 27.5zM443.5 1700q42.5 0 68.5 -28t26 -73q0 -43 -26 -72t-68.5 -29t-68 28.5t-25.5 72.5q0 46 25.5 73.5t68 27.5zM362 0h-188v1319h188v-1319z" glyph-name="Idieresis" horiz-adv-x="534" unicode="Ï"/><glyph d="M737 1319q268 0 436 -184t168 -471q0 -285 -168 -474.5t-436 -189.5h-520v570h-128v179h128v570h520zM737 179q184 0 296 139t112 345.5t-111 341.5t-297 135h-331v-391h360v-179h-360v-391h331z" glyph-name="Eth" horiz-adv-x="1452" unicode="Ð"/><glyph d="M631 1582q-77 0 -76 -97h-128q0 101 58.5 161.5t140.5 60.5q63 0 135 -51.5t111 -51.5q68 0 68 96h127q0 -108 -55 -166t-136 -58q-65 0 -137 53t-108 53zM1183 1319h184v-1319h-179l-830 1015v-1015h-184v1319h179l830 -1015v1015z" glyph-name="Ntilde" horiz-adv-x="1541" unicode="Ñ"/><glyph d="M843 1440l-370 142l63 150l345 -216zM754.5 1350q288.5 0 464 -192t175.5 -498q0 -304 -175.5 -497.5t-464.5 -193.5q-287 0 -464 193t-177 498q0 302 176.5 496t465 194zM754 1176q-208 0 -331 -143.5t-123 -372t122 -372t332 -143.5q208 0 331 143.5t123 372 t-123.5 372t-330.5 143.5z" glyph-name="Ograve" unicode="Ò"/><glyph d="M655 1440l-35 76l343 216l63 -150zM754.5 1350q288.5 0 464 -192t175.5 -498q0 -304 -175.5 -497.5t-464.5 -193.5q-287 0 -464 193t-177 498q0 302 176.5 496t465 194zM754 1176q-208 0 -331 -143.5t-123 -372t122 -372t332 -143.5q208 0 331 143.5t123 372t-123.5 372 t-330.5 143.5z" glyph-name="Oacute" unicode="Ó"/><glyph d="M710 1749h89l196 -211l-70 -74l-171 142l-172 -142l-70 74zM754.5 1350q288.5 0 464 -192t175.5 -498q0 -304 -175.5 -497.5t-464.5 -193.5q-287 0 -464 193t-177 498q0 302 176.5 496t465 194zM754 1176q-208 0 -331 -143.5t-123 -372t122 -372t332 -143.5 q208 0 331 143.5t123 372t-123.5 372t-330.5 143.5z" glyph-name="Ocircumflex" unicode="Ô"/><glyph d="M553 1485h-128q0 101 59 161.5t141 60.5q63 0 134.5 -51.5t110.5 -51.5q68 0 69 96h126q0 -108 -54.5 -166t-136.5 -58q-65 0 -136.5 53t-107.5 53q-77 0 -77 -97zM754.5 1350q288.5 0 464 -192t175.5 -498q0 -304 -175.5 -497.5t-464.5 -193.5q-287 0 -464 193t-177 498 q0 302 176.5 496t465 194zM754 1176q-208 0 -331 -143.5t-123 -372t122 -372t332 -143.5q208 0 331 143.5t123 372t-123.5 372t-330.5 143.5z" glyph-name="Otilde" unicode="Õ"/><glyph d="M585 1700q41 0 67.5 -28t26.5 -73q0 -43 -25.5 -72t-68 -29t-68 28.5t-25.5 72.5q0 46 25 73.5t68 27.5zM928.5 1700q42.5 0 68 -28t25.5 -73q0 -43 -25.5 -72t-68 -29t-68 28.5t-25.5 72.5q0 46 25.5 73.5t68 27.5zM754.5 1350q288.5 0 464 -192t175.5 -498 q0 -304 -175.5 -497.5t-464.5 -193.5q-287 0 -464 193t-177 498q0 302 176.5 496t465 194zM754 1176q-208 0 -331 -143.5t-123 -372t122 -372t332 -143.5q208 0 331 143.5t123 372t-123.5 372t-330.5 143.5z" glyph-name="Odieresis" unicode="Ö"/><glyph d="M812 486l-128 -128l-220 221l-203 -204l-119 120l203 203l-208 207l128 129l208 -208l203 205l121 -120l-205 -204z" glyph-name="multiply" horiz-adv-x="952" unicode="×"/><glyph d="M1446 1213l-139 -138q111 -174 111 -415q0 -304 -175.5 -497.5t-464.5 -193.5q-254 0 -423 154l-128 -128l-114 114l136 137q-113 177 -112 414q0 302 176.5 496t464.5 194q253 0 423 -152l130 131zM326 660q0 -159 60 -278l684 685q-116 106 -292 105 q-208 0 -330 -142.5t-122 -369.5zM1229 660q0 157 -60 277l-684 -684q114 -106 293 -106q208 0 329.5 143t121.5 370z" glyph-name="Oslash" horiz-adv-x="1559" unicode="Ø"/><glyph d="M809 1440l-370 142l63 150l345 -216zM1273 1319v-734q0 -285 -141.5 -450.5t-411.5 -165.5q-271 0 -412.5 165.5t-141.5 450.5v734h187v-717q0 -234 101 -350.5t266 -116.5q164 0 264.5 117t100.5 350v717h188z" glyph-name="Ugrave" horiz-adv-x="1438" unicode="Ù"/><glyph d="M621 1440l-36 76l343 216l64 -150zM1273 1319v-734q0 -285 -141.5 -450.5t-411.5 -165.5q-271 0 -412.5 165.5t-141.5 450.5v734h187v-717q0 -234 101 -350.5t266 -116.5q164 0 264.5 117t100.5 350v717h188z" glyph-name="Uacute" horiz-adv-x="1438" unicode="Ú"/><glyph d="M676 1749h89l196 -211l-70 -74l-171 142l-172 -142l-70 74zM1273 1319v-734q0 -285 -141.5 -450.5t-411.5 -165.5q-271 0 -412.5 165.5t-141.5 450.5v734h187v-717q0 -234 101 -350.5t266 -116.5q164 0 264.5 117t100.5 350v717h188z" glyph-name="Ucircumflex" horiz-adv-x="1438" unicode="Û"/><glyph d="M551 1700q41 0 67.5 -28t26.5 -73q0 -43 -25.5 -72t-68 -29t-68.5 28.5t-26 72.5q0 46 25.5 73.5t68.5 27.5zM894.5 1700q42.5 0 68 -28t25.5 -73q0 -43 -25.5 -72t-68 -29t-68.5 28.5t-26 72.5q0 46 26 73.5t68.5 27.5zM1273 1319v-734q0 -285 -141.5 -450.5 t-411.5 -165.5q-271 0 -412.5 165.5t-141.5 450.5v734h187v-717q0 -234 101 -350.5t266 -116.5q164 0 264.5 117t100.5 350v717h188z" glyph-name="Udieresis" horiz-adv-x="1438" unicode="Ü"/><glyph d="M879 1577l-370 -142l-36 75l343 217zM1169 1319l-466 -829v-490h-194v495l-463 824h212l350 -677l349 677h212z" glyph-name="Yacute" horiz-adv-x="1216" unicode="Ý"/><glyph d="M608 1145q254 0 390.5 -116t136.5 -322q0 -213 -135.5 -326t-391.5 -113h-244v-268h-190v1318h190v-173h244zM608 435q335 0 334 270q0 268 -334 268h-244v-538h244z" glyph-name="Thorn" horiz-adv-x="1237" unicode="Þ"/><glyph d="M174 -224q48 176 48 398v652q0 234 102.5 363.5t306.5 129.5q164 0 259.5 -85t95.5 -205q0 -53 -18.5 -94.5t-52 -71.5t-67.5 -52.5t-76 -48.5t-65 -49q-53 -46 -53 -93q0 -53 51 -84t123.5 -48t146 -38.5t124.5 -76t51 -141.5q0 -125 -90.5 -190.5t-248.5 -65.5 q-109 0 -201.5 33.5t-146.5 84.5l75 119q114 -104 276 -104q174 0 174 118q0 56 -51 88.5t-123 49t-144.5 37t-123.5 71.5t-51 133q0 114 109 200q31 24 99 64.5t99 73t31 80.5q0 60 -54.5 102.5t-140.5 42.5q-126 0 -189 -90.5t-63 -250.5v-654q0 -246 -48 -437z" glyph-name="germandbls" horiz-adv-x="1259" unicode="ß"/><glyph d="M672 1135l-37 -75l-370 141l63 151zM862 939h179v-939h-150l-29 118v37q-104 -183 -330 -182q-201 0 -321.5 136.5t-120.5 358t120.5 360t318.5 138.5q225 0 333 -186v159zM568 142q131 0 210.5 90.5t79.5 237t-78.5 237t-211.5 90.5t-212.5 -90.5t-79.5 -237t79.5 -237 t212.5 -90.5z" glyph-name="agrave" horiz-adv-x="1198" unicode="à"/><glyph d="M817 1201l-370 -141l-36 75l343 217zM862 939h179v-939h-150l-29 118v37q-104 -183 -330 -182q-201 0 -321.5 136.5t-120.5 358t120.5 360t318.5 138.5q225 0 333 -186v159zM568 142q131 0 210.5 90.5t79.5 237t-78.5 237t-211.5 90.5t-212.5 -90.5t-79.5 -237t79.5 -237 t212.5 -90.5z" glyph-name="aacute" horiz-adv-x="1198" unicode="á"/><glyph d="M546 1225l-172 -141l-70 73l198 212h89l196 -212l-70 -73zM862 939h179v-939h-150l-29 118v37q-104 -183 -330 -182q-201 0 -321.5 136.5t-120.5 358t120.5 360t318.5 138.5q225 0 333 -186v159zM568 142q131 0 210.5 90.5t79.5 237t-78.5 237t-211.5 90.5t-212.5 -90.5 t-79.5 -237t79.5 -237t212.5 -90.5z" glyph-name="acircumflex" horiz-adv-x="1198" unicode="â"/><glyph d="M422 1201q-77 0 -77 -97h-128q0 101 59 161.5t140 60.5q63 0 135 -51t111 -51q68 0 68 95h127q0 -108 -54.5 -165.5t-136.5 -57.5q-65 0 -136.5 52.5t-107.5 52.5zM862 939h179v-939h-150l-29 118v37q-104 -183 -330 -182q-201 0 -321.5 136.5t-120.5 358t120.5 360 t318.5 138.5q225 0 333 -186v159zM568 142q131 0 210.5 90.5t79.5 237t-78.5 237t-211.5 90.5t-212.5 -90.5t-79.5 -237t79.5 -237t212.5 -90.5z" glyph-name="atilde" horiz-adv-x="1198" unicode="ã"/><glyph d="M377.5 1118q-42.5 0 -68.5 28t-26 73q0 46 26 73t68 27q41 0 67.5 -28t26.5 -72q0 -43 -25.5 -72t-68 -29zM720.5 1118q-42.5 0 -68.5 28t-26 73q0 46 26 73t68.5 27t68 -28t25.5 -72q0 -43 -25.5 -72t-68 -29zM862 939h179v-939h-150l-29 118v37q-104 -183 -330 -182 q-201 0 -321.5 136.5t-120.5 358t120.5 360t318.5 138.5q225 0 333 -186v159zM568 142q131 0 210.5 90.5t79.5 237t-78.5 237t-211.5 90.5t-212.5 -90.5t-79.5 -237t79.5 -237t212.5 -90.5z" glyph-name="adieresis" horiz-adv-x="1198" unicode="ä"/><glyph d="M546 1043q-82 0 -132 55.5t-50 140.5q0 89 48.5 141t133.5 52q80 0 130.5 -54t50.5 -139q0 -80 -50.5 -138t-130.5 -58zM546 1331q-39 0 -62 -25.5t-23 -66.5t24 -67.5t61.5 -26.5t60.5 27.5t23 66.5t-24 65.5t-60 26.5zM862 939h179v-939h-150l-29 118v37 q-104 -183 -330 -182q-201 0 -321.5 136.5t-120.5 358t120.5 360t318.5 138.5q225 0 333 -186v159zM568 142q131 0 210.5 90.5t79.5 237t-78.5 237t-211.5 90.5t-212.5 -90.5t-79.5 -237t79.5 -237t212.5 -90.5z" glyph-name="aring" horiz-adv-x="1198" unicode="å"/><glyph d="M1217 966q236 0 342.5 -145t77.5 -415h-686q15 -128 87.5 -203t198.5 -75q177 0 302 119l98 -126q-157 -148 -400 -148q-280 0 -394 220q-104 -218 -377 -219q-169 0 -272.5 85.5t-103.5 225.5q0 142 105 222t291 80q133 0 273 -48q-2 119 -77.5 188.5t-201.5 69.5 q-143 0 -297 -75l-70 159q186 85 363 85q121 0 217.5 -54t153.5 -149q111 203 370 203zM1466 541q3 123 -60 196.5t-189 73.5q-121 0 -187 -72.5t-79 -197.5h515zM495 138q118 0 188 66.5t76 189.5q-119 41 -238 41q-234 0 -234 -143q0 -72 58 -113t150 -41z" glyph-name="ae" horiz-adv-x="1742" unicode="æ"/><glyph d="M589 137q172 0 263 119l136 -94q-128 -176 -365 -188l-7 -61q27 -2 59.5 -12t70 -30.5t59 -61.5t12.5 -94q-12 -80 -78.5 -115t-145 -26.5t-149.5 40.5l32 98q26 -15 73.5 -30t98 -7t57.5 52q5 34 -14.5 57t-60.5 32.5t-60.5 11t-50.5 3.5l20 143q-201 14 -323 148 t-122 346q0 224 135.5 361t355.5 137q261 0 403 -191l-135 -92q-92 119 -262 119q-143 0 -229 -93t-86 -241q0 -145 85.5 -238t227.5 -93z" glyph-name="ccedilla" horiz-adv-x="1051" unicode="ç"/><glyph d="M635 1060l-370 141l63 151l344 -217zM90 471q0 227 124 361t336 134q230 0 337.5 -146t76.5 -414h-681q14 -128 87.5 -203t199.5 -75q177 0 302 119l91 -126q-157 -148 -393 -148q-220 0 -350 136.5t-130 361.5zM283 532h517q0 126 -60.5 205.5t-186.5 79.5 q-128 0 -199 -81t-71 -204z" glyph-name="egrave" horiz-adv-x="1070" unicode="è"/><glyph d="M447 1060l-36 75l343 217l63 -151zM90 471q0 227 124 361t336 134q230 0 337.5 -146t76.5 -414h-681q14 -128 87.5 -203t199.5 -75q177 0 302 119l91 -126q-157 -148 -393 -148q-220 0 -350 136.5t-130 361.5zM283 532h517q0 126 -60.5 205.5t-186.5 79.5 q-128 0 -199 -81t-71 -204z" glyph-name="eacute" horiz-adv-x="1070" unicode="é"/><glyph d="M502 1369h89l196 -212l-70 -73l-171 141l-172 -141l-70 73zM90 471q0 227 124 361t336 134q230 0 337.5 -146t76.5 -414h-681q14 -128 87.5 -203t199.5 -75q177 0 302 119l91 -126q-157 -148 -393 -148q-220 0 -350 136.5t-130 361.5zM283 532h517q0 126 -60.5 205.5 t-186.5 79.5q-128 0 -199 -81t-71 -204z" glyph-name="ecircumflex" horiz-adv-x="1070" unicode="ê"/><glyph d="M377 1319q41 0 67.5 -28t26.5 -72q0 -43 -25.5 -72t-68 -29t-68.5 28t-26 73q0 46 25.5 73t68.5 27zM720.5 1319q42.5 0 68 -28t25.5 -72q0 -43 -25.5 -72t-68 -29t-68.5 28t-26 73q0 46 26 73t68.5 27zM90 471q0 227 124 361t336 134q230 0 337.5 -146t76.5 -414h-681 q14 -128 87.5 -203t199.5 -75q177 0 302 119l91 -126q-157 -148 -393 -148q-220 0 -350 136.5t-130 361.5zM283 532h517q0 126 -60.5 205.5t-186.5 79.5q-128 0 -199 -81t-71 -204z" glyph-name="edieresis" horiz-adv-x="1070" unicode="ë"/><glyph d="M335 1060l-371 141l63 151l345 -217zM338 0h-186v939h186v-939z" glyph-name="igrave" horiz-adv-x="489" unicode="ì"/><glyph d="M147 1060l-36 75l343 217l63 -151zM338 0h-186v939h186v-939z" glyph-name="iacute" horiz-adv-x="489" unicode="í"/><glyph d="M201 1369h89l196 -212l-70 -73l-170 141l-173 -141l-70 73zM338 0h-186v939h186v-939z" glyph-name="icircumflex" horiz-adv-x="489" unicode="î"/><glyph d="M77 1319q41 0 67.5 -28t26.5 -72q0 -43 -26 -72t-68.5 -29t-68 28t-25.5 73q0 46 25.5 73t68.5 27zM420 1319q43 0 68.5 -28t25.5 -72q0 -43 -25.5 -72t-68.5 -29t-68.5 28t-25.5 73q0 46 25.5 73t68.5 27zM338 0h-186v939h186v-939z" glyph-name="idieresis" horiz-adv-x="489" unicode="ï"/><glyph d="M1038 1208l-168 -73q154 -213 154 -502q0 -294 -124.5 -478t-370.5 -184q-208 0 -323.5 129t-115.5 316q0 205 119.5 322t297.5 117q229 0 338 -200q-9 242 -142 408l-220 -95l-55 126l169 73q-85 70 -230 130l63 162q193 -67 347 -215l206 91zM538 137q232 0 290 291 q-27 109 -100.5 188.5t-196.5 79.5q-125 0 -191.5 -81t-64.5 -199q-2 -114 65.5 -196.5t197.5 -82.5z" glyph-name="eth" horiz-adv-x="1163" unicode="ð"/><glyph d="M420 1201q-77 0 -77 -97h-128q0 101 59 161.5t141 60.5q63 0 134.5 -51t110.5 -51q68 0 69 95h126q0 -108 -54.5 -165.5t-136.5 -57.5q-65 0 -136.5 52.5t-107.5 52.5zM645 964q157 0 250 -93.5t93 -305.5v-565h-191v548q0 241 -189 240q-150 0 -277 -213v-575h-189v939 h152l32 -151q135 176 319 176z" glyph-name="ntilde" horiz-adv-x="1124" unicode="ñ"/><glyph d="M666 1060l-371 141l63 151l345 -217zM584 966q217 0 354 -137.5t137 -360.5q0 -208 -130.5 -351.5t-360.5 -143.5q-220 0 -357 136.5t-137 358.5q0 224 137 361t357 137zM584 800q-143 0 -223.5 -94.5t-80.5 -237.5q0 -142 80 -236t224 -94q140 0 221 95t81 235 q0 143 -80 237.5t-222 94.5z" glyph-name="ograve" horiz-adv-x="1167" unicode="ò"/><glyph d="M478 1060l-36 75l343 217l63 -151zM584 966q217 0 354 -137.5t137 -360.5q0 -208 -130.5 -351.5t-360.5 -143.5q-220 0 -357 136.5t-137 358.5q0 224 137 361t357 137zM584 800q-143 0 -223.5 -94.5t-80.5 -237.5q0 -142 80 -236t224 -94q140 0 221 95t81 235 q0 143 -80 237.5t-222 94.5z" glyph-name="oacute" horiz-adv-x="1167" unicode="ó"/><glyph d="M532 1369h89l196 -212l-69 -73l-171 141l-173 -141l-69 73zM584 966q217 0 354 -137.5t137 -360.5q0 -208 -130.5 -351.5t-360.5 -143.5q-220 0 -357 136.5t-137 358.5q0 224 137 361t357 137zM584 800q-143 0 -223.5 -94.5t-80.5 -237.5q0 -142 80 -236t224 -94 q140 0 221 95t81 235q0 143 -80 237.5t-222 94.5z" glyph-name="ocircumflex" horiz-adv-x="1167" unicode="ô"/><glyph d="M375 1104h-128q0 101 59 161.5t141 60.5q63 0 135 -51t111 -51q68 0 68 95h126q0 -108 -54.5 -165.5t-136.5 -57.5q-65 0 -136.5 52.5t-107.5 52.5q-77 0 -77 -97zM584 966q217 0 354 -137.5t137 -360.5q0 -208 -130.5 -351.5t-360.5 -143.5q-220 0 -357 136.5 t-137 358.5q0 224 137 361t357 137zM584 800q-143 0 -223.5 -94.5t-80.5 -237.5q0 -142 80 -236t224 -94q140 0 221 95t81 235q0 143 -80 237.5t-222 94.5z" glyph-name="otilde" horiz-adv-x="1167" unicode="õ"/><glyph d="M408 1319q41 0 67.5 -28t26.5 -72q0 -43 -25.5 -72t-68.5 -29t-68.5 28t-25.5 73q0 46 25.5 73t68.5 27zM751 1319q43 0 68.5 -28t25.5 -72q0 -43 -25.5 -72t-68.5 -29t-68.5 28t-25.5 73q0 46 25.5 73t68.5 27zM584 966q217 0 354 -137.5t137 -360.5 q0 -208 -130.5 -351.5t-360.5 -143.5q-220 0 -357 136.5t-137 358.5q0 224 137 361t357 137zM584 800q-143 0 -223.5 -94.5t-80.5 -237.5q0 -142 80 -236t224 -94q140 0 221 95t81 235q0 143 -80 237.5t-222 94.5z" glyph-name="odieresis" horiz-adv-x="1167" unicode="ö"/><glyph d="M522 1104q44 0 71.5 -29t27.5 -77q0 -44 -27 -74.5t-71.5 -30.5t-72.5 29.5t-28 75.5q0 48 27 77t73 29zM894 778v-147h-757v147h757zM522 517q44 0 71.5 -29t27.5 -77q0 -44 -27 -75t-71.5 -31t-72.5 30t-28 76q0 48 27 77t73 29z" glyph-name="divide" horiz-adv-x="1032" unicode="÷"/><glyph d="M981 783q99 -128 99 -315q0 -208 -130.5 -351.5t-360.5 -143.5q-188 0 -318 100l-99 -99l-73 72l101 101q-104 131 -104 321q0 224 136.5 361t356.5 137q188 0 322 -108l93 93l73 -72zM285 468q0 -102 48 -188l450 450q-79 70 -194 70q-140 0 -222 -95t-82 -237zM589 138 q137 0 219.5 95.5t82.5 234.5q0 102 -44 181l-448 -448q81 -63 190 -63z" glyph-name="oslash" horiz-adv-x="1177" unicode="ø"/><glyph d="M689 1135l-37 -75l-370 141l63 151zM792 939h189v-939h-152l-32 150q-135 -176 -319 -176q-341 0 -341 400v565h191l-2 -531q0 -241 189 -241q154 0 277 210v562z" glyph-name="ugrave" horiz-adv-x="1124" unicode="ù"/><glyph d="M835 1201l-371 -141l-36 75l343 217zM792 939h189v-939h-152l-32 150q-135 -176 -319 -176q-341 0 -341 400v565h191l-2 -531q0 -241 189 -241q154 0 277 210v562z" glyph-name="uacute" horiz-adv-x="1124" unicode="ú"/><glyph d="M563 1225l-172 -141l-70 73l198 212h89l196 -212l-70 -73zM792 939h189v-939h-152l-32 150q-135 -176 -319 -176q-341 0 -341 400v565h191l-2 -531q0 -241 189 -241q154 0 277 210v562z" glyph-name="ucircumflex" horiz-adv-x="1124" unicode="û"/><glyph d="M394.5 1118q-42.5 0 -68.5 28t-26 73q0 46 26 73t68 27q41 0 67.5 -28t26.5 -72q0 -43 -25.5 -72t-68 -29zM737.5 1118q-42.5 0 -68.5 28t-26 73q0 46 26 73t68.5 27t68 -28t25.5 -72q0 -43 -25.5 -72t-68 -29zM792 939h189v-939h-152l-32 150q-135 -176 -319 -176 q-341 0 -341 400v565h191l-2 -531q0 -241 189 -241q154 0 277 210v562z" glyph-name="udieresis" horiz-adv-x="1124" unicode="ü"/><glyph d="M766 1201l-370 -141l-36 75l343 217zM753 939h189l-381 -1041q-79 -222 -198 -305t-324 -25l12 179q63 -26 112 -27.5t83 14t64 56.5t50.5 87t47.5 121l-355 941h191l258 -732z" glyph-name="yacute" horiz-adv-x="979" unicode="ý"/><glyph d="M650 966q205 0 326 -140t121 -358q0 -220 -122.5 -357.5t-329.5 -137.5q-195 0 -309 126v-611h-189v1963h189v-615q121 130 314 130zM623 142q137 0 213.5 89.5t76.5 238t-77 238t-213 89.5q-135 0 -211 -89.5t-76 -238t76 -238t211 -89.5z" glyph-name="thorn" horiz-adv-x="1187" unicode="þ"/><glyph d="M326 1118q-43 0 -68.5 28t-25.5 73q0 46 25.5 73t68.5 27q41 0 67.5 -28t26.5 -72q0 -43 -25.5 -72t-68.5 -29zM669 1118q-43 0 -68.5 28t-25.5 73q0 46 25.5 73t68.5 27t68.5 -28t25.5 -72q0 -43 -25.5 -72t-68.5 -29zM753 939h189l-381 -1041q-79 -222 -198 -305 t-324 -25l12 179q63 -26 112 -27.5t83 14t64 56.5t50.5 87t47.5 121l-355 941h191l258 -732z" glyph-name="ydieresis" horiz-adv-x="979" unicode="ÿ"/><glyph d="M1000 1657v-128h-597v128h597zM1138 0l-128 326h-628l-128 -326h-198l533 1319h215l532 -1319h-198zM452 505h488l-244 620z" glyph-name="Amacron" horiz-adv-x="1394" unicode="Ā"/><glyph d="M848 1277v-128h-597v128h597zM862 939h179v-939h-150l-29 118v37q-104 -183 -330 -182q-201 0 -321.5 136.5t-120.5 358t120.5 360t318.5 138.5q225 0 333 -186v159zM568 142q131 0 210.5 90.5t79.5 237t-78.5 237t-211.5 90.5t-212.5 -90.5t-79.5 -237t79.5 -237 t212.5 -90.5z" glyph-name="amacron" horiz-adv-x="1198" unicode="ā"/><glyph d="M698 1469q-113 0 -181 61t-77 170h130q29 -111 128 -111t128 111h130q-10 -102 -75 -166.5t-183 -64.5zM1138 0l-128 326h-628l-128 -326h-198l533 1319h215l532 -1319h-198zM452 505h488l-244 620z" glyph-name="Abreve" horiz-adv-x="1394" unicode="Ă"/><glyph d="M546 1089q-113 0 -181 60.5t-77 169.5h130q29 -111 128 -111t128 111h130q-10 -102 -75 -166t-183 -64zM862 939h179v-939h-150l-29 118v37q-104 -183 -330 -182q-201 0 -321.5 136.5t-120.5 358t120.5 360t318.5 138.5q225 0 333 -186v159zM568 142q131 0 210.5 90.5 t79.5 237t-78.5 237t-211.5 90.5t-212.5 -90.5t-79.5 -237t79.5 -237t212.5 -90.5z" glyph-name="abreve" horiz-adv-x="1198" unicode="ă"/><glyph d="M1166 -287q44 0 85 46l56 -68q-72 -85 -158 -87q-80 -2 -124 40t-44 110q0 67 49.5 132.5t109.5 113.5h-2l-128 326h-628l-128 -326h-198l533 1319h215l532 -1319h-95q-49 -58 -70 -84.5t-43 -66.5t-22 -69q0 -31 16.5 -49t43.5 -18zM452 505h488l-244 620z" glyph-name="Aogonek" horiz-adv-x="1394" unicode="Ą"/><glyph d="M998 -241l57 -68q-72 -85 -159 -87q-80 -2 -123.5 40t-43.5 110q0 119 160 248h2l-29 116v37q-104 -183 -330 -182q-201 0 -321.5 136.5t-120.5 358t120.5 360t318.5 138.5q225 0 333 -186v159h179v-939h-53q-49 -58 -69.5 -84.5t-43 -66.5t-22.5 -69q0 -31 16.5 -49 t43.5 -18q44 0 85 46zM568 142q131 0 210.5 90.5t79.5 237t-78.5 237t-211.5 90.5t-212.5 -90.5t-79.5 -237t79.5 -237t212.5 -90.5z" glyph-name="aogonek" horiz-adv-x="1198" unicode="ą"/><glyph d="M647 1440l-36 76l343 216l63 -150zM1290 1094l-152 -109q-140 189 -372 189q-212 0 -339 -143.5t-127 -371.5q0 -227 127.5 -370.5t338.5 -143.5q114 0 210.5 49.5t160.5 138.5l153 -109q-90 -123 -227.5 -189.5t-296.5 -66.5q-290 0 -471.5 193.5t-181.5 497.5 t180.5 497.5t472.5 193.5q160 0 297.5 -66.5t226.5 -189.5z" glyph-name="Cacute" horiz-adv-x="1375" unicode="Ć"/><glyph d="M473 1060l-36 75l343 217l63 -151zM94 467.5q0 223.5 135.5 361t355.5 137.5q261 0 403 -191l-135 -92q-92 119 -262 119q-143 0 -229 -93t-86 -241q0 -145 85.5 -238t227.5 -93q172 0 263 119l136 -94q-137 -189 -403 -189q-220 0 -355.5 135.5t-135.5 359z" glyph-name="cacute" horiz-adv-x="1051" unicode="ć"/><glyph d="M748 1727q51 0 82.5 -34t31.5 -89q0 -53 -31 -88.5t-83.5 -35.5t-84.5 35t-32 89.5t32 88.5t85 34zM1290 1094l-152 -109q-140 189 -372 189q-212 0 -339 -143.5t-127 -371.5q0 -227 127.5 -370.5t338.5 -143.5q114 0 210.5 49.5t160.5 138.5l153 -109 q-90 -123 -227.5 -189.5t-296.5 -66.5q-290 0 -471.5 193.5t-181.5 497.5t180.5 497.5t472.5 193.5q160 0 297.5 -66.5t226.5 -189.5z" glyph-name="Cdotaccent" horiz-adv-x="1375" unicode="Ċ"/><glyph d="M573 1347q51 0 83 -34.5t32 -88.5q0 -53 -31 -89t-83.5 -36t-84.5 35t-32 89.5t31.5 89t84.5 34.5zM94 467.5q0 223.5 135.5 361t355.5 137.5q261 0 403 -191l-135 -92q-92 119 -262 119q-143 0 -229 -93t-86 -241q0 -145 85.5 -238t227.5 -93q172 0 263 119l136 -94 q-137 -189 -403 -189q-220 0 -355.5 135.5t-135.5 359z" glyph-name="cdotaccent" horiz-adv-x="1051" unicode="ċ"/><glyph d="M703 1459l-198 210l70 74l173 -140l170 140l70 -74l-196 -210h-89zM1290 1094l-152 -109q-140 189 -372 189q-212 0 -339 -143.5t-127 -371.5q0 -227 127.5 -370.5t338.5 -143.5q114 0 210.5 49.5t160.5 138.5l153 -109q-90 -123 -227.5 -189.5t-296.5 -66.5 q-290 0 -471.5 193.5t-181.5 497.5t180.5 497.5t472.5 193.5q160 0 297.5 -66.5t226.5 -189.5z" glyph-name="Ccaron" horiz-adv-x="1375" unicode="Č"/><glyph d="M529 1079l-198 210l70 73l172 -140l171 140l70 -73l-196 -210h-89zM94 467.5q0 223.5 135.5 361t355.5 137.5q261 0 403 -191l-135 -92q-92 119 -262 119q-143 0 -229 -93t-86 -241q0 -145 85.5 -238t227.5 -93q172 0 263 119l136 -94q-137 -189 -403 -189 q-220 0 -355.5 135.5t-135.5 359z" glyph-name="ccaron" horiz-adv-x="1051" unicode="č"/><glyph d="M756 1459h-89l-198 210l70 74l173 -140l170 140l70 -74zM761 1319q268 0 435.5 -184t167.5 -471q0 -285 -168.5 -474.5t-434.5 -189.5h-587v1319h587zM761 176q184 0 297 140t113 348t-112 343.5t-298 135.5h-399v-967h399z" glyph-name="Dcaron" horiz-adv-x="1474" unicode="Ď"/><glyph d="M1225 1475l152 -60l-162 -364l-78 28zM852 804v664h182v-1468h-148l-34 135v5q-104 -167 -323 -167q-205 0 -322 139t-117 359t118 357.5t324 137.5q218 0 320 -162zM565 142q135 0 211 89.5t76 238t-76 238t-211 89.5t-212 -89.5t-77 -238t77 -238t212 -89.5z" glyph-name="dcaron" horiz-adv-x="1201" unicode="ď"/><glyph d="M737 1319q268 0 436 -184t168 -471q0 -285 -168 -474.5t-436 -189.5h-520v570h-128v179h128v570h520zM737 179q184 0 296 139t112 345.5t-111 341.5t-297 135h-331v-391h360v-179h-360v-391h331z" glyph-name="Dcroat" horiz-adv-x="1452" unicode="Đ"/><glyph d="M1157 1278v-135h-104v-1143h-145l-34 121q-123 -148 -328 -148q-210 0 -327.5 137t-117.5 358q0 224 122.5 361t329.5 137q188 0 311 -133v310h-256v135h256v190h189v-190h104zM579 147q135 0 209 87t74 234q0 148 -74.5 236t-208.5 88q-138 0 -212.5 -86t-74.5 -238 q0 -147 75 -234t212 -87z" glyph-name="dcroat" horiz-adv-x="1239" unicode="đ"/><glyph d="M908 1657v-128h-597v128h597zM1041 1147h-684v-381l510 -1v-168h-510v-425h684v-172h-867v1319h867v-172z" glyph-name="Emacron" horiz-adv-x="1165" unicode="Ē"/><glyph d="M251 1149v128h597v-128h-597zM90 471q0 227 124 361t336 134q230 0 337.5 -146t76.5 -414h-681q14 -128 87.5 -203t199.5 -75q177 0 302 119l91 -126q-157 -148 -393 -148q-220 0 -350 136.5t-130 361.5zM283 532h517q0 126 -60.5 205.5t-186.5 79.5q-128 0 -199 -81 t-71 -204z" glyph-name="emacron" horiz-adv-x="1070" unicode="ē"/><glyph d="M607.5 1480q-52.5 0 -84 35t-31.5 89.5t31.5 88.5t84.5 34q51 0 82.5 -34t31.5 -89q0 -53 -31 -88.5t-83.5 -35.5zM1041 1147h-684v-381l510 -1v-168h-510v-425h684v-172h-867v1319h867v-172z" glyph-name="Edotaccent" horiz-adv-x="1165" unicode="Ė"/><glyph d="M548 1347q51 0 82.5 -34.5t31.5 -88.5q0 -53 -30.5 -89t-83.5 -36t-84.5 35t-31.5 89.5t31.5 89t84.5 34.5zM90 471q0 227 124 361t336 134q230 0 337.5 -146t76.5 -414h-681q14 -128 87.5 -203t199.5 -75q177 0 302 119l91 -126q-157 -148 -393 -148q-220 0 -350 136.5 t-130 361.5zM283 532h517q0 126 -60.5 205.5t-186.5 79.5q-128 0 -199 -81t-71 -204z" glyph-name="edotaccent" horiz-adv-x="1070" unicode="ė"/><glyph d="M1041 1147h-684v-381l510 -1v-168h-510v-425h684v-172h-107q-44 -53 -68.5 -83t-45 -68t-20.5 -67q0 -31 16.5 -49t43.5 -18q44 0 85 46l57 -68q-72 -85 -159 -87q-80 -2 -123.5 40t-43.5 110q0 118 157 244h-659v1319h867v-172z" glyph-name="Eogonek" horiz-adv-x="1165" unicode="Ę"/><glyph d="M952 -145l57 -68q-72 -85 -159 -87q-80 -2 -123.5 40t-43.5 110q0 70 59 147q-82 -24 -172 -24q-220 0 -350 136.5t-130 361.5q0 227 124 361t336 134q230 0 337.5 -146t76.5 -414h-681q14 -128 87.5 -203t199.5 -75q177 0 302 119l91 -126q-17 -17 -28 -24h9 q-46 -55 -70 -84.5t-45.5 -69t-21.5 -68.5q0 -31 16.5 -48.5t43.5 -17.5q44 0 85 46zM553 817q-128 0 -199 -81t-71 -204h517q0 126 -60.5 205.5t-186.5 79.5z" glyph-name="eogonek" horiz-adv-x="1070" unicode="ę"/><glyph d="M652 1459h-89l-198 210l70 74l173 -140l170 140l70 -74zM1041 1147h-684v-381l510 -1v-168h-510v-425h684v-172h-867v1319h867v-172z" glyph-name="Ecaron" horiz-adv-x="1165" unicode="Ě"/><glyph d="M503 1079l-198 210l70 73l173 -140l171 140l69 -73l-196 -210h-89zM90 471q0 227 124 361t336 134q230 0 337.5 -146t76.5 -414h-681q14 -128 87.5 -203t199.5 -75q177 0 302 119l91 -126q-157 -148 -393 -148q-220 0 -350 136.5t-130 361.5zM283 532h517 q0 126 -60.5 205.5t-186.5 79.5q-128 0 -199 -81t-71 -204z" glyph-name="ecaron" horiz-adv-x="1070" unicode="ě"/><glyph d="M751 1469q-113 0 -181 61t-77 170h130q29 -111 128 -111t128 111h130q-10 -102 -75 -166.5t-183 -64.5zM1268 683v-453q-89 -125 -223 -191t-294 -66q-285 0 -461.5 192.5t-176.5 496.5q0 305 175.5 498t459.5 193q162 0 298.5 -67t223.5 -190l-142 -113 q-61 90 -162.5 142.5t-221.5 52.5q-201 0 -322.5 -143.5t-121.5 -370.5q0 -229 123 -372.5t331 -143.5q205 0 316 149v210h-283v176h481z" glyph-name="Gbreve" horiz-adv-x="1423" unicode="Ğ"/><glyph d="M563 1089q-113 0 -181 60.5t-77 169.5h130q29 -111 128 -111t128 111h130q-10 -102 -75 -166t-183 -64zM886 939h152v-927q0 -229 -123 -376.5t-364 -147.5q-287 0 -430 208l138 103q46 -61 119 -103t163 -42q138 0 224.5 98t86.5 277v138q-104 -155 -320 -155 q-207 0 -324.5 133t-117.5 343q0 213 118 345.5t321 132.5q222 0 328 -167zM565 172q135 0 211 86.5t76 227.5q0 140 -76 225.5t-211 85.5t-212 -85.5t-77 -225.5q0 -142 76 -228t213 -86z" glyph-name="gbreve" horiz-adv-x="1184" unicode="ğ"/><glyph d="M753 1480q-53 0 -84.5 35t-31.5 89.5t31.5 88.5t84.5 34q51 0 82.5 -34t31.5 -89q0 -53 -30.5 -88.5t-83.5 -35.5zM1268 683v-453q-89 -125 -223 -191t-294 -66q-285 0 -461.5 192.5t-176.5 496.5q0 305 175.5 498t459.5 193q162 0 298.5 -67t223.5 -190l-142 -113 q-61 90 -162.5 142.5t-221.5 52.5q-201 0 -322.5 -143.5t-121.5 -370.5q0 -229 123 -372.5t331 -143.5q205 0 316 149v210h-283v176h481z" glyph-name="Gdotaccent" horiz-adv-x="1423" unicode="Ġ"/><glyph d="M565 1099q-53 0 -84.5 35t-31.5 89.5t31.5 89t84.5 34.5q51 0 82.5 -34.5t31.5 -88.5q0 -53 -30.5 -89t-83.5 -36zM886 939h152v-927q0 -229 -123 -376.5t-364 -147.5q-287 0 -430 208l138 103q46 -61 119 -103t163 -42q138 0 224.5 98t86.5 277v138q-104 -155 -320 -155 q-207 0 -324.5 133t-117.5 343q0 213 118 345.5t321 132.5q222 0 328 -167zM565 172q135 0 211 86.5t76 227.5q0 140 -76 225.5t-211 85.5t-212 -85.5t-77 -225.5q0 -142 76 -228t213 -86z" glyph-name="gdotaccent" horiz-adv-x="1184" unicode="ġ"/><glyph d="M1268 683v-453q-89 -125 -223 -191t-294 -66q-285 0 -461.5 192.5t-176.5 496.5q0 305 175.5 498t459.5 193q162 0 298.5 -67t223.5 -190l-142 -113q-61 90 -162.5 142.5t-221.5 52.5q-201 0 -322.5 -143.5t-121.5 -370.5q0 -229 123 -372.5t331 -143.5q205 0 316 149 v210h-283v176h481zM753 -130q51 0 80 -35.5t29 -102.5q0 -176 -173 -210l-22 72q75 19 96 58h-10q-46 0 -74.5 30.5t-28.5 78.5t28.5 78.5t74.5 30.5z" glyph-name="Gcommaaccent" horiz-adv-x="1423" unicode="Ģ"/><glyph d="M560 1109q-51 0 -79.5 37t-28.5 103q0 172 173 207l20 -70q-73 -17 -94 -60h10q46 0 74.5 -30.5t28.5 -78.5t-28 -78t-76 -30zM886 939h152v-927q0 -229 -123 -376.5t-364 -147.5q-287 0 -430 208l138 103q46 -61 119 -103t163 -42q138 0 224.5 98t86.5 277v138 q-104 -155 -320 -155q-207 0 -324.5 133t-117.5 343q0 213 118 345.5t321 132.5q222 0 328 -167zM565 172q135 0 211 86.5t76 227.5q0 140 -76 225.5t-211 85.5t-212 -85.5t-77 -225.5q0 -142 76 -228t213 -86z" glyph-name="gcommaaccent" horiz-adv-x="1184" unicode="ģ"/><glyph d="M1488 1038v-103h-129v-935h-192v570h-691v-570h-191v935h-128v103h128v281h191v-281h691v281h192v-281h129zM1167 749v186h-691v-186h691z" glyph-name="Hbar" horiz-adv-x="1648" unicode="Ħ"/><glyph d="M758 964q157 0 250 -93.5t93 -305.5v-565h-191v560q0 241 -190 240q-152 0 -275 -213v-587h-191v1137h-106v129h106v183h191v-183h311v-129h-311v-338q132 165 313 165z" glyph-name="hbar" horiz-adv-x="1235" unicode="ħ"/><glyph d="M68 1485h-128q0 101 59 161.5t141 60.5q63 0 134.5 -51.5t111.5 -51.5q68 0 68 96h126q0 -108 -54.5 -166t-136.5 -58q-65 0 -136.5 53t-107.5 53q-77 0 -77 -97zM362 0h-188v1319h188v-1319z" glyph-name="Itilde" horiz-adv-x="534" unicode="Ĩ"/><glyph d="M44 1104h-128q0 101 59 161.5t141 60.5q63 0 135 -51t111 -51q68 0 68 95h126q0 -108 -54.5 -165.5t-136.5 -57.5q-65 0 -136.5 52.5t-107.5 52.5q-77 0 -77 -97zM338 0h-186v939h186v-939z" glyph-name="itilde" horiz-adv-x="489" unicode="ĩ"/><glyph d="M-26 1529v128h598v-128h-598zM362 0h-188v1319h188v-1319z" glyph-name="Imacron" horiz-adv-x="534" unicode="Ī"/><glyph d="M-49 1149v128h597v-128h-597zM338 0h-186v939h186v-939z" glyph-name="imacron" horiz-adv-x="489" unicode="ī"/><glyph d="M362 0h-86q-44 -53 -68 -83t-44.5 -68t-20.5 -67q0 -31 16.5 -49t43.5 -18q44 0 85 46l57 -68q-72 -85 -159 -87q-80 -2 -123.5 40t-43.5 110q0 118 157 244h-2v1319h188v-1319z" glyph-name="Iogonek" horiz-adv-x="534" unicode="Į"/><glyph d="M247.5 1099q-52.5 0 -84.5 35t-32 89.5t32 89t84 34.5q51 0 83 -34.5t32 -88.5q0 -53 -31 -89t-83.5 -36zM152 3v936h186v-939h-87q-131 -150 -132 -215q0 -31 16.5 -49t43.5 -18q44 0 86 46l56 -68q-72 -85 -159 -87q-80 -2 -123.5 40t-43.5 110q0 118 157 244z" glyph-name="iogonek" horiz-adv-x="489" unicode="į"/><glyph d="M271 1727q51 0 83 -34t32 -89q0 -53 -31 -88.5t-84 -35.5t-84.5 35t-31.5 89.5t31.5 88.5t84.5 34zM362 0h-188v1319h188v-1319z" glyph-name="Idotaccent" horiz-adv-x="534" unicode="İ"/><glyph d="M338 0h-186v939h186v-939z" glyph-name="dotlessi" horiz-adv-x="489" unicode="ı"/><glyph d="M364 464h-188v855h188v-855zM188 179l133 103q106 -143 263 -144q135 0 217.5 97.5t82.5 276.5v807h188v-824q0 -230 -118.5 -377t-356.5 -147q-135 0 -242 57t-167 151z" glyph-name="IJ" horiz-adv-x="1244" unicode="Ĳ"/><glyph d="M244 1469q53 0 87 -35.5t34 -92.5q0 -55 -33 -92t-88 -37q-53 0 -86 36.5t-33 92.5q0 58 33 93t86 35zM758 1468q53 0 86 -36t33 -92q0 -55 -33 -91.5t-86 -36.5t-87 35.5t-34 92.5q0 58 33 93t88 35zM345 0h-186v939h186v-939zM860 939v-968q0 -350 -322 -510l-81 145 l11 5q12 7 30.5 20.5t40.5 32.5t45.5 48t42 62t30.5 79t12 96v990h191z" glyph-name="ij" horiz-adv-x="1018" unicode="ĳ"/><glyph d="M628 659l589 -659h-242l-489 570h-124v-570h-188v1318h188v-570h119l466 570h234zM657 -130q51 0 80 -35.5t29 -102.5q0 -176 -172 -210l-22 72q75 19 95 58h-10q-46 0 -74 30.5t-28 78.5t28 78.5t74 30.5z" glyph-name="Kcommaaccent" horiz-adv-x="1250" unicode="Ķ"/><glyph d="M625 483l425 -485h-250l-331 396h-133v-394h-188v1399h188v-827h132l288 367h237zM556 -130q51 0 80.5 -35.5t29.5 -102.5q0 -176 -173 -210l-22 72q75 19 96 58h-11q-46 0 -74 30.5t-28 78.5t28 78.5t74 30.5z" glyph-name="kcommaaccent" horiz-adv-x="1073" unicode="ķ"/><glyph d="M480 1732l63 -150l-371 -142l-35 76zM362 176h679v-176h-867v1319h188v-1143z" glyph-name="Lacute" horiz-adv-x="1129" unicode="Ĺ"/><glyph d="M138 1572l-36 75l343 217l64 -151zM473 160l29 -148q-171 -60 -265 -5.5t-94 213.5v1205h186v-1183q0 -65 34.5 -83t109.5 1z" glyph-name="lacute" horiz-adv-x="588" unicode="ĺ"/><glyph d="M362 176h679v-176h-867v1319h188v-1143zM631 -130q51 0 80.5 -35.5t29.5 -102.5q0 -176 -173 -210l-22 72q75 19 96 58h-11q-46 0 -74 30.5t-28 78.5t28 78.5t74 30.5z" glyph-name="Lcommaaccent" horiz-adv-x="1129" unicode="Ļ"/><glyph d="M502 12q-171 -60 -265 -5.5t-94 213.5v1205h186v-1183q0 -65 34.5 -82.5t109.5 0.5zM331 -130q51 0 80 -35.5t29 -102.5q0 -176 -172 -210l-22 72q75 19 95 58h-10q-46 0 -74 30.5t-28 78.5t28 78.5t74 30.5z" glyph-name="lcommaaccent" horiz-adv-x="588" unicode="ļ"/><glyph d="M701 1266l-162 -363l-78 27l89 396zM362 176h679v-176h-867v1319h188v-1143z" glyph-name="Lcaron" horiz-adv-x="1129" unicode="Ľ"/><glyph d="M505 1034l-78 28l88 395l152 -59zM473 160l29 -148q-171 -60 -265 -5.5t-94 213.5v1205h186v-1183q0 -65 34.5 -83t109.5 1z" glyph-name="lcaron" horiz-adv-x="605" unicode="ľ"/><glyph d="M364 179h641v-179h-833v493l-136 -60v156l136 61v669h192v-585l244 109v-157l-244 -107v-400z" glyph-name="Lslash" horiz-adv-x="1092" unicode="Ł"/><glyph d="M522 179l29 -148q-172 -60 -265 -5.5t-93 213.5v386l-130 -58v155l130 58v671h189v-586l150 69v-156l-150 -68v-449q0 -65 32.5 -83t107.5 1z" glyph-name="lslash" horiz-adv-x="602" unicode="ł"/><glyph d="M1027 1582l-370 -142l-36 76l343 216zM1183 1319h184v-1319h-179l-830 1015v-1015h-184v1319h179l830 -1015v1015z" glyph-name="Nacute" horiz-adv-x="1541" unicode="Ń"/><glyph d="M816 1201l-371 -141l-35 75l343 217zM645 964q157 0 250 -93.5t93 -305.5v-565h-191v548q0 241 -189 240q-150 0 -277 -213v-575h-189v939h152l32 -151q135 176 319 176z" glyph-name="nacute" horiz-adv-x="1124" unicode="ń"/><glyph d="M1183 1319h184v-1319h-179l-830 1015v-1015h-184v1319h179l830 -1015v1015zM792 -130q51 0 80 -35.5t29 -102.5q0 -176 -172 -210l-22 72q75 19 95 58h-10q-46 0 -74.5 30.5t-28.5 78.5t28.5 78.5t74.5 30.5z" glyph-name="Ncommaaccent" horiz-adv-x="1541" unicode="Ņ"/><glyph d="M645 964q157 0 250 -93.5t93 -305.5v-565h-191v548q0 241 -189 240q-150 0 -277 -213v-575h-189v939h152l32 -151q135 176 319 176zM587 -130q51 0 80 -35.5t29 -102.5q0 -176 -172 -210l-22 72q75 19 95 58h-10q-46 0 -74 30.5t-28 78.5t28 78.5t74 30.5z" glyph-name="ncommaaccent" horiz-adv-x="1124" unicode="ņ"/><glyph d="M802 1459h-89l-198 210l70 74l173 -140l170 140l70 -74zM1183 1319h184v-1319h-179l-830 1015v-1015h-184v1319h179l830 -1015v1015z" glyph-name="Ncaron" horiz-adv-x="1541" unicode="Ň"/><glyph d="M591 1079h-89l-198 210l70 73l172 -140l171 140l70 -73zM645 964q157 0 250 -93.5t93 -305.5v-565h-191v548q0 241 -189 240q-150 0 -277 -213v-575h-189v939h152l32 -151q135 176 319 176z" glyph-name="ncaron" horiz-adv-x="1124" unicode="ň"/><glyph d="M1143 1319h190v-1348q0 -350 -321 -510l-84 145l11 5q12 7 30.5 20.5t41 32.5t45.5 48t41.5 62t30.5 79t12 96v60l-776 995v-1004h-190v1319h186l783 -1003v1003z" glyph-name="Eng" horiz-adv-x="1506" unicode="Ŋ"/><glyph d="M645 964q157 0 250 -93.5t93 -305.5v-594q0 -350 -322 -510l-81 145l11 5q10 7 29.5 20.5t41.5 32.5t45.5 48t42 62t30.5 79t12 96v611q0 241 -189 240q-150 0 -277 -213v-587h-189v939h152l34 -149q133 174 317 174z" glyph-name="eng" horiz-adv-x="1124" unicode="ŋ"/><glyph d="M459 1529v128h597v-128h-597zM754.5 1350q288.5 0 464 -192t175.5 -498q0 -304 -175.5 -497.5t-464.5 -193.5q-287 0 -464 193t-177 498q0 302 176.5 496t465 194zM754 1176q-208 0 -331 -143.5t-123 -372t122 -372t332 -143.5q208 0 331 143.5t123 372t-123.5 372 t-330.5 143.5z" glyph-name="Omacron" unicode="Ō"/><glyph d="M282 1149v128h597v-128h-597zM584 966q217 0 354 -137.5t137 -360.5q0 -208 -130.5 -351.5t-360.5 -143.5q-220 0 -357 136.5t-137 358.5q0 224 137 361t357 137zM584 800q-143 0 -223.5 -94.5t-80.5 -237.5q0 -142 80 -236t224 -94q140 0 221 95t81 235q0 143 -80 237.5 t-222 94.5z" glyph-name="omacron" horiz-adv-x="1167" unicode="ō"/><glyph d="M672 1432l-80 24l58 287l154 -52zM876 1432l-81 24l57 287l155 -52zM754.5 1350q288.5 0 464 -192t175.5 -498q0 -304 -175.5 -497.5t-464.5 -193.5q-287 0 -464 193t-177 498q0 302 176.5 496t465 194zM754 1176q-208 0 -331 -143.5t-123 -372t122 -372t332 -143.5 q208 0 331 143.5t123 372t-123.5 372t-330.5 143.5z" glyph-name="Ohungarumlaut" unicode="Ő"/><glyph d="M495 1051l-80 24l58 287l153 -51zM698 1051l-80 24l56 287l155 -51zM584 966q217 0 354 -137.5t137 -360.5q0 -208 -130.5 -351.5t-360.5 -143.5q-220 0 -357 136.5t-137 358.5q0 224 137 361t357 137zM584 800q-143 0 -223.5 -94.5t-80.5 -237.5q0 -142 80 -236t224 -94 q140 0 221 95t81 235q0 143 -80 237.5t-222 94.5z" glyph-name="ohungarumlaut" horiz-adv-x="1167" unicode="ő"/><glyph d="M2062 1140h-654v-374h447v-179h-447v-408h654v-179h-833v205q-176 -236 -488 -236q-282 0 -455 193t-173 498q0 302 172 496t456 194q314 0 488 -234v203h833v-179zM754.5 147q208.5 0 329.5 143t121 370q0 229 -122 370.5t-329 141.5q-208 0 -330 -142.5t-122 -369.5 q0 -229 122 -371t330.5 -142z" glyph-name="OE" horiz-adv-x="2187" unicode="Œ"/><glyph d="M1345 966q236 0 341.5 -144t78.5 -416h-686q14 -128 87 -203t198 -75q179 0 302 119l97 -126q-157 -148 -399 -148q-276 0 -391 213q-125 -213 -401 -213q-212 0 -347 136.5t-135 358t135 360t347 138.5q133 0 235.5 -55.5t161.5 -154.5q108 210 376 210zM1592 541 q3 123 -59 196.5t-188 73.5q-123 0 -188.5 -72.5t-77.5 -197.5h513zM584 138q137 0 219.5 95.5t82.5 234.5q0 142 -83 237t-219 95q-140 0 -222 -95.5t-82 -236.5q0 -140 83 -235t221 -95z" glyph-name="oe" horiz-adv-x="1870" unicode="œ"/><glyph d="M911 1582l-370 -142l-36 76l343 216zM1205 0h-208l-280 476q-14 -2 -46 -2h-309v-474h-188v1319h507q263 0 390 -110t127 -313q0 -311 -302 -394zM362 642h309q336 0 336 252q0 254 -326 255h-319v-507z" glyph-name="Racute" horiz-adv-x="1264" unicode="Ŕ"/><glyph d="M672 1201l-370 -141l-36 75l343 217zM573 966q89 0 168 -44l-82 -173q-56 31 -115 31q-96 0 -152.5 -95.5t-67.5 -215.5v-469h-182v939h145l34 -162q88 189 252 189z" glyph-name="racute" horiz-adv-x="786" unicode="ŕ"/><glyph d="M896 502l309 -502h-208l-280 476q-14 -2 -46 -2h-309v-474h-188v1319h507q263 0 390 -110t127 -313q0 -310 -302 -394zM362 642h309q336 0 336 252q0 254 -326 255h-319v-507zM666 -130q51 0 80 -35.5t29 -102.5q0 -176 -173 -210l-22 72q75 19 96 58h-10 q-46 0 -74.5 30.5t-28.5 78.5t28.5 78.5t74.5 30.5z" glyph-name="Rcommaaccent" horiz-adv-x="1264" unicode="Ŗ"/><glyph d="M573 966q89 0 168 -44l-82 -173q-56 31 -115 31q-96 0 -152.5 -95.5t-67.5 -215.5v-469h-182v939h145l34 -162q88 189 252 189zM236 -130q51 0 80 -35.5t29 -102.5q0 -176 -173 -210l-22 72q75 19 96 58h-10q-46 0 -74.5 30.5t-28.5 78.5t28.5 78.5t74.5 30.5z" glyph-name="rcommaaccent" horiz-adv-x="786" unicode="ŗ"/><glyph d="M686 1459h-89l-198 210l70 74l173 -140l170 140l70 -74zM1205 0h-208l-280 476q-14 -2 -46 -2h-309v-474h-188v1319h507q263 0 390 -110t127 -313q0 -311 -302 -394zM362 642h309q336 0 336 252q0 254 -326 255h-319v-507z" glyph-name="Rcaron" horiz-adv-x="1264" unicode="Ř"/><glyph d="M447 1079h-89l-198 210l70 73l173 -140l170 140l70 -73zM573 966q89 0 168 -44l-82 -173q-56 31 -115 31q-96 0 -152.5 -95.5t-67.5 -215.5v-469h-182v939h145l34 -162q88 189 252 189z" glyph-name="rcaron" horiz-adv-x="786" unicode="ř"/><glyph d="M524 1440l-36 76l343 216l63 -150zM97 200l139 121q159 -177 385 -178q131 0 214 55t83 152q0 67 -41.5 114.5t-107.5 77.5t-147 55.5t-161 56t-146 70t-107.5 107.5t-41.5 159q0 169 129.5 266t335.5 97q276 0 441 -184l-132 -113q-128 133 -315 134q-119 0 -191 -52.5 t-72 -135.5q0 -60 41.5 -104.5t107.5 -72.5t146 -52.5t161 -56.5t147 -73.5t107.5 -111.5t41.5 -162q0 -183 -142.5 -289.5t-353.5 -106.5q-154 0 -293 60.5t-228 166.5z" glyph-name="Sacute" horiz-adv-x="1221" unicode="Ś"/><glyph d="M379 1142l-36 75l343 217l63 -151zM476 -27q-121 0 -233 38t-171 97l85 133q53 -48 143.5 -83t180.5 -35q96 0 154 34t58 97q0 60 -60.5 92.5t-147 49.5t-171.5 40t-145.5 83.5t-60.5 161.5q0 125 102 205t268 80q212 0 372 -126l-91 -125q-126 101 -281 101 q-191 0 -191 -121q0 -51 43.5 -83.5t109 -44.5t142.5 -32t142.5 -44.5t109 -81.5t43.5 -144q0 -133 -110 -212.5t-291 -79.5z" glyph-name="sacute" horiz-adv-x="964" unicode="ś"/><glyph d="M1114 369q0 -174 -130.5 -280t-328.5 -115l-6 -61q27 -2 59.5 -12t70 -30.5t58.5 -61.5t13 -94q-12 -80 -78.5 -115t-145 -26.5t-150.5 40.5l33 98q26 -15 73.5 -30t97.5 -7t57 52q5 34 -14.5 57t-60.5 32.5t-60.5 11t-50.5 3.5l21 143q-142 9 -267.5 68.5t-207.5 157.5 l139 121q159 -177 385 -178q131 0 214 55t83 152q0 67 -41.5 114.5t-107.5 77.5t-147 55.5t-161 56t-146 70t-107.5 107.5t-41.5 159q0 169 129.5 266t335.5 97q276 0 441 -184l-132 -113q-128 133 -315 134q-119 0 -191 -52.5t-72 -135.5q0 -60 41.5 -104.5t107.5 -72.5 t146 -52.5t161 -56.5t147 -73.5t107.5 -111.5t41.5 -162z" glyph-name="Scedilla" horiz-adv-x="1221" unicode="Ş"/><glyph d="M877 265q0 -125 -97 -203.5t-259 -87.5l-7 -61q39 -2 83.5 -17t85.5 -59.5t32 -109.5q-14 -131 -165 -150q-60 -9 -121.5 5.5t-87.5 31.5l33 98q26 -15 73.5 -30t98 -7t56.5 52q5 34 -14.5 57t-60.5 32.5t-60.5 11t-50.5 3.5l21 143q-111 7 -211.5 44t-153.5 90l85 133 q53 -48 143.5 -83t180.5 -35q96 0 154 34t58 97q0 60 -60.5 92.5t-147 49.5t-171.5 40t-145.5 83.5t-60.5 161.5q0 125 102 205t268 80q212 0 372 -126l-91 -125q-126 101 -281 101q-191 0 -191 -121q0 -51 43.5 -83.5t109 -44.5t142.5 -32t142.5 -44.5t109 -81.5t43.5 -144 z" glyph-name="scedilla" horiz-adv-x="964" unicode="ş"/><glyph d="M580 1459l-198 210l70 74l173 -140l170 140l70 -74l-196 -210h-89zM97 200l139 121q159 -177 385 -178q131 0 214 55t83 152q0 67 -41.5 114.5t-107.5 77.5t-147 55.5t-161 56t-146 70t-107.5 107.5t-41.5 159q0 169 129.5 266t335.5 97q276 0 441 -184l-132 -113 q-128 133 -315 134q-119 0 -191 -52.5t-72 -135.5q0 -60 41.5 -104.5t107.5 -72.5t146 -52.5t161 -56.5t147 -73.5t107.5 -111.5t41.5 -162q0 -183 -142.5 -289.5t-353.5 -106.5q-154 0 -293 60.5t-228 166.5z" glyph-name="Scaron" horiz-adv-x="1221" unicode="Š"/><glyph d="M435 1161l-198 209l70 74l173 -140l170 140l70 -74l-196 -209h-89zM476 -27q-121 0 -233 38t-171 97l85 133q53 -48 143.5 -83t180.5 -35q96 0 154 34t58 97q0 60 -60.5 92.5t-147 49.5t-171.5 40t-145.5 83.5t-60.5 161.5q0 125 102 205t268 80q212 0 372 -126l-91 -125 q-126 101 -281 101q-191 0 -191 -121q0 -51 43.5 -83.5t109 -44.5t142.5 -32t142.5 -44.5t109 -81.5t43.5 -144q0 -133 -110 -212.5t-291 -79.5z" glyph-name="scaron" horiz-adv-x="964" unicode="š"/><glyph d="M696 0h-51l-8 -87q27 -2 59.5 -12t70 -30.5t59 -61.5t12.5 -94q-12 -80 -78.5 -115t-145 -26.5t-150.5 40.5l33 98q26 -15 73.5 -30t98 -7t56.5 52q5 34 -14.5 57t-60.5 32.5t-60.5 11t-50.5 3.5l24 169h-53v1143h-442v176h1072v-176h-444v-1143z" glyph-name="Tcommaaccent" horiz-adv-x="1210" unicode="Ţ"/><glyph d="M519 -87q27 -2 59.5 -12t70 -30.5t59 -61.5t12.5 -94q-12 -80 -78.5 -115t-145 -26.5t-150.5 40.5l33 98q26 -15 73.5 -30t98 -7t57.5 52q5 34 -15 57t-60.5 32.5t-60.5 11t-50 3.5l22 152q-108 29 -170 124.5t-62 244.5v431h-152v156h152v293h184v-293h287l-12 -156 h-275v-445q0 -147 94 -190.5t223 19.5l17 -152q-108 -46 -204 -42z" glyph-name="tcommaaccent" horiz-adv-x="795" unicode="ţ"/><glyph d="M650 1459h-89l-197 210l69 74l173 -140l171 140l70 -74zM1140 1319v-176h-444v-1143h-186v1143h-442v176h1072z" glyph-name="Tcaron" horiz-adv-x="1210" unicode="Ť"/><glyph d="M756 1413l-162 -363l-79 27l89 396zM396 338q0 -147 94 -190.5t223 19.5l17 -152q-215 -90 -366.5 4t-151.5 333v431h-152v156h152v293h184v-293h287l-12 -156h-275v-445z" glyph-name="tcaron" horiz-adv-x="795" unicode="ť"/><glyph d="M1140 1140h-442v-321h306v-179h-306v-640h-189v640h-304v179h304v321h-441v179h1072v-179z" glyph-name="Tbar" horiz-adv-x="1210" unicode="Ŧ"/><glyph d="M713 159l17 -152q-215 -90 -369 3.5t-154 332.5v123h-113v140h113v177h-147v156h147v293h189v-293h287l-12 -156h-275v-177h242l-7 -140h-235v-135q0 -148 93.5 -191.5t223.5 19.5z" glyph-name="tbar" horiz-adv-x="795" unicode="ŧ"/><glyph d="M519 1485h-128q0 101 59 161.5t141 60.5q63 0 134.5 -51.5t110.5 -51.5q68 0 69 96h126q0 -108 -54.5 -166t-136.5 -58q-65 0 -137 53t-107 53q-77 0 -77 -97zM1273 1319v-734q0 -285 -141.5 -450.5t-411.5 -165.5q-271 0 -412.5 165.5t-141.5 450.5v734h187v-717 q0 -234 101 -350.5t266 -116.5q164 0 264.5 117t100.5 350v717h188z" glyph-name="Utilde" horiz-adv-x="1438" unicode="Ũ"/><glyph d="M439 1201q-77 0 -77 -97h-128q0 101 59 161.5t140 60.5q63 0 135 -51t111 -51q68 0 69 95h126q0 -108 -54.5 -165.5t-136.5 -57.5q-65 0 -136.5 52.5t-107.5 52.5zM792 939h189v-939h-152l-32 150q-135 -176 -319 -176q-341 0 -341 400v565h191l-2 -531q0 -241 189 -241 q154 0 277 210v562z" glyph-name="utilde" horiz-adv-x="1124" unicode="ũ"/><glyph d="M425 1529v128h597v-128h-597zM1273 1319v-734q0 -285 -141.5 -450.5t-411.5 -165.5q-271 0 -412.5 165.5t-141.5 450.5v734h187v-717q0 -234 101 -350.5t266 -116.5q164 0 264.5 117t100.5 350v717h188z" glyph-name="Umacron" horiz-adv-x="1438" unicode="Ū"/><glyph d="M865 1277v-128h-597v128h597zM792 939h189v-939h-152l-32 150q-135 -176 -319 -176q-341 0 -341 400v565h191l-2 -531q0 -241 189 -241q154 0 277 210v562z" glyph-name="umacron" horiz-adv-x="1124" unicode="ū"/><glyph d="M720 1812q80 0 130.5 -53.5t50.5 -138.5q0 -80 -50.5 -138.5t-130.5 -58.5q-82 0 -132 55.5t-50 141.5q0 89 48.5 140.5t133.5 51.5zM720 1712q-39 0 -62 -25.5t-23 -66.5t24 -67.5t61.5 -26.5t60.5 27t23 66.5t-24 66t-60 26.5zM1273 1319v-734q0 -285 -141.5 -450.5 t-411.5 -165.5q-271 0 -412.5 165.5t-141.5 450.5v734h187v-717q0 -234 101 -350.5t266 -116.5q164 0 264.5 117t100.5 350v717h188z" glyph-name="Uring" horiz-adv-x="1438" unicode="Ů"/><glyph d="M563 1043q-82 0 -132 55.5t-50 140.5q0 89 48.5 141t133.5 52q80 0 130.5 -54t50.5 -139q0 -80 -50.5 -138t-130.5 -58zM563 1331q-39 0 -62 -25.5t-23 -66.5t24 -67.5t61.5 -26.5t60.5 27.5t23 66.5t-24 65.5t-60 26.5zM792 939h189v-939h-152l-32 150 q-135 -176 -319 -176q-341 0 -341 400v565h191l-2 -531q0 -241 189 -241q154 0 277 210v562z" glyph-name="uring" horiz-adv-x="1124" unicode="ů"/><glyph d="M638 1432l-80 24l58 287l154 -52zM841 1432l-80 24l56 287l156 -52zM1273 1319v-734q0 -285 -141.5 -450.5t-411.5 -165.5q-271 0 -412.5 165.5t-141.5 450.5v734h187v-717q0 -234 101 -350.5t266 -116.5q164 0 264.5 117t100.5 350v717h188z" glyph-name="Uhungarumlaut" horiz-adv-x="1438" unicode="Ű"/><glyph d="M613 1311l-132 -260l-80 24l58 287zM684 1051l-80 24l56 287l156 -51zM792 939h189v-939h-152l-32 150q-135 -176 -319 -176q-341 0 -341 400v565h191l-2 -531q0 -241 189 -241q154 0 277 210v562z" glyph-name="uhungarumlaut" horiz-adv-x="1124" unicode="ű"/><glyph d="M1085 1319h188v-734q0 -215 -82 -365t-240 -211q-44 -53 -68.5 -83t-45 -68.5t-20.5 -65.5q0 -31 16.5 -49t43.5 -18q44 0 86 46l56 -68q-72 -85 -159 -87q-80 -2 -123.5 40t-43.5 110q0 96 116 208q-43 -5 -89 -5q-271 0 -412.5 165.5t-141.5 450.5v734h187v-717 q0 -234 101 -350.5t266 -116.5q164 0 264.5 117t100.5 350v717z" glyph-name="Uogonek" horiz-adv-x="1438" unicode="Ų"/><glyph d="M944 -237l56 -68q-72 -85 -159 -88q-80 -2 -123.5 40t-43.5 111q0 118 155 242l-32 150q-135 -176 -319 -176q-341 0 -341 400v565h191l-2 -531q0 -241 189 -241q154 0 277 210v562h189v-939h-51q-46 -55 -67.5 -83t-42.5 -67t-21 -67q0 -31 16 -48.5t43 -17.5 q45 0 86 46z" glyph-name="uogonek" horiz-adv-x="1124" unicode="ų"/><glyph d="M853 1606l-172 -142l-70 74l198 211h89l196 -211l-70 -74zM1434 1319h206l-311 -1319h-187l-289 964l-305 -964h-184l-296 1319h197l204 -1008l316 952h143l297 -951z" glyph-name="Wcircumflex" horiz-adv-x="1708" unicode="Ŵ"/><glyph d="M737 1225l-172 -141l-70 73l198 212h89l196 -212l-70 -73zM1222 939h198l-307 -939h-185l-191 700l-193 -700h-186l-307 939h190l201 -686l210 658h169l208 -653z" glyph-name="wcircumflex" horiz-adv-x="1474" unicode="ŵ"/><glyph d="M608 1601l-173 -142l-70 74l198 211h89l196 -211l-70 -74zM1169 1319l-466 -829v-490h-194v495l-463 824h212l350 -677l349 677h212z" glyph-name="Ycircumflex" horiz-adv-x="1216" unicode="Ŷ"/><glyph d="M495 1225l-172 -141l-70 73l198 212h88l197 -212l-70 -73zM753 939h189l-381 -1041q-79 -222 -198 -305t-324 -25l12 179q63 -26 112 -27.5t83 14t64 56.5t50.5 87t47.5 121l-355 941h191l258 -732z" glyph-name="ycircumflex" horiz-adv-x="979" unicode="ŷ"/><glyph d="M438.5 1493q-42.5 0 -68 28.5t-25.5 72.5q0 46 25.5 73.5t68.5 27.5q41 0 67 -28.5t26 -72.5q0 -43 -25.5 -72t-68 -29zM781.5 1493q-42.5 0 -68 28.5t-25.5 72.5q0 46 25.5 73.5t68 27.5t68.5 -28.5t26 -72.5q0 -43 -26 -72t-68.5 -29zM1169 1319l-466 -829v-490h-194 v495l-463 824h212l350 -677l349 677h212z" glyph-name="Ydieresis" horiz-adv-x="1216" unicode="Ÿ"/><glyph d="M923 1582l-370 -142l-36 76l343 216zM1205 1318v-99l-819 -1050l819 10v-179h-1094v101l817 1048l-817 -11v180h1094z" glyph-name="Zacute" horiz-adv-x="1307" unicode="Ź"/><glyph d="M746 1201l-371 -141l-35 75l343 217zM872 939v-178l-587 -595l587 11v-177h-799v177l574 596l-574 -12v178h799z" glyph-name="zacute" horiz-adv-x="943" unicode="ź"/><glyph d="M654 1480q-53 0 -84.5 35t-31.5 89.5t31.5 88.5t84.5 34q51 0 82.5 -34t31.5 -89q0 -53 -30.5 -88.5t-83.5 -35.5zM1205 1318v-99l-819 -1050l819 10v-179h-1094v101l817 1048l-817 -11v180h1094z" glyph-name="Zdotaccent" horiz-adv-x="1307" unicode="Ż"/><glyph d="M476 1099q-53 0 -84.5 35t-31.5 89.5t31.5 89t84.5 34.5q51 0 83 -34.5t32 -88.5q0 -53 -31 -89t-84 -36zM872 939v-178l-587 -595l587 11v-177h-799v177l574 596l-574 -12v178h799z" glyph-name="zdotaccent" horiz-adv-x="943" unicode="ż"/><glyph d="M698 1459h-89l-198 210l70 74l173 -140l170 140l70 -74zM1205 1318v-99l-819 -1050l819 10v-179h-1094v101l817 1048l-817 -11v180h1094z" glyph-name="Zcaron" horiz-adv-x="1307" unicode="Ž"/><glyph d="M521 1079h-89l-198 210l70 73l172 -140l171 140l70 -73zM872 939v-178l-587 -595l587 11v-177h-799v177l574 596l-574 -12v178h799z" glyph-name="zcaron" horiz-adv-x="943" unicode="ž"/><glyph d="M171 1073q0 108 29.5 189t81 126.5t117 66t138 14.5t146.5 -35v-154q-65 26 -121.5 30t-105 -12t-76 -70t-27.5 -139v-1089h-182v771h-106v168h106v134z" glyph-name="longs" horiz-adv-x="704" unicode="ſ"/><glyph d="M1179 1198q215 -193 215 -538q0 -304 -175.5 -497.5t-464.5 -193.5q-287 0 -464 193t-177 498q0 302 175.5 496t464.5 196h1h2q75 0 215 -6t171 -6q61 -2 81.5 28.5t8.5 99.5h152q49 -270 -177 -270h-28zM754 145q208 0 331 143.5t123 372t-123.5 372t-330.5 143.5 q-208 0 -331 -143.5t-123 -372t122 -372t332 -143.5z" glyph-name="Ohorn" unicode="Ơ"/><glyph d="M1128 1087q22 -113 -19.5 -185.5t-166.5 -68.5q142 -138 142 -365q0 -208 -131.5 -351.5t-361.5 -143.5q-220 0 -356 136.5t-136 358.5q0 224 135.5 361t356.5 137q36 0 295 -7q61 -2 81.5 29t8.5 99h152zM591 138q137 0 219.5 95.5t82.5 234.5q0 142 -82 237t-220.5 95 t-220.5 -95.5t-82 -236.5q0 -140 82.5 -235t220.5 -95z" glyph-name="ohorn" horiz-adv-x="1182" unicode="ơ"/><glyph d="M1541 1449q29 -270 -189 -270h-79v-590q0 -285 -141.5 -450.5t-411.5 -165.5q-271 0 -412 165.5t-141 450.5v730h188v-713q0 -234 100 -351t265 -117q164 0 264.5 117t100.5 351v713h214q61 -2 81.5 30t8.5 100h152z" glyph-name="Uhorn" horiz-adv-x="1491" unicode="Ư"/><glyph d="M1220 1068q29 -270 -187 -269h-43v-799h-152l-32 150q-131 -176 -320 -176q-157 0 -250 94t-93 306v565h192v-531q0 -241 189 -241q154 0 276 214v558h186q106 2 82 129h152z" glyph-name="uhorn" horiz-adv-x="1252" unicode="ư"/><glyph d="M744 1459h-89l-198 210l70 74l173 -140l170 140l70 -74zM1138 0l-128 326h-628l-128 -326h-198l533 1319h215l532 -1319h-198zM452 505h488l-244 620z" glyph-name="uni01CD" horiz-adv-x="1394" unicode="Ǎ"/><glyph d="M592 1079h-89l-198 210l70 73l173 -140l171 140l69 -73zM862 939h179v-939h-150l-29 118v37q-104 -183 -330 -182q-201 0 -321.5 136.5t-120.5 358t120.5 360t318.5 138.5q225 0 333 -186v159zM568 142q131 0 210.5 90.5t79.5 237t-78.5 237t-211.5 90.5t-212.5 -90.5 t-79.5 -237t79.5 -237t212.5 -90.5z" glyph-name="uni01CE" horiz-adv-x="1198" unicode="ǎ"/><glyph d="M227 1459l-198 210l70 74l172 -140l171 140l70 -74l-196 -210h-89zM362 0h-188v1319h188v-1319z" glyph-name="uni01CF" horiz-adv-x="534" unicode="Ǐ"/><glyph d="M203 1079l-198 210l70 73l172 -140l171 140l70 -73l-196 -210h-89zM338 0h-186v939h186v-939z" glyph-name="uni01D0" horiz-adv-x="489" unicode="ǐ"/><glyph d="M712 1459l-198 210l70 74l172 -140l171 140l70 -74l-197 -210h-88zM754.5 1350q288.5 0 464 -192t175.5 -498q0 -304 -175.5 -497.5t-464.5 -193.5q-287 0 -464 193t-177 498q0 302 176.5 496t465 194zM754 1176q-208 0 -331 -143.5t-123 -372t122 -372t332 -143.5 q208 0 331 143.5t123 372t-123.5 372t-330.5 143.5z" glyph-name="uni01D1" unicode="Ǒ"/><glyph d="M534 1079l-198 210l70 73l173 -140l170 140l70 -73l-196 -210h-89zM584 966q217 0 354 -137.5t137 -360.5q0 -208 -130.5 -351.5t-360.5 -143.5q-220 0 -357 136.5t-137 358.5q0 224 137 361t357 137zM584 800q-143 0 -223.5 -94.5t-80.5 -237.5q0 -142 80 -236t224 -94 q140 0 221 95t81 235q0 143 -80 237.5t-222 94.5z" glyph-name="uni01D2" horiz-adv-x="1167" unicode="ǒ"/><glyph d="M678 1459l-198 210l70 74l172 -140l171 140l70 -74l-197 -210h-88zM1273 1319v-734q0 -285 -141.5 -450.5t-411.5 -165.5q-271 0 -412.5 165.5t-141.5 450.5v734h187v-717q0 -234 101 -350.5t266 -116.5q164 0 264.5 117t100.5 350v717h188z" glyph-name="uni01D3" horiz-adv-x="1438" unicode="Ǔ"/><glyph d="M609 1079h-88l-198 210l70 73l172 -140l171 140l70 -73zM792 939h189v-939h-152l-32 150q-135 -176 -319 -176q-341 0 -341 400v565h191l-2 -531q0 -241 189 -241q154 0 277 210v562z" glyph-name="uni01D4" horiz-adv-x="1124" unicode="ǔ"/><glyph d="M428 1910v128h598v-128h-598zM551 1700q41 0 67.5 -28t26.5 -73q0 -43 -25.5 -72t-68 -29t-68.5 28.5t-26 72.5q0 46 25.5 73.5t68.5 27.5zM894.5 1700q42.5 0 68 -28t25.5 -73q0 -43 -25.5 -72t-68 -29t-68.5 28.5t-26 72.5q0 46 26 73.5t68.5 27.5zM1273 1319v-734 q0 -285 -141.5 -450.5t-411.5 -165.5q-271 0 -412.5 165.5t-141.5 450.5v734h187v-717q0 -234 101 -350.5t266 -116.5q164 0 264.5 117t100.5 350v717h188z" glyph-name="uni01D5" horiz-adv-x="1438" unicode="Ǖ"/><glyph d="M869 1657v-128h-598v128h598zM300 1219q0 46 26 73t68 27q41 0 67.5 -28t26.5 -72q0 -43 -25.5 -72t-68 -29t-68.5 28.5t-26 72.5zM643 1219q0 46 26 73t68.5 27t68 -28t25.5 -72q0 -43 -25.5 -72t-68 -29t-68.5 28.5t-26 72.5zM792 939h189v-939h-152l-32 150 q-135 -176 -319 -176q-341 0 -341 400v565h191l-2 -531q0 -241 189 -241q154 0 277 210v562z" glyph-name="uni01D6" horiz-adv-x="1124" unicode="ǖ"/><glyph d="M625 1821l-36 75l343 217l63 -150zM551 1700q41 0 67.5 -28t26.5 -73q0 -43 -25.5 -72t-68 -29t-68.5 28.5t-26 72.5q0 46 25.5 73.5t68.5 27.5zM894.5 1700q42.5 0 68 -28t25.5 -73q0 -43 -25.5 -72t-68 -29t-68.5 28.5t-26 72.5q0 46 26 73.5t68.5 27.5zM1273 1319 v-734q0 -285 -141.5 -450.5t-411.5 -165.5q-271 0 -412.5 165.5t-141.5 450.5v734h187v-717q0 -234 101 -350.5t266 -116.5q164 0 264.5 117t100.5 350v717h188z" glyph-name="uni01D7" horiz-adv-x="1438" unicode="Ǘ"/><glyph d="M838 1582l-370 -142l-36 76l343 216zM394.5 1118q-42.5 0 -68.5 28t-26 73q0 46 26 73t68 27q41 0 67.5 -28t26.5 -72q0 -43 -25.5 -72t-68 -29zM643 1219q0 46 26 73t68.5 27t68 -28t25.5 -72q0 -43 -25.5 -72t-68 -29t-68.5 28.5t-26 72.5zM792 939h189v-939h-152 l-32 150q-135 -176 -319 -176q-341 0 -341 400v565h191l-2 -531q0 -241 189 -241q154 0 277 210v562z" glyph-name="uni01D8" horiz-adv-x="1124" unicode="ǘ"/><glyph d="M681 1840l-198 210l70 73l172 -140l171 140l70 -73l-196 -210h-89zM551 1700q41 0 67.5 -28t26.5 -73q0 -43 -25.5 -72t-68 -29t-68.5 28.5t-26 72.5q0 46 25.5 73.5t68.5 27.5zM894.5 1700q42.5 0 68 -28t25.5 -73q0 -43 -25.5 -72t-68 -29t-68.5 28.5t-26 72.5 q0 46 26 73.5t68.5 27.5zM1273 1319v-734q0 -285 -141.5 -450.5t-411.5 -165.5q-271 0 -412.5 165.5t-141.5 450.5v734h187v-717q0 -234 101 -350.5t266 -116.5q164 0 264.5 117t100.5 350v717h188z" glyph-name="uni01D9" horiz-adv-x="1438" unicode="Ǚ"/><glyph d="M613 1459h-89l-198 210l70 74l172 -140l171 140l70 -74zM394.5 1118q-42.5 0 -68.5 28t-26 73q0 46 26 73t68 27q41 0 67.5 -28t26.5 -72q0 -43 -25.5 -72t-68 -29zM737.5 1319q42.5 0 68 -28t25.5 -72q0 -43 -25.5 -72t-68 -29t-68.5 28t-26 73q0 46 26 73t68.5 27z M792 939h189v-939h-152l-32 150q-135 -176 -319 -176q-341 0 -341 400v565h191l-2 -531q0 -241 189 -241q154 0 277 210v562z" glyph-name="uni01DA" horiz-adv-x="1124" unicode="ǚ"/><glyph d="M812 1821l-370 142l63 150l345 -217zM551 1700q41 0 67.5 -28t26.5 -73q0 -43 -25.5 -72t-68 -29t-68.5 28.5t-26 72.5q0 46 25.5 73.5t68.5 27.5zM894.5 1700q42.5 0 68 -28t25.5 -73q0 -43 -25.5 -72t-68 -29t-68.5 28.5t-26 72.5q0 46 26 73.5t68.5 27.5zM1273 1319 v-734q0 -285 -141.5 -450.5t-411.5 -165.5q-271 0 -412.5 165.5t-141.5 450.5v734h187v-717q0 -234 101 -350.5t266 -116.5q164 0 264.5 117t100.5 350v717h188z" glyph-name="uni01DB" horiz-adv-x="1438" unicode="Ǜ"/><glyph d="M693 1516l-38 -76l-370 142l63 150zM300 1219q0 46 26 73t68 27q41 0 67.5 -28t26.5 -72q0 -43 -25.5 -72t-68 -29t-68.5 28.5t-26 72.5zM643 1219q0 46 26 73t68.5 27t68 -28t25.5 -72q0 -43 -25.5 -72t-68 -29t-68.5 28.5t-26 72.5zM792 939h189v-939h-152l-32 150 q-135 -176 -319 -176q-341 0 -341 400v565h191l-2 -531q0 -241 189 -241q154 0 277 210v562z" glyph-name="uni01DC" horiz-adv-x="1124" unicode="ǜ"/><glyph d="M1004 2038v-128h-598v128h598zM435 1599q0 46 25.5 73.5t68.5 27.5q41 0 67.5 -28t26.5 -73q0 -43 -25.5 -72t-68.5 -29t-68.5 28.5t-25.5 72.5zM778 1599q0 46 25.5 73.5t68.5 27.5t68.5 -28t25.5 -73q0 -43 -25.5 -72t-68.5 -29t-68.5 28.5t-25.5 72.5zM1138 0 l-128 326h-628l-128 -326h-198l533 1319h215l532 -1319h-198zM452 505h488l-244 620z" glyph-name="uni01DE" horiz-adv-x="1394" unicode="Ǟ"/><glyph d="M852 1657v-128h-598v128h598zM283 1219q0 46 26 73t68 27q41 0 67.5 -28t26.5 -72q0 -43 -25.5 -72t-68 -29t-68.5 28.5t-26 72.5zM626 1219q0 46 26 73t68.5 27t68 -28t25.5 -72q0 -43 -25.5 -72t-68 -29t-68.5 28.5t-26 72.5zM862 939h179v-939h-150l-29 118v37 q-104 -183 -330 -182q-201 0 -321.5 136.5t-120.5 358t120.5 360t318.5 138.5q225 0 333 -186v159zM568 142q131 0 210.5 90.5t79.5 237t-78.5 237t-211.5 90.5t-212.5 -90.5t-79.5 -237t79.5 -237t212.5 -90.5z" glyph-name="uni01DF" horiz-adv-x="1198" unicode="ǟ"/><glyph d="M797 1459h-89l-198 210l70 74l173 -140l170 140l70 -74zM1268 683v-453q-89 -125 -223 -191t-294 -66q-285 0 -461.5 192.5t-176.5 496.5q0 305 175.5 498t459.5 193q162 0 298.5 -67t223.5 -190l-142 -113q-61 90 -162.5 142.5t-221.5 52.5q-201 0 -322.5 -143.5 t-121.5 -370.5q0 -229 123 -372.5t331 -143.5q205 0 316 149v210h-283v176h481z" glyph-name="Gcaron" horiz-adv-x="1423" unicode="Ǧ"/><glyph d="M609 1079h-88l-198 210l70 73l172 -140l171 140l70 -73zM886 939h152v-927q0 -229 -123 -376.5t-364 -147.5q-287 0 -430 208l138 103q46 -61 119 -103t163 -42q138 0 224.5 98t86.5 277v138q-104 -155 -320 -155q-207 0 -324.5 133t-117.5 343q0 213 118 345.5 t321 132.5q222 0 328 -167zM565 172q135 0 211 86.5t76 227.5q0 140 -76 225.5t-211 85.5t-212 -85.5t-77 -225.5q0 -142 76 -228t213 -86z" glyph-name="gcaron" horiz-adv-x="1184" unicode="ǧ"/><glyph d="M1116 1201l-370 -141l-36 75l343 217zM1217 966q236 0 342.5 -145t77.5 -415h-686q15 -128 87.5 -203t198.5 -75q177 0 302 119l98 -126q-157 -148 -400 -148q-280 0 -394 220q-104 -218 -377 -219q-169 0 -272.5 85.5t-103.5 225.5q0 142 105 222t291 80q133 0 273 -48 q-2 119 -77.5 188.5t-201.5 69.5q-143 0 -297 -75l-70 159q186 85 363 85q121 0 217.5 -54t153.5 -149q111 203 370 203zM1466 541q3 123 -60 196.5t-189 73.5q-121 0 -187 -72.5t-79 -197.5h515zM495 138q118 0 188 66.5t76 189.5q-119 41 -238 41q-234 0 -234 -143 q0 -72 58 -113t150 -41z" glyph-name="aeacute" horiz-adv-x="1742" unicode="ǽ"/><glyph d="M1050 1582l-371 -142l-36 76l343 216zM1446 1213l-139 -138q111 -174 111 -415q0 -304 -175.5 -497.5t-464.5 -193.5q-254 0 -423 154l-128 -128l-114 114l136 137q-113 177 -112 414q0 302 176.5 496t464.5 194q253 0 423 -152l130 131zM326 660q0 -159 60 -278l684 685 q-116 106 -292 105q-208 0 -330 -142.5t-122 -369.5zM1229 660q0 157 -60 277l-684 -684q114 -106 293 -106q208 0 329.5 143t121.5 370z" glyph-name="Oslashacute" horiz-adv-x="1559" unicode="Ǿ"/><glyph d="M860 1201l-370 -141l-36 75l343 217zM981 783q99 -128 99 -315q0 -208 -130.5 -351.5t-360.5 -143.5q-188 0 -318 100l-99 -99l-73 72l101 101q-104 131 -104 321q0 224 136.5 361t356.5 137q188 0 322 -108l93 93l73 -72zM285 468q0 -102 48 -188l450 450 q-79 70 -194 70q-140 0 -222 -95t-82 -237zM589 138q137 0 219.5 95.5t82.5 234.5q0 102 -44 181l-448 -448q81 -63 190 -63z" glyph-name="oslashacute" horiz-adv-x="1177" unicode="ǿ"/><glyph d="M362 1002q0 -60 41.5 -104.5t107.5 -72.5t146 -52.5t161 -56.5t147 -73.5t107.5 -111.5t41.5 -162q0 -183 -142.5 -289.5t-353.5 -106.5q-154 0 -293 60.5t-228 166.5l139 121q159 -177 385 -178q131 0 214 55t83 152q0 67 -41.5 114.5t-107.5 77.5t-147 55.5t-161 56 t-146 70t-107.5 107.5t-41.5 159q0 169 129.5 266t335.5 97q276 0 441 -184l-132 -113q-128 133 -315 134q-119 0 -191 -52t-72 -136zM618 -130q51 0 80 -35.5t29 -102.5q0 -176 -172 -210l-23 72q75 19 96 58h-10q-46 0 -74.5 30.5t-28.5 78.5t28.5 78.5t74.5 30.5z" glyph-name="Scommaaccent" horiz-adv-x="1221" unicode="Ș"/><glyph d="M476 -27q-121 0 -233 38t-171 97l85 133q53 -48 143.5 -83t180.5 -35q96 0 154 34t58 97q0 60 -60.5 92.5t-147 49.5t-171.5 40t-145.5 83.5t-60.5 161.5q0 125 102 205t268 80q212 0 372 -126l-91 -125q-126 101 -281 101q-191 0 -191 -121q0 -51 43.5 -83.5t109 -44.5 t142.5 -32t142.5 -44.5t109 -81.5t43.5 -144q0 -133 -110 -212.5t-291 -79.5zM483 -130q51 0 80 -35.5t29 -102.5q0 -176 -172 -210l-22 72q75 19 95 58h-10q-46 0 -74 30.5t-28 78.5t28 78.5t74 30.5z" glyph-name="scommaaccent" horiz-adv-x="964" unicode="ș"/><glyph d="M68 1319h1072v-176h-444v-1143h-186v1143h-442v176zM606 -130q51 0 80 -35.5t29 -102.5q0 -176 -172 -210l-22 72q75 19 95 58h-10q-46 0 -74.5 30.5t-28.5 78.5t28.5 78.5t74.5 30.5z" glyph-name="uni021A" horiz-adv-x="1210" unicode="Ț"/><glyph d="M730 15q-215 -90 -366.5 4t-151.5 333v431h-152v156h152v293h184v-293h287l-12 -156h-275v-445q0 -147 94 -190.5t223 19.5zM488 -130q51 0 80 -35.5t29 -102.5q0 -176 -172 -210l-22 72q75 19 95 58h-10q-46 0 -74 30.5t-28 78.5t28 78.5t74 30.5z" glyph-name="uni021B" horiz-adv-x="795" unicode="ț"/><glyph d="M1041 1147h-684v-381l510 -1v-168h-510v-425h684v-172h-406l-9 -87q39 -2 83.5 -17t85.5 -59.5t33 -109.5q-14 -131 -166 -150q-60 -9 -121 5.5t-87 31.5l32 98q26 -15 74 -30t98 -7t57 52q5 34 -14.5 57t-60.5 32.5t-60.5 11t-50.5 3.5l24 169h-379v1319h867v-172z" glyph-name="uni0228" horiz-adv-x="1165" unicode="Ȩ"/><glyph d="M550 966q230 0 337.5 -146t76.5 -414h-681q14 -128 87.5 -203t199.5 -75q177 0 302 119l91 -126q-148 -142 -367 -148l-7 -60q39 -2 83.5 -17t85.5 -59.5t32 -109.5q-14 -131 -165 -150q-60 -9 -121.5 5.5t-87.5 31.5l33 98q26 -15 73.5 -30t98 -7t57.5 52q5 34 -15 57 t-61 32.5t-60.5 11t-49.5 3.5l20 145q-195 17 -308.5 151t-113.5 344q0 227 124 361t336 134zM283 532h517q0 126 -60.5 205.5t-186.5 79.5q-128 0 -199 -81t-71 -204z" glyph-name="uni0229" horiz-adv-x="1070" unicode="ȩ"/><glyph d="M463 1910v128h597v-128h-597zM585 1700q41 0 67.5 -28t26.5 -73q0 -43 -25.5 -72t-68 -29t-68 28.5t-25.5 72.5q0 46 25 73.5t68 27.5zM928.5 1700q42.5 0 68 -28t25.5 -73q0 -43 -25.5 -72t-68 -29t-68 28.5t-25.5 72.5q0 46 25.5 73.5t68 27.5zM754.5 1350 q288.5 0 464 -192t175.5 -498q0 -304 -175.5 -497.5t-464.5 -193.5q-287 0 -464 193t-177 498q0 302 176.5 496t465 194zM754 1176q-208 0 -331 -143.5t-123 -372t122 -372t332 -143.5q208 0 331 143.5t123 372t-123.5 372t-330.5 143.5z" glyph-name="uni022A" unicode="Ȫ"/><glyph d="M285 1529v128h597v-128h-597zM408 1319q41 0 67.5 -28t26.5 -72q0 -43 -25.5 -72t-68.5 -29t-68.5 28t-25.5 73q0 46 25.5 73t68.5 27zM751 1319q43 0 68.5 -28t25.5 -72q0 -43 -25.5 -72t-68.5 -29t-68.5 28t-25.5 73q0 46 25.5 73t68.5 27zM584 966q217 0 354 -137.5 t137 -360.5q0 -208 -130.5 -351.5t-360.5 -143.5q-220 0 -357 136.5t-137 358.5q0 224 137 361t357 137zM584 800q-143 0 -223.5 -94.5t-80.5 -237.5q0 -142 80 -236t224 -94q140 0 221 95t81 235q0 143 -80 237.5t-222 94.5z" glyph-name="uni022B" horiz-adv-x="1167" unicode="ȫ"/><glyph d="M404 939v-968q0 -350 -322 -510l-80 145l12 5q10 7 28.5 20.5t41 32.5t45.5 48t41.5 62t30.5 79t12 96v990h191z" glyph-name="uni0237" horiz-adv-x="578" unicode="ȷ"/><glyph d="M1538 939v-101h-137v-249q0 -285 -141.5 -450.5t-411.5 -165.5q-271 0 -412.5 165.5t-141.5 450.5v247h-137v103h137v380h187v-380h732v380h188v-380h137zM1213 606v232l-732 -2v-230q0 -234 101 -351t266 -117q164 0 264.5 117t100.5 351z" glyph-name="uni0244" horiz-adv-x="1696" unicode="Ʉ"/><glyph d="M599 143q138 0 278 74l68 -156q-164 -87 -353 -87q-193 0 -314 98.5t-121 287.5v580h157l24 -109q108 135 317 135q169 0 264.5 -83.5t95.5 -220.5q0 -143 -104 -226t-274 -83q-155 0 -296 65v-72q0 -101 71 -152t187 -51zM613 814q-125 0 -196.5 -70t-75.5 -186 q123 -63 260 -63q102 0 163.5 42.5t61.5 116.5q0 75 -56 117.5t-157 42.5z" glyph-name="uni0250" horiz-adv-x="1105" unicode="ɐ"/><glyph d="M862 939h179v-939h-150l-29 118v37q-104 -183 -330 -182q-201 0 -321.5 136.5t-120.5 358t120.5 360t318.5 138.5q225 0 333 -186v159zM568 142q131 0 210.5 90.5t79.5 237t-78.5 237t-211.5 90.5t-212.5 -90.5t-79.5 -237t79.5 -237t212.5 -90.5z" glyph-name="uni0251" horiz-adv-x="1198" unicode="ɑ"/><glyph d="M980 468q0 -227 -124 -361t-335 -134q-229 0 -337.5 146t-75.5 413h679q-14 128 -87.5 203.5t-197.5 75.5q-179 0 -302 -120l-91 126q157 148 393 149q218 0 348 -136.5t130 -361.5zM787 406h-517q0 -126 60.5 -205.5t186.5 -79.5q130 0 200 81t70 204z" glyph-name="uni0259" horiz-adv-x="1070" unicode="ə"/><glyph d="M1186 625v-103h-126v-522h-152l-32 150q-135 -176 -320 -176q-341 0 -341 400v148h-125v103h125v314h191l-2 -314h466v314h190v-314h126zM870 377v145h-466v-114q0 -241 190 -241q153 0 276 210z" glyph-name="uni0289" horiz-adv-x="1278" unicode="ʉ"/><glyph d="M374 1369h89l196 -212l-70 -73l-171 141l-172 -141l-70 73z" glyph-name="circumflex" horiz-adv-x="834" unicode="ˆ"/><glyph d="M374 1079l-198 210l70 73l172 -140l171 140l70 -73l-196 -210h-89z" glyph-name="caron" horiz-adv-x="834" unicode="ˇ"/><glyph d="M565 1319h130q-10 -102 -75 -166t-183 -64q-113 0 -181 60.5t-77 169.5h130q29 -111 128 -111t128 111z" glyph-name="breve" horiz-adv-x="873" unicode="˘"/><glyph d="M445 1347q51 0 83 -34.5t32 -88.5q0 -53 -31 -89t-83.5 -36t-84.5 35t-32 89.5t31.5 89t84.5 34.5z" glyph-name="dotaccent" horiz-adv-x="889" unicode="˙"/><glyph d="M418 1432q80 0 130.5 -54t50.5 -139q0 -80 -50.5 -138t-130.5 -58q-82 0 -132 55.5t-50 140.5q0 89 48.5 141t133.5 52zM418 1331q-39 0 -62 -25.5t-23 -66.5t24 -67.5t61.5 -26.5t60.5 27.5t23 66.5t-24 65.5t-60 26.5z" glyph-name="ring" horiz-adv-x="836" unicode="˚"/><glyph d="M432 14h100q-70 -80 -103 -130.5t-33 -91.5q0 -31 16 -49t44 -18q44 0 85 46l56 -68q-72 -85 -158 -87q-80 -2 -124 40t-44 110q1 120 161 248z" glyph-name="ogonek" horiz-adv-x="820" unicode="˛"/><glyph d="M311 1104h-128q0 101 58.5 161.5t140.5 60.5q63 0 135 -51t111 -51q68 0 68 95h127q0 -108 -55 -165.5t-137 -57.5q-65 0 -136.5 52.5t-107.5 52.5q-76 0 -76 -97z" glyph-name="tilde" horiz-adv-x="1046" unicode="˜"/><glyph d="M213 1050l-80 23l58 287l154 -51zM416 1050l-80 23l57 287l155 -51z" glyph-name="hungarumlaut" horiz-adv-x="675" unicode="˝"/><glyph d="M-261 1060l-370 141l63 151l344 -217z" glyph-name="gravecomb" horiz-adv-x="0" unicode="̀"/><glyph d="M-553 1060l-36 75l343 217l63 -151z" glyph-name="acutecomb" horiz-adv-x="0" unicode="́"/><glyph d="M-461 1369h89l196 -212l-70 -73l-170 141l-173 -141l-70 73z" glyph-name="uni0302" horiz-adv-x="0" unicode="̂"/><glyph d="M-736 1104h-128q0 101 59 161.5t141 60.5q63 0 135 -51t111 -51q68 0 68 95h126q0 -108 -54.5 -165.5t-136.5 -57.5q-65 0 -136.5 52.5t-107.5 52.5q-77 0 -77 -97z" glyph-name="tildecomb" horiz-adv-x="0" unicode="̃"/><glyph d="M-754 1149v128h597v-128h-597z" glyph-name="uni0304" horiz-adv-x="0" unicode="̄"/><glyph d="M-309 1319h130q-10 -102 -75 -166t-183 -64q-113 0 -181 60.5t-77 169.5h130q29 -111 128 -111t128 111z" glyph-name="uni0306" horiz-adv-x="0" unicode="̆"/><glyph d="M-444 1347q51 0 83 -34.5t32 -88.5q0 -53 -31 -89t-84 -36t-84.5 35t-31.5 89.5t31.5 89t84.5 34.5z" glyph-name="uni0307" horiz-adv-x="0" unicode="̇"/><glyph d="M-613 1319q41 0 67.5 -28t26.5 -72q0 -43 -25.5 -72t-68 -29t-68.5 28t-26 73q0 46 25.5 73t68.5 27zM-269.5 1319q42.5 0 68 -28t25.5 -72q0 -43 -25.5 -72t-68 -29t-68.5 28t-26 73q0 46 26 73t68.5 27z" glyph-name="uni0308" horiz-adv-x="0" unicode="̈"/><glyph d="M-319 1051h-99q10 12 35 40.5t34 39.5t25.5 32t22.5 33t12 28.5t6 31.5q0 67 -60 67q-43 0 -85 -46l-57 68q72 85 161 87q80 2 123.5 -39t41.5 -110q0 -46 -31.5 -95.5t-58 -75t-70.5 -61.5z" glyph-name="hookabovecomb" horiz-adv-x="0" unicode="̉"/><glyph d="M-418 1432q80 0 130.5 -54t50.5 -139q0 -80 -50.5 -138t-130.5 -58q-82 0 -132.5 55.5t-50.5 140.5q0 89 49 141t134 52zM-418 1331q-39 0 -62 -25.5t-23 -66.5t23.5 -67.5t61 -26.5t60.5 27.5t23 66.5t-23.5 65.5t-59.5 26.5z" glyph-name="uni030A" horiz-adv-x="0" unicode="̊"/><glyph d="M-463 1050l-80 23l58 287l154 -51zM-259 1050l-81 23l57 287l155 -51z" glyph-name="uni030B" horiz-adv-x="0" unicode="̋"/><glyph d="M-461 1079l-198 210l70 73l173 -140l170 140l70 -73l-196 -210h-89z" glyph-name="uni030C" horiz-adv-x="0" unicode="̌"/><glyph d="M-253 1215q0 -48 -28 -77.5t-76 -29.5q-51 0 -79 36.5t-28 103.5q0 172 172 206l21 -70q-73 -17 -94 -60h10q46 0 74 -30.5t28 -78.5z" glyph-name="uni0312" horiz-adv-x="0" unicode="̒"/><glyph d="M-444 -135q51 0 83 -34t32 -89q0 -53 -31 -88t-84 -35t-84.5 34.5t-31.5 88.5q0 56 31.5 89.5t84.5 33.5z" glyph-name="dotbelowcomb" horiz-adv-x="0" unicode="̣"/><glyph d="M-362 -130q51 0 80 -35.5t29 -102.5q0 -176 -172 -210l-22 72q75 19 95 58h-10q-46 0 -74 30.5t-28 78.5t28 78.5t74 30.5z" glyph-name="uni0326" horiz-adv-x="0" unicode="̦"/><glyph d="M-444 22l80 -10l-10 -99q39 -2 83.5 -17t85.5 -59.5t33 -109.5q-14 -131 -166 -150q-60 -9 -121.5 5.5t-86.5 31.5l32 98q26 -15 73.5 -30t98 -7t57.5 52q5 34 -14.5 57t-60.5 32.5t-60.5 11t-50.5 3.5z" glyph-name="uni0327" horiz-adv-x="0" unicode="̧"/><glyph d="M-389 14h101q-70 -80 -103.5 -130.5t-33.5 -91.5q0 -31 16 -49t44 -18q44 0 85 46l56 -68q-72 -85 -158 -87q-80 -2 -124 40t-44 110q1 120 161 248z" glyph-name="uni0328" horiz-adv-x="0" unicode="̨"/><glyph d="M-483 -171h89l194 -210l-70 -73l-170 140l-173 -140l-70 73z" glyph-name="uni032D" horiz-adv-x="0" unicode="̭"/><glyph d="M-754 -299v128h597v-128h-597z" glyph-name="uni0331" horiz-adv-x="0" unicode="̱"/><glyph d="M881 621q82 -31 132 -111t50 -181q0 -143 -86 -236t-224 -93h-128v-159h-101v159h-350v1161h350v158h101v-158h82q128 0 207 -85.5t79 -218.5q0 -89 -35.5 -151.5t-76.5 -84.5zM524 1005h-183v-327h183v327zM688 1005h-63v-327h78q61 0 101.5 45t40.5 117q0 77 -46 121 t-111 44zM341 155h183v366h-183v-366zM729 155q73 0 126 52t53 133q0 82 -50.5 131.5t-127.5 49.5h-105v-366h104z" glyph-name="uni0E3F" horiz-adv-x="1172" unicode="฿"/><glyph d="M964 705q94 -34 153 -125.5t59 -205.5q0 -164 -99 -269t-256 -105h-647v1319h594q147 0 237.5 -96.5t90.5 -249.5q0 -99 -42 -170.5t-90 -97.5zM749 1147h-391v-384h408q73 0 120.5 53.5t47.5 137.5q0 87 -55 140t-130 53zM794 172q89 0 150 61t61 153q0 96 -59.5 155.5 t-148.5 59.5h-439v-429h436zM642 -135q51 0 82.5 -34t31.5 -89q0 -53 -30.5 -88t-83.5 -35t-84.5 34.5t-31.5 88.5q0 56 31.5 89.5t84.5 33.5z" glyph-name="uni1E04" horiz-adv-x="1285" unicode="Ḅ"/><glyph d="M652 966q207 0 324.5 -137.5t117.5 -357.5t-117 -359t-322 -139q-218 0 -322 165v-3l-34 -135h-151v1468h185v-664q104 162 319 162zM619.5 142q134.5 0 211.5 89.5t77 238t-77 238t-211.5 89.5t-210.5 -89.5t-76 -238t76 -238t210.5 -89.5zM638 -135q51 0 83 -34t32 -89 q0 -53 -31 -88t-84 -35t-84.5 34.5t-31.5 88.5q0 56 31.5 89.5t84.5 33.5z" glyph-name="uni1E05" horiz-adv-x="1184" unicode="ḅ"/><glyph d="M761 1319q268 0 435.5 -184t167.5 -471q0 -285 -168.5 -474.5t-434.5 -189.5h-587v1319h587zM761 176q184 0 297 140t113 348t-112 343.5t-298 135.5h-399v-967h399zM729 -135q51 0 82.5 -34t31.5 -89q0 -53 -30.5 -88t-83.5 -35t-84.5 34.5t-31.5 88.5q0 56 31.5 89.5 t84.5 33.5z" glyph-name="uni1E0C" horiz-adv-x="1474" unicode="Ḍ"/><glyph d="M852 1468h182v-1468h-148l-34 135v5q-104 -167 -323 -167q-205 0 -322 139t-117 359t118 357.5t324 137.5q217 0 320 -162v664zM565 142q135 0 211 89.5t76 238t-76 238t-211 89.5t-212 -89.5t-77 -238t77 -238t212 -89.5zM563 -135q51 0 83 -34t32 -89q0 -53 -31 -88 t-84 -35t-84.5 34.5t-31.5 88.5q0 56 31.5 89.5t84.5 33.5z" glyph-name="uni1E0D" horiz-adv-x="1184" unicode="ḍ"/><glyph d="M761 1319q268 0 435.5 -184t167.5 -471q0 -285 -168.5 -474.5t-434.5 -189.5h-587v1319h587zM761 176q184 0 297 140t113 348t-112 343.5t-298 135.5h-399v-967h399zM437 -299v128h597v-128h-597z" glyph-name="uni1E0E" horiz-adv-x="1474" unicode="Ḏ"/><glyph d="M852 1468h182v-1468h-148l-34 135v5q-104 -167 -323 -167q-205 0 -322 139t-117 359t118 357.5t324 137.5q217 0 320 -162v664zM565 142q135 0 211 89.5t76 238t-76 238t-211 89.5t-212 -89.5t-77 -238t77 -238t212 -89.5zM271 -299v128h598v-128h-598z" glyph-name="uni1E0F" horiz-adv-x="1184" unicode="ḏ"/><glyph d="M761 1319q268 0 435.5 -184t167.5 -471q0 -285 -168.5 -474.5t-434.5 -189.5h-587v1319h587zM761 176q184 0 297 140t113 348t-112 343.5t-298 135.5h-399v-967h399zM686 -171h89l194 -210l-70 -73l-170 140l-173 -140l-70 73z" glyph-name="uni1E12" horiz-adv-x="1474" unicode="Ḓ"/><glyph d="M852 1468h182v-1468h-148l-34 135v5q-104 -167 -323 -167q-205 0 -322 139t-117 359t118 357.5t324 137.5q217 0 320 -162v664zM565 142q135 0 211 89.5t76 238t-76 238t-211 89.5t-212 -89.5t-77 -238t77 -238t212 -89.5zM521 -171h88l195 -210l-70 -73l-171 140 l-172 -140l-70 73z" glyph-name="uni1E13" horiz-adv-x="1184" unicode="ḓ"/><glyph d="M1092 1319h188v-1319h-188v570h-730v-570h-188v1319h188v-571h730v571zM753 -135q51 0 82.5 -34t31.5 -89q0 -53 -30.5 -88t-83.5 -35t-84.5 34.5t-31.5 88.5q0 56 31.5 89.5t84.5 33.5z" glyph-name="uni1E24" horiz-adv-x="1457" unicode="Ḥ"/><glyph d="M652 964q343 0 343 -399v-565h-191l2 548q0 241 -192 240q-152 0 -274 -213v-575h-192v1449h192v-657q128 172 312 172zM587 -135q51 0 82.5 -34t31.5 -89q0 -53 -30.5 -88t-83.5 -35t-84.5 34.5t-31.5 88.5q0 56 31.5 89.5t84.5 33.5z" glyph-name="uni1E25" horiz-adv-x="1129" unicode="ḥ"/><glyph d="M174 1821l-36 75l343 217l63 -150zM101 1700q41 0 67.5 -28t26.5 -73q0 -43 -26 -72t-68.5 -29t-68 28.5t-25.5 72.5q0 46 25.5 73.5t68.5 27.5zM443.5 1700q42.5 0 68.5 -28t26 -73q0 -43 -26 -72t-68.5 -29t-68 28.5t-25.5 72.5q0 46 25.5 73.5t68 27.5zM362 0h-188 v1319h188v-1319z" glyph-name="uni1E2E" horiz-adv-x="534" unicode="Ḯ"/><glyph d="M150 1440l-36 76l343 216l64 -150zM77 1319q41 0 67.5 -28t26.5 -72q0 -43 -26 -72t-68.5 -29t-68 28t-25.5 73q0 46 25.5 73t68.5 27zM420 1319q43 0 68.5 -28t25.5 -72q0 -43 -25.5 -72t-68.5 -29t-68.5 28t-25.5 73q0 46 25.5 73t68.5 27zM338 0h-186v939h186v-939z " glyph-name="uni1E2F" horiz-adv-x="489" unicode="ḯ"/><glyph d="M362 176h679v-176h-867v1319h188v-1143zM631 -135q51 0 83 -34t32 -89q0 -53 -31 -88t-83.5 -35t-84.5 34.5t-32 88.5q0 56 31.5 89.5t84.5 33.5z" glyph-name="uni1E36" horiz-adv-x="1129" unicode="Ḷ"/><glyph d="M473 160l29 -148q-171 -60 -265 -5.5t-94 213.5v1205h186v-1183q0 -65 34.5 -83t109.5 1zM331 -135q51 0 82.5 -34t31.5 -89q0 -53 -30.5 -88t-83.5 -35t-84.5 34.5t-31.5 88.5q0 56 31.5 89.5t84.5 33.5z" glyph-name="uni1E37" horiz-adv-x="588" unicode="ḷ"/><glyph d="M362 176h679v-176h-867v1319h188v-1143zM589 -171h89l194 -210l-70 -73l-171 140l-172 -140l-70 73z" glyph-name="uni1E3C" horiz-adv-x="1129" unicode="Ḽ"/><glyph d="M473 160l29 -148q-171 -60 -265 -5.5t-94 213.5v1205h186v-1183q0 -65 34.5 -83t109.5 1zM288 -171h89l195 -210l-70 -73l-171 140l-172 -140l-70 73z" glyph-name="uni1E3D" horiz-adv-x="588" unicode="ḽ"/><glyph d="M1103 1582l-371 -142l-36 76l343 216zM1529 0h-184l-67 1029l-380 -1029h-140l-377 1005l-67 -1005h-188l86 1319h230l386 -1048l385 1048h231z" glyph-name="uni1E3E" horiz-adv-x="1658" unicode="Ḿ"/><glyph d="M1128 1201l-370 -141l-36 75l343 217zM1246 964q333 0 333 -399v-565h-185l2 560q0 241 -184 240q-142 0 -258 -191q2 -15 2 -44v-565h-185l2 560q0 241 -184 240q-143 0 -258 -192v-608h-189v939h152l30 -142q125 167 299 167q232 0 302 -198q130 198 321 198z" glyph-name="uni1E3F" horiz-adv-x="1713" unicode="ḿ"/><glyph d="M758 1480q-53 0 -84.5 35t-31.5 89.5t31.5 88.5t84.5 34q51 0 82.5 -34t31.5 -89q0 -53 -30.5 -88.5t-83.5 -35.5zM1183 1319h184v-1319h-179l-830 1015v-1015h-184v1319h179l830 -1015v1015z" glyph-name="uni1E44" horiz-adv-x="1541" unicode="Ṅ"/><glyph d="M546 1099q-53 0 -84.5 35t-31.5 89.5t31.5 89t84.5 34.5q51 0 82.5 -34.5t31.5 -88.5q0 -53 -30.5 -89t-83.5 -36zM645 964q157 0 250 -93.5t93 -305.5v-565h-191v548q0 241 -189 240q-150 0 -277 -213v-575h-189v939h152l32 -151q135 176 319 176z" glyph-name="uni1E45" horiz-adv-x="1124" unicode="ṅ"/><glyph d="M1183 1319h184v-1319h-179l-830 1015v-1015h-184v1319h179l830 -1015v1015zM792 -135q51 0 82.5 -34t31.5 -89q0 -53 -30.5 -88t-83.5 -35t-84.5 34.5t-31.5 88.5q0 56 31.5 89.5t84.5 33.5z" glyph-name="uni1E46" horiz-adv-x="1541" unicode="Ṇ"/><glyph d="M645 964q157 0 250 -93.5t93 -305.5v-565h-191v548q0 241 -189 240q-150 0 -277 -213v-575h-189v939h152l32 -151q135 176 319 176zM587 -135q51 0 82.5 -34t31.5 -89q0 -53 -30.5 -88t-83.5 -35t-84.5 34.5t-31.5 88.5q0 56 31.5 89.5t84.5 33.5z" glyph-name="uni1E47" horiz-adv-x="1124" unicode="ṇ"/><glyph d="M1183 1319h184v-1319h-179l-830 1015v-1015h-184v1319h179l830 -1015v1015zM749 -171h89l195 -210l-70 -73l-171 140l-172 -140l-70 73z" glyph-name="uni1E4A" horiz-adv-x="1541" unicode="Ṋ"/><glyph d="M645 964q157 0 250 -93.5t93 -305.5v-565h-191v548q0 241 -189 240q-150 0 -277 -213v-575h-189v939h152l32 -151q135 176 319 176zM544 -171h89l195 -210l-70 -73l-171 140l-172 -140l-70 73z" glyph-name="uni1E4B" horiz-adv-x="1124" unicode="ṋ"/><glyph d="M678 1821l-36 75l343 217l63 -150zM567 1485h-128q0 101 58.5 161.5t140.5 60.5q63 0 135 -51.5t111 -51.5q68 0 68 96h127q0 -108 -55 -166t-137 -58q-65 0 -136.5 53t-107.5 53q-76 0 -76 -97zM754.5 1350q288.5 0 464 -192t175.5 -498q0 -304 -175.5 -497.5 t-464.5 -193.5q-287 0 -464 193t-177 498q0 302 176.5 496t465 194zM754 1176q-208 0 -331 -143.5t-123 -372t122 -372t332 -143.5q208 0 331 143.5t123 372t-123.5 372t-330.5 143.5z" glyph-name="uni1E4C" unicode="Ṍ"/><glyph d="M500 1440l-36 76l343 216l63 -150zM389 1104h-128q0 101 59 161.5t141 60.5q63 0 134.5 -51t111.5 -51q68 0 68 95h126q0 -108 -54.5 -165.5t-136.5 -57.5q-65 0 -136.5 52.5t-107.5 52.5q-77 0 -77 -97zM584 966q217 0 354 -137.5t137 -360.5q0 -208 -130.5 -351.5 t-360.5 -143.5q-220 0 -357 136.5t-137 358.5q0 224 137 361t357 137zM584 800q-143 0 -223.5 -94.5t-80.5 -237.5q0 -142 80 -236t224 -94q140 0 221 95t81 235q0 143 -80 237.5t-222 94.5z" glyph-name="uni1E4D" horiz-adv-x="1167" unicode="ṍ"/><glyph d="M841 1821l-370 142l63 150l345 -217zM459 1529v128h597v-128h-597zM754.5 1350q288.5 0 464 -192t175.5 -498q0 -304 -175.5 -497.5t-464.5 -193.5q-287 0 -464 193t-177 498q0 302 176.5 496t465 194zM754 1176q-208 0 -331 -143.5t-123 -372t122 -372t332 -143.5 q208 0 331 143.5t123 372t-123.5 372t-330.5 143.5z" glyph-name="uni1E50" unicode="Ṑ"/><glyph d="M664 1440l-370 142l63 150l344 -216zM282 1149v128h597v-128h-597zM584 966q217 0 354 -137.5t137 -360.5q0 -208 -130.5 -351.5t-360.5 -143.5q-220 0 -357 136.5t-137 358.5q0 224 137 361t357 137zM584 800q-143 0 -223.5 -94.5t-80.5 -237.5q0 -142 80 -236t224 -94 q140 0 221 95t81 235q0 143 -80 237.5t-222 94.5z" glyph-name="uni1E51" horiz-adv-x="1167" unicode="ṑ"/><glyph d="M654 1821l-36 75l343 217l63 -150zM459 1529v128h597v-128h-597zM754.5 1350q288.5 0 464 -192t175.5 -498q0 -304 -175.5 -497.5t-464.5 -193.5q-287 0 -464 193t-177 498q0 302 176.5 496t465 194zM754 1176q-208 0 -331 -143.5t-123 -372t122 -372t332 -143.5 q208 0 331 143.5t123 372t-123.5 372t-330.5 143.5z" glyph-name="uni1E52" unicode="Ṓ"/><glyph d="M476 1440l-36 76l343 216l64 -150zM282 1149v128h597v-128h-597zM584 966q217 0 354 -137.5t137 -360.5q0 -208 -130.5 -351.5t-360.5 -143.5q-220 0 -357 136.5t-137 358.5q0 224 137 361t357 137zM584 800q-143 0 -223.5 -94.5t-80.5 -237.5q0 -142 80 -236t224 -94 q140 0 221 95t81 235q0 143 -80 237.5t-222 94.5z" glyph-name="uni1E53" horiz-adv-x="1167" unicode="ṓ"/><glyph d="M97 200l139 121q159 -177 385 -178q131 0 214 55t83 152q0 67 -41.5 114.5t-107.5 77.5t-147 55.5t-161 56t-146 70t-107.5 107.5t-41.5 159q0 169 129.5 266t335.5 97q276 0 441 -184l-132 -113q-128 133 -315 134q-119 0 -191 -52.5t-72 -135.5q0 -60 41.5 -104.5 t107.5 -72.5t146 -52.5t161 -56.5t147 -73.5t107.5 -111.5t41.5 -162q0 -183 -142.5 -289.5t-353.5 -106.5q-154 0 -293 60.5t-228 166.5zM618 -135q51 0 82.5 -34t31.5 -89q0 -53 -30.5 -88t-83.5 -35t-84.5 34.5t-31.5 88.5q0 56 31.5 89.5t84.5 33.5z" glyph-name="uni1E62" horiz-adv-x="1221" unicode="Ṣ"/><glyph d="M476 -27q-121 0 -233 38t-171 97l85 133q53 -48 143.5 -83t180.5 -35q96 0 154 34t58 97q0 60 -60.5 92.5t-147 49.5t-171.5 40t-145.5 83.5t-60.5 161.5q0 125 102 205t268 80q212 0 372 -126l-91 -125q-126 101 -281 101q-191 0 -191 -121q0 -51 43.5 -83.5t109 -44.5 t142.5 -32t142.5 -44.5t109 -81.5t43.5 -144q0 -133 -110 -212.5t-291 -79.5zM483 -135q51 0 82.5 -34t31.5 -89q0 -53 -30.5 -88t-83.5 -35t-84.5 34.5t-31.5 88.5q0 56 31.5 89.5t84.5 33.5z" glyph-name="uni1E63" horiz-adv-x="964" unicode="ṣ"/><glyph d="M68 1319h1072v-176h-444v-1143h-186v1143h-442v176zM606 -135q51 0 82.5 -34t31.5 -89q0 -53 -30.5 -88t-83.5 -35t-84.5 34.5t-31.5 88.5q0 56 31.5 89.5t84.5 33.5z" glyph-name="uni1E6C" horiz-adv-x="1210" unicode="Ṭ"/><glyph d="M730 15q-215 -90 -366.5 4t-151.5 333v431h-152v156h152v293h184v-293h287l-12 -156h-275v-445q0 -147 94 -190.5t223 19.5zM488 -135q51 0 82.5 -34t31.5 -89q0 -53 -30.5 -88t-83.5 -35t-84.5 34.5t-31.5 88.5q0 56 31.5 89.5t84.5 33.5z" glyph-name="uni1E6D" horiz-adv-x="795" unicode="ṭ"/><glyph d="M68 1319h1072v-176h-444v-1143h-186v1143h-442v176zM314 -299v128h597v-128h-597z" glyph-name="uni1E6E" horiz-adv-x="1210" unicode="Ṯ"/><glyph d="M212 352v431h-152v156h152v293h184v-293h287l-12 -156h-275v-445q0 -147 94 -190.5t223 19.5l17 -152q-215 -90 -366.5 4t-151.5 333zM196 -171h598v-128h-598v128z" glyph-name="uni1E6F" horiz-adv-x="795" unicode="ṯ"/><glyph d="M68 1319h1072v-176h-444v-1143h-186v1143h-442v176zM563 -171h89l195 -210l-70 -73l-171 140l-173 -140l-69 73z" glyph-name="uni1E70" horiz-adv-x="1210" unicode="Ṱ"/><glyph d="M730 15q-215 -90 -366.5 4t-151.5 333v431h-152v156h152v293h184v-293h287l-12 -156h-275v-445q0 -147 94 -190.5t223 19.5zM445 -171h89l195 -210l-70 -73l-171 140l-172 -140l-70 73z" glyph-name="uni1E71" horiz-adv-x="795" unicode="ṱ"/><glyph d="M980 1516l-38 -76l-370 142l63 150zM1434 1319h206l-311 -1319h-187l-289 964l-305 -964h-184l-296 1319h197l204 -1008l316 952h143l297 -951z" glyph-name="Wgrave" horiz-adv-x="1708" unicode="Ẁ"/><glyph d="M864 1135l-38 -75l-370 141l63 151zM1222 939h198l-307 -939h-185l-191 700l-193 -700h-186l-307 939h190l201 -686l210 658h169l208 -653z" glyph-name="wgrave" horiz-adv-x="1474" unicode="ẁ"/><glyph d="M1125 1582l-371 -142l-35 76l343 216zM1434 1319h206l-311 -1319h-187l-289 964l-305 -964h-184l-296 1319h197l204 -1008l316 952h143l297 -951z" glyph-name="Wacute" horiz-adv-x="1708" unicode="Ẃ"/><glyph d="M1009 1201l-371 -141l-36 75l343 217zM1222 939h198l-307 -939h-185l-191 700l-193 -700h-186l-307 939h190l201 -686l210 658h169l208 -653z" glyph-name="wacute" horiz-adv-x="1474" unicode="ẃ"/><glyph d="M684.5 1498q-42.5 0 -68 28.5t-25.5 72.5q0 46 25.5 73.5t67.5 27.5q41 0 67.5 -28t26.5 -73q0 -43 -25.5 -72t-68 -29zM1027.5 1498q-42.5 0 -68 28.5t-25.5 72.5q0 46 25.5 73.5t68 27.5t68 -28t25.5 -73q0 -43 -25.5 -72t-68 -29zM1434 1319h206l-311 -1319h-187 l-289 964l-305 -964h-184l-296 1319h197l204 -1008l316 952h143l297 -951z" glyph-name="Wdieresis" horiz-adv-x="1708" unicode="Ẅ"/><glyph d="M568.5 1118q-42.5 0 -68.5 28t-26 73q0 46 26 73t68 27q41 0 67.5 -28t26.5 -72q0 -43 -25.5 -72t-68 -29zM911.5 1118q-42.5 0 -68.5 28t-26 73q0 46 26 73t68.5 27t68 -28t25.5 -72q0 -43 -25.5 -72t-68 -29zM1222 939h198l-307 -939h-185l-191 700l-193 -700h-186 l-307 939h190l201 -686l210 658h169l208 -653z" glyph-name="wdieresis" horiz-adv-x="1474" unicode="ẅ"/><glyph d="M1205 1318v-99l-819 -1050l819 10v-179h-1094v101l817 1048l-817 -11v180h1094zM674 -135q51 0 82.5 -34t31.5 -89q0 -53 -30.5 -88t-83.5 -35t-84.5 34.5t-31.5 88.5q0 56 31.5 89.5t84.5 33.5z" glyph-name="uni1E92" horiz-adv-x="1307" unicode="Ẓ"/><glyph d="M872 939v-178l-587 -595l587 11v-177h-799v177l574 596l-574 -12v178h799zM445 -135q51 0 83 -34t32 -89q0 -53 -31 -88t-83.5 -35t-84.5 34.5t-32 88.5q0 56 31.5 89.5t84.5 33.5z" glyph-name="uni1E93" horiz-adv-x="1024" unicode="ẓ"/><glyph d="M758 783q183 -5 282.5 -104t99.5 -283q0 -181 -98 -288.5t-313 -107.5h-224v162h214q121 0 175.5 58t54.5 169q0 109 -57 170.5t-167 61.5q-34 0 -126 -20l-55 140l308 404l-253 2q-114 0 -174.5 -62.5t-60.5 -178.5v-906h-190v905q0 201 106 307.5t309 106.5h481v-176z " glyph-name="uni1E9E" horiz-adv-x="1249" unicode="ẞ"/><glyph d="M1336 0h-198l-128 326h-628l-128 -326h-198l533 1319h215zM452 505h488l-244 620zM713 -135q51 0 83 -34t32 -89q0 -53 -31 -88t-84 -35t-84.5 34.5t-31.5 88.5q0 56 31.5 89.5t84.5 33.5z" glyph-name="uni1EA0" horiz-adv-x="1394" unicode="Ạ"/><glyph d="M862 939h179v-939h-150l-29 118v37q-104 -183 -330 -182q-201 0 -321.5 136.5t-120.5 358t120.5 360t318.5 138.5q225 0 333 -186v159zM568 142q131 0 210.5 90.5t79.5 237t-78.5 237t-211.5 90.5t-212.5 -90.5t-79.5 -237t79.5 -237t212.5 -90.5zM573 -135q51 0 83 -34 t32 -89q0 -53 -31 -88t-83.5 -35t-84.5 34.5t-32 88.5q0 56 31.5 89.5t84.5 33.5z" glyph-name="uni1EA1" horiz-adv-x="1198" unicode="ạ"/><glyph d="M722 1703q-43 0 -85 -46l-57 68q72 85 161 87q80 2 123.5 -39t41.5 -109q0 -46 -31.5 -95.5t-58 -75t-70.5 -61.5h-99q10 12 35 40t34 39t25.5 32.5t22.5 33.5t12 28t6 32q0 66 -60 66zM1138 0l-128 326h-628l-128 -326h-198l533 1319h215l532 -1319h-198zM452 505h488 l-244 620z" glyph-name="uni1EA2" horiz-adv-x="1394" unicode="Ả"/><glyph d="M570 1323q-43 0 -85 -46l-57 68q72 85 161 87q80 2 123.5 -39t41.5 -110q0 -46 -31.5 -95.5t-58 -75t-70.5 -61.5h-99q10 12 35 40.5t34 39.5t25.5 32t22.5 33t12 28.5t6 31.5q0 67 -60 67zM862 939h179v-939h-150l-29 118v37q-104 -183 -330 -182q-201 0 -321.5 136.5 t-120.5 358t120.5 360t318.5 138.5q225 0 333 -186v159zM568 142q131 0 210.5 90.5t79.5 237t-78.5 237t-211.5 90.5t-212.5 -90.5t-79.5 -237t79.5 -237t212.5 -90.5z" glyph-name="uni1EA3" horiz-adv-x="1198" unicode="ả"/><glyph d="M969 1963l-370 -142l-36 75l343 217zM698 1606l-172 -142l-70 74l198 211h88l197 -211l-70 -74zM1138 0l-128 326h-628l-128 -326h-198l533 1319h215l532 -1319h-198zM452 505h488l-244 620z" glyph-name="uni1EA4" horiz-adv-x="1394" unicode="Ấ"/><glyph d="M817 1582l-370 -142l-36 76l343 216zM546 1225l-172 -141l-70 73l198 212h89l196 -212l-70 -73zM862 939h179v-939h-150l-29 118v37q-104 -183 -330 -182q-201 0 -321.5 136.5t-120.5 358t120.5 360t318.5 138.5q225 0 333 -186v159zM568 142q131 0 210.5 90.5t79.5 237 t-78.5 237t-211.5 90.5t-212.5 -90.5t-79.5 -237t79.5 -237t212.5 -90.5z" glyph-name="uni1EA5" horiz-adv-x="1198" unicode="ấ"/><glyph d="M824 1896l-37 -75l-371 142l64 150zM654 1749h88l197 -211l-70 -74l-171 142l-172 -142l-70 74zM1138 0l-128 326h-628l-128 -326h-198l533 1319h215l532 -1319h-198zM452 505h488l-244 620z" glyph-name="uni1EA6" horiz-adv-x="1394" unicode="Ầ"/><glyph d="M672 1516l-37 -76l-370 142l63 150zM502 1369h89l196 -212l-70 -73l-171 141l-172 -141l-70 73zM862 939h179v-939h-150l-29 118v37q-104 -183 -330 -182q-201 0 -321.5 136.5t-120.5 358t120.5 360t318.5 138.5q225 0 333 -186v159zM568 142q131 0 210.5 90.5t79.5 237 t-78.5 237t-211.5 90.5t-212.5 -90.5t-79.5 -237t79.5 -237t212.5 -90.5z" glyph-name="uni1EA7" horiz-adv-x="1198" unicode="ầ"/><glyph d="M722 2084q-43 0 -85 -46l-57 68q72 85 161 87q80 2 123.5 -39t41.5 -109q0 -46 -31.5 -95.5t-58 -75.5t-70.5 -62h-99q10 12 35 40.5t34 39.5t25.5 32.5t22.5 33t12 28t6 31.5q0 67 -60 67zM698 1606l-172 -142l-70 74l198 211h88l197 -211l-70 -74zM1138 0l-128 326 h-628l-128 -326h-198l533 1319h215l532 -1319h-198zM452 505h488l-244 620z" glyph-name="uni1EA8" horiz-adv-x="1394" unicode="Ẩ"/><glyph d="M570 1703q-43 0 -85 -46l-57 68q72 85 161 87q80 2 123.5 -39t41.5 -109q0 -46 -31.5 -95.5t-58 -75t-70.5 -61.5h-99q10 12 35 40t34 39t25.5 32.5t22.5 33.5t12 28t6 32q0 66 -60 66zM546 1225l-172 -141l-70 73l198 212h89l196 -212l-70 -73zM862 939h179v-939h-150 l-29 118v37q-104 -183 -330 -182q-201 0 -321.5 136.5t-120.5 358t120.5 360t318.5 138.5q225 0 333 -186v159zM568 142q131 0 210.5 90.5t79.5 237t-78.5 237t-211.5 90.5t-212.5 -90.5t-79.5 -237t79.5 -237t212.5 -90.5z" glyph-name="uni1EA9" horiz-adv-x="1198" unicode="ẩ"/><glyph d="M587 1963q-77 0 -77 -98h-128q0 101 59 161.5t141 60.5q63 0 134.5 -51t111.5 -51q68 0 68 95h126q0 -108 -54.5 -165.5t-136.5 -57.5q-65 0 -136.5 53t-107.5 53zM654 1749h88l197 -211l-70 -74l-171 142l-172 -142l-70 74zM1138 0l-128 326h-628l-128 -326h-198 l533 1319h215l532 -1319h-198zM452 505h488l-244 620z" glyph-name="uni1EAA" horiz-adv-x="1394" unicode="Ẫ"/><glyph d="M435 1582q-77 0 -77 -97h-128q0 101 59 161.5t141 60.5q63 0 135 -51.5t111 -51.5q68 0 68 96h126q0 -108 -54.5 -166t-136.5 -58q-65 0 -136.5 53t-107.5 53zM502 1369h89l196 -212l-70 -73l-171 141l-172 -141l-70 73zM862 939h179v-939h-150l-29 118v37 q-104 -183 -330 -182q-201 0 -321.5 136.5t-120.5 358t120.5 360t318.5 138.5q225 0 333 -186v159zM568 142q131 0 210.5 90.5t79.5 237t-78.5 237t-211.5 90.5t-212.5 -90.5t-79.5 -237t79.5 -237t212.5 -90.5z" glyph-name="uni1EAB" horiz-adv-x="1198" unicode="ẫ"/><glyph d="M698 1606l-172 -142l-70 74l198 211h88l197 -211l-70 -74zM1336 0h-198l-128 326h-628l-128 -326h-198l533 1319h215zM452 505h488l-244 620zM713 -135q51 0 83 -34t32 -89q0 -53 -31 -88t-84 -35t-84.5 34.5t-31.5 88.5q0 56 31.5 89.5t84.5 33.5z" glyph-name="uni1EAC" horiz-adv-x="1394" unicode="Ậ"/><glyph d="M546 1225l-172 -141l-70 73l198 212h89l196 -212l-70 -73zM862 939h179v-939h-150l-29 118v37q-104 -183 -330 -182q-201 0 -321.5 136.5t-120.5 358t120.5 360t318.5 138.5q225 0 333 -186v159zM568 142q131 0 210.5 90.5t79.5 237t-78.5 237t-211.5 90.5t-212.5 -90.5 t-79.5 -237t79.5 -237t212.5 -90.5zM573 -135q51 0 83 -34t32 -89q0 -53 -31 -88t-83.5 -35t-84.5 34.5t-32 88.5q0 56 31.5 89.5t84.5 33.5z" glyph-name="uni1EAD" horiz-adv-x="1198" unicode="ậ"/><glyph d="M969 1963l-370 -142l-36 75l343 217zM698 1469q-113 0 -181 61t-77 170h130q29 -111 128 -111t128 111h130q-10 -102 -75 -166.5t-183 -64.5zM1138 0l-128 326h-628l-128 -326h-198l533 1319h215l532 -1319h-198zM452 505h488l-244 620z" glyph-name="uni1EAE" horiz-adv-x="1394" unicode="Ắ"/><glyph d="M817 1582l-370 -142l-36 76l343 216zM546 1089q-113 0 -181 60.5t-77 169.5h130q29 -111 128 -111t128 111h130q-10 -102 -75 -166t-183 -64zM862 939h179v-939h-150l-29 118v37q-104 -183 -330 -182q-201 0 -321.5 136.5t-120.5 358t120.5 360t318.5 138.5 q225 0 333 -186v159zM568 142q131 0 210.5 90.5t79.5 237t-78.5 237t-211.5 90.5t-212.5 -90.5t-79.5 -237t79.5 -237t212.5 -90.5z" glyph-name="uni1EAF" horiz-adv-x="1198" unicode="ắ"/><glyph d="M824 1896l-37 -75l-371 142l64 150zM698 1589q99 0 128 111h130q-10 -102 -75 -166.5t-183 -64.5q-113 0 -181 61t-77 170h130q29 -111 128 -111zM1138 0l-128 326h-628l-128 -326h-198l533 1319h215l532 -1319h-198zM452 505h488l-244 620z" glyph-name="uni1EB0" horiz-adv-x="1394" unicode="Ằ"/><glyph d="M672 1516l-37 -76l-370 142l63 150zM546 1208q99 0 128 111h130q-10 -102 -75 -166t-183 -64q-113 0 -181 60.5t-77 169.5h130q29 -111 128 -111zM862 939h179v-939h-150l-29 118v37q-104 -183 -330 -182q-201 0 -321.5 136.5t-120.5 358t120.5 360t318.5 138.5 q225 0 333 -186v159zM568 142q131 0 210.5 90.5t79.5 237t-78.5 237t-211.5 90.5t-212.5 -90.5t-79.5 -237t79.5 -237t212.5 -90.5z" glyph-name="uni1EB1" horiz-adv-x="1198" unicode="ằ"/><glyph d="M722 2084q-43 0 -85 -46l-57 68q72 85 161 87q80 2 123.5 -39t41.5 -109q0 -46 -31.5 -95.5t-58 -75.5t-70.5 -62h-99q10 12 35 40.5t34 39.5t25.5 32.5t22.5 33t12 28t6 31.5q0 67 -60 67zM698 1469q-113 0 -181 61t-77 170h130q29 -111 128 -111t128 111h130 q-10 -102 -75 -166.5t-183 -64.5zM1138 0l-128 326h-628l-128 -326h-198l533 1319h215l532 -1319h-198zM452 505h488l-244 620z" glyph-name="uni1EB2" horiz-adv-x="1394" unicode="Ẳ"/><glyph d="M570 1703q-43 0 -85 -46l-57 68q72 85 161 87q80 2 123.5 -39t41.5 -109q0 -46 -31.5 -95.5t-58 -75t-70.5 -61.5h-99q10 12 35 40t34 39t25.5 32.5t22.5 33.5t12 28t6 32q0 66 -60 66zM546 1089q-113 0 -181 60.5t-77 169.5h130q29 -111 128 -111t128 111h130 q-10 -102 -75 -166t-183 -64zM862 939h179v-939h-150l-29 118v37q-104 -183 -330 -182q-201 0 -321.5 136.5t-120.5 358t120.5 360t318.5 138.5q225 0 333 -186v159zM568 142q131 0 210.5 90.5t79.5 237t-78.5 237t-211.5 90.5t-212.5 -90.5t-79.5 -237t79.5 -237 t212.5 -90.5z" glyph-name="uni1EB3" horiz-adv-x="1198" unicode="ẳ"/><glyph d="M587 1963q-77 0 -77 -98h-128q0 101 59 161.5t141 60.5q63 0 134.5 -51t111.5 -51q68 0 68 95h126q0 -108 -54.5 -165.5t-136.5 -57.5q-65 0 -136.5 53t-107.5 53zM698 1589q99 0 128 111h130q-10 -102 -75 -166.5t-183 -64.5q-113 0 -181 61t-77 170h130 q29 -111 128 -111zM1138 0l-128 326h-628l-128 -326h-198l533 1319h215l532 -1319h-198zM452 505h488l-244 620z" glyph-name="uni1EB4" horiz-adv-x="1394" unicode="Ẵ"/><glyph d="M435 1582q-77 0 -77 -97h-128q0 101 59 161.5t141 60.5q63 0 135 -51.5t111 -51.5q68 0 68 96h126q0 -108 -54.5 -166t-136.5 -58q-65 0 -136.5 53t-107.5 53zM546 1208q99 0 128 111h130q-10 -102 -75 -166t-183 -64q-113 0 -181 60.5t-77 169.5h130q29 -111 128 -111z M862 939h179v-939h-150l-29 118v37q-104 -183 -330 -182q-201 0 -321.5 136.5t-120.5 358t120.5 360t318.5 138.5q225 0 333 -186v159zM568 142q131 0 210.5 90.5t79.5 237t-78.5 237t-211.5 90.5t-212.5 -90.5t-79.5 -237t79.5 -237t212.5 -90.5z" glyph-name="uni1EB5" horiz-adv-x="1198" unicode="ẵ"/><glyph d="M698 1469q-113 0 -181 61t-77 170h130q29 -111 128 -111t128 111h130q-10 -102 -75 -166.5t-183 -64.5zM1336 0h-198l-128 326h-628l-128 -326h-198l533 1319h215zM452 505h488l-244 620zM713 -135q51 0 83 -34t32 -89q0 -53 -31 -88t-84 -35t-84.5 34.5t-31.5 88.5 q0 56 31.5 89.5t84.5 33.5z" glyph-name="uni1EB6" horiz-adv-x="1394" unicode="Ặ"/><glyph d="M546 1089q-113 0 -181 60.5t-77 169.5h130q29 -111 128 -111t128 111h130q-10 -102 -75 -166t-183 -64zM862 939h179v-939h-150l-29 118v37q-104 -183 -330 -182q-201 0 -321.5 136.5t-120.5 358t120.5 360t318.5 138.5q225 0 333 -186v159zM568 142q131 0 210.5 90.5 t79.5 237t-78.5 237t-211.5 90.5t-212.5 -90.5t-79.5 -237t79.5 -237t212.5 -90.5zM573 -135q51 0 83 -34t32 -89q0 -53 -31 -88t-83.5 -35t-84.5 34.5t-32 88.5q0 56 31.5 89.5t84.5 33.5z" glyph-name="uni1EB7" horiz-adv-x="1198" unicode="ặ"/><glyph d="M1041 1147h-684v-381l510 -1v-168h-510v-425h684v-172h-867v1319h867v-172zM596 -135q51 0 82.5 -34t31.5 -89q0 -53 -30.5 -88t-83.5 -35t-84.5 34.5t-31.5 88.5q0 56 31.5 89.5t84.5 33.5z" glyph-name="uni1EB8" horiz-adv-x="1165" unicode="Ẹ"/><glyph d="M90 471q0 227 124 361t336 134q230 0 337.5 -146t76.5 -414h-681q14 -128 87.5 -203t199.5 -75q177 0 302 119l91 -126q-157 -148 -393 -148q-220 0 -350 136.5t-130 361.5zM283 532h517q0 126 -60.5 205.5t-186.5 79.5q-128 0 -199 -81t-71 -204zM558 -135 q51 0 82.5 -34t31.5 -89q0 -53 -30.5 -88t-83.5 -35t-84.5 34.5t-31.5 88.5q0 56 31.5 89.5t84.5 33.5z" glyph-name="uni1EB9" horiz-adv-x="1070" unicode="ẹ"/><glyph d="M630 1703q-43 0 -86 -46l-56 68q72 85 161 87q80 2 123.5 -39t41.5 -109q0 -46 -31.5 -95.5t-58 -75t-70.5 -61.5h-99q10 12 34.5 40t34 39t26 32.5t22.5 33.5t11.5 28t5.5 32q1 66 -59 66zM1041 1147h-684v-381l510 -1v-168h-510v-425h684v-172h-867v1319h867v-172z" glyph-name="uni1EBA" horiz-adv-x="1165" unicode="Ẻ"/><glyph d="M594 1051h-99q10 12 35 40.5t34 39.5t25.5 32t22.5 33t12 28.5t6 31.5q0 67 -60 67q-43 0 -85 -46l-57 68q72 85 161 87q80 2 123.5 -39t41.5 -110q0 -46 -31.5 -95.5t-58 -75t-70.5 -61.5zM90 471q0 227 124 361t336 134q230 0 337.5 -146t76.5 -414h-681 q14 -128 87.5 -203t199.5 -75q177 0 302 119l91 -126q-157 -148 -393 -148q-220 0 -350 136.5t-130 361.5zM283 532h517q0 126 -60.5 205.5t-186.5 79.5q-128 0 -199 -81t-71 -204z" glyph-name="uni1EBB" horiz-adv-x="1070" unicode="ẻ"/><glyph d="M481 1582q-77 0 -77 -97h-128q0 101 59 161.5t141 60.5q63 0 135 -51.5t111 -51.5q68 0 68 96h126q0 -108 -54.5 -166t-136.5 -58q-65 0 -136.5 53t-107.5 53zM1041 1147h-684v-381l510 -1v-168h-510v-425h684v-172h-867v1319h867v-172z" glyph-name="uni1EBC" horiz-adv-x="1165" unicode="Ẽ"/><glyph d="M358 1104h-128q0 101 59 161.5t141 60.5q63 0 135 -51t111 -51q68 0 68 95h126q0 -108 -54.5 -165.5t-136.5 -57.5q-65 0 -136.5 52.5t-107.5 52.5q-77 0 -77 -97zM90 471q0 227 124 361t336 134q230 0 337.5 -146t76.5 -414h-681q14 -128 87.5 -203t199.5 -75 q177 0 302 119l91 -126q-157 -148 -393 -148q-220 0 -350 136.5t-130 361.5zM283 532h517q0 126 -60.5 205.5t-186.5 79.5q-128 0 -199 -81t-71 -204z" glyph-name="uni1EBD" horiz-adv-x="1070" unicode="ẽ"/><glyph d="M877 1963l-370 -142l-36 75l343 217zM606 1606l-173 -142l-69 74l197 211h89l197 -211l-70 -74zM1041 1147h-684v-381l510 -1v-168h-510v-425h684v-172h-867v1319h867v-172z" glyph-name="uni1EBE" horiz-adv-x="1165" unicode="Ế"/><glyph d="M447 1440l-36 76l343 216l63 -150zM502 1369h89l196 -212l-70 -73l-171 141l-172 -141l-70 73zM90 471q0 227 124 361t336 134q230 0 337.5 -146t76.5 -414h-681q14 -128 87.5 -203t199.5 -75q177 0 302 119l91 -126q-157 -148 -393 -148q-220 0 -350 136.5t-130 361.5z M283 532h517q0 126 -60.5 205.5t-186.5 79.5q-128 0 -199 -81t-71 -204z" glyph-name="uni1EBF" horiz-adv-x="1070" unicode="ế"/><glyph d="M732 1896l-37 -75l-371 142l63 150zM561 1749h89l197 -211l-70 -74l-171 142l-173 -142l-69 74zM1041 1147h-684v-381l510 -1v-168h-510v-425h684v-172h-867v1319h867v-172z" glyph-name="uni1EC0" horiz-adv-x="1165" unicode="Ề"/><glyph d="M635 1440l-370 142l63 150l344 -216zM502 1369h89l196 -212l-70 -73l-171 141l-172 -141l-70 73zM90 471q0 227 124 361t336 134q230 0 337.5 -146t76.5 -414h-681q14 -128 87.5 -203t199.5 -75q177 0 302 119l91 -126q-157 -148 -393 -148q-220 0 -350 136.5t-130 361.5 zM283 532h517q0 126 -60.5 205.5t-186.5 79.5q-128 0 -199 -81t-71 -204z" glyph-name="uni1EC1" horiz-adv-x="1070" unicode="ề"/><glyph d="M630 2084q-43 0 -86 -46l-56 68q72 85 161 87q80 2 123.5 -39t41.5 -109q0 -46 -31.5 -95.5t-58 -75.5t-70.5 -62h-99q10 12 34.5 40.5t34 39.5t26 32.5t22.5 33t11.5 28t5.5 31.5q1 67 -59 67zM606 1606l-173 -142l-69 74l197 211h89l197 -211l-70 -74zM1041 1147h-684 v-381l510 -1v-168h-510v-425h684v-172h-867v1319h867v-172z" glyph-name="uni1EC2" horiz-adv-x="1165" unicode="Ể"/><glyph d="M594 1432h-99q10 12 35 40t34 39t25.5 32.5t22.5 33.5t12 28t6 32q0 67 -60 66q-43 0 -85 -46l-57 68q72 85 161 87q80 2 123.5 -39t41.5 -109q0 -46 -31.5 -95.5t-58 -75t-70.5 -61.5zM502 1369h89l196 -212l-70 -73l-171 141l-172 -141l-70 73zM90 471q0 227 124 361 t336 134q230 0 337.5 -146t76.5 -414h-681q14 -128 87.5 -203t199.5 -75q177 0 302 119l91 -126q-157 -148 -393 -148q-220 0 -350 136.5t-130 361.5zM283 532h517q0 126 -60.5 205.5t-186.5 79.5q-128 0 -199 -81t-71 -204z" glyph-name="uni1EC3" horiz-adv-x="1070" unicode="ể"/><glyph d="M495 1963q-77 0 -77 -98h-128q0 101 59 161.5t141 60.5q63 0 134.5 -51t111.5 -51q68 0 68 95h126q0 -108 -54.5 -165.5t-136.5 -57.5q-65 0 -136.5 53t-107.5 53zM561 1749h89l197 -211l-70 -74l-171 142l-173 -142l-69 74zM1041 1147h-684v-381l510 -1v-168h-510v-425 h684v-172h-867v1319h867v-172z" glyph-name="uni1EC4" horiz-adv-x="1165" unicode="Ễ"/><glyph d="M358 1485h-128q0 101 59 161.5t141 60.5q63 0 135 -51.5t111 -51.5q68 0 68 96h126q0 -108 -54.5 -166t-136.5 -58q-65 0 -136.5 53t-107.5 53q-77 0 -77 -97zM502 1369h89l196 -212l-70 -73l-171 141l-172 -141l-70 73zM90 471q0 227 124 361t336 134q230 0 337.5 -146 t76.5 -414h-681q14 -128 87.5 -203t199.5 -75q177 0 302 119l91 -126q-157 -148 -393 -148q-220 0 -350 136.5t-130 361.5zM283 532h517q0 126 -60.5 205.5t-186.5 79.5q-128 0 -199 -81t-71 -204z" glyph-name="uni1EC5" horiz-adv-x="1070" unicode="ễ"/><glyph d="M606 1606l-173 -142l-69 74l197 211h89l197 -211l-70 -74zM1041 1147h-684v-381l510 -1v-168h-510v-425h684v-172h-867v1319h867v-172zM596 -135q51 0 82.5 -34t31.5 -89q0 -53 -30.5 -88t-83.5 -35t-84.5 34.5t-31.5 88.5q0 56 31.5 89.5t84.5 33.5z" glyph-name="uni1EC6" horiz-adv-x="1165" unicode="Ệ"/><glyph d="M502 1369h89l196 -212l-70 -73l-171 141l-172 -141l-70 73zM90 471q0 227 124 361t336 134q230 0 337.5 -146t76.5 -414h-681q14 -128 87.5 -203t199.5 -75q177 0 302 119l91 -126q-157 -148 -393 -148q-220 0 -350 136.5t-130 361.5zM283 532h517q0 126 -60.5 205.5 t-186.5 79.5q-128 0 -199 -81t-71 -204zM558 -135q51 0 82.5 -34t31.5 -89q0 -53 -30.5 -88t-83.5 -35t-84.5 34.5t-31.5 88.5q0 56 31.5 89.5t84.5 33.5z" glyph-name="uni1EC7" horiz-adv-x="1070" unicode="ệ"/><glyph d="M317 1432h-99q10 12 35 40t34.5 39t25.5 32.5t22 33.5t12 28t6 32q0 67 -59 66q-43 0 -86 -46l-56 68q72 85 160 87q80 2 124 -39t42 -109q0 -46 -31.5 -95.5t-58.5 -75t-71 -61.5zM362 0h-188v1319h188v-1319z" glyph-name="uni1EC8" horiz-adv-x="534" unicode="Ỉ"/><glyph d="M294 1051h-99q10 12 34.5 40.5t34 39.5t25.5 32t22 33t12 28.5t6 31.5q0 67 -59 67q-43 0 -86 -46l-56 68q72 85 160 87q80 2 124 -39t42 -110q0 -46 -31.5 -95.5t-58 -75t-70.5 -61.5zM338 0h-186v939h186v-939z" glyph-name="uni1EC9" horiz-adv-x="489" unicode="ỉ"/><glyph d="M362 0h-188v1319h188v-1319zM273 -135q51 0 82.5 -34t31.5 -89q0 -53 -30.5 -88t-83.5 -35t-84.5 34.5t-31.5 88.5q0 56 31.5 89.5t84.5 33.5z" glyph-name="uni1ECA" horiz-adv-x="534" unicode="Ị"/><glyph d="M244 1469q53 0 87 -35.5t34 -92.5q0 -55 -33 -92t-88 -37q-53 0 -86 36.5t-33 92.5q0 58 33 93t86 35zM345 0h-186v939h186v-939zM251 -135q51 0 82.5 -34t31.5 -89q0 -53 -30.5 -88t-83.5 -35t-84.5 34.5t-31.5 88.5q0 56 31.5 89.5t84.5 33.5z" glyph-name="uni1ECB" horiz-adv-x="500" unicode="ị"/><glyph d="M754.5 1350q288.5 0 464 -192t175.5 -498q0 -304 -175.5 -497.5t-464.5 -193.5q-287 0 -464 193t-177 498q0 302 176.5 496t465 194zM754 1176q-208 0 -331 -143.5t-123 -372t122 -372t332 -143.5q208 0 331 143.5t123 372t-123.5 372t-330.5 143.5zM754 -135 q51 0 83 -34t32 -89q0 -53 -31 -88t-84 -35t-84.5 34.5t-31.5 88.5q0 56 31.5 89.5t84.5 33.5z" glyph-name="uni1ECC" unicode="Ọ"/><glyph d="M584 966q217 0 354 -137.5t137 -360.5q0 -208 -130.5 -351.5t-360.5 -143.5q-220 0 -357 136.5t-137 358.5q0 224 137 361t357 137zM584 800q-143 0 -223.5 -94.5t-80.5 -237.5q0 -142 80 -236t224 -94q140 0 221 95t81 235q0 143 -80 237.5t-222 94.5zM584 -135 q51 0 82.5 -34t31.5 -89q0 -53 -30.5 -88t-83.5 -35t-84.5 34.5t-31.5 88.5q0 56 31.5 89.5t84.5 33.5z" glyph-name="uni1ECD" horiz-adv-x="1167" unicode="ọ"/><glyph d="M802 1432h-99q10 12 35 40t34.5 39t25.5 32.5t22 33.5t12 28t6 32q0 67 -60 66q-43 0 -85 -46l-56 68q72 85 160 87q80 2 123.5 -39t42.5 -109q0 -46 -32 -95.5t-58.5 -75t-70.5 -61.5zM754.5 1350q288.5 0 464 -192t175.5 -498q0 -304 -175.5 -497.5t-464.5 -193.5 q-287 0 -464 193t-177 498q0 302 176.5 496t465 194zM754 1176q-208 0 -331 -143.5t-123 -372t122 -372t332 -143.5q208 0 331 143.5t123 372t-123.5 372t-330.5 143.5z" glyph-name="uni1ECE" unicode="Ỏ"/><glyph d="M625 1051h-99q10 12 34.5 40.5t34 39.5t26 32t22.5 33t11.5 28.5t5.5 31.5q0 67 -59 67q-43 0 -86 -46l-56 68q72 85 161 87q80 2 123.5 -39t41.5 -110q0 -46 -31.5 -95.5t-58 -75t-70.5 -61.5zM584 966q217 0 354 -137.5t137 -360.5q0 -208 -130.5 -351.5t-360.5 -143.5 q-220 0 -357 136.5t-137 358.5q0 224 137 361t357 137zM584 800q-143 0 -223.5 -94.5t-80.5 -237.5q0 -142 80 -236t224 -94q140 0 221 95t81 235q0 143 -80 237.5t-222 94.5z" glyph-name="uni1ECF" horiz-adv-x="1167" unicode="ỏ"/><glyph d="M655 1821l-35 75l343 217l63 -150zM710 1749h89l196 -211l-70 -74l-171 142l-172 -142l-70 74zM754.5 1350q288.5 0 464 -192t175.5 -498q0 -304 -175.5 -497.5t-464.5 -193.5q-287 0 -464 193t-177 498q0 302 176.5 496t465 194zM754 1176q-208 0 -331 -143.5t-123 -372 t122 -372t332 -143.5q208 0 331 143.5t123 372t-123.5 372t-330.5 143.5z" glyph-name="uni1ED0" unicode="Ố"/><glyph d="M478 1440l-36 76l343 216l63 -150zM532 1369h89l196 -212l-69 -73l-171 141l-173 -141l-69 73zM584 966q217 0 354 -137.5t137 -360.5q0 -208 -130.5 -351.5t-360.5 -143.5q-220 0 -357 136.5t-137 358.5q0 224 137 361t357 137zM584 800q-143 0 -223.5 -94.5 t-80.5 -237.5q0 -142 80 -236t224 -94q140 0 221 95t81 235q0 143 -80 237.5t-222 94.5z" glyph-name="uni1ED1" horiz-adv-x="1167" unicode="ố"/><glyph d="M843 1821l-370 142l63 150l345 -217zM710 1749h89l196 -211l-70 -74l-171 142l-172 -142l-70 74zM754.5 1350q288.5 0 464 -192t175.5 -498q0 -304 -175.5 -497.5t-464.5 -193.5q-287 0 -464 193t-177 498q0 302 176.5 496t465 194zM754 1176q-208 0 -331 -143.5 t-123 -372t122 -372t332 -143.5q208 0 331 143.5t123 372t-123.5 372t-330.5 143.5z" glyph-name="uni1ED2" unicode="Ồ"/><glyph d="M666 1440l-371 142l63 150l345 -216zM532 1369h89l196 -212l-69 -73l-171 141l-173 -141l-69 73zM584 966q217 0 354 -137.5t137 -360.5q0 -208 -130.5 -351.5t-360.5 -143.5q-220 0 -357 136.5t-137 358.5q0 224 137 361t357 137zM584 800q-143 0 -223.5 -94.5 t-80.5 -237.5q0 -142 80 -236t224 -94q140 0 221 95t81 235q0 143 -80 237.5t-222 94.5z" glyph-name="uni1ED3" horiz-adv-x="1167" unicode="ồ"/><glyph d="M802 1812h-99q10 12 35 40.5t34.5 39.5t25.5 32.5t22 33t12 28t6 31.5q0 67 -60 67q-43 0 -85 -46l-56 68q72 85 160 87q80 2 123.5 -39t42.5 -109q0 -46 -32 -95.5t-58.5 -75.5t-70.5 -62zM710 1749h89l196 -211l-70 -74l-171 142l-172 -142l-70 74zM754.5 1350 q288.5 0 464 -192t175.5 -498q0 -304 -175.5 -497.5t-464.5 -193.5q-287 0 -464 193t-177 498q0 302 176.5 496t465 194zM754 1176q-208 0 -331 -143.5t-123 -372t122 -372t332 -143.5q208 0 331 143.5t123 372t-123.5 372t-330.5 143.5z" glyph-name="uni1ED4" unicode="Ổ"/><glyph d="M625 1432h-99q10 12 34.5 40t34 39t26 32.5t22.5 33.5t11.5 28t5.5 32q0 67 -59 66q-43 0 -86 -46l-56 68q72 85 161 87q80 2 123.5 -39t41.5 -109q0 -46 -31.5 -95.5t-58 -75t-70.5 -61.5zM532 1369h89l196 -212l-69 -73l-171 141l-173 -141l-69 73zM584 966 q217 0 354 -137.5t137 -360.5q0 -208 -130.5 -351.5t-360.5 -143.5q-220 0 -357 136.5t-137 358.5q0 224 137 361t357 137zM584 800q-143 0 -223.5 -94.5t-80.5 -237.5q0 -142 80 -236t224 -94q140 0 221 95t81 235q0 143 -80 237.5t-222 94.5z" glyph-name="uni1ED5" horiz-adv-x="1167" unicode="ổ"/><glyph d="M567 1865h-128q0 101 58.5 161.5t140.5 60.5q63 0 135 -51t111 -51q68 0 68 95h127q0 -108 -55 -165.5t-137 -57.5q-65 0 -136.5 53t-107.5 53q-76 -1 -76 -98zM710 1749h89l196 -211l-70 -74l-171 142l-172 -142l-70 74zM754.5 1350q288.5 0 464 -192t175.5 -498 q0 -304 -175.5 -497.5t-464.5 -193.5q-287 0 -464 193t-177 498q0 302 176.5 496t465 194zM754 1176q-208 0 -331 -143.5t-123 -372t122 -372t332 -143.5q208 0 331 143.5t123 372t-123.5 372t-330.5 143.5z" glyph-name="uni1ED6" unicode="Ỗ"/><glyph d="M389 1485h-128q0 101 59 161.5t141 60.5q63 0 134.5 -51.5t111.5 -51.5q68 0 68 96h126q0 -108 -54.5 -166t-136.5 -58q-65 0 -136.5 53t-107.5 53q-77 0 -77 -97zM532 1369h89l196 -212l-69 -73l-171 141l-173 -141l-69 73zM584 966q217 0 354 -137.5t137 -360.5 q0 -208 -130.5 -351.5t-360.5 -143.5q-220 0 -357 136.5t-137 358.5q0 224 137 361t357 137zM584 800q-143 0 -223.5 -94.5t-80.5 -237.5q0 -142 80 -236t224 -94q140 0 221 95t81 235q0 143 -80 237.5t-222 94.5z" glyph-name="uni1ED7" horiz-adv-x="1167" unicode="ỗ"/><glyph d="M710 1749h89l196 -211l-70 -74l-171 142l-172 -142l-70 74zM754.5 1350q288.5 0 464 -192t175.5 -498q0 -304 -175.5 -497.5t-464.5 -193.5q-287 0 -464 193t-177 498q0 302 176.5 496t465 194zM754 1176q-208 0 -331 -143.5t-123 -372t122 -372t332 -143.5 q208 0 331 143.5t123 372t-123.5 372t-330.5 143.5zM754 -135q51 0 83 -34t32 -89q0 -53 -31 -88t-84 -35t-84.5 34.5t-31.5 88.5q0 56 31.5 89.5t84.5 33.5z" glyph-name="uni1ED8" unicode="Ộ"/><glyph d="M532 1369h89l196 -212l-69 -73l-171 141l-173 -141l-69 73zM584 966q217 0 354 -137.5t137 -360.5q0 -208 -130.5 -351.5t-360.5 -143.5q-220 0 -357 136.5t-137 358.5q0 224 137 361t357 137zM584 800q-143 0 -223.5 -94.5t-80.5 -237.5q0 -142 80 -236t224 -94 q140 0 221 95t81 235q0 143 -80 237.5t-222 94.5zM584 -135q51 0 82.5 -34t31.5 -89q0 -53 -30.5 -88t-83.5 -35t-84.5 34.5t-31.5 88.5q0 56 31.5 89.5t84.5 33.5z" glyph-name="uni1ED9" horiz-adv-x="1167" unicode="ộ"/><glyph d="M1024 1582l-370 -142l-36 76l343 216zM1179 1198q215 -193 215 -538q0 -304 -175.5 -497.5t-464.5 -193.5q-287 0 -464 193t-177 498q0 302 175.5 496t464.5 196h1h2q75 0 215 -6t171 -6q61 -2 81.5 28.5t8.5 99.5h152q49 -270 -177 -270h-28zM754 145q208 0 331 143.5 t123 372t-123.5 372t-330.5 143.5q-208 0 -331 -143.5t-123 -372t122 -372t332 -143.5z" glyph-name="uni1EDA" unicode="Ớ"/><glyph d="M864 1201l-371 -141l-36 75l343 217zM1128 1087q22 -113 -19.5 -185.5t-166.5 -68.5q142 -138 142 -365q0 -208 -131.5 -351.5t-361.5 -143.5q-220 0 -356 136.5t-136 358.5q0 224 135.5 361t356.5 137q36 0 295 -7q61 -2 81.5 29t8.5 99h152zM591 138q137 0 219.5 95.5 t82.5 234.5q0 142 -82 237t-220.5 95t-220.5 -95.5t-82 -236.5q0 -140 82.5 -235t220.5 -95z" glyph-name="uni1EDB" horiz-adv-x="1182" unicode="ớ"/><glyph d="M879 1516l-38 -76l-370 142l63 150zM1179 1198q215 -193 215 -538q0 -304 -175.5 -497.5t-464.5 -193.5q-287 0 -464 193t-177 498q0 302 175.5 496t464.5 196h1h2q75 0 215 -6t171 -6q61 -2 81.5 28.5t8.5 99.5h152q49 -270 -177 -270h-28zM754 145q208 0 331 143.5 t123 372t-123.5 372t-330.5 143.5q-208 0 -331 -143.5t-123 -372t122 -372t332 -143.5z" glyph-name="uni1EDC" unicode="Ờ"/><glyph d="M719 1135l-38 -75l-370 141l63 151zM1128 1087q22 -113 -19.5 -185.5t-166.5 -68.5q142 -138 142 -365q0 -208 -131.5 -351.5t-361.5 -143.5q-220 0 -356 136.5t-136 358.5q0 224 135.5 361t356.5 137q36 0 295 -7q61 -2 81.5 29t8.5 99h152zM591 138q137 0 219.5 95.5 t82.5 234.5q0 142 -82 237t-220.5 95t-220.5 -95.5t-82 -236.5q0 -140 82.5 -235t220.5 -95z" glyph-name="uni1EDD" horiz-adv-x="1182" unicode="ờ"/><glyph d="M777 1703q-43 0 -86 -46l-56 68q72 85 160 87q80 2 124 -39t42 -109q0 -46 -31.5 -95.5t-58 -75t-71.5 -61.5h-99q10 12 35 40t34.5 39t25.5 32.5t22 33.5t12 28t6 32q1 66 -59 66zM1179 1198q215 -193 215 -538q0 -304 -175.5 -497.5t-464.5 -193.5q-287 0 -464 193 t-177 498q0 302 175.5 496t464.5 196h1h2q75 0 215 -6t171 -6q61 -2 81.5 28.5t8.5 99.5h152q49 -270 -177 -270h-28zM754 145q208 0 331 143.5t123 372t-123.5 372t-330.5 143.5q-208 0 -331 -143.5t-123 -372t122 -372t332 -143.5z" glyph-name="uni1EDE" unicode="Ở"/><glyph d="M616 1323q-43 0 -85 -46l-57 68q72 85 161 87q80 2 123.5 -39t41.5 -110q0 -46 -31.5 -95.5t-58 -75t-70.5 -61.5h-99q10 12 35 40.5t34.5 39.5t25.5 32t22 33t12 28.5t6 31.5q0 67 -60 67zM1128 1087q22 -113 -19.5 -185.5t-166.5 -68.5q142 -138 142 -365 q0 -208 -131.5 -351.5t-361.5 -143.5q-220 0 -356 136.5t-136 358.5q0 224 135.5 361t356.5 137q36 0 295 -7q61 -2 81.5 29t8.5 99h152zM591 138q137 0 219.5 95.5t82.5 234.5q0 142 -82 237t-220.5 95t-220.5 -95.5t-82 -236.5q0 -140 82.5 -235t220.5 -95z" glyph-name="uni1EDF" horiz-adv-x="1182" unicode="ở"/><glyph d="M642 1582q-77 0 -77 -97h-128q0 101 59 161.5t141 60.5q63 0 134.5 -51.5t110.5 -51.5q68 0 69 96h126q0 -108 -54.5 -166t-136.5 -58q-65 0 -136.5 53t-107.5 53zM1179 1198q215 -193 215 -538q0 -304 -175.5 -497.5t-464.5 -193.5q-287 0 -464 193t-177 498 q0 302 175.5 496t464.5 196h1h2q75 0 215 -6t171 -6q61 -2 81.5 28.5t8.5 99.5h152q49 -270 -177 -270h-28zM754 145q208 0 331 143.5t123 372t-123.5 372t-330.5 143.5q-208 0 -331 -143.5t-123 -372t122 -372t332 -143.5z" glyph-name="uni1EE0" unicode="Ỡ"/><glyph d="M481 1201q-77 0 -77 -97h-128q0 101 59 161.5t141 60.5q63 0 135 -51t111 -51q68 0 68 95h126q0 -108 -54.5 -165.5t-136.5 -57.5q-65 0 -136.5 52.5t-107.5 52.5zM1128 1087q22 -113 -19.5 -185.5t-166.5 -68.5q142 -138 142 -365q0 -208 -131.5 -351.5t-361.5 -143.5 q-220 0 -356 136.5t-136 358.5q0 224 135.5 361t356.5 137q36 0 295 -7q61 -2 81.5 29t8.5 99h152zM591 138q137 0 219.5 95.5t82.5 234.5q0 142 -82 237t-220.5 95t-220.5 -95.5t-82 -236.5q0 -140 82.5 -235t220.5 -95z" glyph-name="uni1EE1" horiz-adv-x="1182" unicode="ỡ"/><glyph d="M1179 1198q215 -193 215 -538q0 -304 -175.5 -497.5t-464.5 -193.5q-287 0 -464 193t-177 498q0 302 175.5 496t464.5 196h1h2q75 0 215 -6t171 -6q61 -2 81.5 28.5t8.5 99.5h152q49 -270 -177 -270h-28zM754 145q208 0 331 143.5t123 372t-123.5 372t-330.5 143.5 q-208 0 -331 -143.5t-123 -372t122 -372t332 -143.5zM756 -135q51 0 82.5 -34t31.5 -89q0 -53 -30.5 -88t-83.5 -35t-84.5 34.5t-31.5 88.5q0 56 31.5 89.5t84.5 33.5z" glyph-name="uni1EE2" unicode="Ợ"/><glyph d="M1128 1087q22 -113 -19.5 -185.5t-166.5 -68.5q142 -138 142 -365q0 -208 -131.5 -351.5t-361.5 -143.5q-220 0 -356 136.5t-136 358.5q0 224 135.5 361t356.5 137q36 0 295 -7q61 -2 81.5 29t8.5 99h152zM591 138q137 0 219.5 95.5t82.5 234.5q0 142 -82 237t-220.5 95 t-220.5 -95.5t-82 -236.5q0 -140 82.5 -235t220.5 -95zM592 -135q51 0 83 -34t32 -89q0 -53 -31 -88t-84 -35t-84.5 34.5t-31.5 88.5q0 56 31.5 89.5t84.5 33.5z" glyph-name="uni1EE3" horiz-adv-x="1182" unicode="ợ"/><glyph d="M1273 1319v-734q0 -285 -141.5 -450.5t-411.5 -165.5q-271 0 -412.5 165.5t-141.5 450.5v734h187v-717q0 -234 101 -350.5t266 -116.5q164 0 264.5 117t100.5 350v717h188zM720 -135q51 0 83 -34t32 -89q0 -53 -31 -88t-84 -35t-84.5 34.5t-31.5 88.5q0 56 31.5 89.5 t84.5 33.5z" glyph-name="uni1EE4" horiz-adv-x="1438" unicode="Ụ"/><glyph d="M792 939h189v-939h-152l-32 150q-135 -176 -319 -176q-341 0 -341 400v565h191l-2 -531q0 -241 189 -241q154 0 277 210v562zM532 -135q51 0 83 -34t32 -89q0 -53 -31 -88t-83.5 -35t-84.5 34.5t-32 88.5q0 56 31.5 89.5t84.5 33.5z" glyph-name="uni1EE5" horiz-adv-x="1124" unicode="ụ"/><glyph d="M768 1432h-99q10 12 35 40t34.5 39t25.5 32.5t22 33.5t12 28t6 32q0 67 -60 66q-43 0 -85 -46l-57 68q72 85 161 87q80 2 123.5 -39t41.5 -109q0 -46 -31.5 -95.5t-58 -75t-70.5 -61.5zM1273 1319v-734q0 -285 -141.5 -450.5t-411.5 -165.5q-271 0 -412.5 165.5 t-141.5 450.5v734h187v-717q0 -234 101 -350.5t266 -116.5q164 0 264.5 117t100.5 350v717h188z" glyph-name="uni1EE6" horiz-adv-x="1438" unicode="Ủ"/><glyph d="M587 1323q-43 0 -85 -46l-57 68q72 85 161 87q80 2 123.5 -39t41.5 -110q0 -46 -31.5 -95.5t-58 -75t-70.5 -61.5h-99q10 12 35 40.5t34.5 39.5t25.5 32t22 33t12 28.5t6 31.5q0 67 -60 67zM792 939h189v-939h-152l-32 150q-135 -176 -319 -176q-341 0 -341 400v565h191 l-2 -531q0 -241 189 -241q154 0 277 210v562z" glyph-name="uni1EE7" horiz-adv-x="1124" unicode="ủ"/><glyph d="M997 1582l-371 -142l-35 76l343 216zM1541 1449q29 -270 -189 -270h-79v-590q0 -285 -141.5 -450.5t-411.5 -165.5q-271 0 -412 165.5t-141 450.5v730h188v-713q0 -234 100 -351t265 -117q164 0 264.5 117t100.5 351v713h214q61 -2 81.5 30t8.5 100h152z" glyph-name="uni1EE8" horiz-adv-x="1491" unicode="Ứ"/><glyph d="M853 1201l-370 -141l-36 75l343 217zM1220 1068q29 -270 -187 -269h-43v-799h-152l-32 150q-131 -176 -320 -176q-157 0 -250 94t-93 306v565h192v-531q0 -241 189 -241q154 0 276 214v558h186q106 2 82 129h152z" glyph-name="uni1EE9" horiz-adv-x="1252" unicode="ứ"/><glyph d="M852 1516l-38 -76l-370 142l63 150zM1541 1449q29 -270 -189 -270h-79v-590q0 -285 -141.5 -450.5t-411.5 -165.5q-271 0 -412 165.5t-141 450.5v730h188v-713q0 -234 100 -351t265 -117q164 0 264.5 117t100.5 351v713h214q61 -2 81.5 30t8.5 100h152z" glyph-name="uni1EEA" horiz-adv-x="1491" unicode="Ừ"/><glyph d="M708 1135l-37 -75l-371 141l64 151zM1220 1068q29 -270 -187 -269h-43v-799h-152l-32 150q-131 -176 -320 -176q-157 0 -250 94t-93 306v565h192v-531q0 -241 189 -241q154 0 276 214v558h186q106 2 82 129h152z" glyph-name="uni1EEB" horiz-adv-x="1252" unicode="ừ"/><glyph d="M749 1703q-43 0 -85 -46l-56 68q72 85 160 87q80 2 123.5 -39t42.5 -109q0 -46 -32 -95.5t-58.5 -75t-70.5 -61.5h-99q10 12 35 40t34.5 39t25.5 32.5t22 33.5t12 28t6 32q0 66 -60 66zM1541 1449q29 -270 -189 -270h-79v-590q0 -285 -141.5 -450.5t-411.5 -165.5 q-271 0 -412 165.5t-141 450.5v730h188v-713q0 -234 100 -351t265 -117q164 0 264.5 117t100.5 351v713h214q61 -2 81.5 30t8.5 100h152z" glyph-name="uni1EEC" horiz-adv-x="1491" unicode="Ử"/><glyph d="M606 1323q-43 0 -85 -46l-57 68q72 85 161 87q80 2 123.5 -39t41.5 -110q0 -46 -31.5 -95.5t-58 -75t-70.5 -61.5h-99q10 12 35 40.5t34 39.5t25.5 32t22.5 33t12 28.5t6 31.5q0 67 -60 67zM1220 1068q29 -270 -187 -269h-43v-799h-152l-32 150q-131 -176 -320 -176 q-157 0 -250 94t-93 306v565h192v-531q0 -241 189 -241q154 0 276 214v558h186q106 2 82 129h152z" glyph-name="uni1EED" horiz-adv-x="1252" unicode="ử"/><glyph d="M614 1582q-77 0 -76 -97h-128q0 101 58.5 161.5t140.5 60.5q63 0 135 -51.5t111 -51.5q68 0 68 96h127q0 -108 -55 -166t-137 -58q-65 0 -136.5 53t-107.5 53zM1541 1449q29 -270 -189 -270h-79v-590q0 -285 -141.5 -450.5t-411.5 -165.5q-271 0 -412 165.5t-141 450.5 v730h188v-713q0 -234 100 -351t265 -117q164 0 264.5 117t100.5 351v713h214q61 -2 81.5 30t8.5 100h152z" glyph-name="uni1EEE" horiz-adv-x="1491" unicode="Ữ"/><glyph d="M471 1201q-77 0 -77 -97h-128q0 101 59 161.5t141 60.5q63 0 134.5 -51t111.5 -51q68 0 68 95h126q0 -108 -54.5 -165.5t-136.5 -57.5q-65 0 -136.5 52.5t-107.5 52.5zM1220 1068q29 -270 -187 -269h-43v-799h-152l-32 150q-131 -176 -320 -176q-157 0 -250 94t-93 306 v565h192v-531q0 -241 189 -241q154 0 276 214v558h186q106 2 82 129h152z" glyph-name="uni1EEF" horiz-adv-x="1252" unicode="ữ"/><glyph d="M1541 1449q29 -270 -189 -270h-79v-590q0 -285 -141.5 -450.5t-411.5 -165.5q-271 0 -412 165.5t-141 450.5v730h188v-713q0 -234 100 -351t265 -117q164 0 264.5 117t100.5 351v713h214q61 -2 81.5 30t8.5 100h152zM720 -135q51 0 83 -34t32 -89q0 -53 -31 -88t-84 -35 t-84.5 34.5t-31.5 88.5q0 56 31.5 89.5t84.5 33.5z" glyph-name="uni1EF0" horiz-adv-x="1491" unicode="Ự"/><glyph d="M1220 1068q29 -270 -187 -269h-43v-799h-152l-32 150q-131 -176 -320 -176q-157 0 -250 94t-93 306v565h192v-531q0 -241 189 -241q154 0 276 214v558h186q106 2 82 129h152zM488 -135q51 0 82.5 -34t31.5 -89q0 -53 -30.5 -88t-83.5 -35t-84.5 34.5t-31.5 88.5 q0 56 31.5 89.5t84.5 33.5z" glyph-name="uni1EF1" horiz-adv-x="1252" unicode="ự"/><glyph d="M734 1510l-38 -75l-370 142l63 150zM1169 1319l-466 -829v-490h-194v495l-463 824h212l350 -677l349 677h212z" glyph-name="Ygrave" horiz-adv-x="1216" unicode="Ỳ"/><glyph d="M621 1135l-37 -75l-371 141l63 151zM753 939h189l-381 -1041q-79 -222 -198 -305t-324 -25l12 179q63 -26 112 -27.5t83 14t64 56.5t50.5 87t47.5 121l-355 941h191l258 -732z" glyph-name="ygrave" horiz-adv-x="979" unicode="ỳ"/><glyph d="M509 0v495l-463 824h212l350 -677l349 677h212l-466 -829v-490h-194zM606 -135q51 0 82.5 -34t31.5 -89q0 -53 -30.5 -88t-83.5 -35t-84.5 34.5t-31.5 88.5q0 56 31.5 89.5t84.5 33.5z" glyph-name="uni1EF4" horiz-adv-x="1216" unicode="Ỵ"/><glyph d="M561 -102q-79 -222 -198 -305t-324 -25l12 179q63 -26 112 -27.5t83 14t64 56.5t50.5 87t47.5 121l-355 941h191l258 -732l251 732h189zM481 -584q51 0 83 -34t32 -89q0 -53 -31 -87.5t-84 -34.5t-84.5 34t-31.5 88q0 56 31.5 89.5t84.5 33.5z" glyph-name="uni1EF5" horiz-adv-x="979" unicode="ỵ"/><glyph d="M631 1698q-43 0 -85 -46l-56 68q72 85 160 87q80 2 123.5 -39t42.5 -109q0 -46 -31.5 -95.5t-58 -75t-71.5 -61.5h-99q10 12 35 40t34.5 39t25.5 32.5t22 33.5t12 28t6 32q0 66 -60 66zM1169 1319l-466 -829v-490h-194v495l-463 824h212l350 -677l349 677h212z" glyph-name="uni1EF6" horiz-adv-x="1216" unicode="Ỷ"/><glyph d="M519 1323q-43 0 -86 -46l-56 68q72 85 161 87q80 2 123.5 -39t41.5 -110q0 -46 -31.5 -95.5t-58 -75t-70.5 -61.5h-99q10 12 34.5 40.5t34 39.5t26 32t22.5 33t12 28.5t6 31.5q0 67 -60 67zM753 939h189l-381 -1041q-79 -222 -198 -305t-324 -25l12 179q63 -26 112 -27.5 t83 14t64 56.5t50.5 87t47.5 121l-355 941h191l258 -732z" glyph-name="uni1EF7" horiz-adv-x="979" unicode="ỷ"/><glyph d="M483 1577q-77 0 -77 -97h-128q0 101 59 161.5t141 60.5q63 0 134.5 -51.5t111.5 -51.5q68 0 68 96h126q0 -108 -54.5 -166t-136.5 -58q-65 0 -136.5 53t-107.5 53zM1169 1319l-466 -829v-490h-194v495l-463 824h212l350 -677l349 677h212z" glyph-name="uni1EF8" horiz-adv-x="1216" unicode="Ỹ"/><glyph d="M370 1201q-77 0 -76 -97h-128q0 101 58.5 161.5t140.5 60.5q63 0 135 -51t111 -51q68 0 68 95h127q0 -108 -55 -165.5t-137 -57.5q-65 0 -136.5 52.5t-107.5 52.5zM753 939h189l-381 -1041q-79 -222 -198 -305t-324 -25l12 179q63 -26 112 -27.5t83 14t64 56.5t50.5 87 t47.5 121l-355 941h191l258 -732z" glyph-name="uni1EF9" horiz-adv-x="979" unicode="ỹ"/><glyph glyph-name="uni2009" horiz-adv-x="295" unicode=" "/><glyph d="M891 686v-162h-783v162h783z" glyph-name="endash" horiz-adv-x="998" unicode="–"/><glyph d="M1597 691v-165h-1489v165h1489z" glyph-name="emdash" horiz-adv-x="1706" unicode="—"/><glyph d="M128 1009q-53 0 -85.5 38t-32.5 108q0 184 161 313l49 -48q-114 -104 -112 -184q12 3 27 3q46 0 76.5 -32.5t30.5 -83.5q0 -49 -31.5 -81.5t-82.5 -32.5z" glyph-name="quoteleft" horiz-adv-x="286" unicode="‘"/><glyph d="M157 1468q55 0 87 -38.5t32 -108.5q0 -184 -160 -312l-49 47q113 101 112 185q-14 -3 -27 -4q-46 0 -77 33.5t-31 84.5q0 48 32 80.5t81 32.5z" glyph-name="quoteright" horiz-adv-x="286" unicode="’"/><glyph d="M186 203q55 0 87 -38.5t32 -108.5q0 -183 -160 -312q-3 3 -23.5 23t-25.5 25q113 104 112 184q-14 -3 -27 -3q-46 0 -77 33t-31 84q0 48 32 80.5t81 32.5z" glyph-name="quotesinglbase" horiz-adv-x="1024" unicode="‚"/><glyph d="M249 1009q-53 0 -85.5 38t-32.5 108q0 184 161 313l49 -48q-114 -104 -112 -184q12 3 27 3q46 0 77 -32.5t31 -83.5q0 -49 -32 -81.5t-83 -32.5zM539 1009q-53 0 -85 38t-32 108q0 184 160 313l49 -48q-114 -104 -112 -184q12 3 27 3q46 0 77 -32.5t31 -83.5 q0 -49 -32 -81.5t-83 -32.5z" glyph-name="quotedblleft" horiz-adv-x="744" unicode="“"/><glyph d="M203 1468q55 0 87.5 -38.5t32.5 -108.5q0 -183 -161 -312q-3 3 -23.5 22.5t-25.5 24.5q113 104 112 185q-14 -3 -27 -4q-46 0 -77 33.5t-31 84.5q0 48 32 80.5t81 32.5zM493 1468q55 0 87.5 -38.5t32.5 -108.5q0 -183 -161 -312q-3 3 -23.5 22.5t-25.5 24.5 q113 104 112 185q-14 -3 -27 -4q-46 0 -76.5 33.5t-30.5 84.5q0 48 31.5 80.5t80.5 32.5z" glyph-name="quotedblright" horiz-adv-x="744" unicode="”"/><glyph d="M186 203q55 0 87 -38.5t32 -108.5q0 -183 -160 -312q-3 3 -23.5 23t-25.5 25q113 104 112 184q-14 -3 -27 -3q-46 0 -77 33t-31 84q0 48 32 80.5t81 32.5z" glyph-name="quotedblbase" horiz-adv-x="380" unicode="„"/><glyph d="M695 1234h85v-190h-85l-173 16l17 -282v-205h-189v205l17 282l-174 -16h-85v190h85l172 -17l-15 165v86h189v-86l-15 -165z" glyph-name="dagger" horiz-adv-x="890" unicode="†"/><glyph d="M780 976h-85l-171 16l15 -209v-88l-17 -263l173 17h85v-191h-85l-171 15l15 -206v-171h-189v171l15 206l-172 -15h-85v191h85l174 -17l-17 263v88l17 209l-174 -16h-85v190h85l172 -17l-15 165v154h189v-154l-15 -165l171 17h85v-190z" glyph-name="daggerdbl" horiz-adv-x="890" unicode="‡"/><glyph d="M299 940q90 0 145.5 -59.5t55.5 -155.5q0 -89 -56.5 -152.5t-144.5 -63.5q-90 0 -146 61t-56 155q0 97 55 156t147 59z" glyph-name="bullet" horiz-adv-x="599" unicode="•"/><glyph d="M225 183q43 0 71 -30t28 -76t-27 -77t-71.5 -31t-72 30t-27.5 78t26.5 77t72.5 29zM572 183q43 0 71 -30t28 -76t-27.5 -77t-72 -31t-71.5 30t-27 78t27.5 77t71.5 29zM916.5 183q44.5 0 72.5 -30t28 -76t-28 -77t-72.5 -31t-72 30t-27.5 78t27.5 77t72 29z" glyph-name="ellipsis" horiz-adv-x="1141" unicode="…"/><glyph d="M442 -19l-126 67l657 1165l126 -68zM386 1193q123 0 203 -74.5t80 -193.5q0 -106 -72.5 -185.5t-210.5 -79.5q-123 0 -202.5 73t-79.5 192q0 121 79.5 194.5t202.5 73.5zM385.5 1063q-59.5 0 -93 -39t-33.5 -99q0 -56 34.5 -96.5t92.5 -40.5q60 0 94 40.5t34 96.5 q0 58 -34.5 98t-94 40zM1033 514q123 0 202 -73.5t79 -193.5q0 -108 -72.5 -187t-208.5 -79q-125 0 -203.5 72.5t-78.5 194t78.5 194t203.5 72.5zM1654 514q123 0 202 -73.5t79 -193.5q0 -108 -72.5 -187t-208.5 -79q-125 0 -203.5 72.5t-78.5 194t78.5 194t203.5 72.5z M1032.5 386q-59.5 0 -93.5 -40.5t-34 -98.5t34 -97t94 -39q58 0 93 39t35 97t-34.5 98.5t-94 40.5zM1653.5 386q-59.5 0 -93.5 -40.5t-34 -98.5t34 -97t94 -39q58 0 93 39t35 97t-34.5 98.5t-94 40.5z" glyph-name="perthousand" horiz-adv-x="2039" unicode="‰"/><glyph d="M575 756l-266 -282l266 -285l-126 -122l-338 406l338 406z" glyph-name="guilsinglleft" horiz-adv-x="737" unicode="‹"/><glyph d="M290 879l336 -406l-336 -406l-126 122l264 285l-264 282z" glyph-name="guilsinglright" horiz-adv-x="737" unicode="›"/><glyph d="M568 1485q210 0 335.5 -124t125.5 -306q0 -186 -111 -309t-293 -154l-12 -208h-123l-34 476v260h186v-260l-7 -109q111 34 168 114t57 188q0 118 -82 193t-211 75q-188 0 -313 -176l-146 101q61 97 182 168t278 71zM547.5 208q49.5 0 80.5 -32.5t31 -85.5q0 -49 -31 -84 t-80.5 -35t-80 34t-30.5 85q0 53 30.5 85.5t80 32.5z" glyph-name="uni203D" horiz-adv-x="1129" unicode="‽"/><glyph d="M568 1369l118 -67l-884 -1314l-116 61z" glyph-name="fraction" horiz-adv-x="351" unicode="⁄"/><glyph d="M338 809q-116 0 -183.5 86t-67.5 217.5t67.5 218t185.5 86.5q116 0 184 -85.5t68 -217.5q0 -133 -68 -219t-186 -86zM340 1302q-46 0 -74.5 -35t-37 -73.5t-8.5 -80.5q0 -44 8.5 -82.5t37 -72t72.5 -33.5q61 0 91 53t30 131q0 77 -27 135t-92 58z" glyph-name="uni2070" horiz-adv-x="679" unicode="⁰"/><glyph d="M573 1063v-118h-76v-124h-123v124h-258l-41 118l299 338h123v-341zM198 1050l176 6v190z" glyph-name="uni2074" horiz-adv-x="645" unicode="⁴"/><glyph d="M300 1190q87 0 147 -53t60 -140q0 -79 -54 -132.5t-163 -53.5q-135 0 -213 92l75 80q55 -63 128 -63q48 0 71.5 24t23.5 61q0 39 -23 64t-65 25q-38 0 -67 -26l-101 62l26 271h319v-128l-211 10l-11 -100q38 7 58 7z" glyph-name="uni2075" horiz-adv-x="597" unicode="⁵"/><glyph d="M340 1196q84 0 141.5 -50t57.5 -141q0 -84 -57 -139t-159 -55q-119 0 -177.5 81t-58.5 212q0 138 65.5 225.5t180.5 87.5q109 0 179 -62l-87 -85q-38 31 -94 30q-92 0 -111 -141q45 37 120 37zM321 927q82 0 82 78q0 32 -22.5 53.5t-59.5 21.5q-68 0 -103 -44 q14 -109 103 -109z" glyph-name="uni2076" horiz-adv-x="628" unicode="⁶"/><glyph d="M99 1401h401v-114l-210 -466h-145l224 461l-270 -12v131z" glyph-name="uni2077" horiz-adv-x="573" unicode="⁷"/><glyph d="M422 1125q96 -49 95 -140q0 -72 -58 -124t-162 -52q-97 0 -158.5 48t-61.5 126q0 96 94 142q-79 43 -79 126q0 73 57.5 119.5t147.5 46.5t148 -46.5t58 -119.5q1 -83 -81 -126zM297 1316q-89 0 -89 -77q0 -32 24 -52.5t65 -20.5q39 0 64 21t25 52q0 34 -23 55.5t-66 21.5 zM297 918q48 0 73.5 21.5t25.5 55.5q0 32 -27.5 55t-71.5 23t-70.5 -23t-26.5 -55q0 -34 25.5 -55.5t71.5 -21.5z" glyph-name="uni2078" horiz-adv-x="597" unicode="⁸"/><glyph d="M304 1417q119 0 178 -81.5t59 -212.5q0 -138 -65.5 -225t-180.5 -87q-111 0 -179 61l85 85q43 -32 96 -32q94 0 109 142q-44 -36 -118 -36q-84 0 -141.5 51t-57.5 140q0 84 57 139.5t158 55.5zM307 1145q67 0 101 45q-10 109 -101 109q-84 0 -83 -77q0 -34 22.5 -55.5 t60.5 -21.5z" glyph-name="uni2079" horiz-adv-x="621" unicode="⁹"/><glyph d="M761 130q164 0 248 155l140 -92q-68 -109 -167.5 -168t-216.5 -59q-174 0 -297 115t-164 315h-145l20 116h108q-2 22 -2 68q0 43 2 63h-128l20 115h123q39 201 163 319.5t300 118.5q242 0 384 -228l-137 -92q-92 154 -249 153q-111 0 -183.5 -71.5t-101.5 -199.5h387 l-20 -115h-384q-2 -20 -2 -64.5t2 -66.5h360l-22 -116h-321q63 -266 283 -266z" glyph-name="Euro" horiz-adv-x="1274" unicode="€"/><glyph d="M1253 807v-82h-128q-12 -164 -121.5 -254t-298.5 -90h-263v-381h-176v725h-92v82h92v354h439q188 0 297 -95t123 -259h128zM442 983v-176h495q-14 89 -81.5 132.5t-169.5 43.5h-244zM686 551q104 0 171.5 44.5t79.5 129.5h-495v-174h244z" glyph-name="uni20B1" horiz-adv-x="1355" unicode="₱"/><glyph d="M742 1161q201 0 310.5 -101t109.5 -282t-109 -277.5t-311 -96.5h-259v-121h249v-112h-249v-171h-174v171h-135v112h135v121h-135v173h135v584h433zM722 577q254 0 254 203t-254 203h-239v-406h239z" glyph-name="uni20BD" horiz-adv-x="1264" unicode="₽"/><glyph d="M881 621q82 -31 132 -111t50 -181q0 -143 -86 -236t-224 -93h-55v-159h-101v159h-73v-159h-102v159h-248v1161h248v158h102v-158h73v158h101v-158h9q128 0 207 -85.5t79 -218.5q0 -89 -35.5 -151.5t-76.5 -84.5zM688 1005h-347v-327h362q61 0 101.5 45t40.5 117 q0 77 -46 121t-111 44zM729 155q73 0 126 52t53 133q0 82 -50.5 131.5t-127.5 49.5h-389v-366h388z" glyph-name="uni20BF" horiz-adv-x="1172" unicode="₿"/><glyph d="M1770 531q-183 0 -295.5 112.5t-112.5 296.5q0 186 112.5 299.5t295.5 113.5q179 0 293.5 -113.5t114.5 -299.5q0 -172 -108.5 -290.5t-299.5 -118.5zM978 324v995h183v-1319h-178l-609 993v-993h-185v1319h180zM1776.5 1188q-102.5 0 -164 -71t-61.5 -177 q0 -104 61.5 -174t164.5 -70q101 0 163 71t62 173q0 106 -61.5 177t-164 71zM1410 0v166h715v-166h-715z" glyph-name="afii61352" horiz-adv-x="2271" unicode="№"/><glyph d="M708 1251q249 0 418 -164t169 -423q0 -263 -169 -426t-418 -163t-419 164t-170 425q0 259 170 423t419 164zM708.5 188q201.5 0 338 131.5t136.5 344.5t-136.5 343.5t-338 130.5t-338 -131t-136.5 -343q0 -213 136.5 -344.5t338 -131.5zM712 922q116 0 173 -48t57 -132 q0 -177 -230 -177h-52v-171h-112v528h164zM712 662q58 0 86 15.5t28 63t-29 64t-85 16.5h-52v-159h52z" glyph-name="uni2117" horiz-adv-x="1430" unicode="℗"/><glyph d="M63 1205v114h429v-114h-154v-413h-123v413h-152zM1104 792h-121l-19 345l-92 -345h-99l-89 326l-18 -326h-123l34 527h153l94 -355l92 355h154z" glyph-name="trademark" horiz-adv-x="1201" unicode="™"/><glyph d="M367 631v-339q0 -22 15 -38q160 -160 424 -160q299 0 462 181h82q-92 -113 -236.5 -176t-311.5 -63q-285 0 -488 181q-201 179 -201 438q0 258 201 440.5t488 182.5q290 0 492 -182q203 -184 203 -441v-17h-1122q-8 0 -8 -7zM375 695h859q7 0 7 12v317q0 24 -16 41 q-159 159 -419 159q-256 0 -422 -166q-17 -12 -17 -41v-310q-1 -12 8 -12z" glyph-name="estimated" horiz-adv-x="1609" unicode="℮"/><glyph d="M1130 1369l118 -67l-884 -1314l-117 61zM352 736h-137v447l-104 -36l-38 111l195 58h84v-580zM1335 304q96 -49 95 -140q0 -72 -58 -124t-162 -52q-97 0 -158.5 48t-61.5 126q0 94 94 142q-79 43 -79 126q0 73 57.5 119.5t147.5 46.5t148.5 -46.5t58.5 -119.5 q0 -83 -82 -126zM1210 495q-89 0 -89 -77q0 -32 24 -52.5t65 -20.5q39 0 64 21t25 52q0 34 -23 55.5t-66 21.5zM1210 97q46 0 72.5 21.5t26.5 55.5q0 32 -27.5 55.5t-71.5 23.5t-70.5 -23t-26.5 -56q0 -34 25.5 -55.5t71.5 -21.5z" glyph-name="oneeighth" horiz-adv-x="1510" unicode="⅛"/><glyph d="M1181 1369l118 -67l-884 -1314l-116 61zM493 908q0 -77 -54.5 -130.5t-173.5 -53.5q-65 0 -117 23t-75 53l89 79q39 -39 103 -39q48 0 69 23t21 50q0 31 -21.5 54t-68.5 23q-38 0 -62 -4l-32 96l133 113l-202 -9v130h372v-113l-143 -133q77 -12 119.5 -56.5t42.5 -105.5z M1386 304q96 -49 95 -140q0 -72 -58 -124t-162 -52q-97 0 -158.5 48t-61.5 126q0 94 94 142q-79 43 -79 126q0 73 57.5 119.5t148 46.5t148.5 -46.5t58 -119.5q0 -83 -82 -126zM1261 495q-89 0 -89 -77q0 -32 24 -52.5t65 -20.5q39 0 64 21t25 52q0 34 -23 55.5t-66 21.5z M1261 97q46 0 72.5 21.5t26.5 55.5q0 32 -27 55.5t-71.5 23.5t-71 -23t-26.5 -56q0 -34 25.5 -55.5t71.5 -21.5z" glyph-name="threeeighths" horiz-adv-x="1561" unicode="⅜"/><glyph d="M1166 1369l117 -67l-884 -1314l-116 61zM507 911q0 -79 -54 -132.5t-163 -53.5q-135 0 -213 92l75 81q55 -63 128 -63q48 0 71.5 23.5t23.5 61.5q0 39 -23 64t-65 25q-38 0 -67 -26l-101 61l26 272h319v-128l-211 10l-11 -101q38 7 58 7q87 0 147 -53t60 -140zM1370 304 q96 -49 96 -140q0 -72 -58 -124t-162 -52q-97 0 -158.5 48t-61.5 126q0 94 94 142q-79 43 -79 126q0 73 57 119.5t147.5 46.5t148.5 -46.5t58 -119.5q0 -83 -82 -126zM1246 495q-89 0 -89 -77q0 -32 24 -52.5t65 -20.5q39 0 64 21t25 52q0 34 -23 55.5t-66 21.5zM1246 97 q48 0 73.5 21.5t25.5 55.5q0 32 -27.5 55.5t-72 23.5t-70.5 -23t-26 -56q0 -34 25.5 -55.5t71.5 -21.5z" glyph-name="fiveeighths" horiz-adv-x="1546" unicode="⅝"/><glyph d="M1079 1369l117 -67l-884 -1314l-116 61zM290 736h-145l224 460l-270 -12v132h401v-115zM1283 304q96 -49 96 -140q0 -72 -58 -124t-162 -52q-97 0 -158.5 48t-61.5 126q0 94 94 142q-79 43 -79 126q0 73 57 119.5t147.5 46.5t148.5 -46.5t58 -119.5q0 -83 -82 -126z M1159 495q-89 0 -89 -77q0 -32 24 -52.5t65 -20.5q39 0 64 21t25 52q0 34 -23 55.5t-66 21.5zM1159 97q46 0 72.5 21.5t26.5 55.5q0 32 -27.5 55.5t-72 23.5t-70.5 -23t-26 -56q0 -34 25.5 -55.5t71.5 -21.5z" glyph-name="seveneighths" horiz-adv-x="1459" unicode="⅞"/><glyph d="M635 1007h-137v-853h137v-154h-461v154h137v853h-137v154h461v-154z" glyph-name="uni2160" horiz-adv-x="807" unicode="Ⅰ"/><glyph d="M1085 1007h-136v-853h136v-154h-911v154h137v853h-137v154h911v-154zM761 154v853h-263v-853h263z" glyph-name="uni2161" horiz-adv-x="1257" unicode="Ⅱ"/><glyph d="M1538 1007h-137v-853h137v-154h-1364v154h137v853h-137v154h1364v-154zM498 154h263v853h-263v-853zM1213 154v853h-264v-853h264z" glyph-name="uni2162" horiz-adv-x="1710" unicode="Ⅲ"/><glyph d="M1527 1161h214l-442 -1161h-224l-384 1007h-193v-853h137v-154h-461v154h137v853h-137v154h671l343 -972z" glyph-name="uni2163" horiz-adv-x="1798" unicode="Ⅳ"/><glyph d="M1166 1161l-442 -1161h-226l-442 1161h212l343 -972l340 972h215z" glyph-name="uni2164" horiz-adv-x="1221" unicode="Ⅴ"/><glyph d="M1623 1007h-136v-853h136v-154h-461v154h137v853h-191l-384 -1007h-226l-442 1161h214l341 -972l341 972h671v-154z" glyph-name="uni2165" horiz-adv-x="1795" unicode="Ⅵ"/><glyph d="M2075 1007h-136v-853h136v-154h-913v154h137v853h-191l-384 -1007h-226l-442 1161h214l341 -972l341 972h1123v-154zM1751 154v853h-264v-853h264z" glyph-name="uni2166" horiz-adv-x="2247" unicode="Ⅶ"/><glyph d="M2528 1007h-137v-853h137v-154h-1366v154h137v853h-191l-384 -1007h-226l-442 1161h214l341 -972l341 972h1576v-154zM1487 154h264v853h-264v-853zM2203 154v853h-264v-853h264z" glyph-name="uni2167" horiz-adv-x="2699" unicode="Ⅷ"/><glyph d="M1184 584l393 -584h-208l-284 423l-278 -423h-633v154h137v853h-137v154h632l274 -425l273 425h205zM701 154l284 430l-284 423h-203v-853h203z" glyph-name="uni2168" horiz-adv-x="1624" unicode="Ⅸ"/><glyph d="M55 0l384 584l-386 577h206l277 -425l271 425h207l-376 -577l395 -584h-209l-285 423l-278 -423h-206z" glyph-name="uni2169" horiz-adv-x="1080" unicode="Ⅹ"/><glyph d="M1449 1007h-137v-853h137v-154h-633l-278 423l-284 -423h-208l393 584l-374 577h205l273 -425l274 425h632v-154zM1125 154v853h-203l-284 -423l284 -430h203z" glyph-name="uni216A" horiz-adv-x="1621" unicode="Ⅺ"/><glyph d="M1927 1007h-137v-853h137v-154h-1103l-285 423l-278 -423h-206l384 584l-386 577h206l277 -425l271 425h1120v-154zM928 154h224v853h-239l-275 -423zM1603 154v853h-263v-853h263z" glyph-name="uni216B" horiz-adv-x="2099" unicode="Ⅻ"/><glyph d="M362 176h645v-176h-833v1161h188v-985z" glyph-name="uni216C" horiz-adv-x="1095" unicode="Ⅼ"/><glyph d="M1130 963l-149 -108q-116 160 -303 160q-172 0 -276.5 -121t-104.5 -314q0 -191 103 -313t278 -122q92 0 170.5 42.5t129.5 117.5l152 -107q-79 -108 -197.5 -166.5t-254.5 -58.5q-249 0 -407 170.5t-158 437t157 437t408 170.5q138 0 257.5 -58.5t194.5 -166.5z" glyph-name="uni216D" horiz-adv-x="1215" unicode="Ⅽ"/><glyph d="M698 1161q253 0 410.5 -162.5t157.5 -416.5q0 -251 -158.5 -416.5t-409.5 -165.5h-524v1161h524zM698 172q171 0 274 118t103 292q0 177 -102.5 291.5t-274.5 114.5h-338v-816h338z" glyph-name="uni216E" horiz-adv-x="1377" unicode="Ⅾ"/><glyph d="M1510 0h-184l-65 893l-372 -893h-141l-369 869l-65 -869h-188l86 1161h230l377 -896l377 896h231z" glyph-name="uni216F" horiz-adv-x="1640" unicode="Ⅿ"/><glyph d="M1382 736v-157h-1042l225 -219l-99 -106l-309 309l-94 96l94 95l309 313l99 -103l-232 -228h1049z" glyph-name="arrowleft" horiz-adv-x="1443" unicode="←"/><glyph d="M898 916l-106 -99l-220 227v-1044h-156v1050l-228 -233l-103 99l408 403z" glyph-name="arrowup" horiz-adv-x="984" unicode="↑"/><glyph d="M980 1067l402 -408l-402 -405l-101 106l225 219h-1041v157h1048l-232 228z" glyph-name="arrowright" horiz-adv-x="1450" unicode="→"/><glyph d="M792 502l106 -99l-405 -403l-408 403l103 99l228 -232v1049h156v-1044z" glyph-name="arrowdown" horiz-adv-x="984" unicode="↓"/><glyph d="M1210 1067l403 -408l-403 -405l-101 106l226 219h-995l225 -219l-99 -106l-309 309l-94 96l94 95l309 313l99 -103l-232 -228h1008l-232 228z" glyph-name="arrowboth" horiz-adv-x="1677" unicode="↔"/><glyph d="M567 160l220 227l106 -99l-405 -402l-408 402l103 99l228 -232v1011l-228 -232l-103 99l408 402l405 -402l-106 -99l-220 227v-1001z" glyph-name="arrowupdn" horiz-adv-x="972" unicode="↕"/><glyph d="M1114 247l-110 -110l-739 737l5 -321h-145l1 572l574 3v-142l-330 2z" glyph-name="uni2196" horiz-adv-x="1165" unicode="↖"/><glyph d="M466 1128l573 -3v-572h-145l5 321l-737 -737l-111 110l744 741l-329 -2v142z" glyph-name="uni2197" horiz-adv-x="1165" unicode="↗"/><glyph d="M901 739h143l-5 -573l-570 -2v145l319 -5l-737 739l111 111l741 -743z" glyph-name="uni2198" horiz-adv-x="1170" unicode="↘"/><glyph d="M1118 1043l-739 -739l321 5v-145l-570 2l-5 573h143l-2 -328l741 743z" glyph-name="uni2199" horiz-adv-x="1170" unicode="↙"/><glyph d="M575 1234q201 0 313 -160.5t112 -423.5q0 -295 -129 -485.5t-369 -190.5q-184 0 -280.5 116.5t-93.5 288.5q5 186 124.5 292t281.5 106q196 0 285 -178v48q0 186 -60.5 306t-193.5 120q-123 0 -224 -88l-109 121q61 56 153.5 92t189.5 36zM521 137q205 0 271 257 q-20 94 -82.5 161.5t-159.5 67.5q-109 0 -170 -71t-68 -173q-7 -97 46.5 -169.5t162.5 -72.5z" glyph-name="partialdiff" horiz-adv-x="1124" unicode="∂"/><glyph d="M1120 908l-122 -121q101 -130 101 -319q0 -208 -130.5 -351.5t-360.5 -143.5q-188 0 -320 104l-116 -116l-82 80l118 118q-94 128 -94 309q0 224 136.5 361t357.5 137q181 0 308 -99l123 123zM283 468q0 -106 45 -190l479 480q-85 67 -199 66q-148 0 -236.5 -102 t-88.5 -254zM932 468q0 116 -51 201l-482 -481q84 -73 209 -74q148 0 236 102t88 252z" glyph-name="emptyset" horiz-adv-x="1211" unicode="∅"/><glyph d="M998 1321v-179h-128v-1142h-189v1142h-261v-1142h-190v1142h-128v179h896z" glyph-name="product" horiz-adv-x="1111" unicode="∏"/><glyph d="M870 1161v-181l-546 12l336 -545l-337 -549l547 13v-181h-744v162h2l-2 2l338 551l-338 552v164h744z" glyph-name="summation" horiz-adv-x="972" unicode="∑"/><glyph d="M826 790v-170h-689v170h689z" glyph-name="minus" horiz-adv-x="964" unicode="−"/><glyph d="M923 881q131 0 214 -81t83 -207.5t-81 -207t-207 -80.5q-166 0 -275 164q-109 -164 -273 -164q-125 0 -206 81.5t-81 209.5q0 126 84 205.5t215 79.5q171 0 268 -157q99 157 259 157zM379 435q67 0 117 40t96 122q-38 84 -83.5 120t-114.5 36q-82 0 -129.5 -43 t-47.5 -114q0 -73 45 -117t117 -44zM934 435q75 0 120 43.5t45 115.5t-47 115.5t-129 43.5q-70 0 -108 -35t-88 -127q84 -156 207 -156z" glyph-name="infinity" horiz-adv-x="1315" unicode="∞"/><glyph d="M-67 -512v174h70q79 0 121.5 42.5t42.5 121.5v1131q0 172 95.5 267t266.5 95h60v-174h-68q-79 0 -121.5 -42.5t-42.5 -121.5v-1131q0 -171 -95 -266.5t-267 -95.5h-62z" glyph-name="integral" horiz-adv-x="651" unicode="∫"/><glyph d="M305 744h-143q0 111 67.5 178.5t163.5 67.5q61 0 113 -29t98 -58t89 -29q87 0 87 107h142q0 -119 -64 -183t-162 -64q-61 0 -114 30.5t-98 60.5t-86 30q-93 0 -93 -111zM305 430h-143q0 113 67.5 180.5t163.5 67.5q61 0 113 -29t98 -58.5t89 -29.5q87 0 87 106h142 q0 -118 -64 -182.5t-162 -64.5q-61 0 -114 30.5t-98 60.5t-86 30q-93 0 -93 -111z" glyph-name="approxequal" horiz-adv-x="1085" unicode="≈"/><glyph d="M862 777h-217l-102 -169h319v-156h-417l-170 -278l-98 58l135 220h-150v157h248l102 168h-350v157l447 -2l154 251l97 -58l-118 -193h120v-155z" glyph-name="notequal" horiz-adv-x="1046" unicode="≠"/><glyph d="M758 468l-39 -145l-588 198v184l588 213l35 -147l-481 -157zM131 244h635l-1 -133h-634v133z" glyph-name="lessequal" horiz-adv-x="894" unicode="≤"/><glyph d="M174 918l587 -213v-184l-587 -198l-39 145l485 146l-482 157zM126 111v133h635v-133h-635z" glyph-name="greaterequal" horiz-adv-x="894" unicode="≥"/><glyph d="M633 1161l410 -591l-410 -570h-111l-408 570l408 591h111zM304 572l257 -384h33l258 384l-261 401h-26z" glyph-name="lozenge" horiz-adv-x="1153" unicode="◊"/><glyph d="M621 418l-298 -172l75 334l-256 229l339 38l140 314l138 -314l342 -38l-256 -229l75 -334z" glyph-name="uni2605" horiz-adv-x="1242" unicode="★"/><glyph d="M621 418l-298 -172l75 334l-256 229l339 38l140 314l138 -314l342 -38l-256 -229l75 -334zM621 548l144 -85l-38 163l126 110l-167 17l-65 153l-66 -153l-166 -17l125 -110l-38 -163z" glyph-name="uni2606" horiz-adv-x="1242" unicode="☆"/><glyph d="M1538 160l29 -148q-171 -60 -265 -5.5t-94 213.5v22q-155 -273 -500 -273q-270 0 -432.5 193t-162.5 498q0 304 163 497t432 193q346 0 500 -271v240h185v-1077q0 -65 35 -83t110 1zM754 145q208 0 331 143.5t123 372t-123.5 372t-330.5 143.5q-208 0 -331 -143.5 t-123 -372t122 -372t332 -143.5z" glyph-name="uni2C6D" horiz-adv-x="1652" unicode="Ɑ"/><glyph d="M68 1319h1072v-176h-1072v176zM68 792v176h1072v-176h-444v-792h-186v792h-442z" glyph-name="uni3012" horiz-adv-x="1210" unicode="〒"/><glyph d="M1007 973q51 -171 51 -398q0 -58 -14 -118q-3 -9 -8 -1q-9 19 -21.5 35t-21.5 24l-10 7q2 -3 5.5 -9t12 -25t11.5 -36t5 -43.5t-7 -48.5q-17 -48 -58 -84q-7 -3 -7 4q-2 17 -7.5 30.5t-10.5 20.5l-5 5q0 -5 -1 -12.5t-8.5 -31.5t-19 -46t-37 -51t-59.5 -52 q-2 0 -4.5 -1.5t-4 -3t-3.5 -1.5q-5 -3 -8.5 -1t0.5 7q5 12 7.5 23t0.5 17v5q-5 -9 -15.5 -24.5t-50.5 -45t-88 -43.5q-48 14 -87 42t-54 50l-16 21q-5 -19 7 -45q2 -5 0.5 -7.5t-7.5 1.5q-3 2 -6.5 4t-6.5 2q-55 36 -85.5 84t-34.5 78l-5 31q-19 -19 -24 -56q0 -7 -7 -4 q-41 34 -56 84q-10 43 -4 78.5t18 59.5l13 24q-34 -26 -52 -66q-9 -10 -11 1q-14 60 -13 118q0 101 12.5 201t26.5 149l12 48q3 15 12 17q114 31 210 43l13 34q2 2 4 1q44 -15 61 -10q38 9 75 75q2 3 5 0q38 -67 76 -75q22 -5 61 10q3 0 3 -1l14 -34q68 -9 210 -43 q9 -3 12 -17zM422 975q-2 0 3 -26.5t10 -54.5l5 -27q41 39 96 39h3q14 0 28 -5q24 -7 40 -24t21 -30l3 -12q2 3 4 7.5t4.5 18t0.5 23.5q20 12 40 18t36 5t31.5 -4.5t25.5 -9.5t18.5 -11.5t14.5 -11.5l3 -3l15 111l-58 -44l-29 87l-58 -58l-56 100l-60 -97l-51 58l-31 -92z M357 823q20 -2 30 -21q15 15 41 26q-5 10 -16 17.5t-19 11.5l-11 1l22 14q-56 14 -85 -39q-14 -29 -9.5 -53t16.5 -39l12 -14q3 17 15 36q9 15 10 29.5t-3 23.5zM910 727q5 5 11 14.5t15 38.5t-8 53q-14 24 -35 33.5t-36 7.5l-14 -2l22 -14q-34 -9 -46 -30q24 -10 43 -26 q5 9 12 14t12 7h5q-15 -24 3 -58zM823 561q9 0 17 -5t13 -10l4 -5q0 58 -40 82q2 7 4.5 17t2 39t-9 51.5t-37 43.5t-72.5 26l15 21q-63 7 -97 -46q-15 24 -40 35t-40 11h-17q15 -14 15 -21q-70 -9 -98 -53t-21 -85l6 -39q-17 -10 -27 -30.5t-12 -36.5v-15q15 20 34 20 q-3 -5 -7.5 -13.5t-8.5 -39t11 -61.5l21 -37q20 24 44 42q-19 31 -19 58q0 48 43 87q-24 -41 -19 -82q12 -39 33 -39q10 0 45.5 25.5t41.5 39.5q10 27 1 50q-12 10 -28 17.5t-26 9.5l-11 3q7 20 23 29q7 3 28 -2.5t28 -5.5t28 6t28 2.5t12 -11.5t7 -13l2 -5q-39 -7 -63 -30 q-3 -5 -2.5 -21.5t5.5 -28.5q3 -14 39 -39.5t48 -25.5q7 0 17 13t14 26q5 41 -19 82q41 -38 41 -87q0 -12 -4.5 -26.5t-7.5 -22.5l-5 -9l44 -42q10 14 19 37q12 36 12 61.5t-9 39.5zM486 707l-25 15q60 -3 94 -15q-3 -17 -13.5 -36t-19.5 -29l-7 -12l4 30h-10q-12 0 -21.5 9 t-10 19t8.5 19zM730 630q-27 32 -37 77q15 5 38 9t40 4l16 2l-24 -14q5 -10 5 -17q0 -29 -31 -29q-2 0 -5 1t-5 1zM681 369q14 12 22.5 29t9.5 27v10q-17 24 -47.5 48t-42.5 24t-42.5 -24t-46.5 -48q-5 -39 27 -60v14q31 -24 62 -24q14 0 34 7q22 10 22 27q3 -7 4 -14.5 t0 -12.5z" glyph-name="uniF8FF" horiz-adv-x="1256" unicode=""/><glyph d="M754.5 1350q288.5 0 464 -192t175.5 -498q0 -304 -175.5 -497.5t-464.5 -193.5q-287 0 -464 193t-177 498q0 302 176.5 496t465 194zM469 971l111 -73q70 99 171 99q58 0 99 -38.5t41 -100.5q0 -75 -56.5 -121t-170.5 -46l25 -213h110l13 114q102 20 163 90.5t61 174.5 q0 113 -77.5 188t-207.5 75q-97 0 -171.5 -44t-110.5 -105zM741 353q-29 0 -47 -18.5t-18 -51t18 -53t48 -20.5q29 0 48 21.5t19 52t-18.5 50t-49.5 19.5z" glyph-name="uniFFFD" unicode="�"/><glyph d="M1073 0q-36 159 -85 331h-652q-44 -152 -83 -331h-197q179 748 500 1319h215q326 -592 499 -1319h-197zM393 510h537q-109 323 -268 635q-158 -302 -269 -635z" glyph-name="A.salt" horiz-adv-x="1327"/><glyph d="M937 1582l-370 -142l-36 76l343 216zM1073 0q-36 159 -85 331h-652q-44 -152 -83 -331h-197q179 748 500 1319h215q326 -592 499 -1319h-197zM393 510h537q-109 323 -268 635q-158 -302 -269 -635z" glyph-name="Aacute.salt" horiz-adv-x="1327"/><glyph d="M666 1469q-113 0 -181.5 61t-76.5 170h130q29 -111 128 -111t128 111h129q-10 -102 -74.5 -166.5t-182.5 -64.5zM1073 0q-36 159 -85 331h-652q-44 -152 -83 -331h-197q179 748 500 1319h215q326 -592 499 -1319h-197zM393 510h537q-109 323 -268 635 q-158 -302 -269 -635z" glyph-name="Abreve.salt" horiz-adv-x="1327"/><glyph d="M712 1459h-89l-198 210l70 74l172 -140l171 140l70 -74zM1073 0q-36 159 -85 331h-652q-44 -152 -83 -331h-197q179 748 500 1319h215q326 -592 499 -1319h-197zM393 510h537q-109 323 -268 635q-158 -302 -269 -635z" glyph-name="uni01CD.salt" horiz-adv-x="1327"/><glyph d="M666 1606l-173 -142l-70 74l198 211h89l196 -211l-70 -74zM1073 0q-36 159 -85 331h-652q-44 -152 -83 -331h-197q179 748 500 1319h215q326 -592 499 -1319h-197zM393 510h537q-109 323 -268 635q-158 -302 -269 -635z" glyph-name="Acircumflex.salt" horiz-adv-x="1327"/><glyph d="M496.5 1498q-42.5 0 -68 28.5t-25.5 72.5q0 46 25.5 73.5t68.5 27.5q41 0 67.5 -28t26.5 -73q0 -43 -26 -72t-68.5 -29zM839.5 1498q-42.5 0 -68 28.5t-25.5 72.5q0 46 25.5 73.5t68 27.5t68.5 -28t26 -73q0 -43 -26 -72t-68.5 -29zM1073 0q-36 159 -85 331h-652 q-44 -152 -83 -331h-197q179 748 500 1319h215q326 -592 499 -1319h-197zM393 510h537q-109 323 -268 635q-158 -302 -269 -635z" glyph-name="Adieresis.salt" horiz-adv-x="1327"/><glyph d="M792 1516l-38 -76l-370 142l63 150zM1073 0q-36 159 -85 331h-652q-44 -152 -83 -331h-197q179 748 500 1319h215q326 -592 499 -1319h-197zM393 510h537q-109 323 -268 635q-158 -302 -269 -635z" glyph-name="Agrave.salt" horiz-adv-x="1327"/><glyph d="M968 1657v-128h-598v128h598zM1073 0q-36 159 -85 331h-652q-44 -152 -83 -331h-197q179 748 500 1319h215q326 -592 499 -1319h-197zM393 510h537q-109 323 -268 635q-158 -302 -269 -635z" glyph-name="Amacron.salt" horiz-adv-x="1327"/><glyph d="M1099 -287q44 0 85 46l57 -68q-72 -85 -159 -87q-80 -2 -123.5 40t-43.5 110q0 67 49.5 132.5t108.5 113.5q-36 159 -85 331h-652q-44 -152 -83 -331h-197q179 748 500 1319h215q326 -592 499 -1319h-96q-49 -58 -69.5 -84.5t-43 -66.5t-22.5 -69q0 -31 16.5 -49 t43.5 -18zM393 510h537q-109 323 -268 635q-158 -302 -269 -635z" glyph-name="Aogonek.salt" horiz-adv-x="1327"/><glyph d="M666 1423q-82 0 -132.5 55.5t-50.5 141.5q0 89 48.5 140.5t134.5 51.5q80 0 130.5 -53.5t50.5 -138.5q0 -80 -50.5 -138.5t-130.5 -58.5zM666 1712q-39 0 -62.5 -25.5t-23.5 -66.5t24 -67.5t61.5 -26.5t60.5 27t23 66.5t-23.5 66t-59.5 26.5zM1073 0q-36 159 -85 331 h-652q-44 -152 -83 -331h-197q179 748 500 1319h215q326 -592 499 -1319h-197zM393 510h537q-109 323 -268 635q-158 -302 -269 -635z" glyph-name="Aring.salt" horiz-adv-x="1327"/><glyph d="M541 1582q-77 0 -77 -97h-128q0 101 59 161.5t141 60.5q63 0 134.5 -51.5t111.5 -51.5q68 0 68 96h126q0 -108 -54.5 -166t-136.5 -58q-65 0 -136.5 53t-107.5 53zM1073 0q-36 159 -85 331h-652q-44 -152 -83 -331h-197q179 748 500 1319h215q326 -592 499 -1319h-197z M393 510h537q-109 323 -268 635q-158 -302 -269 -635z" glyph-name="Atilde.salt" horiz-adv-x="1327"/><glyph d="M1394 688v-38q0 -300 -175.5 -489.5t-465.5 -189.5t-465 192t-175 501q0 311 178 500t467 189q183 0 322 -79t210 -211l-165 -80q-131 207 -371 207q-207 0 -329.5 -148t-122.5 -383q0 -232 119.5 -377t329.5 -145q179 0 294.5 106.5t147.5 280.5h-399v164h600z" glyph-name="G.salt"/><glyph d="M751 1469q-113 0 -181 61t-77 170h130q29 -111 128 -111t128 111h130q-10 -102 -75 -166.5t-183 -64.5zM1394 688v-38q0 -300 -175.5 -489.5t-465.5 -189.5t-465 192t-175 501q0 311 178 500t467 189q183 0 322 -79t210 -211l-165 -80q-131 207 -371 207 q-207 0 -329.5 -148t-122.5 -383q0 -232 119.5 -377t329.5 -145q179 0 294.5 106.5t147.5 280.5h-399v164h600z" glyph-name="Gbreve.salt"/><glyph d="M797 1459h-89l-198 210l70 74l173 -140l170 140l70 -74zM1394 688v-38q0 -300 -175.5 -489.5t-465.5 -189.5t-465 192t-175 501q0 311 178 500t467 189q183 0 322 -79t210 -211l-165 -80q-131 207 -371 207q-207 0 -329.5 -148t-122.5 -383q0 -232 119.5 -377t329.5 -145 q179 0 294.5 106.5t147.5 280.5h-399v164h600z" glyph-name="Gcaron.salt"/><glyph d="M1394 688v-38q0 -300 -175.5 -489.5t-465.5 -189.5t-465 192t-175 501q0 311 178 500t467 189q183 0 322 -79t210 -211l-165 -80q-131 207 -371 207q-207 0 -329.5 -148t-122.5 -383q0 -232 119.5 -377t329.5 -145q179 0 294.5 106.5t147.5 280.5h-399v164h600zM753 -130 q51 0 80 -35.5t29 -102.5q0 -176 -173 -210l-22 72q75 19 96 58h-10q-46 0 -74.5 30.5t-28.5 78.5t28.5 78.5t74.5 30.5z" glyph-name="Gcommaaccent.salt"/><glyph d="M753 1480q-53 0 -84.5 35t-31.5 89.5t31.5 88.5t84.5 34q51 0 82.5 -34t31.5 -89q0 -53 -30.5 -88.5t-83.5 -35.5zM1394 688v-38q0 -300 -175.5 -489.5t-465.5 -189.5t-465 192t-175 501q0 311 178 500t467 189q183 0 322 -79t210 -211l-165 -80q-131 207 -371 207 q-207 0 -329.5 -148t-122.5 -383q0 -232 119.5 -377t329.5 -145q179 0 294.5 106.5t147.5 280.5h-399v164h600z" glyph-name="Gdotaccent.salt"/><glyph d="M364 0h-188v1319h188v-1319zM188 -285l133 102q106 -143 263 -143q135 0 217.5 97.5t82.5 276.5v1271h188v-1288q0 -230 -118.5 -377t-356.5 -147q-135 0 -242 57t-167 151z" glyph-name="IJ.aalt" horiz-adv-x="1244"/><glyph d="M480 1319v-1348q0 -186 -94 -318.5t-238 -203.5l-76 167l10 5q12 7 30.5 20.5t41 32.5t45.5 48t41.5 63t30.5 80t12 96v1358h197z" glyph-name="J.salt" horiz-adv-x="651"/><glyph d="M1637 0h-188q-26 495 -191 1058l-314 -1058h-121l-309 1038q-68 -195 -124.5 -483.5t-70.5 -554.5h-188q9 275 83 637.5t187 681.5h207l276 -923l271 923h209q111 -305 184.5 -661t88.5 -658z" glyph-name="M.salt" horiz-adv-x="1768"/><glyph d="M1155 1582l-370 -142l-36 76l343 216zM1637 0h-188q-26 495 -191 1058l-314 -1058h-121l-309 1038q-68 -195 -124.5 -483.5t-70.5 -554.5h-188q9 275 83 637.5t187 681.5h207l276 -923l271 923h209q111 -305 184.5 -661t88.5 -658z" glyph-name="uni1E3E.salt" horiz-adv-x="1768"/><glyph d="M1142 1319h189v-1319h-191q0 75 -26.5 146.5t-60.5 123t-103 116.5t-114.5 100.5t-135.5 102.5q-242 181 -336 285v-874h-190v1319h193q0 -73 26.5 -144t61.5 -123t101.5 -116t116 -103t134.5 -103q244 -183 335 -281v870z" glyph-name="N.salt" horiz-adv-x="1506"/><glyph d="M1046 1582l-370 -142l-36 76l343 216zM1142 1319h189v-1319h-191q0 75 -26.5 146.5t-60.5 123t-103 116.5t-114.5 100.5t-135.5 102.5q-242 181 -336 285v-874h-190v1319h193q0 -73 26.5 -144t61.5 -123t101.5 -116t116 -103t134.5 -103q244 -183 335 -281v870z" glyph-name="Nacute.salt" horiz-adv-x="1506"/><glyph d="M821 1459h-89l-198 210l70 74l173 -140l170 140l70 -74zM1142 1319h189v-1319h-191q0 75 -26.5 146.5t-60.5 123t-103 116.5t-114.5 100.5t-135.5 102.5q-242 181 -336 285v-874h-190v1319h193q0 -73 26.5 -144t61.5 -123t101.5 -116t116 -103t134.5 -103 q244 -183 335 -281v870z" glyph-name="Ncaron.salt" horiz-adv-x="1506"/><glyph d="M1142 1319h189v-1319h-191q0 75 -26.5 146.5t-60.5 123t-103 116.5t-114.5 100.5t-135.5 102.5q-242 181 -336 285v-874h-190v1319h193q0 -73 26.5 -144t61.5 -123t101.5 -116t116 -103t134.5 -103q244 -183 335 -281v870zM771 -130q51 0 80.5 -35.5t29.5 -102.5 q0 -176 -173 -210l-22 72q75 19 96 58h-11q-46 0 -74 30.5t-28 78.5t28 78.5t74 30.5z" glyph-name="Ncommaaccent.salt" horiz-adv-x="1506"/><glyph d="M1321 -210l101 -101q-147 -162 -306 -162q-70 0 -134 25.5t-106.5 56.5t-102.5 56.5t-123 25.5q-43 0 -93 -20.5t-75 -36t-74 -49.5l-82 82l-22 24l403 280q-268 17 -431 207.5t-163 481.5q0 304 175.5 498t464 194t465 -192t176.5 -500q0 -207 -85 -368t-237 -244 l-306 -214q38 -12 152.5 -77.5t187.5 -65.5q113 0 215 99zM302 660q0 -227 121 -369.5t330 -142.5q212 0 332 142t120 370q0 230 -122 372t-330.5 142t-329.5 -143.5t-121 -370.5z" glyph-name="Q.salt" horiz-adv-x="1534"/><glyph d="M835 473q29 -34 65.5 -97.5t62 -99t88.5 -65.5t159 -30v-181q-114 0 -197 25.5t-127.5 65.5t-77.5 89t-62 97.5t-66.5 88.5t-105 65.5t-164.5 25.5h-46v-457h-190v1318h483q259 0 397.5 -113.5t138.5 -315.5q0 -346 -358 -416zM364 626h293q341 0 341 259.5t-341 259.5 h-293v-519z" glyph-name="R.salt" horiz-adv-x="1268"/><glyph d="M1285 1318q-177 -725 -503 -1318h-221q-331 597 -505 1318h210q172 -703 405 -1142q126 236 232 545.5t172 596.5h210z" glyph-name="V.salt" horiz-adv-x="1343"/><glyph d="M1574 1318q-10 -275 -85.5 -638.5t-186.5 -679.5h-206l-275 894l-273 -894h-208q-109 304 -182.5 659t-89.5 659h188q27 -546 189 -1060l316 1032h121l314 -1029q61 195 118.5 505.5t69.5 551.5h190z" glyph-name="W.salt" horiz-adv-x="1641"/><glyph d="M722 1440l-36 76l343 216l63 -150zM1574 1318q-10 -275 -85.5 -638.5t-186.5 -679.5h-206l-275 894l-273 -894h-208q-109 304 -182.5 659t-89.5 659h188q27 -546 189 -1060l316 1032h121l314 -1029q61 195 118.5 505.5t69.5 551.5h190z" glyph-name="Wacute.salt" horiz-adv-x="1641"/><glyph d="M777 1749h88l197 -211l-70 -74l-171 142l-172 -142l-70 74zM1574 1318q-10 -275 -85.5 -638.5t-186.5 -679.5h-206l-275 894l-273 -894h-208q-109 304 -182.5 659t-89.5 659h188q27 -546 189 -1060l316 1032h121l314 -1029q61 195 118.5 505.5t69.5 551.5h190z" glyph-name="Wcircumflex.salt" horiz-adv-x="1641"/><glyph d="M652 1700q41 0 67.5 -28t26.5 -73q0 -43 -25.5 -72t-68.5 -29t-68.5 28.5t-25.5 72.5q0 46 25.5 73.5t68.5 27.5zM995 1700q43 0 68.5 -28t25.5 -73q0 -43 -25.5 -72t-68.5 -29t-68.5 28.5t-25.5 72.5q0 46 25.5 73.5t68.5 27.5zM1574 1318q-10 -275 -85.5 -638.5 t-186.5 -679.5h-206l-275 894l-273 -894h-208q-109 304 -182.5 659t-89.5 659h188q27 -546 189 -1060l316 1032h121l314 -1029q61 195 118.5 505.5t69.5 551.5h190z" glyph-name="Wdieresis.salt" horiz-adv-x="1641"/><glyph d="M910 1440l-371 142l63 150l345 -216zM1574 1318q-10 -275 -85.5 -638.5t-186.5 -679.5h-206l-275 894l-273 -894h-208q-109 304 -182.5 659t-89.5 659h188q27 -546 189 -1060l316 1032h121l314 -1029q61 195 118.5 505.5t69.5 551.5h190z" glyph-name="Wgrave.salt" horiz-adv-x="1641"/><glyph d="M1181 1318q-148 -459 -474 -832v-486h-190v490q-319 386 -471 828h201q138 -415 366 -687q213 244 367 687h201z" glyph-name="Y.salt" horiz-adv-x="1228"/><glyph d="M884 1582l-370 -142l-36 76l343 216zM1181 1318q-148 -459 -474 -832v-486h-190v490q-319 386 -471 828h201q138 -415 366 -687q213 244 367 687h201z" glyph-name="Yacute.salt" horiz-adv-x="1228"/><glyph d="M613 1606l-173 -142l-70 74l198 211h89l196 -211l-70 -74zM1181 1318q-148 -459 -474 -832v-486h-190v490q-319 386 -471 828h201q138 -415 366 -687q213 244 367 687h201z" glyph-name="Ycircumflex.salt" horiz-adv-x="1228"/><glyph d="M443.5 1498q-42.5 0 -68 28.5t-25.5 72.5q0 46 25.5 73.5t68.5 27.5q41 0 67.5 -28t26.5 -73q0 -43 -26 -72t-68.5 -29zM786.5 1498q-42.5 0 -68 28.5t-25.5 72.5q0 46 25.5 73.5t68 27.5t68.5 -28t26 -73q0 -43 -26 -72t-68.5 -29zM1181 1318q-148 -459 -474 -832v-486 h-190v490q-319 386 -471 828h201q138 -415 366 -687q213 244 367 687h201z" glyph-name="Ydieresis.salt" horiz-adv-x="1228"/><glyph d="M739 1516l-38 -76l-370 142l63 150zM1181 1318q-148 -459 -474 -832v-486h-190v490q-319 386 -471 828h201q138 -415 366 -687q213 244 367 687h201z" glyph-name="Ygrave.salt" horiz-adv-x="1228"/><glyph d="M488 1582q-77 0 -77 -97h-128q0 101 59 161.5t141 60.5q63 0 134.5 -51.5t111.5 -51.5q68 0 68 96h126q0 -108 -54.5 -166t-136.5 -58q-65 0 -136.5 53t-107.5 53zM1181 1318q-148 -459 -474 -832v-486h-190v490q-319 386 -471 828h201q138 -415 366 -687 q213 244 367 687h201z" glyph-name="uni1EF8.salt" horiz-adv-x="1228"/><glyph d="M503.5 966q191.5 0 316.5 -110t125 -308v-548h-158l-24 113q-109 -138 -323 -139q-166 0 -260.5 82t-94.5 222q0 145 107.5 221t278.5 76q152 0 288 -58v55q0 109 -73 167t-189 58q-154 0 -284 -73l-68 157q167 85 358.5 85zM870 473v1v-1zM481 128q125 0 199 69t79 178 q-119 60 -249 60q-108 0 -171 -37.5t-63 -114.5q0 -155 205 -155z" glyph-name="a.salt" horiz-adv-x="1071"/><glyph d="M247 1347q51 0 83 -34.5t32 -88.5q0 -53 -31 -89t-83.5 -36t-84.5 35t-32 89.5t31.5 89t84.5 34.5zM338 0h-186v939h186v-939z" glyph-name="i.locl" horiz-adv-x="489"/><glyph d="M311 0h-186v1425h186v-1425z" glyph-name="l.salt" horiz-adv-x="445"/><glyph d="M119 1572l-35 75l343 217l63 -151zM311 0h-186v1425h186v-1425z" glyph-name="lacute.salt" horiz-adv-x="445"/><glyph d="M486 1034l-78 28l89 395l152 -59zM311 0h-186v1425h186v-1425z" glyph-name="lcaron.salt" horiz-adv-x="445"/><glyph d="M311 1425v-1425h-186v1425h186zM220 -130q51 0 80 -35.5t29 -102.5q0 -176 -172 -210l-22 72q75 19 95 58h-10q-46 0 -74 30.5t-28 78.5t28 78.5t74 30.5z" glyph-name="lcommaaccent.salt" horiz-adv-x="445"/><glyph d="M594 934v-156l-142 -63v-715h-186v630l-141 -63v155l141 63v640h186v-555z" glyph-name="lslash.salt" horiz-adv-x="730"/><glyph d="M418 -24q-108 0 -205 33.5t-150 84.5l75 119q46 -43 126.5 -73.5t158.5 -30.5q84 0 136 30t52 85q0 53 -53 82t-129.5 43.5t-152.5 34.5t-129 73t-53 142q0 111 89.5 181t236.5 70q188 0 328 -111l-81 -109q-109 89 -247 89q-79 0 -123 -27.5t-44 -78.5q0 -46 38 -74.5 t96 -39.5t125.5 -28t125.5 -38.5t96.5 -72.5t38.5 -128q0 -118 -97.5 -187t-257.5 -69z" glyph-name="glyph630" horiz-adv-x="849"/><glyph d="M710 463q155 -19 255 -144.5t100 -327.5q0 -210 -112.5 -334.5t-295.5 -124.5q-169 0 -316 93l104 136q92 -58 195 -58q109 0 177.5 83t68.5 214q0 138 -68.5 223.5t-175.5 85.5q-46 0 -108 -21l-65 135l308 352l-424 -2v-773h-182v771h-106v168h106v134q0 108 29.5 189 t81 126.5t117 66t138 14.5t146.5 -35v-154q-65 26 -121.5 30t-105 -12t-76 -70t-27.5 -139v-150h628v-164z" glyph-name="germandbls.salt" horiz-adv-x="1099"/><glyph d="M1058 939q-138 -483 -398 -939h-221q-258 447 -400 939h193q130 -466 316 -801q189 336 319 801h191z" glyph-name="v.ss02" horiz-adv-x="1100"/><glyph d="M1208 939h195q-113 -527 -309 -939h-195l-174 700l-174 -700h-194q-104 222 -186 474.5t-120 464.5h195q53 -353 186 -712l194 683h198l197 -681q117 326 187 710z" glyph-name="w.salt" horiz-adv-x="1455"/><glyph d="M997 1201l-371 -141l-35 75l343 217zM1208 939h195q-113 -527 -309 -939h-195l-174 700l-174 -700h-194q-104 222 -186 474.5t-120 464.5h195q53 -353 186 -712l194 683h198l197 -681q117 326 187 710z" glyph-name="wacute.salt" horiz-adv-x="1455"/><glyph d="M725 1225l-172 -141l-70 73l198 212h89l196 -212l-70 -73zM1208 939h195q-113 -527 -309 -939h-195l-174 700l-174 -700h-194q-104 222 -186 474.5t-120 464.5h195q53 -353 186 -712l194 683h198l197 -681q117 326 187 710z" glyph-name="wcircumflex.salt" horiz-adv-x="1455"/><glyph d="M556.5 1118q-42.5 0 -68 28t-25.5 73q0 46 25.5 73t67.5 27q41 0 67.5 -28t26.5 -72q0 -43 -25.5 -72t-68 -29zM899.5 1118q-42.5 0 -68 28t-25.5 73q0 46 25.5 73t68 27t68 -28t25.5 -72q0 -43 -25.5 -72t-68 -29zM1208 939h195q-113 -527 -309 -939h-195l-174 700 l-174 -700h-194q-104 222 -186 474.5t-120 464.5h195q53 -353 186 -712l194 683h198l197 -681q117 326 187 710z" glyph-name="wdieresis.salt" horiz-adv-x="1455"/><glyph d="M852 1135l-38 -75l-370 141l63 151zM1208 939h195q-113 -527 -309 -939h-195l-174 700l-174 -700h-194q-104 222 -186 474.5t-120 464.5h195q53 -353 186 -712l194 683h198l197 -681q117 326 187 710z" glyph-name="wgrave.salt" horiz-adv-x="1455"/><glyph d="M741 939h189l-534 -1451h-191l189 510l-355 941h193l256 -732z" glyph-name="y.salt" horiz-adv-x="965"/><glyph d="M753 1201l-371 -141l-36 75l343 217zM741 939h189l-534 -1451h-191l189 510l-355 941h193l256 -732z" glyph-name="yacute.salt" horiz-adv-x="965"/><glyph d="M481 1225l-172 -141l-70 73l198 212h89l196 -212l-70 -73zM741 939h189l-534 -1451h-191l189 510l-355 941h193l256 -732z" glyph-name="ycircumflex.salt" horiz-adv-x="965"/><glyph d="M312.5 1118q-42.5 0 -68.5 28t-26 73q0 46 26 73t68 27q41 0 67.5 -28t26.5 -72q0 -43 -25.5 -72t-68 -29zM655.5 1118q-42.5 0 -68.5 28t-26 73q0 46 26 73t68.5 27t68 -28t25.5 -72q0 -43 -25.5 -72t-68 -29zM741 939h189l-534 -1451h-191l189 510l-355 941h193 l256 -732z" glyph-name="ydieresis.salt" horiz-adv-x="965"/><glyph d="M741 939h189l-534 -1451h-191l189 510l-355 941h193l256 -732zM660 -299q51 0 83 -34t32 -89q0 -53 -31 -87.5t-83.5 -34.5t-84.5 34t-32 88q0 56 31.5 89.5t84.5 33.5z" glyph-name="uni1EF5.salt" horiz-adv-x="965"/><glyph d="M608 1135l-38 -75l-370 141l63 151zM741 939h189l-534 -1451h-191l189 510l-355 941h193l256 -732z" glyph-name="ygrave.salt" horiz-adv-x="965"/><glyph d="M505 1323q-43 0 -85 -46l-56 68q72 85 160 87q80 2 123.5 -39t41.5 -110q0 -46 -31.5 -95.5t-58 -75t-70.5 -61.5h-99q10 12 35 40.5t34.5 39.5t25.5 32t22 33t12 28.5t6 31.5q0 67 -60 67zM741 939h189l-534 -1451h-191l189 510l-355 941h193l256 -732z" glyph-name="uni1EF7.salt" horiz-adv-x="965"/><glyph d="M370 1201q-77 0 -76 -97h-128q0 101 58.5 161.5t140.5 60.5q63 0 135 -51t111 -51q68 0 68 95h127q0 -108 -55 -165.5t-137 -57.5q-65 0 -136.5 52.5t-107.5 52.5zM741 939h189l-534 -1451h-191l189 510l-355 941h193l256 -732z" glyph-name="uni1EF9.salt" horiz-adv-x="965"/><glyph d="M362 1319v-1153h746v-166h-934v1319h188zM1673 0h-198l-151 389h-781l380 930h217zM795 556h465l-231 599z" glyph-name="L_A.dlig" horiz-adv-x="1728"/><glyph d="M1038 394q-213 0 -345 130.5t-132 347.5q0 218 131.5 349.5t345.5 131.5q210 0 342 -131t132 -350q0 -205 -125 -341.5t-349 -136.5zM362 1319v-1135h1128v-184h-1316v1319h188zM1038 1184q-131 0 -207.5 -87t-76.5 -223q0 -135 76 -221t208 -86q126 0 203.5 87.5 t77.5 219.5q0 137 -75.5 223.5t-205.5 86.5z" glyph-name="L_O.dlig" horiz-adv-x="1626"/><glyph d="M1644 964q157 0 250 -93.5t93 -305.5v-565h-192v548q0 241 -189 240q-150 0 -277 -213v-575h-189v1261q-244 77 -323 -29q-55 -87 -19.5 -197t136.5 -218q24 -27 34 -42l-140 -92q-89 119 -253 119q-140 0 -216.5 -94t-76.5 -240q0 -145 76.5 -238t216.5 -93 q154 0 251 119l142 -94q-130 -189 -393 -189q-222 0 -351.5 134.5t-129.5 360t129.5 361t351.5 137.5q39 0 79 -5q-89 207 22 358q60 80 147 109t160 19t180 -29.5t165 -19.5h1v-601q134 167 315 167z" glyph-name="c_h.dlig" horiz-adv-x="2121"/><glyph d="M1812 -2l-331 396h-133v-394h-187v1254q-53 17 -95 27.5t-92.5 14.5t-90.5 -12t-66 -52q-55 -87 -19.5 -197t136.5 -218q24 -27 34 -42l-140 -92q-89 119 -253 119q-140 0 -216.5 -94t-76.5 -240q0 -145 76.5 -238t216.5 -93q154 0 251 119l142 -94q-130 -189 -393 -189 q-222 0 -351.5 134.5t-129.5 360t129.5 361t351.5 137.5q43 0 80 -5q-89 203 21 358q44 61 100.5 93t124 33.5t124.5 -5t136.5 -22t125.5 -19.5h61v-827h132l288 367h237l-368 -456l425 -485h-250z" glyph-name="c_k.dlig" horiz-adv-x="2085"/><glyph d="M1311 966q207 0 329.5 -137.5t122.5 -360.5q0 -220 -118 -357.5t-327 -137.5q-200 0 -321 138l-29 -111h-151v1275q-109 32 -187.5 42.5t-144 -5t-99 -71t-33.5 -152.5v-150h304v-168h-304v-771h-186v771h-102v168h102v157q0 546 833 300v-563q123 133 311 133z M1286.5 145q136.5 0 212.5 88t76 235q0 152 -76 239t-212.5 87t-211.5 -88t-75 -238q0 -147 75 -235t211.5 -88z" glyph-name="f_b.dlig" horiz-adv-x="1853"/><glyph d="M1312 964q343 0 343 -399v-565h-191l2 548q0 241 -189 240q-150 0 -277 -213v-575h-189v1278q-108 31 -185.5 40.5t-141.5 -7t-97.5 -72t-33.5 -150.5v-150h304v-168h-304v-771h-186v771h-102v168h102v157q0 546 833 300v-599q133 167 312 167z" glyph-name="f_h.dlig" horiz-adv-x="1790"/><glyph d="M981 939v-939h-186v771h-442v-771h-186v771h-102v168h102v158q0 160 78 252.5t197 110.5t250 -6t250 -84l-66 -150q-102 46 -194.5 66.5t-167 12t-118 -58.5t-43.5 -139v-162h628z" glyph-name="f_i.dlig" horiz-adv-x="1116"/><glyph d="M981 939v-968q0 -350 -322 -510l-80 145l12 5q10 7 28.5 20.5t41 32.5t45.5 48t41.5 62t30.5 79t12 96v822h-437v-771h-186v771h-102v168h102v158q0 160 78 252.5t197 110.5t250 -6t250 -84l-66 -150q-102 46 -194.5 66.5t-167 12t-118 -58.5t-43.5 -139v-162h628z" glyph-name="f_j.dlig" horiz-adv-x="1122"/><glyph d="M1143 160l31 -148q-172 -60 -265 -5.5t-95 213.5v1057q-108 32 -186 41.5t-143 -6t-98.5 -72t-33.5 -151.5v-150h304v-168h-304v-771h-186v771h-102v168h102v157q0 546 833 300v-1154q0 -65 34 -83t109 1z" glyph-name="f_l.dlig" horiz-adv-x="1259"/><glyph d="M1224 966q90 0 167 -44l-82 -173q-53 31 -113 31q-63 0 -113 -52t-74 -118.5t-33 -140.5v-469h-184v771h-439v-771h-186v771h-102v168h102v158q0 160 78 252.5t197 110.5t250 -6t250 -84l-66 -150q-102 46 -194.5 66.5t-167 12t-118 -58.5t-43.5 -139v-162h584l38 -159 q92 186 249 186z" glyph-name="f_r.dlig" horiz-adv-x="1437"/><glyph d="M1217 167l17 -152q-215 -90 -367 4t-152 333v431h-362v-783h-186v783h-102v156h102v196q0 176 110 268t280 81t344 -114v-431h290l-10 -156h-280v-445q0 -147 93 -190.5t223 19.5zM353 939h362v339q-135 63 -248.5 25.5t-113.5 -165.5v-199z" glyph-name="f_t.dlig" horiz-adv-x="1298"/><glyph d="M1582 964q154 0 246 -93.5t92 -305.5v-565h-191l2 548q0 241 -181 240q-166 0 -290 -213v-575h-185v1046v2q0 38 -1 61t-9.5 65.5t-24.5 69t-49.5 47t-79.5 20.5q-104 0 -153.5 -84.5t-24.5 -199t114 -194.5q2 0 5 -4l-93 -128q-109 114 -278 115q-87 0 -140 -34t-53 -89 q0 -46 43.5 -76t110.5 -43t142.5 -33t142.5 -46t110.5 -84t43.5 -141q0 -138 -109.5 -217.5t-291.5 -79.5q-254 0 -408 145l87 135q58 -56 146 -93t181 -37q92 0 151 35t59 95q0 48 -43.5 79.5t-108 45t-141.5 33t-142 44.5t-108.5 81t-43.5 138q0 131 101.5 211.5 t269.5 80.5q48 0 102 -9q-22 70 -23 141t22 136t65.5 116t116 81t165.5 30q94 0 160.5 -34t100 -81t50.5 -121.5t19.5 -125.5t1.5 -123v-186q133 174 322 174z" glyph-name="s_h.dlig" horiz-adv-x="2054"/><glyph d="M1582 966q203 0 320 -139t117 -359.5t-118 -357.5t-324 -137q-198 0 -319 133v-618h-183v1451q0 58 -3.5 91t-18 80t-51 70t-94.5 23t-100.5 -35t-58 -87t7.5 -119.5t86 -125.5q2 0 4.5 -3.5t4.5 -3.5l-93 -128q-109 114 -278 115q-87 0 -140 -34t-53 -89q0 -46 43.5 -76 t110.5 -43t142.5 -33t142.5 -46t110.5 -84t43.5 -141q0 -138 -109.5 -217.5t-291.5 -79.5q-254 0 -408 145l87 135q58 -56 146 -93t181 -37q92 0 151 35t59 95q0 48 -43.5 79.5t-108 45t-141.5 33t-142 44.5t-108.5 81t-43.5 138q0 131 101.5 211.5t269.5 80.5q56 0 107 -10 q-36 155 56.5 276t279.5 121q85 0 147.5 -23.5t96.5 -64.5t56.5 -94t26.5 -111t7.5 -117t0.5 -112q126 135 324 135zM1543 147q137 0 212 88t75 234.5t-75.5 234.5t-212 88t-210.5 -88t-74 -235q0 -148 75 -235t210 -87z" glyph-name="s_p.dlig" horiz-adv-x="2109"/><glyph d="M1620 167l15 -152q-213 -90 -366 4t-153 333v431h-138v156h138v208q-14 5 -77.5 27t-85 26.5t-66 9.5t-73.5 -7.5t-56 -41.5q-56 -68 -40 -147.5t86 -146.5q26 -19 48 -38l-93 -128q-109 114 -279 115q-85 0 -138.5 -33.5t-53.5 -93.5q0 -46 43.5 -75t110.5 -41 t142.5 -32t142.5 -46t110.5 -84.5t43.5 -145.5q0 -133 -111 -212.5t-292 -79.5q-253 0 -406 145l87 135q60 -56 147 -93t177 -37q96 0 154.5 35t58.5 98q0 56 -60.5 87t-146.5 48t-172.5 41t-147 86t-60.5 163q0 125 102.5 205t268.5 80q56 0 107 -10q-73 171 36 297 q65 75 157 92t170.5 -3.5t183.5 -48t168 -27.5v-327h285l-10 -156h-275v-445q0 -147 93.5 -190.5t224.5 19.5z" glyph-name="s_t.dlig" horiz-adv-x="1699"/><glyph d="M1389 167l17 -152q-215 -90 -367 4t-152 333v431h-491v-445q0 -147 94 -190.5t223 19.5l17 -152q-215 -90 -366.5 4t-151.5 333v431h-152v156h152v293h184v-293h491v293h185v-293h287l-12 -156h-275v-445q0 -147 93.5 -190.5t223.5 19.5z" glyph-name="t_t.dlig" horiz-adv-x="1471"/><glyph d="M988 0l-104 259h-526l-104 -259h-198l456 1108h218l456 -1108h-198zM428 435h386l-193 485z" glyph-name="A.c2sc" horiz-adv-x="1244"/><glyph d="M894 1370l-370 -141l-36 75l343 217zM988 0l-104 259h-526l-104 -259h-198l456 1108h218l456 -1108h-198zM428 435h386l-193 485z" glyph-name="aacute.aalt" horiz-adv-x="1244"/><glyph d="M623 1258q-113 0 -181 60.5t-77 169.5h130q29 -111 128 -111t128 111h130q-10 -102 -75 -166t-183 -64zM988 0l-104 259h-526l-104 -259h-198l456 1108h218l456 -1108h-198zM428 435h386l-193 485z" glyph-name="abreve.aalt" horiz-adv-x="1244"/><glyph d="M894 1751l-370 -142l-36 75l343 217zM623 1258q-113 0 -181 60.5t-77 169.5h130q29 -111 128 -111t128 111h130q-10 -102 -75 -166t-183 -64zM988 0l-104 259h-526l-104 -259h-198l456 1108h218l456 -1108h-198zM428 435h386l-193 485z" glyph-name="uni1EAE.aalt" horiz-adv-x="1244"/><glyph d="M749 1684l-37 -75l-371 142l63 150zM623 1377q99 0 128 111h130q-10 -102 -75 -166t-183 -64q-113 0 -181 60.5t-77 169.5h130q29 -111 128 -111zM988 0l-104 259h-526l-104 -259h-198l456 1108h218l456 -1108h-198zM428 435h386l-193 485z" glyph-name="uni1EB0.aalt" horiz-adv-x="1244"/><glyph d="M512 1751q-77 0 -77 -97h-128q0 101 59 161.5t141 60.5q63 0 134.5 -51.5t111.5 -51.5q68 0 68 96h126q0 -108 -54.5 -166t-136.5 -58q-65 0 -136.5 53t-107.5 53zM623 1377q99 0 128 111h130q-10 -102 -75 -166t-183 -64q-113 0 -181 60.5t-77 169.5h130 q29 -111 128 -111zM988 0l-104 259h-526l-104 -259h-198l456 1108h218l456 -1108h-198zM428 435h386l-193 485z" glyph-name="uni1EB4.aalt" horiz-adv-x="1244"/><glyph d="M669 1248h-89l-198 209l70 74l173 -140l170 140l70 -74zM988 0l-104 259h-526l-104 -259h-198l456 1108h218l456 -1108h-198zM428 435h386l-193 485z" glyph-name="uni01CE.aalt" horiz-adv-x="1244"/><glyph d="M623 1394l-172 -141l-70 73l198 212h88l197 -212l-70 -73zM988 0l-104 259h-526l-104 -259h-198l456 1108h218l456 -1108h-198zM428 435h386l-193 485z" glyph-name="acircumflex.aalt" horiz-adv-x="1244"/><glyph d="M894 1751l-370 -142l-36 75l343 217zM623 1394l-172 -141l-70 73l198 212h88l197 -212l-70 -73zM988 0l-104 259h-526l-104 -259h-198l456 1108h218l456 -1108h-198zM428 435h386l-193 485z" glyph-name="uni1EA4.aalt" horiz-adv-x="1244"/><glyph d="M749 1684l-37 -75l-371 142l63 150zM579 1538h88l197 -212l-70 -73l-171 141l-172 -141l-70 73zM988 0l-104 259h-526l-104 -259h-198l456 1108h218l456 -1108h-198zM428 435h386l-193 485z" glyph-name="uni1EA6.aalt" horiz-adv-x="1244"/><glyph d="M512 1751q-77 0 -77 -97h-128q0 101 59 161.5t141 60.5q63 0 134.5 -51.5t111.5 -51.5q68 0 68 96h126q0 -108 -54.5 -166t-136.5 -58q-65 0 -136.5 53t-107.5 53zM579 1538h88l197 -212l-70 -73l-171 141l-172 -141l-70 73zM988 0l-104 259h-526l-104 -259h-198 l456 1108h218l456 -1108h-198zM428 435h386l-193 485z" glyph-name="uni1EAA.aalt" horiz-adv-x="1244"/></font>
</defs>
</svg>
