<svg xmlns="http://www.w3.org/2000/svg">
<defs>
<font horiz-adv-x="1061" id="ywftsvg"><font-face ascent="1638" bbox="-963 -934 2865 2184.77" cap-height="1319" descent="-410" font-family="" font-stretch="normal" font-weight="900" panose-1="2 11 0 3 5 4 1 2 5 4" underline-position="0" underline-thickness="0" unicode-range="U+0020-FFFD" units-per-em="2048" x-height="939"/><missing-glyph d="M1021 973q51 -171 51 -398q0 -58 -14 -118q-3 -9 -8 -1q-9 19 -22 35t-21 24l-10 7q2 -3 5 -9t11.5 -25t12 -36t5.5 -43.5t-7 -48.5q-17 -48 -58 -84q-7 -3 -7 4q-2 17 -8 30.5t-11 20.5l-5 5q0 -5 -0.5 -12.5t-8.5 -31.5t-19 -46t-36.5 -51t-59.5 -52q-2 0 -4.5 -1.5 t-4.5 -3t-3 -1.5q-5 -3 -8.5 -1t-0.5 7q5 12 7.5 23t1.5 17v5q-5 -9 -15.5 -24.5t-50.5 -45t-88 -43.5q-48 14 -87 42t-55 50l-15 21q-5 -19 7 -45q2 -5 0 -7.5t-7 1.5q-3 2 -6.5 4t-7.5 2q-55 36 -85.5 84t-33.5 78l-5 31q-19 -19 -24 -56q0 -7 -7 -4q-41 34 -56 84 q-10 43 -4 78.5t17 59.5l14 24q-34 -26 -53 -66q-9 -10 -10 1q-14 60 -14 118q0 101 13 201t27 149l12 48q3 15 11 17q114 31 210 43l14 34q2 2 3 1q44 -15 62 -10q38 9 75 75q2 3 5 0q38 -67 75 -75q22 -5 62 10q3 0 3 -1l14 -34q68 -9 210 -43q9 -3 12 -17zM435 975 q-2 0 3.5 -26.5t10.5 -54.5l5 -27q41 39 96 39h3q14 0 27 -5q24 -7 40.5 -24t21.5 -30l3 -12q2 3 3.5 7.5t4 18t1.5 23.5q20 12 39.5 18t36 5t32 -4.5t25.5 -9.5t18.5 -11.5t13.5 -11.5l4 -3l15 111l-58 -44l-29 87l-58 -58l-56 100l-60 -97l-51 58l-31 -92zM370 823 q20 -2 31 -21q15 15 41 26q-5 10 -16 17.5t-20 11.5l-10 1l22 14q-56 14 -85 -39q-14 -29 -9.5 -53t16.5 -39l12 -14q3 17 15 36q9 15 9.5 29.5t-2.5 23.5zM923 727q5 5 11 14.5t15.5 38.5t-7.5 53q-14 24 -35 33.5t-37 7.5l-13 -2l22 -14q-34 -9 -46 -30q24 -10 43 -26 q5 9 11.5 14t11.5 7h6q-15 -24 3 -58zM836 561q9 0 17.5 -5t13.5 -10l3 -5q0 58 -39 82q2 7 4.5 17t1.5 39t-9.5 51.5t-36.5 43.5t-72 26l15 21q-63 7 -97 -46q-15 24 -40 35t-41 11h-17q15 -14 16 -21q-70 -9 -98.5 -53t-21.5 -85l7 -39q-17 -10 -27.5 -30.5t-11.5 -36.5 v-15q15 20 34 20q-3 -5 -7.5 -13.5t-9 -39t11.5 -61.5l20 -37q20 24 45 42q-19 31 -19 58q0 48 43 87q-24 -41 -19 -82q12 -39 32 -39q10 0 46 25.5t41 39.5q10 27 2 50q-1
<glyph d="M1345 1200q-41 15 -73.5 22t-70 5t-62.5 -19.5t-41 -59.5t-16 -107v-102h236v-256h-236v-683h-297v683h-340v-683h-297v683h-109v256h109v42q0 143 51.5 246.5t132.5 153t178.5 64t194.5 -11t174 -80.5q73 94 195 114.5t273 -33.5zM445 939h340v78q0 60 9 120 q-53 49 -113.5 68t-113 5t-87.5 -72.5t-35 -156.5v-42z" glyph-name="f_f.liga" horiz-adv-x="1390" unicode="ff"/><glyph d="M1686 939v-939h-305v683h-299v-683h-297v683h-340v-683h-297v683h-109v256h109v42q0 123 38 217t100 147.5t141.5 81t162 23.5t163 -32.5t143.5 -77.5q87 87 233 111t287.5 -4.5t262.5 -89.5l-102 -241q-87 38 -170.5 56t-159 16t-120.5 -43t-45 -119v-87h604zM445 939 h340v87q0 60 10 111q-72 67 -152 79.5t-139 -47.5t-59 -188v-42z" glyph-name="f_f_i.liga" horiz-adv-x="1819" unicode="ffi"/><glyph d="M1872 253l45 -229q-97 -36 -178.5 -41t-147 22t-103 104t-37.5 200v904q-171 53 -269 15t-98 -187v-102h223v-256h-223v-683h-299v683h-338v-683h-299v683h-109v256h109v42q0 143 50.5 246.5t132.5 153t178.5 64t193.5 -11t176 -80.5q75 82 215 108t294.5 8.5 t357.5 -64.5l-2 -11h2v-1051q0 -116 126 -90zM447 939h338v128q0 41 5 76q-72 63 -150.5 73.5t-135.5 -49t-57 -186.5v-42z" glyph-name="f_f_l.liga" horiz-adv-x="1989" unicode="ffl"/><glyph d="M1021 973q51 -171 51 -398q0 -58 -14 -118q-3 -9 -8 -1q-9 19 -22 35t-21 24l-10 7q2 -3 5 -9t11.5 -25t12 -36t5.5 -43.5t-7 -48.5q-17 -48 -58 -84q-7 -3 -7 4q-2 17 -8 30.5t-11 20.5l-5 5q0 -5 -0.5 -12.5t-8.5 -31.5t-19 -46t-36.5 -51t-59.5 -52q-2 0 -4.5 -1.5 t-4.5 -3t-3 -1.5q-5 -3 -8.5 -1t-0.5 7q5 12 7.5 23t1.5 17v5q-5 -9 -15.5 -24.5t-50.5 -45t-88 -43.5q-48 14 -87 42t-55 50l-15 21q-5 -19 7 -45q2 -5 0 -7.5t-7 1.5q-3 2 -6.5 4t-7.5 2q-55 36 -85.5 84t-33.5 78l-5 31q-19 -19 -24 -56q0 -7 -7 -4q-41 34 -56 84 q-10 43 -4 78.5t17 59.5l14 24q-34 -26 -53 -66q-9 -10 -10 1q-14 60 -14 118q0 101 13 201t27 149l12 48q3 15 11 17q114 31 210 43l14 34q2 2 3 1q44 -15 62 -10q38 9 75 75q2 3 5 0q38 -67 75 -75q22 -5 62 10q3 0 3 -1l14 -34q68 -9 210 -43q9 -3 12 -17zM435 975 q-2 0 3.5 -26.5t10.5 -54.5l5 -27q41 39 96 39h3q14 0 27 -5q24 -7 40.5 -24t21.5 -30l3 -12q2 3 3.5 7.5t4 18t1.5 23.5q20 12 39.5 18t36 5t32 -4.5t25.5 -9.5t18.5 -11.5t13.5 -11.5l4 -3l15 111l-58 -44l-29 87l-58 -58l-56 100l-60 -97l-51 58l-31 -92zM370 823 q20 -2 31 -21q15 15 41 26q-5 10 -16 17.5t-20 11.5l-10 1l22 14q-56 14 -85 -39q-14 -29 -9.5 -53t16.5 -39l12 -14q3 17 15 36q9 15 9.5 29.5t-2.5 23.5zM923 727q5 5 11 14.5t15.5 38.5t-7.5 53q-14 24 -35 33.5t-37 7.5l-13 -2l22 -14q-34 -9 -46 -30q24 -10 43 -26 q5 9 11.5 14t11.5 7h6q-15 -24 3 -58zM836 561q9 0 17.5 -5t13.5 -10l3 -5q0 58 -39 82q2 7 4.5 17t1.5 39t-9.5 51.5t-36.5 43.5t-72 26l15 21q-63 7 -97 -46q-15 24 -40 35t-41 11h-17q15 -14 16 -21q-70 -9 -98.5 -53t-21.5 -85l7 -39q-17 -10 -27.5 -30.5t-11.5 -36.5 v-15q15 20 34 20q-3 -5 -7.5 -13.5t-9 -39t11.5 -61.5l20 -37q20 24 45 42q-19 31 -19 58q0 48 43 87q-24 -41 -19 -82q12 -39 32 -39q10 0 46 25.5t41 39.5q10 27 2 50q-12 10 -28 17.5t-27 9.5l-10 3q7 20 22 29q7 3 28.5 -2.5t28 -5.5t28 6t28.5 2.5t12 -11.5t7 -13l1 -5 q-39 -7 -63 -30q-3 -5 -2 -21.5t6 -28.5q3 -14 39 -39.5t48 -25.5q7 0 17 13t13 26q5 41 -18 82q41 -38 41 -87q0 -12 -4.5 -26.5t-7.5 -22.5l-5 -9l44 -42q10 14 19 37q12 36 12 61.5t-9 39.5zM500 707l-26 15q60 -3 94 -15q-3 -17 -13.5 -36t-18.5 -29l-7 -12l3 30h-10 q-12 0 -21 9t-9.5 19t8.5 19zM744 630q-27 32 -37 77q15 5 38 9t40 4l15 2l-23 -14q5 -10 5 -17q0 -29 -31 -29q-2 0 -5.5 1t-4.5 1zM695 369q14 12 22 29t10 27v10q-17 24 -47.5 48t-42.5 24t-43 -24t-46 -48q-5 -39 27 -60v14q31 -24 62 -24q14 0 34 7q22 10 22 27 q3 -7 4 -14.5t-1 -12.5z" glyph-name=".notdef" horiz-adv-x="1283"/><glyph glyph-name="glyph1" horiz-adv-x="0"/><glyph glyph-name="glyph2" horiz-adv-x="682"/><glyph glyph-name="space" horiz-adv-x="484" unicode=" "/><glyph d="M394 391h-182l-45 671l-20 406h314l-16 -406zM300 225q51 0 85.5 -35.5t34.5 -92.5q0 -53 -33.5 -91t-86.5 -38q-55 0 -88 36.5t-33 92.5q0 60 32.5 94t88.5 34z" glyph-name="exclam" horiz-adv-x="602" unicode="!"/><glyph d="M259 1056h-160l-48 412h249zM591 1056h-161l-46 412h249z" glyph-name="quotedbl" horiz-adv-x="686" unicode="&quot;"/><glyph d="M1152 683h-195l-52 -222h168v-193h-215l-63 -268h-211l63 268l-224 -2l-63 -266h-213l63 266h-131v195h177l53 223h-155v197h201l67 280h211l-66 -280h223l67 280h213l-66 -280h148v-198zM693 461l51 222l-223 1l-52 -223h224z" glyph-name="numbersign" horiz-adv-x="1230" unicode="#"/><glyph d="M869 398q0 -113 -80.5 -190t-208.5 -95l12 -113h-181l14 114q-160 29 -300 176l146 171q53 -63 123 -102.5t123 -39.5q43 0 72 19.5t29 45.5q0 39 -45.5 68t-110 53t-129.5 55t-110.5 89.5t-45.5 140.5q0 94 71 163t194 88l-14 120h180l-14 -120q147 -19 258 -119 l-151 -163q-32 32 -86 60.5t-100 28.5q-41 0 -61.5 -22t-20.5 -43q0 -34 45.5 -59.5t109.5 -47.5t127 -52t108.5 -88t45.5 -138z" glyph-name="dollar" horiz-adv-x="1008" unicode="$"/><glyph d="M471 -19l-177 99l701 1157l174 -100zM365.5 1193q124.5 0 207 -73.5t82.5 -194.5q0 -99 -71.5 -182t-218.5 -83q-125 0 -205.5 72t-80.5 193q0 123 81 195.5t205.5 72.5zM365 1007q-60 0 -60 -82q0 -77 60 -77q29 0 44.5 24t15.5 53q0 32 -15.5 57t-44.5 25zM1084 521 q123 0 205.5 -74.5t82.5 -193.5q0 -99 -70.5 -182t-217.5 -83q-125 0 -206 71t-81 193.5t81 195.5t206 73zM1084 335q-29 0 -43.5 -25t-14.5 -57q0 -31 14.5 -54t43.5 -23t46 24t17 53q0 31 -16 56.5t-47 25.5z" glyph-name="percent" horiz-adv-x="1447" unicode="%"/><glyph d="M1239 162l-200 -198l-141 155q-172 -147 -384 -146q-184 0 -307 117.5t-123 298.5q0 125 53.5 203.5t176.5 172.5q-75 82 -104 144t-29 142q0 123 108.5 212.5t246.5 89.5q160 0 255 -97t95 -212q-2 -101 -49 -170.5t-129 -131.5l169 -184q48 121 72 261l275 -61 q-26 -220 -145 -420zM535.5 1135q-37.5 0 -61 -25t-23.5 -59q0 -27 19.5 -56t31.5 -40t42 -37q77 70 77 126q0 39 -24 65t-61.5 26zM541 253q97 0 178 66l-234 256q-99 -96 -96 -186q0 -48 41 -92t111 -44z" glyph-name="ampersand" horiz-adv-x="1314" unicode="&amp;"/><glyph d="M259 1056h-160l-48 412h249z" glyph-name="quotesingle" horiz-adv-x="349" unicode="'"/><glyph d="M667 1384q-297 -312 -297 -800q0 -478 297 -791l-164 -116q-205 200 -310.5 418.5t-105.5 493.5q0 278 106 495.5t312 417.5z" glyph-name="parenleft" horiz-adv-x="761" unicode="("/><glyph d="M80 1384l162 118q205 -200 311.5 -417.5t106.5 -495.5q0 -273 -106.5 -491.5t-309.5 -420.5l-164 116q297 316 297 791q0 488 -297 800z" glyph-name="parenright" horiz-adv-x="716" unicode=")"/><glyph d="M179 812l164 168l-217 47l79 200l181 -102l-34 216h223l-32 -216l179 102l80 -200l-217 -47l164 -168l-176 -126l-109 193l-111 -193z" glyph-name="asterisk" horiz-adv-x="928" unicode="*"/><glyph d="M992 666v-263h-285v-313h-285v313h-282v261h282v297h285v-295h285z" glyph-name="plus" horiz-adv-x="1133" unicode="+"/><glyph d="M225 311q85 -2 132 -62.5t42 -154.5q-17 -253 -239 -418q-58 67 -73 77q70 55 118 116t39 105q-19 -3 -31 -3q-68 3 -113 55.5t-42 130.5q3 67 47.5 112t119.5 42z" glyph-name="comma" horiz-adv-x="452" unicode=","/><glyph d="M746 614v-259h-630v259h630z" glyph-name="hyphen" horiz-adv-x="868" unicode="-"/><glyph d="M229 324q72 0 118 -48.5t46 -125.5q0 -73 -46.5 -125t-117.5 -52q-73 0 -119.5 50t-46.5 127q0 79 45.5 126.5t120.5 47.5z" glyph-name="period" horiz-adv-x="453" unicode="."/><glyph d="M456 -142h-294l596 1436h290z" glyph-name="slash" horiz-adv-x="1182" unicode="/"/><glyph d="M623 -24q-237 0 -373.5 172.5t-136.5 435.5t137 434.5t375 171.5q234 0 372 -169t138 -434q0 -266 -138 -438.5t-374 -172.5zM625 937q-205 0 -205 -353q0 -58 7.5 -112t27 -112t63 -94t105.5 -36q111 0 158.5 99t47.5 248q0 61 -7.5 116.5t-27 114.5t-63 94t-106.5 35z " glyph-name="zero" horiz-adv-x="1245" unicode="0"/><glyph d="M497 1161h192v-1161h-315v869l-203 -72l-82 246z" glyph-name="one" horiz-adv-x="882" unicode="1"/><glyph d="M558 265l405 18v-283h-835v244l362 302q160 140 160 256q0 41 -18.5 70t-47 41t-50.5 16.5t-41 4.5q-97 0 -217 -144l-194 186q169 213 437 214q183 0 305.5 -95t122.5 -267q0 -239 -258 -456z" glyph-name="two" horiz-adv-x="1093" unicode="2"/><glyph d="M631 662q142 -26 221.5 -114.5t79.5 -204.5q0 -68 -22.5 -128.5t-72.5 -116t-145.5 -89t-227.5 -33.5q-125 0 -226 44.5t-151 97.5l195 177q72 -82 182 -82q72 0 116.5 43t44.5 99q0 60 -48 96.5t-113 36.5q-39 0 -87.5 -7t-50.5 -7l-41 195l295 225l-426 -22v289h744 v-250z" glyph-name="three" horiz-adv-x="1049" unicode="3"/><glyph d="M1033 476v-258h-151v-218h-280v218h-465l-62 258l527 685h280v-685h151zM367 476h235v309z" glyph-name="four" horiz-adv-x="1116" unicode="4"/><glyph d="M553 737q172 0 291 -93.5t119 -268.5q0 -77 -24 -146t-73.5 -127t-137.5 -92t-204 -34q-251 0 -430 179l164 183q116 -119 244 -120q84 0 123 43.5t39 110.5q0 65 -36 111t-102 46q-20 0 -36.5 -3.5t-31 -10t-21.5 -11t-21 -14.5l-12 -10l-220 136l50 545h642v-289 l-403 24l-17 -169q49 10 97 10z" glyph-name="five" horiz-adv-x="1080" unicode="5"/><glyph d="M667.5 766q153.5 0 262.5 -105t109 -279q0 -162 -114 -281.5t-324 -119.5q-111 0 -198 39.5t-140 100t-88 140.5t-48.5 154.5t-13.5 149.5q0 119 29.5 228.5t87 200t155.5 144t224 53.5q225 0 371 -123l-135 -189q-116 75 -217 75q-183 0 -210 -287q96 99 249.5 99z M594 213q60 0 100 45.5t40 125.5q0 89 -40 139t-100 50q-48 0 -98.5 -28t-79.5 -79q7 -79 27.5 -133.5t49.5 -78.5t53 -32.5t48 -8.5z" glyph-name="six" horiz-adv-x="1158" unicode="6"/><glyph d="M87 1161h812v-260l-406 -901h-333l437 886l-510 -26v301z" glyph-name="seven" horiz-adv-x="1015" unicode="7"/><glyph d="M788 606q191 -82 192 -273q0 -148 -115.5 -252.5t-321.5 -104.5q-198 0 -321 96.5t-123 253.5q0 198 188 280q-160 80 -161 252q0 147 113.5 239.5t296.5 92.5q184 0 300 -92.5t116 -230.5q0 -177 -164 -261zM538 969q-60 0 -96 -41t-36 -93q0 -56 36 -96.5t95.5 -40.5 t96.5 40t37 97q0 53 -36 93.5t-97 40.5zM537.5 224q63.5 0 102.5 39t39 89q0 53 -38.5 92t-103 39t-101.5 -39.5t-37 -91.5q0 -49 37.5 -88.5t101 -39.5z" glyph-name="eight" horiz-adv-x="1082" unicode="8"/><glyph d="M551 1191q111 0 198 -39t140 -99.5t88 -141t48.5 -154.5t13.5 -149q0 -119 -29 -228.5t-87 -200t-156 -144.5t-224 -54q-222 0 -371 121l137 192q109 -75 215 -76q183 0 210 287q-96 -99 -248 -99q-154 0 -263.5 105t-109.5 279q0 162 114 281.5t324 119.5zM558 599 q48 0 98.5 28t79.5 80q-12 147 -62.5 199.5t-112.5 52.5q-63 0 -107 -45t-44 -126q0 -89 40.5 -139t107.5 -50z" glyph-name="nine" horiz-adv-x="1143" unicode="9"/><glyph d="M232 843q73 0 119.5 -47.5t46.5 -126.5q0 -72 -46.5 -124t-122.5 -52q-73 0 -117 49.5t-44 126.5q0 82 43.5 128t120.5 46zM232 324q73 0 119.5 -48.5t46.5 -127.5q0 -70 -47 -122.5t-122 -52.5q-73 0 -117 49.5t-44 125.5q0 82 43.5 129t120.5 47z" glyph-name="colon" horiz-adv-x="455" unicode=":"/><glyph d="M210 493q-73 0 -117 49.5t-44 126.5q0 82 44 128t120 46q73 0 119.5 -47.5t46.5 -126.5q0 -72 -46 -124t-123 -52zM237 319q85 -3 132 -63.5t42 -154.5q-14 -249 -239 -418q-48 61 -73 76q174 138 157 222q-17 -3 -29 -3q-68 3 -113.5 56t-43.5 130q3 67 48.5 112.5 t118.5 42.5z" glyph-name="semicolon" horiz-adv-x="467" unicode=";"/><glyph d="M879 678l-457 -154l457 -154l-101 -242l-609 247v297l609 248z" glyph-name="less" horiz-adv-x="994" unicode="&lt;"/><glyph d="M865 817v-232h-699v231zM865 452v-232h-699v232h699z" glyph-name="equal" horiz-adv-x="1032" unicode="="/><glyph d="M213 920l610 -248v-297l-610 -247l-100 242l457 154l-457 154z" glyph-name="greater" horiz-adv-x="994" unicode=">"/><glyph d="M565 1485q227 0 362 -126.5t135 -319.5q0 -174 -96.5 -283t-269.5 -148l-22 -186h-223l-52 385q358 0 359 232q0 90 -60 140t-131 50q-131 0 -244 -152l-236 150q60 108 185.5 183t292.5 75zM560 282q65 0 105 -42t40 -110q0 -63 -40 -110t-105 -47t-105 44t-40 113 q0 70 39 111t106 41z" glyph-name="question" horiz-adv-x="1174" unicode="?"/><glyph d="M713 1188q270 0 440 -170.5t170 -435.5q0 -133 -62.5 -208t-175.5 -75q-58 0 -112.5 28t-79.5 86q-72 -119 -231 -119q-121 0 -197 84.5t-76 212.5q0 130 75 215t198 85q155 0 227 -116l31 58h80v-330q0 -27 22 -46.5t57 -19.5q46 0 71.5 41t25.5 104q0 222 -130.5 341.5 t-332.5 119.5q-210 0 -338 -119.5t-128 -341.5q0 -225 131.5 -342t334.5 -117q143 0 253 63l75 -125q-150 -89 -328 -88q-148 0 -266.5 51t-193 137t-113.5 194.5t-39 226.5q0 259 163.5 432.5t448.5 173.5zM707 433q68 0 106.5 44t38.5 114q0 75 -37.5 117.5t-107.5 42.5 q-67 0 -107 -43.5t-40 -116.5q0 -68 40 -113t107 -45z" glyph-name="at" horiz-adv-x="1425" unicode="@"/><glyph d="M1092 0l-95 270h-531l-96 -270h-317l500 1319h355l503 -1319h-319zM565 550h331l-166 465z" glyph-name="A" horiz-adv-x="1467" unicode="A"/><glyph d="M1021 713q89 -44 140 -134.5t51 -204.5q0 -164 -101 -269t-261 -105h-691v1319h636q148 0 242.5 -97t94.5 -249q0 -159 -111 -260zM749 1053h-298v-254h286q55 0 97.5 34t42.5 92q0 56 -37.5 92t-90.5 36zM806 266q56 0 99.5 42t43.5 102q0 65 -46 104t-109 39h-343v-287 h355z" glyph-name="B" horiz-adv-x="1303" unicode="B"/><glyph d="M1314 1094l-244 -174q-121 157 -295 157q-172 0 -273 -118t-101 -297q0 -181 101.5 -298.5t272.5 -117.5q177 0 295 158l246 -174q-92 -123 -234 -191t-307 -68q-294 0 -484 194.5t-190 496.5q0 300 187.5 494t486.5 194q167 0 307 -67.5t232 -188.5z" glyph-name="C" horiz-adv-x="1384" unicode="C"/><glyph d="M761 1319q283 0 459 -184t176 -480q0 -288 -176.5 -471.5t-458.5 -183.5h-602v1319h602zM761 275q150 0 236.5 105.5t86.5 274.5q0 171 -87 280t-236 109h-302v-769h302z" glyph-name="D" horiz-adv-x="1498" unicode="D"/><glyph d="M1067 1053h-618v-249l485 -4v-254h-485v-280h618v-266h-908v1319h908v-266z" glyph-name="E" horiz-adv-x="1184" unicode="E"/><glyph d="M1067 1044h-608v-293h473v-259h-473v-492h-300v1319h908v-275z" glyph-name="F" horiz-adv-x="1165" unicode="F"/><glyph d="M1260 746v-516q-87 -121 -223 -189t-298 -68q-278 0 -458 194.5t-180 498.5q0 302 176.5 494.5t461.5 192.5q331 0 524 -252l-219 -183q-51 70 -134.5 115.5t-180.5 45.5q-154 0 -241 -118t-87 -297q0 -183 91.5 -299t256.5 -116q128 0 188 77v145h-212v275h535z" glyph-name="G" horiz-adv-x="1399" unicode="G"/><glyph d="M1004 1319h300v-1319h-300v521h-545v-521h-300v1319h300v-524h545v524z" glyph-name="H" horiz-adv-x="1462" unicode="H"/><glyph d="M459 0h-300v1319h300v-1319z" glyph-name="I" horiz-adv-x="614" unicode="I"/><glyph d="M85 205l202 160q53 -68 99 -101.5t111 -33.5q84 0 147 61t63 206v822h300v-860q0 -101 -24 -183.5t-77.5 -152.5t-151 -109.5t-230.5 -39.5q-152 0 -266.5 67t-172.5 164z" glyph-name="J" horiz-adv-x="1163" unicode="J"/><glyph d="M918 0l-438 521h-21v-521h-300v1318h300v-523h15l425 523h371l-574 -659l604 -659h-382z" glyph-name="K" horiz-adv-x="1331" unicode="K"/><glyph d="M459 275h608v-275h-908v1319h300v-1044z" glyph-name="L" horiz-adv-x="1174" unicode="L"/><glyph d="M1521 0h-296l-51 872l-237 -872h-239l-230 829l-50 -829h-300l85 1319h376l240 -899l241 899h375z" glyph-name="M" horiz-adv-x="1643" unicode="M"/><glyph d="M1103 1319h290v-1319h-294l-648 843v-843h-292v1319h295l649 -850v850z" glyph-name="N" horiz-adv-x="1549" unicode="N"/><glyph d="M748 1350q287 0 465 -192t178 -498q0 -302 -176 -496.5t-467 -194.5q-285 0 -466 194.5t-181 496.5q0 304 177.5 497t469.5 193zM748 1077q-167 0 -257 -117t-90 -299.5t89.5 -298.5t257 -116t256 115t88.5 299q0 188 -91 302.5t-253 114.5z" glyph-name="O" horiz-adv-x="1493" unicode="O"/><glyph d="M577 1318q299 0 443 -125.5t144 -345.5q0 -222 -145 -347t-442 -125h-118v-375h-300v1318h418zM577 657q280 0 280 195q0 203 -280 203h-118v-398h118z" glyph-name="P" horiz-adv-x="1274" unicode="P"/><glyph d="M1391 660q0 -287 -159 -477l156 -183l-224 -196l-174 208q-113 -43 -242 -43q-285 0 -466 194t-181 497q0 300 178 494t469 194q288 0 465.5 -191.5t177.5 -496.5zM401 660q0 -183 91.5 -299.5t255 -116.5t255 117t91.5 299.5t-94 298.5t-252 116q-166 0 -256.5 -117 t-90.5 -298z" glyph-name="Q" horiz-adv-x="1495" unicode="Q"/><glyph d="M1253 0h-325l-216 423q-22 -2 -65 -1h-188v-422h-300v1319h513q305 0 433.5 -117.5t128.5 -332.5q0 -297 -254 -396zM459 674h188q138 0 209 41t71 150q0 108 -65 149.5t-190 41.5h-213v-382z" glyph-name="R" horiz-adv-x="1317" unicode="R"/><glyph d="M73 229l222 189q154 -177 340 -177q84 0 140 36.5t56 91.5q0 51 -50.5 91t-126 66.5t-163.5 65t-164 81t-126.5 119.5t-50.5 177q0 171 133 277.5t357 106.5q282 0 471 -184l-210 -186q-80 60 -137 87t-132.5 27t-120.5 -36.5t-45 -79.5q0 -38 37.5 -69t97 -54t131.5 -49 t143.5 -60t131.5 -79t97.5 -116t37.5 -161q0 -189 -147.5 -304.5t-369.5 -115.5q-318 0 -552 256z" glyph-name="S" horiz-adv-x="1230" unicode="S"/><glyph d="M1137 1319v-273h-388v-1046h-295v1046h-389v273h1072z" glyph-name="T" horiz-adv-x="1206" unicode="T"/><glyph d="M1299 1319v-677q0 -326 -134 -499.5t-440 -173.5q-309 0 -442 172.5t-133 500.5v677h301v-636q0 -138 23 -233t64.5 -141t86 -64t101 -18t100.5 19t86 65.5t64 140.5t22 231v636h301z" glyph-name="U" horiz-adv-x="1447" unicode="U"/><glyph d="M1304 1318l-440 -1318h-371l-440 1318h351l274 -1024l273 1024h353z" glyph-name="V" horiz-adv-x="1360" unicode="V"/><glyph d="M1382 1319h343l-308 -1319h-294l-229 833l-261 -833h-288l-273 1319h322l128 -814l280 814h198l248 -798z" glyph-name="W" horiz-adv-x="1798" unicode="W"/><glyph d="M55 0l390 649l-423 670h345l239 -414l227 414h345l-401 -670l414 -649h-348l-230 374l-214 -374h-344z" glyph-name="X" horiz-adv-x="1230" unicode="X"/><glyph d="M1157 1319l-404 -795h-2v-524h-316v531l-401 788h340l222 -568l220 568h341z" glyph-name="Y" horiz-adv-x="1196" unicode="Y"/><glyph d="M1234 1318v-173l-703 -882l703 17v-280h-1123v169l705 886l-705 -17v280h1123z" glyph-name="Z" horiz-adv-x="1336" unicode="Z"/><glyph d="M626 1405v-227h-216v-1188h216v-227h-467v1642h467z" glyph-name="bracketleft" horiz-adv-x="750" unicode="["/><glyph d="M1058 51l-276 -131l-748 1597l277 132z" glyph-name="backslash" horiz-adv-x="1152" unicode="\"/><glyph d="M111 1405h468v-1642h-468v227h218v1188h-218v227z" glyph-name="bracketright" horiz-adv-x="750" unicode="]"/><glyph d="M1060 736l-243 -103l-228 500l-227 -498l-244 101l322 583h299z" glyph-name="asciicircum" horiz-adv-x="1179" unicode="^"/><glyph d="M956 -68v-237h-877v237h877z" glyph-name="underscore" horiz-adv-x="1037" unicode="_"/><glyph d="M527 1065l-421 111l78 217l388 -226z" glyph-name="grave" horiz-adv-x="786" unicode="`"/><glyph d="M782 939h283v-939h-218l-47 135q-94 -162 -303 -162q-200 0 -319.5 136.5t-119.5 358.5q0 224 118.5 361t313.5 137q191 0 292 -149v122zM568 236q96 0 153 63t57 170q0 106 -56 170t-153.5 64t-154.5 -64t-57 -169.5t57 -169.5t154 -64z" glyph-name="a" horiz-adv-x="1198" unicode="a"/><glyph d="M688 966q203 0 320.5 -138.5t117.5 -356.5q0 -220 -118.5 -359t-312.5 -139q-207 0 -316 162l-51 -135h-217v1468h290v-625q103 123 287 123zM616 236q94 0 154.5 64.5t60.5 168.5t-60.5 169t-154.5 65t-154.5 -64t-60.5 -170q0 -104 60.5 -168.5t154.5 -64.5z" glyph-name="b" horiz-adv-x="1187" unicode="b"/><glyph d="M61 468q0 232 139.5 365t364.5 133q276 0 420 -200l-207 -143q-75 90 -203 90q-104 0 -163 -68t-59 -177q0 -108 58 -175.5t161 -67.5q68 0 122.5 26.5t83.5 64.5l207 -142q-140 -201 -420 -201q-224 0 -364 133t-140 362z" glyph-name="c" horiz-adv-x="1030" unicode="c"/><glyph d="M783 1468h290v-1468h-215l-52 137q-111 -164 -316 -164q-195 0 -313.5 139t-118.5 359q0 218 118 356.5t321 138.5q186 0 286 -123v625zM568 236q94 0 154.5 64.5t60.5 168.5q0 106 -60.5 170t-154.5 64t-154.5 -65t-60.5 -169t60.5 -168.5t154.5 -64.5z" glyph-name="d" horiz-adv-x="1187" unicode="d"/><glyph d="M58 471q0 97 27.5 183.5t83 157t150 112.5t215.5 42q246 0 357 -158t61 -421h-580q34 -184 198 -184q114 0 278 82l111 -210q-96 -53 -182 -77.5t-207 -24.5q-232 0 -372 136.5t-140 361.5zM372 553h331q5 73 -32.5 135.5t-129.5 62.5q-63 0 -103 -38.5t-53 -79.5 t-13 -80z" glyph-name="e" unicode="e"/><glyph d="M708 1200q-41 15 -73.5 22t-70 5t-62 -19.5t-41 -59.5t-16.5 -107v-102h234v-256h-234v-683h-290v683h-116v256h116v78q0 288 154.5 396.5t400.5 20.5z" glyph-name="f" horiz-adv-x="754" unicode="f"/><glyph d="M847 939h232v-965q0 -99 -28.5 -183.5t-85.5 -154t-158.5 -109t-236.5 -39.5q-335 0 -485 229l210 162q19 -22 26.5 -30.5t36 -34.5t52 -38.5t61.5 -24.5t77 -12q90 0 162.5 63t72.5 208v132q-101 -116 -286 -116q-201 0 -320 129.5t-119 337.5q0 207 117 340t315 133 q205 0 312 -152zM568 276q94 0 154.5 60t60.5 156q0 94 -59.5 152.5t-155.5 58.5q-94 0 -154.5 -59t-60.5 -152q0 -96 60.5 -156t154.5 -60z" glyph-name="g" horiz-adv-x="1189" unicode="g"/><glyph d="M691 964q150 0 245 -88.5t95 -291.5v-584h-307l1 527q0 79 -23 120t-84 41q-90 0 -202 -109v-579h-305v1449h305v-606q121 121 275 121zM276 650q-2 -3 -1 -7v-1q2 3 3 7z" glyph-name="h" horiz-adv-x="1121" unicode="h"/><glyph d="M263 1469q70 0 112.5 -45t42.5 -118q0 -68 -42.5 -118t-112.5 -50q-67 0 -110.5 48t-43.5 120q0 75 42 119t112 44zM411 0h-295v939h295v-939z" glyph-name="i" horiz-adv-x="551" unicode="i"/><glyph d="M258 1468q70 0 112.5 -45.5t42.5 -118.5q0 -68 -42.5 -117.5t-112.5 -49.5q-67 0 -110.5 47.5t-43.5 119.5q0 75 42 119.5t112 44.5zM416 939v-953q0 -121 -28 -215t-81.5 -157t-107.5 -102t-129 -77l-133 215l8 5q10 3 25.5 14.5t34.5 27t37.5 39t34 52t26 67.5t10.5 82 v1002h303z" glyph-name="j" horiz-adv-x="547" unicode="j"/><glyph d="M720 -2l-278 364h-31v-362h-300v1399h300v-762h40l238 302h379l-372 -442l422 -499h-398z" glyph-name="k" horiz-adv-x="1117" unicode="k"/><glyph d="M521 253l44 -229q-97 -36 -178.5 -41t-148 22t-103 104t-36.5 200v1119h295v-1085q1 -116 127 -90z" glyph-name="l" horiz-adv-x="636" unicode="l"/><glyph d="M1184 964q140 0 229 -88.5t89 -291.5v-584h-292l2 551q0 80 -20.5 121t-75.5 41q-68 0 -162 -87q2 -14 2 -42v-584h-294l4 551q0 80 -20.5 121t-75.5 41q-70 0 -159 -83v-630h-305v939h235l38 -96q118 121 259 121q189 0 268 -145q121 145 278 145zM251 649z" glyph-name="m" horiz-adv-x="1604" unicode="m"/><glyph d="M686 964q150 0 245 -89.5t95 -290.5v-584h-309l3 527q0 79 -24 120t-85 41q-90 0 -200 -109v-579h-305v939h235l48 -118q133 143 297 143zM275 650l-4 -10l5 10h-1z" glyph-name="n" horiz-adv-x="1128" unicode="n"/><glyph d="M568 966q222 0 366.5 -137.5t144.5 -360.5q0 -92 -30 -176.5t-89 -158t-160.5 -117t-231.5 -43.5q-225 0 -367.5 134.5t-142.5 360.5q0 227 142.5 362.5t367.5 135.5zM568 708q-104 0 -154 -71.5t-50 -168.5q0 -96 50 -167t154 -71q102 0 153.5 72t51.5 166 q0 97 -51.5 168.5t-153.5 71.5z" glyph-name="o" horiz-adv-x="1138" unicode="o"/><glyph d="M691 966q195 0 313.5 -139t118.5 -359q0 -218 -118 -356.5t-322 -138.5q-184 0 -285 123v-608h-290v1451h215l52 -137q111 164 316 164zM611 236q94 0 154.5 64.5t60.5 168.5t-60.5 169t-154.5 65t-153.5 -65t-59.5 -169q0 -106 60.5 -169.5t152.5 -63.5z" glyph-name="p" horiz-adv-x="1181" unicode="p"/><glyph d="M857 939h216v-1451h-290v608q-101 -123 -286 -123q-203 0 -321 138t-118 357q0 220 118.5 359t313.5 139q207 0 314 -162zM568 236q94 0 154.5 64t60.5 169q0 104 -60.5 169t-154.5 65t-154.5 -65t-60.5 -169t60.5 -168.5t154.5 -64.5z" glyph-name="q" horiz-adv-x="1177" unicode="q"/><glyph d="M577 966q102 0 203 -61l-133 -272q-72 38 -116 38q-51 0 -86 -44.5t-49 -111.5v-515h-290v939h220l44 -103q76 130 207 130z" glyph-name="r" horiz-adv-x="802" unicode="r"/><glyph d="M481 -27q-121 0 -252.5 37.5t-184.5 85.5l116 216q46 -34 153 -71.5t184 -37.5q123 0 123 67q0 34 -41 54.5t-102 29t-131.5 26.5t-131 44.5t-101.5 86t-41 146.5q0 125 105 217t297 92q114 0 201.5 -25t191.5 -77l-102 -209q-157 80 -291 81q-119 0 -119 -58 q0 -32 41 -52t101.5 -27.5t132 -26.5t132.5 -46.5t102 -90.5t41 -155q0 -133 -110.5 -220t-313.5 -87z" glyph-name="s" horiz-adv-x="964" unicode="s"/><glyph d="M459 422q0 -116 42 -167.5t98 -43t113 18.5q17 3 25 6l-18 -236q-84 -24 -161 -27.5t-149.5 20.5t-126 77t-86 149.5t-32.5 229.5v259h-133v231h133v293h295v-293h212l-24 -231h-188v-286z" glyph-name="t" horiz-adv-x="759" unicode="t"/><glyph d="M715 939h306v-939h-236l-48 119q-131 -145 -297 -145q-150 0 -244.5 90t-94.5 291v584h307l-2 -490q0 -79 24 -120t85 -41q92 0 200 106v545z" glyph-name="u" horiz-adv-x="1128" unicode="u"/><glyph d="M754 939h335l-370 -939h-311l-372 939h336l191 -673z" glyph-name="v" horiz-adv-x="1128" unicode="v"/><glyph d="M1220 939h323l-316 -939h-292l-145 633l-147 -633h-295l-316 939h304l145 -548l178 549h261l171 -530z" glyph-name="w" horiz-adv-x="1580" unicode="w"/><glyph d="M-14 939h354l153 -279l156 279h329l-302 -473l302 -466h-355l-138 254l-132 -254h-344l293 452z" glyph-name="x" horiz-adv-x="979" unicode="x"/><glyph d="M614 939h296l-337 -1055q-20 -68 -39.5 -117t-50.5 -100t-72 -81t-95.5 -51t-131 -19.5t-170.5 23.5l22 282q36 -14 65 -21.5t51 -7t39 3.5t32.5 18t24 24.5t18.5 34.5t15.5 38.5t15.5 45t15 46.5l-310 936h302l157 -581z" glyph-name="y" horiz-adv-x="923" unicode="y"/><glyph d="M872 939v-279l-461 -406l461 24v-278h-824v278l450 406l-450 -24v279h824z" glyph-name="z" horiz-adv-x="918" unicode="z"/><glyph d="M546 -254q-166 0 -254.5 85t-88.5 237v292q0 55 -22 78t-80 23h-40v210h40q58 0 80 24.5t22 77.5v292q0 152 89 238t254 86v-235q-67 0 -84.5 -28.5t-17.5 -116.5v-229q0 -92 -29 -139t-121 -74q92 -29 121 -74.5t29 -139.5v-227q0 -90 18 -118t84 -28v-234z" glyph-name="braceleft" horiz-adv-x="706" unicode="{"/><glyph d="M485 -375h-306v1694h306v-1694z" glyph-name="bar" horiz-adv-x="665" unicode="|"/><glyph d="M104 1389q166 0 254.5 -86t88.5 -238v-292q0 -53 22.5 -77.5t80.5 -24.5h39v-210h-39q-58 0 -80.5 -23t-22.5 -78v-292q0 -152 -88.5 -237t-254.5 -85v234q67 0 86.5 29t19.5 117v227q0 94 28 139.5t122 74.5q-92 27 -121 73t-29 140v229q0 89 -19.5 117t-86.5 28v235z " glyph-name="braceright" horiz-adv-x="698" unicode="}"/><glyph d="M352 551h-186q0 131 80 208t182 77q73 0 152.5 -53.5t126.5 -53.5q68 0 68 100h182q0 -147 -72.5 -217.5t-176.5 -70.5q-60 0 -109 30t-89.5 59t-76.5 29q-48 0 -64.5 -27.5t-16.5 -80.5z" glyph-name="asciitilde" horiz-adv-x="1121" unicode="~"/><glyph d="M302 807q-56 0 -91 37t-35 96q0 55 35 96t91 41t91 -39.5t35 -97.5q0 -61 -34 -97t-92 -36zM224 689h151l70 -803l24 -309h-338l23 309z" glyph-name="exclamdown" horiz-adv-x="602" unicode="¡"/><glyph d="M561 336q96 0 187 91l196 -128q-119 -169 -340 -185l5 -114h-148l5 119q-171 26 -268 146.5t-97 313.5q0 200 98 320t272 144v118h138l-5 -113q225 -20 340 -183l-196 -128q-79 89 -187 89q-94 0 -141.5 -72.5t-47.5 -174.5q0 -99 47.5 -171t141.5 -72z" glyph-name="cent" horiz-adv-x="1013" unicode="¢"/><glyph d="M527 486v-223h427v-263h-836v176l118 54v256h-118v200h118v72q0 196 122 313t309 117q201 0 328 -130l-154 -177q-68 65 -157 64q-77 0 -117 -58t-40 -129v-72h260v-200h-260z" glyph-name="sterling" horiz-adv-x="1042" unicode="£"/><glyph d="M905 599q0 -116 -47 -198l134 -107l-140 -140l-110 131q-80 -46 -189 -46q-114 0 -198 49l-111 -136l-140 140l135 114q-48 85 -48 195q0 113 46 191l-133 114l140 140l109 -136q85 48 195 47q111 0 191 -46l113 133l140 -139l-135 -110q48 -82 48 -196zM548 435 q131 0 131 161q0 166 -131 165q-130 0 -130 -162q0 -164 130 -164z" glyph-name="currency" horiz-adv-x="1087" unicode="¤"/><glyph d="M1169 1161l-358 -579h148v-159h-718v159h153l-360 579h333l232 -482l237 482h333zM241 179v161h718v-161h-211v-179h-296v179h-211z" glyph-name="yen" horiz-adv-x="1206" unicode="¥"/><glyph d="M485 618h-306v701h306v-701zM485 -375h-306v739h306v-739z" glyph-name="brokenbar" horiz-adv-x="665" unicode="¦"/><glyph d="M778 288q140 -92 140 -262q0 -167 -118.5 -252t-296.5 -85q-266 0 -430 174l142 178q53 -63 128 -100t155 -37q148 0 149 115q0 65 -55.5 106t-135 66.5t-159 57t-134.5 98t-55 167.5q0 164 146 240q-147 92 -146 255q0 152 115 248t296 96q225 0 368 -146l-119 -168 q-43 41 -109.5 71t-134.5 30q-65 0 -104 -30t-39 -83q0 -60 55.5 -101.5t134 -69.5t157.5 -64t134.5 -105t55.5 -170q0 -161 -140 -229zM381 550q0 -56 45 -90.5t132 -68.5q41 -3 65 23t24 67q0 55 -42 91.5t-120 70.5q-49 5 -76.5 -21t-27.5 -72z" glyph-name="section" horiz-adv-x="1006" unicode="§"/><glyph d="M295 1319q49 0 82 -33t33 -88q0 -48 -32 -84.5t-83 -36.5t-82.5 34t-31.5 87q0 56 30.5 88.5t83.5 32.5zM631 1319q51 0 83 -33t32 -88q0 -49 -31.5 -85t-83 -36t-82 34t-30.5 87q0 56 29.5 88.5t82.5 32.5z" glyph-name="dieresis" horiz-adv-x="926" unicode="¨"/><glyph d="M703 1251q249 0 418 -164t169 -423q0 -263 -169 -426t-418 -163t-419 164t-170 425q0 259 170 423t419 164zM703 1103q-186 0 -313 -121.5t-127 -317.5q0 -198 127 -319t313 -121t312.5 121t126.5 319t-125.5 318.5t-313.5 120.5zM430 662q0 138 79.5 220t210.5 82 q79 0 143 -33t101 -90l-123 -76q-36 56 -117 56q-63 0 -99 -43.5t-36 -115.5q0 -68 35.5 -111.5t99.5 -43.5q77 0 119 60l121 -81q-80 -119 -244 -119q-131 0 -210.5 80t-79.5 215z" glyph-name="copyright" horiz-adv-x="1435" unicode="©"/><glyph d="M367 1353q147 0 243.5 -67t96.5 -202v-406h-176l-33 81q-67 -102 -203 -102q-104 0 -164.5 57t-60.5 141q0 108 72.5 168.5t195.5 60.5q85 0 150 -17v12q0 49 -38.5 74t-99.5 25q-92 0 -178 -40l-64 169q83 46 259 46zM374 821q36 0 68 30.5t43 88.5q-44 12 -89 12 q-43 0 -71 -18t-28 -48.5t21.5 -47.5t55.5 -17z" glyph-name="ordfeminine" horiz-adv-x="822" unicode="ª"/><glyph d="M688 701l-237 -227l237 -230l-198 -191l-352 420l352 420zM1162 701l-239 -227l239 -230l-198 -191l-351 420l351 420z" glyph-name="guillemotleft" horiz-adv-x="1329" unicode="«"/><glyph d="M1062 792v-500h-231v293h-665v207h896z" glyph-name="logicalnot" horiz-adv-x="1227" unicode="¬"/><glyph d="M454 1353q155 0 252.5 -100.5t97.5 -262.5q0 -157 -96.5 -260.5t-253.5 -101.5q-159 0 -255.5 100.5t-96.5 261t97.5 262t254.5 101.5zM454 688q128 0 205 84.5t77 217.5t-77 216.5t-205 83.5q-130 0 -206.5 -83.5t-76.5 -216.5t76.5 -217.5t206.5 -84.5zM613 1050 q0 -96 -86 -123l89 -139h-101l-70 127h-10h-39v-127h-89v396h128q178 1 178 -134zM396 1104v-114h39q46 0 66.5 12.5t20.5 45.5q0 34 -20.5 45t-66.5 11h-39z" glyph-name="registered" horiz-adv-x="907" unicode="®"/><glyph d="M143 1097v173h598v-173h-598z" glyph-name="macron" horiz-adv-x="884" unicode="¯"/><glyph d="M282 1355q89 0 146 -55.5t57 -144.5q0 -82 -57.5 -143t-145.5 -61q-90 0 -146.5 58t-56.5 146q0 92 54.5 146t148.5 54zM282 1220q-31 0 -49 -18.5t-18 -46.5q0 -29 18 -48.5t49 -19.5q29 0 47.5 20.5t18.5 48t-19.5 46t-46.5 18.5z" glyph-name="degree" horiz-adv-x="559" unicode="°"/><glyph d="M643 804h250v-236h-250v-172h-259v172h-244v236h244v157h259v-157zM140 90v238h753v-238h-753z" glyph-name="plusminus" horiz-adv-x="1073" unicode="±"/><glyph d="M353 980l162 8v-167h-419v143l172 145q19 17 25.5 23t18 20.5t15.5 28.5t4 31q0 55 -56 54q-17 0 -32.5 -9t-37.5 -33t-26 -28l-114 115q97 106 225 106q92 0 154.5 -47t62.5 -138q0 -123 -118 -223z" glyph-name="uni00B2" horiz-adv-x="612" unicode="²"/><glyph d="M381 1143q61 -17 94.5 -58t33.5 -92q0 -73 -53 -128.5t-188 -55.5q-101 0 -188 60l115 107q32 -14 73 -13q26 0 40.5 10t15.5 20l2 9q0 41 -58 41q-3 0 -17 2.5t-29 2.5l-43 126l79 62l-135 -9v174h375v-148z" glyph-name="uni00B3" horiz-adv-x="607" unicode="³"/><glyph d="M261 1065l-43 102l386 226l79 -217z" glyph-name="acute" horiz-adv-x="786" unicode="´"/><glyph d="M715 939h306v-939h-236l-48 119q-131 -145 -297 -145q-63 0 -109 14v-500h-230v1451h307l-2 -490q0 -79 24 -120t85 -41q92 0 200 106v545z" glyph-name="uni00B5" horiz-adv-x="1128" unicode="µ"/><glyph d="M1251 1318v-1625h-230v1357h-183v-1357h-230v734q-275 10 -404 121.5t-129 323.5q0 198 130.5 315t402.5 129v2h643z" glyph-name="paragraph" horiz-adv-x="1414" unicode="¶"/><glyph d="M256 785q56 0 91 -36.5t35 -96.5q0 -55 -35 -96t-91 -41t-91 39.5t-35 97.5q0 61 34 97t92 36z" glyph-name="periodcentered" horiz-adv-x="510" unicode="·"/><glyph d="M387 19l93 -7l-11 -99q80 -3 149.5 -50t60.5 -145q-9 -79 -48.5 -120.5t-103 -45t-120.5 7t-122 34.5l32 130q29 -19 78.5 -33.5t95 -9.5t47.5 43q2 31 -19.5 50t-54 26t-56.5 9.5t-44 1.5z" glyph-name="cedilla" horiz-adv-x="861" unicode="¸"/><glyph d="M304 1401h109v-580h-183v404l-95 -32l-50 150z" glyph-name="uni00B9" horiz-adv-x="552" unicode="¹"/><glyph d="M422 1353q157 0 259 -95.5t102 -252.5q0 -61 -20.5 -120t-61.5 -111t-113.5 -83.5t-165.5 -31.5q-160 0 -261 94t-101 252.5t101 253t261 94.5zM422 1152q-65 0 -92.5 -44.5t-27.5 -102.5q0 -56 27.5 -100.5t92.5 -44.5q63 0 92 45.5t29 99.5q0 56 -29 101.5t-92 45.5z " glyph-name="ordmasculine" horiz-adv-x="844" unicode="º"/><glyph d="M375 893l350 -420l-350 -420l-198 191l238 230l-238 227zM841 893l352 -420l-352 -420l-198 191l239 230l-239 227z" glyph-name="guillemotright" horiz-adv-x="1329" unicode="»"/><glyph d="M1145 1401l164 -90l-838 -1342l-166 86zM413 736h-183v404l-95 -32l-50 150l219 58h109v-580zM1538 254v-155h-79v-99h-162v99h-234l-59 155l293 326h162v-331zM1159 229l138 10v145z" glyph-name="onequarter" horiz-adv-x="1619" unicode="¼"/><glyph d="M1145 1401l164 -90l-838 -1342l-166 86zM413 736h-183v404l-95 -32l-50 150l219 58h109v-580zM1338 159l162 8v-167h-420v143l173 145q19 17 25.5 23t17.5 20.5t15.5 28.5t4.5 31q0 55 -56 54q-17 0 -32.5 -9t-38 -33t-25.5 -28l-114 115q97 106 225 106q92 0 154.5 -47 t62.5 -138q0 -123 -118 -223z" glyph-name="onehalf" horiz-adv-x="1597" unicode="½"/><glyph d="M1229 1401l164 -90l-838 -1342l-166 86zM509 908q0 -73 -53 -128.5t-188 -55.5q-101 0 -188 59l115 108q32 -14 73 -14q26 0 40.5 10.5t15.5 20.5l2 8q0 41 -58 41q-3 0 -17 3t-29 3l-43 126l79 61l-135 -8v174h375v-149l-117 -109q61 -17 94.5 -58t33.5 -92zM1621 254 v-155h-78v-99h-162v99h-234l-60 155l294 326h162v-331zM1242 229l139 10v145z" glyph-name="threequarters" horiz-adv-x="1703" unicode="¾"/><glyph d="M616 754q-68 0 -110.5 43.5t-42.5 112.5q0 70 42.5 118.5t109 48.5t109 -48t42.5 -119q0 -70 -41.5 -113t-108.5 -43zM850 -31l237 -150q-60 -108 -185 -183t-293 -75q-227 0 -362.5 126.5t-135.5 319.5q0 176 99 286t275 147l30 195h192l66 -396q-357 0 -357 -232 q0 -90 60 -140t132 -50q129 0 242 152z" glyph-name="questiondown" horiz-adv-x="1174" unicode="¿"/><glyph d="M864 1548l-45 -102l-421 110l78 217zM1092 0l-95 270h-531l-96 -270h-317l500 1319h355l503 -1319h-319zM565 550h331l-166 465z" glyph-name="Agrave" horiz-adv-x="1467" unicode="À"/><glyph d="M1058 1556l-421 -110l-43 102l386 225zM1092 0l-95 270h-531l-96 -270h-317l500 1319h355l503 -1319h-319zM565 550h331l-166 465z" glyph-name="Aacute" horiz-adv-x="1467" unicode="Á"/><glyph d="M736 1550l-217 -111l-79 102l255 225h83l255 -225l-77 -102zM1092 0l-95 270h-531l-96 -270h-317l500 1319h355l503 -1319h-319zM565 550h331l-166 465z" glyph-name="Acircumflex" horiz-adv-x="1467" unicode="Â"/><glyph d="M606 1538q-72 0 -72 -101h-170q0 121 72.5 195.5t164.5 74.5q63 0 131 -51.5t106 -51.5q56 0 56 96h169q0 -138 -64 -205t-158 -67q-53 0 -96.5 27.5t-76.5 55t-62 27.5zM1092 0l-95 270h-531l-96 -270h-317l500 1319h355l503 -1319h-319zM565 550h331l-166 465z" glyph-name="Atilde" horiz-adv-x="1467" unicode="Ã"/><glyph d="M573.5 1457q-51.5 0 -83 34.5t-31.5 87.5q0 56 31 88.5t83 32.5q49 0 82 -33.5t33 -87.5q0 -48 -31.5 -85t-83 -37zM909.5 1457q-51.5 0 -82 34.5t-30.5 87.5q0 56 30 88.5t83 32.5q51 0 82.5 -33.5t31.5 -87.5q0 -49 -31.5 -85.5t-83 -36.5zM1092 0l-95 270h-531 l-96 -270h-317l500 1319h355l503 -1319h-319zM565 550h331l-166 465z" glyph-name="Adieresis" horiz-adv-x="1467" unicode="Ä"/><glyph d="M736 1411q-87 0 -142 61t-55 151q0 97 53 152.5t144 55.5q87 0 140.5 -57t53.5 -151q0 -87 -53.5 -149.5t-140.5 -62.5zM736 1705q-34 0 -55 -23t-21 -59q0 -34 21.5 -58t54.5 -24q34 0 53.5 24t19.5 58t-20.5 58t-52.5 24zM1092 0l-95 270h-531l-96 -270h-317l500 1319 h355l503 -1319h-319zM565 550h331l-166 465z" glyph-name="Aring" horiz-adv-x="1467" unicode="Å"/><glyph d="M1777 1039h-553v-235h346v-282h-346v-242h553v-280h-833v270h-394l-166 -270h-331l882 1319h842v-280zM691 500h253v413z" glyph-name="AE" horiz-adv-x="1896" unicode="Æ"/><glyph d="M1316 230q-87 -114 -217 -182t-282 -75l-6 -60q80 -3 149 -50t61 -145q-9 -79 -49 -120.5t-103 -45t-120.5 7t-122.5 34.5l33 130q29 -19 78.5 -33.5t94.5 -9.5t47 43q2 31 -19.5 50t-54 26t-56.5 9.5t-44 1.5l19 162q-273 19 -448 210t-175 479q0 300 187.5 494 t486.5 194q167 0 307 -67.5t232 -188.5l-244 -174q-121 157 -295 157q-172 0 -273 -118t-101 -297q0 -181 101.5 -298.5t272.5 -117.5q177 0 295 158z" glyph-name="Ccedilla" horiz-adv-x="1384" unicode="Ç"/><glyph d="M727 1548l-44 -102l-422 110l79 217zM1067 1053h-618v-249l485 -4v-254h-485v-280h618v-266h-908v1319h908v-266z" glyph-name="Egrave" horiz-adv-x="1184" unicode="È"/><glyph d="M922 1556l-422 -110l-43 102l386 225zM1067 1053h-618v-249l485 -4v-254h-485v-280h618v-266h-908v1319h908v-266z" glyph-name="Eacute" horiz-adv-x="1184" unicode="É"/><glyph d="M599 1550l-217 -111l-78 102l254 225h84l254 -225l-77 -102zM1067 1053h-618v-249l485 -4v-254h-485v-280h618v-266h-908v1319h908v-266z" glyph-name="Ecircumflex" horiz-adv-x="1184" unicode="Ê"/><glyph d="M437 1457q-51 0 -82.5 34.5t-31.5 87.5q0 56 30.5 88.5t83.5 32.5q49 0 81.5 -33.5t32.5 -87.5q0 -48 -31.5 -85t-82.5 -37zM773 1457q-51 0 -82 34.5t-31 87.5q0 56 30 88.5t83 32.5q51 0 82.5 -33.5t31.5 -87.5q0 -49 -31.5 -85.5t-82.5 -36.5zM1067 1053h-618v-249 l485 -4v-254h-485v-280h618v-266h-908v1319h908v-266z" glyph-name="Edieresis" horiz-adv-x="1184" unicode="Ë"/><glyph d="M394 1446l-421 110l78 217l388 -225zM459 0h-300v1319h300v-1319z" glyph-name="Igrave" horiz-adv-x="614" unicode="Ì"/><glyph d="M212 1446l-43 102l386 225l78 -217zM459 0h-300v1319h300v-1319z" glyph-name="Iacute" horiz-adv-x="614" unicode="Í"/><glyph d="M270 1766h83l255 -225l-77 -102l-220 111l-217 -111l-79 102zM459 0h-300v1319h300v-1319z" glyph-name="Icircumflex" horiz-adv-x="614" unicode="Î"/><glyph d="M148 1700q49 0 82 -33.5t33 -87.5q0 -48 -31.5 -85t-83 -37t-83 34.5t-31.5 87.5q0 56 30.5 88.5t83.5 32.5zM485 1700q51 0 82.5 -33.5t31.5 -87.5q0 -49 -31.5 -85.5t-83 -36.5t-82 34.5t-30.5 87.5q0 56 30 88.5t83 32.5zM459 0h-300v1319h300v-1319z" glyph-name="Idieresis" horiz-adv-x="614" unicode="Ï"/><glyph d="M669 1319q283 0 460 -184t177 -480q0 -288 -177.5 -471.5t-459.5 -183.5h-488v509h-108v281h108v529h488zM669 280q150 0 234.5 104t84.5 271q0 169 -86 276.5t-233 107.5h-183v-249h277v-281h-277v-229h183z" glyph-name="Eth" horiz-adv-x="1408" unicode="Ð"/><glyph d="M626 1538q-72 0 -71 -101h-171q0 121 72.5 195.5t164.5 74.5q63 0 131.5 -51.5t105.5 -51.5q56 0 57 96h169q0 -138 -64 -205t-158 -67q-53 0 -96.5 27.5t-77 55t-62.5 27.5zM1103 1319h290v-1319h-294l-648 843v-843h-292v1319h295l649 -850v850z" glyph-name="Ntilde" horiz-adv-x="1549" unicode="Ñ"/><glyph d="M831 1446l-421 110l78 217l388 -225zM748 1350q287 0 465 -192t178 -498q0 -302 -176 -496.5t-467 -194.5q-285 0 -466 194.5t-181 496.5q0 304 177.5 497t469.5 193zM748 1077q-167 0 -257 -117t-90 -299.5t89.5 -298.5t257 -116t256 115t88.5 299q0 188 -91 302.5 t-253 114.5z" glyph-name="Ograve" horiz-adv-x="1493" unicode="Ò"/><glyph d="M649 1446l-43 102l386 225l78 -217zM748 1350q287 0 465 -192t178 -498q0 -302 -176 -496.5t-467 -194.5q-285 0 -466 194.5t-181 496.5q0 304 177.5 497t469.5 193zM748 1077q-167 0 -257 -117t-90 -299.5t89.5 -298.5t257 -116t256 115t88.5 299q0 188 -91 302.5 t-253 114.5z" glyph-name="Oacute" horiz-adv-x="1493" unicode="Ó"/><glyph d="M707 1766h83l254 -225l-76 -102l-220 111l-217 -111l-79 102zM748 1350q287 0 465 -192t178 -498q0 -302 -176 -496.5t-467 -194.5q-285 0 -466 194.5t-181 496.5q0 304 177.5 497t469.5 193zM748 1077q-167 0 -257 -117t-90 -299.5t89.5 -298.5t257 -116t256 115 t88.5 299q0 188 -91 302.5t-253 114.5z" glyph-name="Ocircumflex" horiz-adv-x="1493" unicode="Ô"/><glyph d="M546 1437h-171q0 121 73 195.5t165 74.5q63 0 131 -51.5t106 -51.5q56 0 56 96h169q0 -138 -64 -205t-158 -67q-53 0 -96.5 27.5t-76.5 55t-62 27.5q-72 0 -72 -101zM748 1350q287 0 465 -192t178 -498q0 -302 -176 -496.5t-467 -194.5q-285 0 -466 194.5t-181 496.5 q0 304 177.5 497t469.5 193zM748 1077q-167 0 -257 -117t-90 -299.5t89.5 -298.5t257 -116t256 115t88.5 299q0 188 -91 302.5t-253 114.5z" glyph-name="Otilde" horiz-adv-x="1493" unicode="Õ"/><glyph d="M585 1700q49 0 82 -33.5t33 -87.5q0 -48 -31.5 -85t-83 -37t-83 34.5t-31.5 87.5q0 56 30.5 88.5t83.5 32.5zM922 1700q51 0 82.5 -33.5t31.5 -87.5q0 -49 -31.5 -85.5t-83 -36.5t-82 34.5t-30.5 87.5q0 56 30 88.5t83 32.5zM748 1350q287 0 465 -192t178 -498 q0 -302 -176 -496.5t-467 -194.5q-285 0 -466 194.5t-181 496.5q0 304 177.5 497t469.5 193zM748 1077q-167 0 -257 -117t-90 -299.5t89.5 -298.5t257 -116t256 115t88.5 299q0 188 -91 302.5t-253 114.5z" glyph-name="Odieresis" horiz-adv-x="1493" unicode="Ö"/><glyph d="M910 512l-205 -201l-195 196l-175 -176l-185 188l174 174l-184 183l201 204l186 -184l176 176l188 -185l-178 -177z" glyph-name="multiply" horiz-adv-x="1053" unicode="×"/><glyph d="M1493 1184l-145 -146q90 -166 91 -378q0 -302 -176 -496.5t-468 -194.5q-222 0 -389 125l-131 -132l-174 175l143 145q-94 166 -94 378q0 304 176.5 497t468.5 193q229 0 391 -125l133 134zM454 660q0 -77 19 -151l507 510q-77 53 -185 53q-166 0 -253.5 -115.5 t-87.5 -296.5zM1135 660q0 84 -17 147l-505 -507q80 -49 182 -49q166 0 253 113t87 296z" glyph-name="Oslash" horiz-adv-x="1595" unicode="Ø"/><glyph d="M800 1446l-421 110l78 217l388 -225zM1299 1319v-677q0 -326 -134 -499.5t-440 -173.5q-309 0 -442 172.5t-133 500.5v677h301v-636q0 -138 23 -233t64.5 -141t86 -64t101 -18t100.5 19t86 65.5t64 140.5t22 231v636h301z" glyph-name="Ugrave" horiz-adv-x="1447" unicode="Ù"/><glyph d="M618 1446l-43 102l386 225l78 -217zM1299 1319v-677q0 -326 -134 -499.5t-440 -173.5q-309 0 -442 172.5t-133 500.5v677h301v-636q0 -138 23 -233t64.5 -141t86 -64t101 -18t100.5 19t86 65.5t64 140.5t22 231v636h301z" glyph-name="Uacute" horiz-adv-x="1447" unicode="Ú"/><glyph d="M676 1766h83l255 -225l-77 -102l-220 111l-217 -111l-78 102zM1299 1319v-677q0 -326 -134 -499.5t-440 -173.5q-309 0 -442 172.5t-133 500.5v677h301v-636q0 -138 23 -233t64.5 -141t86 -64t101 -18t100.5 19t86 65.5t64 140.5t22 231v636h301z" glyph-name="Ucircumflex" horiz-adv-x="1447" unicode="Û"/><glyph d="M555 1700q49 0 81.5 -33.5t32.5 -87.5q0 -48 -31.5 -85t-83 -37t-83 34.5t-31.5 87.5q0 56 31 88.5t84 32.5zM891 1700q51 0 82.5 -33.5t31.5 -87.5q0 -49 -31.5 -85.5t-82.5 -36.5t-82 34.5t-31 87.5q0 56 30 88.5t83 32.5zM1299 1319v-677q0 -326 -134 -499.5 t-440 -173.5q-309 0 -442 172.5t-133 500.5v677h301v-636q0 -138 23 -233t64.5 -141t86 -64t101 -18t100.5 19t86 65.5t64 140.5t22 231v636h301z" glyph-name="Udieresis" horiz-adv-x="1447" unicode="Ü"/><glyph d="M918 1545l-421 -111l-43 102l386 225zM1157 1319l-404 -795h-2v-524h-316v531l-401 788h340l222 -568l220 568h341z" glyph-name="Yacute" horiz-adv-x="1196" unicode="Ý"/><glyph d="M527 1145q300 0 445.5 -119.5t145.5 -327.5q0 -222 -143.5 -333.5t-447.5 -111.5h-64v-253h-304v1318h304v-173h64zM527 510q143 0 211 35t68 148q0 48 -14.5 82t-38 53.5t-61.5 30t-75 14t-90 3.5h-64v-366h64z" glyph-name="Thorn" horiz-adv-x="1228" unicode="Þ"/><glyph d="M159 -183q43 177 42 454v451q0 278 113.5 437.5t361.5 159.5q181 0 299.5 -93.5t118.5 -235.5q0 -63 -29 -117t-58 -78.5t-83.5 -61.5t-68.5 -49q-34 -26 -48.5 -43.5t-14.5 -41.5q0 -29 34 -50.5t86 -32.5t112 -30.5t112 -44.5t86 -76t34 -121q0 -131 -97 -199.5 t-272 -68.5q-111 0 -209.5 31.5t-146.5 74.5l99 181q39 -32 116 -62t148 -30q123 0 123 73q0 39 -47.5 62t-115 38.5t-135 37.5t-115.5 73.5t-48 129.5q0 114 133 217q20 15 56.5 41.5t50 38t32.5 30t24.5 35t5.5 38.5q0 53 -51 84.5t-116 31.5q-241 0 -240 -377v-453 q0 -300 -45 -508z" glyph-name="germandbls" horiz-adv-x="1348" unicode="ß"/><glyph d="M633 1167l-44 -102l-422 111l79 217zM782 939h283v-939h-218l-47 135q-94 -162 -303 -162q-200 0 -319.5 136.5t-119.5 358.5q0 224 118.5 361t313.5 137q191 0 292 -149v122zM568 236q96 0 153 63t57 170q0 106 -56 170t-153.5 64t-154.5 -64t-57 -169.5t57 -169.5 t154 -64z" glyph-name="agrave" horiz-adv-x="1198" unicode="à"/><glyph d="M828 1176l-422 -111l-42 102l385 226zM782 939h283v-939h-218l-47 135q-94 -162 -303 -162q-200 0 -319.5 136.5t-119.5 358.5q0 224 118.5 361t313.5 137q191 0 292 -149v122zM568 236q96 0 153 63t57 170q0 106 -56 170t-153.5 64t-154.5 -64t-57 -169.5t57 -169.5 t154 -64z" glyph-name="aacute" horiz-adv-x="1198" unicode="á"/><glyph d="M505 1169l-217 -111l-78 103l254 225h84l254 -225l-77 -103zM782 939h283v-939h-218l-47 135q-94 -162 -303 -162q-200 0 -319.5 136.5t-119.5 358.5q0 224 118.5 361t313.5 137q191 0 292 -149v122zM568 236q96 0 153 63t57 170q0 106 -56 170t-153.5 64t-154.5 -64 t-57 -169.5t57 -169.5t154 -64z" glyph-name="acircumflex" horiz-adv-x="1198" unicode="â"/><glyph d="M375 1157q-72 0 -71 -101h-171q0 121 72.5 195.5t164.5 74.5q63 0 131.5 -51t106.5 -51q56 0 56 95h169q0 -138 -64 -204.5t-158 -66.5q-53 0 -96.5 27.5t-77 54.5t-62.5 27zM782 939h283v-939h-218l-47 135q-94 -162 -303 -162q-200 0 -319.5 136.5t-119.5 358.5 q0 224 118.5 361t313.5 137q191 0 292 -149v122zM568 236q96 0 153 63t57 170q0 106 -56 170t-153.5 64t-154.5 -64t-57 -169.5t57 -169.5t154 -64z" glyph-name="atilde" horiz-adv-x="1198" unicode="ã"/><glyph d="M343 1077q-51 0 -82.5 34t-31.5 87q0 56 30.5 88.5t83.5 32.5q49 0 81.5 -33t32.5 -88q0 -48 -31.5 -84.5t-82.5 -36.5zM679 1077q-51 0 -81.5 34t-30.5 87q0 56 29.5 88.5t82.5 32.5q51 0 83 -33t32 -88q0 -49 -32 -85t-83 -36zM782 939h283v-939h-218l-47 135 q-94 -162 -303 -162q-200 0 -319.5 136.5t-119.5 358.5q0 224 118.5 361t313.5 137q191 0 292 -149v122zM568 236q96 0 153 63t57 170q0 106 -56 170t-153.5 64t-154.5 -64t-57 -169.5t57 -169.5t154 -64z" glyph-name="adieresis" horiz-adv-x="1198" unicode="ä"/><glyph d="M505 1031q-87 0 -141.5 60.5t-54.5 150.5q0 97 53 153t143 56q87 0 141 -57.5t54 -151.5q0 -87 -54 -149t-141 -62zM505 1324q-34 0 -54.5 -23t-20.5 -59q0 -34 21.5 -57.5t53.5 -23.5q34 0 54 23.5t20 58t-21 58t-53 23.5zM782 939h283v-939h-218l-47 135 q-94 -162 -303 -162q-200 0 -319.5 136.5t-119.5 358.5q0 224 118.5 361t313.5 137q191 0 292 -149v122zM568 236q96 0 153 63t57 170q0 106 -56 170t-153.5 64t-154.5 -64t-57 -169.5t57 -169.5t154 -64z" glyph-name="aring" horiz-adv-x="1198" unicode="å"/><glyph d="M1166 203q113 0 276 82l126 -210q-186 -102 -402 -102q-278 0 -396 201q-49 -94 -142.5 -149.5t-221.5 -55.5q-155 0 -251.5 85.5t-96.5 230.5q0 148 101.5 227t270.5 79q116 0 222 -35q-22 148 -224 149q-135 0 -274 -68l-94 247q198 82 370 82q217 0 345 -174 q106 174 353 174q259 0 365 -154.5t67 -424.5h-594q34 -184 200 -184zM1128 736q-41 0 -71 -14t-47.5 -40.5t-26 -49.5t-17.5 -59h328q12 63 -31 113t-135 50zM480 218q51 0 101 32.5t68 95.5q-77 22 -152 23q-121 0 -122 -77q1 -74 105 -74z" glyph-name="ae" horiz-adv-x="1665" unicode="æ"/><glyph d="M572 225q68 0 122.5 26.5t83.5 64.5l207 -142q-130 -186 -377 -200l-7 -61q80 -3 149 -50t61 -145q-9 -79 -49 -120.5t-103 -45t-120.5 7t-122.5 34.5l33 130q29 -19 78.5 -33.5t94.5 -9.5t47 43q2 31 -19.5 50t-54 26t-56.5 9.5t-44 1.5l19 163q-203 15 -328 147 t-125 347q0 232 139.5 365t364.5 133q276 0 420 -200l-207 -143q-75 90 -203 90q-104 0 -163 -68t-59 -177q0 -108 58.5 -175.5t160.5 -67.5z" glyph-name="ccedilla" horiz-adv-x="1030" unicode="ç"/><glyph d="M601 1065l-422 111l79 217l387 -226zM58 471q0 97 27.5 183.5t83 157t150 112.5t215.5 42q246 0 357 -158t61 -421h-580q34 -184 198 -184q114 0 278 82l111 -210q-96 -53 -182 -77.5t-207 -24.5q-232 0 -372 136.5t-140 361.5zM372 553h331q5 73 -32.5 135.5 t-129.5 62.5q-63 0 -103 -38.5t-53 -79.5t-13 -80z" glyph-name="egrave" unicode="è"/><glyph d="M418 1065l-43 102l386 226l79 -217zM58 471q0 97 27.5 183.5t83 157t150 112.5t215.5 42q246 0 357 -158t61 -421h-580q34 -184 198 -184q114 0 278 82l111 -210q-96 -53 -182 -77.5t-207 -24.5q-232 0 -372 136.5t-140 361.5zM372 553h331q5 73 -32.5 135.5t-129.5 62.5 q-63 0 -103 -38.5t-53 -79.5t-13 -80z" glyph-name="eacute" unicode="é"/><glyph d="M476 1386h84l254 -225l-77 -103l-220 111l-217 -111l-78 103zM58 471q0 97 27.5 183.5t83 157t150 112.5t215.5 42q246 0 357 -158t61 -421h-580q34 -184 198 -184q114 0 278 82l111 -210q-96 -53 -182 -77.5t-207 -24.5q-232 0 -372 136.5t-140 361.5zM372 553h331 q5 73 -32.5 135.5t-129.5 62.5q-63 0 -103 -38.5t-53 -79.5t-13 -80z" glyph-name="ecircumflex" unicode="ê"/><glyph d="M355 1319q49 0 81.5 -33t32.5 -88q0 -48 -31.5 -84.5t-82.5 -36.5t-82.5 34t-31.5 87q0 56 30.5 88.5t83.5 32.5zM691 1319q51 0 83 -33t32 -88q0 -49 -32 -85t-83 -36t-81.5 34t-30.5 87q0 56 29.5 88.5t82.5 32.5zM58 471q0 97 27.5 183.5t83 157t150 112.5t215.5 42 q246 0 357 -158t61 -421h-580q34 -184 198 -184q114 0 278 82l111 -210q-96 -53 -182 -77.5t-207 -24.5q-232 0 -372 136.5t-140 361.5zM372 553h331q5 73 -32.5 135.5t-129.5 62.5q-63 0 -103 -38.5t-53 -79.5t-13 -80z" glyph-name="edieresis" unicode="ë"/><glyph d="M365 1065l-421 111l78 217l388 -226zM432 0h-295v939h295v-939z" glyph-name="igrave" horiz-adv-x="566" unicode="ì"/><glyph d="M183 1065l-43 102l386 226l78 -217zM432 0h-295v939h295v-939z" glyph-name="iacute" horiz-adv-x="566" unicode="í"/><glyph d="M241 1386h83l255 -225l-77 -103l-220 111l-217 -111l-79 103zM432 0h-295v939h295v-939z" glyph-name="icircumflex" horiz-adv-x="566" unicode="î"/><glyph d="M119 1319q49 0 82 -33t33 -88q0 -48 -31.5 -84.5t-83 -36.5t-83 34t-31.5 87q0 56 30.5 88.5t83.5 32.5zM456 1319q51 0 82.5 -33t31.5 -88q0 -49 -31.5 -85t-83 -36t-82 34t-30.5 87q0 56 30 88.5t83 32.5zM432 0h-295v939h295v-939z" glyph-name="idieresis" horiz-adv-x="566" unicode="ï"/><glyph d="M874 1123q154 -218 153 -486q0 -188 -51 -334t-168 -239t-287 -93q-210 0 -336.5 129.5t-126.5 315.5q0 207 121 323t290 116t272 -136q-20 159 -113 278l-191 -98l-82 171l130 67q-77 58 -169 97l99 246q67 -20 156 -74t173 -133l183 94l82 -174zM531 220q169 0 206 253 q-36 67 -94.5 109.5t-116.5 42.5q-85 0 -131.5 -63.5t-42.5 -145.5q-3 -73 41 -134.5t138 -61.5z" glyph-name="eth" horiz-adv-x="1119" unicode="ð"/><glyph d="M406 1157q-72 0 -71 -101h-171q0 121 72.5 195.5t164.5 74.5q63 0 131.5 -51t105.5 -51q56 0 57 95h169q0 -138 -64 -204.5t-158 -66.5q-53 0 -96.5 27.5t-77 54.5t-62.5 27zM686 964q150 0 245 -89.5t95 -290.5v-584h-309l3 527q0 79 -24 120t-85 41q-90 0 -200 -109 v-579h-305v939h235l48 -118q133 143 297 143zM275 650l-4 -10l5 10h-1z" glyph-name="ntilde" horiz-adv-x="1128" unicode="ñ"/><glyph d="M625 1065l-422 111l79 217l387 -226zM568 966q222 0 366.5 -137.5t144.5 -360.5q0 -92 -30 -176.5t-89 -158t-160.5 -117t-231.5 -43.5q-225 0 -367.5 134.5t-142.5 360.5q0 227 142.5 362.5t367.5 135.5zM568 708q-104 0 -154 -71.5t-50 -168.5q0 -96 50 -167t154 -71 q102 0 153.5 72t51.5 166q0 97 -51.5 168.5t-153.5 71.5z" glyph-name="ograve" horiz-adv-x="1138" unicode="ò"/><glyph d="M442 1065l-43 102l386 226l79 -217zM568 966q222 0 366.5 -137.5t144.5 -360.5q0 -92 -30 -176.5t-89 -158t-160.5 -117t-231.5 -43.5q-225 0 -367.5 134.5t-142.5 360.5q0 227 142.5 362.5t367.5 135.5zM568 708q-104 0 -154 -71.5t-50 -168.5q0 -96 50 -167t154 -71 q102 0 153.5 72t51.5 166q0 97 -51.5 168.5t-153.5 71.5z" glyph-name="oacute" horiz-adv-x="1138" unicode="ó"/><glyph d="M500 1386h84l254 -225l-77 -103l-220 111l-217 -111l-78 103zM568 966q222 0 366.5 -137.5t144.5 -360.5q0 -92 -30 -176.5t-89 -158t-160.5 -117t-231.5 -43.5q-225 0 -367.5 134.5t-142.5 360.5q0 227 142.5 362.5t367.5 135.5zM568 708q-104 0 -154 -71.5t-50 -168.5 q0 -96 50 -167t154 -71q102 0 153.5 72t51.5 166q0 97 -51.5 168.5t-153.5 71.5z" glyph-name="ocircumflex" horiz-adv-x="1138" unicode="ô"/><glyph d="M340 1056h-171q0 121 72.5 195.5t164.5 74.5q63 0 131.5 -51t105.5 -51q56 0 57 95h169q0 -138 -64 -204.5t-158 -66.5q-53 0 -96.5 27.5t-77 54.5t-62.5 27q-71 0 -71 -101zM568 966q222 0 366.5 -137.5t144.5 -360.5q0 -92 -30 -176.5t-89 -158t-160.5 -117 t-231.5 -43.5q-225 0 -367.5 134.5t-142.5 360.5q0 227 142.5 362.5t367.5 135.5zM568 708q-104 0 -154 -71.5t-50 -168.5q0 -96 50 -167t154 -71q102 0 153.5 72t51.5 166q0 97 -51.5 168.5t-153.5 71.5z" glyph-name="otilde" horiz-adv-x="1138" unicode="õ"/><glyph d="M379 1319q49 0 81.5 -33t32.5 -88q0 -48 -31.5 -84.5t-82.5 -36.5t-82.5 34t-31.5 87q0 56 30.5 88.5t83.5 32.5zM715 1319q51 0 82.5 -33t31.5 -88q0 -49 -31.5 -85t-82.5 -36t-82 34t-31 87q0 56 30 88.5t83 32.5zM568 966q222 0 366.5 -137.5t144.5 -360.5 q0 -92 -30 -176.5t-89 -158t-160.5 -117t-231.5 -43.5q-225 0 -367.5 134.5t-142.5 360.5q0 227 142.5 362.5t367.5 135.5zM568 708q-104 0 -154 -71.5t-50 -168.5q0 -96 50 -167t154 -71q102 0 153.5 72t51.5 166q0 97 -51.5 168.5t-153.5 71.5z" glyph-name="odieresis" horiz-adv-x="1138" unicode="ö"/><glyph d="M536 1167q56 0 91 -36.5t35 -96.5q0 -55 -35 -95.5t-91 -40.5t-92 39t-36 97q0 61 34 97t94 36zM923 811v-212h-783v212h783zM536 512q56 0 91 -36.5t35 -96.5q0 -55 -35 -96t-91 -41t-92 39.5t-36 97.5q0 61 34 97t94 36z" glyph-name="divide" horiz-adv-x="1064" unicode="÷"/><glyph d="M959 794q113 -131 113 -326q0 -92 -30 -176.5t-89 -158t-160.5 -117t-231.5 -43.5q-195 0 -324 99l-80 -81l-78 79l76 77q-104 131 -104 321q0 227 142.5 362.5t367.5 135.5q183 0 318 -96l87 87l78 -78zM357 468q0 -49 18 -101l303 302q-51 39 -117 39q-96 0 -150 -73 t-54 -167zM561 230q92 0 148.5 73.5t56.5 164.5q0 60 -22 111l-305 -306q54 -43 122 -43z" glyph-name="oslash" horiz-adv-x="1124" unicode="ø"/><glyph d="M676 1167l-45 -102l-421 111l78 217zM715 939h306v-939h-236l-48 119q-131 -145 -297 -145q-150 0 -244.5 90t-94.5 291v584h307l-2 -490q0 -79 24 -120t85 -41q92 0 200 106v545z" glyph-name="ugrave" horiz-adv-x="1128" unicode="ù"/><glyph d="M870 1176l-421 -111l-43 102l386 226zM715 939h306v-939h-236l-48 119q-131 -145 -297 -145q-150 0 -244.5 90t-94.5 291v584h307l-2 -490q0 -79 24 -120t85 -41q92 0 200 106v545z" glyph-name="uacute" horiz-adv-x="1128" unicode="ú"/><glyph d="M548 1169l-217 -111l-78 103l254 225h84l254 -225l-77 -103zM715 939h306v-939h-236l-48 119q-131 -145 -297 -145q-150 0 -244.5 90t-94.5 291v584h307l-2 -490q0 -79 24 -120t85 -41q92 0 200 106v545z" glyph-name="ucircumflex" horiz-adv-x="1128" unicode="û"/><glyph d="M386 1077q-51 0 -83 34t-32 87q0 56 31 88.5t84 32.5q49 0 81.5 -33t32.5 -88q0 -48 -31.5 -84.5t-82.5 -36.5zM722 1077q-51 0 -82 34t-31 87q0 56 30 88.5t83 32.5q51 0 82.5 -33t31.5 -88q0 -49 -31.5 -85t-82.5 -36zM715 939h306v-939h-236l-48 119 q-131 -145 -297 -145q-150 0 -244.5 90t-94.5 291v584h307l-2 -490q0 -79 24 -120t85 -41q92 0 200 106v545z" glyph-name="udieresis" horiz-adv-x="1128" unicode="ü"/><glyph d="M790 1176l-421 -111l-43 102l386 226zM614 939h296l-337 -1055q-20 -68 -39.5 -117t-50.5 -100t-72 -81t-95.5 -51t-131 -19.5t-170.5 23.5l22 282q36 -14 65 -21.5t51 -7t39 3.5t32.5 18t24 24.5t18.5 34.5t15.5 38.5t15.5 45t15 46.5l-310 936h302l157 -581z" glyph-name="yacute" horiz-adv-x="923" unicode="ý"/><glyph d="M683 966q196 0 325 -141t129 -357q0 -215 -129 -355t-334 -140q-157 0 -261 87v-572h-305v1963h305v-579q113 94 270 94zM626 236q94 0 154.5 64.5t60.5 168.5t-60.5 169t-154.5 65t-153.5 -65t-59.5 -169q0 -106 60.5 -169.5t152.5 -63.5z" glyph-name="thorn" horiz-adv-x="1194" unicode="þ"/><glyph d="M305.5 1077q-51.5 0 -83 34t-31.5 87q0 56 31 88.5t83 32.5q49 0 82 -33t33 -88q0 -48 -31.5 -84.5t-83 -36.5zM642 1077q-51 0 -82 34t-31 87q0 56 30 88.5t83 32.5q51 0 82.5 -33t31.5 -88q0 -49 -31.5 -85t-82.5 -36zM614 939h296l-337 -1055q-20 -68 -39.5 -117 t-50.5 -100t-72 -81t-95.5 -51t-131 -19.5t-170.5 23.5l22 282q36 -14 65 -21.5t51 -7t39 3.5t32.5 18t24 24.5t18.5 34.5t15.5 38.5t15.5 45t15 46.5l-310 936h302l157 -581z" glyph-name="ydieresis" horiz-adv-x="923" unicode="ÿ"/><glyph d="M1041 1650v-172h-597v172h597zM1092 0l-95 270h-531l-96 -270h-317l500 1319h355l503 -1319h-319zM565 550h331l-166 465z" glyph-name="Amacron" horiz-adv-x="1467" unicode="Ā"/><glyph d="M811 1270v-173h-598v173h598zM782 939h283v-939h-218l-47 135q-94 -162 -303 -162q-200 0 -319.5 136.5t-119.5 358.5q0 224 118.5 361t313.5 137q191 0 292 -149v122zM568 236q96 0 153 63t57 170q0 106 -56 170t-153.5 64t-154.5 -64t-57 -169.5t57 -169.5t154 -64z " glyph-name="amacron" horiz-adv-x="1198" unicode="ā"/><glyph d="M736 1451q-259 0 -265 249h178q12 -96 87 -96q20 0 36 6t25 15.5t14.5 22.5t7.5 21.5t3.5 18.5t1.5 12h178q-3 -109 -65.5 -179t-200.5 -70zM1092 0l-95 270h-531l-96 -270h-317l500 1319h355l503 -1319h-319zM565 550h331l-166 465z" glyph-name="Abreve" horiz-adv-x="1467" unicode="Ă"/><glyph d="M505 1070q-259 0 -264 249h177q12 -96 87 -95q20 0 36.5 6t25 15t14.5 22t8 21.5t3.5 19t1.5 11.5h177q-3 -109 -65.5 -179t-200.5 -70zM782 939h283v-939h-218l-47 135q-94 -162 -303 -162q-200 0 -319.5 136.5t-119.5 358.5q0 224 118.5 361t313.5 137q191 0 292 -149 v122zM568 236q96 0 153 63t57 170q0 106 -56 170t-153.5 64t-154.5 -64t-57 -169.5t57 -169.5t154 -64z" glyph-name="abreve" horiz-adv-x="1198" unicode="ă"/><glyph d="M1152 -254q38 0 73 34l53 -89q-70 -75 -157 -78.5t-134 38.5t-43 113q0 56 46 123t106 113h-4l-95 270h-531l-96 -270h-317l500 1319h355l503 -1319h-198q-65 -84 -88.5 -124t-23.5 -76q0 -54 51 -54zM565 550h331l-166 465z" glyph-name="Aogonek" horiz-adv-x="1467" unicode="Ą"/><glyph d="M1065 0h-108q-65 -84 -88.5 -124t-23.5 -76q0 -55 51 -54q38 0 73 34l53 -89q-70 -75 -157 -78.5t-134 38.5t-43 113q0 58 47 124t106 114h6l-47 133q-94 -162 -303 -162q-200 0 -319.5 136.5t-119.5 358.5q0 224 118.5 361t313.5 137q191 0 292 -149v122h283v-939z M568 236q96 0 153 63t57 170q0 106 -56 170t-153.5 64t-154.5 -64t-57 -169.5t57 -169.5t154 -64z" glyph-name="aogonek" horiz-adv-x="1198" unicode="ą"/><glyph d="M662 1446l-42 102l385 225l79 -217zM1314 1094l-244 -174q-121 157 -295 157q-172 0 -273 -118t-101 -297q0 -181 101.5 -298.5t272.5 -117.5q177 0 295 158l246 -174q-92 -123 -234 -191t-307 -68q-294 0 -484 194.5t-190 496.5q0 300 187.5 494t486.5 194 q167 0 307 -67.5t232 -188.5z" glyph-name="Cacute" horiz-adv-x="1384" unicode="Ć"/><glyph d="M444 1065l-43 102l386 226l78 -217zM61 468q0 232 139.5 365t364.5 133q276 0 420 -200l-207 -143q-75 90 -203 90q-104 0 -163 -68t-59 -177q0 -108 58 -175.5t161 -67.5q68 0 122.5 26.5t83.5 64.5l207 -142q-140 -201 -420 -201q-224 0 -364 133t-140 362z" glyph-name="cacute" horiz-adv-x="1030" unicode="ć"/><glyph d="M763 1760q72 0 116 -47t44 -124q0 -70 -44 -122t-116 -52t-117 49.5t-45 124.5q0 79 44.5 125t117.5 46zM1314 1094l-244 -174q-121 157 -295 157q-172 0 -273 -118t-101 -297q0 -181 101.5 -298.5t272.5 -117.5q177 0 295 158l246 -174q-92 -123 -234 -191t-307 -68 q-294 0 -484 194.5t-190 496.5q0 300 187.5 494t486.5 194q167 0 307 -67.5t232 -188.5z" glyph-name="Cdotaccent" horiz-adv-x="1384" unicode="Ċ"/><glyph d="M544 1379q72 0 116.5 -47t44.5 -124q0 -70 -44.5 -122t-116 -52t-117 49.5t-45.5 124.5q0 79 44.5 125t117.5 46zM61 468q0 232 139.5 365t364.5 133q276 0 420 -200l-207 -143q-75 90 -203 90q-104 0 -163 -68t-59 -177q0 -108 58 -175.5t161 -67.5q68 0 122.5 26.5 t83.5 64.5l207 -142q-140 -201 -420 -201q-224 0 -364 133t-140 362z" glyph-name="cdotaccent" horiz-adv-x="1030" unicode="ċ"/><glyph d="M724 1447l-255 226l79 102l217 -111l220 111l77 -102l-255 -226h-83zM1314 1094l-244 -174q-121 157 -295 157q-172 0 -273 -118t-101 -297q0 -181 101.5 -298.5t272.5 -117.5q177 0 295 158l246 -174q-92 -123 -234 -191t-307 -68q-294 0 -484 194.5t-190 496.5 q0 300 187.5 494t486.5 194q167 0 307 -67.5t232 -188.5z" glyph-name="Ccaron" horiz-adv-x="1384" unicode="Č"/><glyph d="M505 1067l-254 225l78 102l217 -111l220 111l77 -102l-254 -225h-84zM61 468q0 232 139.5 365t364.5 133q276 0 420 -200l-207 -143q-75 90 -203 90q-104 0 -163 -68t-59 -177q0 -108 58 -175.5t161 -67.5q68 0 122.5 26.5t83.5 64.5l207 -142q-140 -201 -420 -201 q-224 0 -364 133t-140 362z" glyph-name="ccaron" horiz-adv-x="1030" unicode="č"/><glyph d="M794 1447h-84l-254 226l78 102l217 -111l220 111l77 -102zM761 1319q283 0 459 -184t176 -480q0 -288 -176.5 -471.5t-458.5 -183.5h-602v1319h602zM761 275q150 0 236.5 105.5t86.5 274.5q0 171 -87 280t-236 109h-302v-769h302z" glyph-name="Dcaron" horiz-adv-x="1498" unicode="Ď"/><glyph d="M1260 1475l209 -96l-220 -379l-102 43zM783 843v625h290v-1468h-215l-52 137q-111 -164 -316 -164q-195 0 -313.5 139t-118.5 359q0 218 118 356.5t321 138.5q185 0 286 -123zM568 236q94 0 154.5 64.5t60.5 168.5q0 106 -60.5 170t-154.5 64t-154.5 -65t-60.5 -169 t60.5 -168.5t154.5 -64.5z" glyph-name="dcaron" horiz-adv-x="1204" unicode="ď"/><glyph d="M669 1319q283 0 460 -184t177 -480q0 -288 -177.5 -471.5t-459.5 -183.5h-488v509h-108v281h108v529h488zM669 280q150 0 234.5 104t84.5 271q0 169 -86 276.5t-233 107.5h-183v-249h277v-281h-277v-229h183z" glyph-name="Dcroat" horiz-adv-x="1408" unicode="Đ"/><glyph d="M1232 1299v-183h-99v-1116h-206l-53 128q-123 -155 -328 -155q-210 0 -327.5 136.5t-117.5 358t128 360t332 138.5q152 0 267 -104v254h-214v183h214v169h305v-169h99zM616 247q92 0 150 59t58 162q0 104 -56 163.5t-152 59.5q-97 0 -154.5 -56t-57.5 -167 q0 -102 58 -161.5t154 -59.5z" glyph-name="dcroat" horiz-adv-x="1307" unicode="đ"/><glyph d="M905 1650v-172h-598v172h598zM1067 1053h-618v-249l485 -4v-254h-485v-280h618v-266h-908v1319h908v-266z" glyph-name="Emacron" horiz-adv-x="1184" unicode="Ē"/><glyph d="M225 1097v173h598v-173h-598zM58 471q0 97 27.5 183.5t83 157t150 112.5t215.5 42q246 0 357 -158t61 -421h-580q34 -184 198 -184q114 0 278 82l111 -210q-96 -53 -182 -77.5t-207 -24.5q-232 0 -372 136.5t-140 361.5zM372 553h331q5 73 -32.5 135.5t-129.5 62.5 q-63 0 -103 -38.5t-53 -79.5t-13 -80z" glyph-name="emacron" unicode="ē"/><glyph d="M600.5 1415q-71.5 0 -116.5 49.5t-45 124.5q0 79 44 125t118 46q72 0 116 -47t44 -124q0 -70 -44.5 -122t-116 -52zM1067 1053h-618v-249l485 -4v-254h-485v-280h618v-266h-908v1319h908v-266z" glyph-name="Edotaccent" horiz-adv-x="1184" unicode="Ė"/><glyph d="M519 1379q72 0 116 -47t44 -124q0 -70 -44 -122t-116 -52t-117 49.5t-45 124.5q0 79 44.5 125t117.5 46zM58 471q0 97 27.5 183.5t83 157t150 112.5t215.5 42q246 0 357 -158t61 -421h-580q34 -184 198 -184q114 0 278 82l111 -210q-96 -53 -182 -77.5t-207 -24.5 q-232 0 -372 136.5t-140 361.5zM372 553h331q5 73 -32.5 135.5t-129.5 62.5q-63 0 -103 -38.5t-53 -79.5t-13 -80z" glyph-name="edotaccent" unicode="ė"/><glyph d="M1067 1053h-618v-249l485 -4v-254h-485v-280h618v-266h-147q-65 -85 -88 -123.5t-23 -74.5q0 -55 51 -55q38 0 74 35l52 -89q-70 -75 -157 -78.5t-133.5 38.5t-43.5 113q0 56 45 122t103 112h-641v1319h908v-266z" glyph-name="Eogonek" horiz-adv-x="1184" unicode="Ę"/><glyph d="M961 -157l53 -89q-70 -75 -157 -78.5t-134 38.5t-44 114q0 75 79 165q-82 -20 -188 -20q-232 0 -372 136.5t-140 361.5q0 97 27.5 183.5t83 157t150 112.5t215.5 42q246 0 357 -158t61 -421h-580q34 -184 198 -184q114 0 278 82l111 -210l-19 -10h11q-65 -84 -90 -125 t-25 -77q0 -55 51 -54q38 0 74 34zM541 751q-63 0 -103 -38.5t-53 -79.5t-13 -80h331q5 73 -32.5 135.5t-129.5 62.5z" glyph-name="eogonek" unicode="ę"/><glyph d="M645 1447h-84l-254 226l79 102l216 -111l221 111l76 -102zM1067 1053h-618v-249l485 -4v-254h-485v-280h618v-266h-908v1319h908v-266z" glyph-name="Ecaron" horiz-adv-x="1184" unicode="Ě"/><glyph d="M480 1067l-255 225l79 102l217 -111l220 111l76 -102l-254 -225h-83zM58 471q0 97 27.5 183.5t83 157t150 112.5t215.5 42q246 0 357 -158t61 -421h-580q34 -184 198 -184q114 0 278 82l111 -210q-96 -53 -182 -77.5t-207 -24.5q-232 0 -372 136.5t-140 361.5zM372 553 h331q5 73 -32.5 135.5t-129.5 62.5q-63 0 -103 -38.5t-53 -79.5t-13 -80z" glyph-name="ecaron" unicode="ě"/><glyph d="M742 1451q-259 0 -264 249h177q12 -96 87 -96q20 0 36.5 6t25 15.5t14.5 22.5t8 21.5t3.5 18.5t1.5 12h178q-3 -109 -66 -179t-201 -70zM1260 746v-516q-87 -121 -223 -189t-298 -68q-278 0 -458 194.5t-180 498.5q0 302 176.5 494.5t461.5 192.5q331 0 524 -252 l-219 -183q-51 70 -134.5 115.5t-180.5 45.5q-154 0 -241 -118t-87 -297q0 -183 91.5 -299t256.5 -116q128 0 188 77v145h-212v275h535z" glyph-name="Gbreve" horiz-adv-x="1399" unicode="Ğ"/><glyph d="M563 1070q-259 0 -264 249h177q12 -96 87 -95q20 0 36.5 6t25 15t14.5 22t8 21.5t3.5 19t1.5 11.5h177q-3 -109 -65.5 -179t-200.5 -70zM847 939h232v-965q0 -99 -28.5 -183.5t-85.5 -154t-158.5 -109t-236.5 -39.5q-335 0 -485 229l210 162q19 -22 26.5 -30.5t36 -34.5 t52 -38.5t61.5 -24.5t77 -12q90 0 162.5 63t72.5 208v132q-101 -116 -286 -116q-201 0 -320 129.5t-119 337.5q0 207 117 340t315 133q205 0 312 -152zM568 276q94 0 154.5 60t60.5 156q0 94 -59.5 152.5t-155.5 58.5q-94 0 -154.5 -59t-60.5 -152q0 -96 60.5 -156 t154.5 -60z" glyph-name="gbreve" horiz-adv-x="1189" unicode="ğ"/><glyph d="M744 1415q-72 0 -117 49.5t-45 124.5q0 79 44.5 125t117.5 46q72 0 116.5 -47t44.5 -124q0 -70 -44.5 -122t-116.5 -52zM1260 746v-516q-87 -121 -223 -189t-298 -68q-278 0 -458 194.5t-180 498.5q0 302 176.5 494.5t461.5 192.5q331 0 524 -252l-219 -183 q-51 70 -134.5 115.5t-180.5 45.5q-154 0 -241 -118t-87 -297q0 -183 91.5 -299t256.5 -116q128 0 188 77v145h-212v275h535z" glyph-name="Gdotaccent" horiz-adv-x="1399" unicode="Ġ"/><glyph d="M565 1034q-72 0 -117 49.5t-45 124.5q0 79 44.5 125t117.5 46q72 0 116 -47t44 -124q0 -70 -44 -122t-116 -52zM847 939h232v-965q0 -99 -28.5 -183.5t-85.5 -154t-158.5 -109t-236.5 -39.5q-335 0 -485 229l210 162q19 -22 26.5 -30.5t36 -34.5t52 -38.5t61.5 -24.5 t77 -12q90 0 162.5 63t72.5 208v132q-101 -116 -286 -116q-201 0 -320 129.5t-119 337.5q0 207 117 340t315 133q205 0 312 -152zM568 276q94 0 154.5 60t60.5 156q0 94 -59.5 152.5t-155.5 58.5q-94 0 -154.5 -59t-60.5 -152q0 -96 60.5 -156t154.5 -60z" glyph-name="gdotaccent" horiz-adv-x="1189" unicode="ġ"/><glyph d="M1260 746v-516q-87 -121 -223 -189t-298 -68q-278 0 -458 194.5t-180 498.5q0 302 176.5 494.5t461.5 192.5q331 0 524 -252l-219 -183q-51 70 -134.5 115.5t-180.5 45.5q-154 0 -241 -118t-87 -297q0 -183 91.5 -299t256.5 -116q128 0 188 77v145h-212v275h535z M744 -121q72 0 110.5 -49.5t38.5 -133.5q0 -220 -227 -254l-29 92q101 19 124 65h-17q-58 0 -94 38.5t-36 99.5q0 65 35 103.5t95 38.5z" glyph-name="Gcommaaccent" horiz-adv-x="1399" unicode="Ģ"/><glyph d="M556 1062q-72 0 -107.5 49.5t-35.5 134.5q0 106 58 171.5t169 82.5l27 -94q-101 -19 -123 -65h16q58 0 94.5 -39t36.5 -101q0 -63 -37 -101t-98 -38zM847 939h232v-965q0 -99 -28.5 -183.5t-85.5 -154t-158.5 -109t-236.5 -39.5q-335 0 -485 229l210 162 q19 -22 26.5 -30.5t36 -34.5t52 -38.5t61.5 -24.5t77 -12q90 0 162.5 63t72.5 208v132q-101 -116 -286 -116q-201 0 -320 129.5t-119 337.5q0 207 117 340t315 133q205 0 312 -152zM568 276q94 0 154.5 60t60.5 156q0 94 -59.5 152.5t-155.5 58.5q-94 0 -154.5 -59 t-60.5 -152q0 -96 60.5 -156t154.5 -60z" glyph-name="gcommaaccent" horiz-adv-x="1189" unicode="ģ"/><glyph d="M1439 1067v-113h-116v-954h-306v519h-461v-519h-303v954h-111v113h111v252h303v-252h461v252h306v-252h116zM1017 799v155h-461v-155h461z" glyph-name="Hbar" horiz-adv-x="1580" unicode="Ħ"/><glyph d="M773 964q150 0 245.5 -88.5t95.5 -291.5v-584h-308l3 551q0 79 -24 120.5t-85 41.5q-89 0 -202 -111v-602h-305v1111h-82v171h82v167h305v-167h279v-171h-279v-270q123 123 275 123zM367 650q-2 -5 -3 -10l5 10h-2z" glyph-name="hbar" horiz-adv-x="1203" unicode="ħ"/><glyph d="M109 1437h-170q0 121 72.5 195.5t164.5 74.5q63 0 131 -51.5t106 -51.5q56 0 56 96h169q0 -138 -64 -205t-158 -67q-53 0 -96.5 27.5t-76.5 55t-62 27.5q-72 0 -72 -101zM459 0h-300v1319h300v-1319z" glyph-name="Itilde" horiz-adv-x="614" unicode="Ĩ"/><glyph d="M80 1056h-170q0 121 72.5 195.5t164.5 74.5q63 0 131 -51t106 -51q56 0 56 95h169q0 -138 -64 -204.5t-158 -66.5q-53 0 -96.5 27.5t-76.5 54.5t-62 27q-72 0 -72 -101zM432 0h-295v939h295v-939z" glyph-name="itilde" horiz-adv-x="566" unicode="ĩ"/><glyph d="M19 1478v172h597v-172h-597zM459 0h-300v1319h300v-1319z" glyph-name="Imacron" horiz-adv-x="614" unicode="Ī"/><glyph d="M-10 1097v173h597v-173h-597zM432 0h-295v939h295v-939z" glyph-name="imacron" horiz-adv-x="566" unicode="ī"/><glyph d="M459 0h-183q-61 -79 -85 -119.5t-24 -75.5q0 -55 51 -54q38 0 74 34l53 -89q-70 -75 -157 -78.5t-134 38.5t-44 114q0 56 44.5 120t104.5 113v1316h300v-1319z" glyph-name="Iogonek" horiz-adv-x="614" unicode="Į"/><glyph d="M283.5 1034q-71.5 0 -117 49.5t-45.5 124.5q0 79 44.5 125t117.5 46q72 0 116.5 -47t44.5 -124q0 -70 -44.5 -122t-116 -52zM137 7v932h295v-939h-183q-60 -79 -83 -118t-23 -73q0 -55 52 -55q38 0 73 34l53 -88q-70 -75 -157 -78.5t-134 38t-44 113.5q0 56 45.5 122 t105.5 112z" glyph-name="iogonek" horiz-adv-x="566" unicode="į"/><glyph d="M312 1760q72 0 116.5 -47t44.5 -124q0 -70 -44.5 -122t-116 -52t-117 49.5t-45.5 124.5q0 79 44.5 125t117.5 46zM459 0h-300v1319h300v-1319z" glyph-name="Idotaccent" horiz-adv-x="614" unicode="İ"/><glyph d="M432 0h-295v939h295v-939z" glyph-name="dotlessi" horiz-adv-x="566" unicode="ı"/><glyph d="M456 548h-301v771h301v-771zM188 205l201 160q53 -68 99 -101.5t111 -33.5q84 0 147 61t63 206v822h300v-860q0 -101 -23.5 -183.5t-77.5 -152.5t-151.5 -109.5t-230.5 -39.5q-152 0 -267 67t-171 164z" glyph-name="IJ" horiz-adv-x="1264" unicode="Ĳ"/><glyph d="M263 1469q70 0 112.5 -45t42.5 -118q0 -68 -42.5 -118t-112.5 -50q-67 0 -110.5 48t-43.5 120q0 75 42 119t112 44zM809 1468q70 0 112.5 -45.5t42.5 -118.5q0 -68 -42.5 -117.5t-112.5 -49.5q-67 0 -110.5 47.5t-43.5 119.5q0 75 42 119.5t112 44.5zM411 0h-295v939h295 v-939zM968 939v-953q0 -121 -28.5 -215t-82 -157t-107.5 -102t-129 -77l-133 215l10 5q9 3 24.5 14.5t34 27t37.5 39t34 52t25.5 67.5t10.5 82v1002h304z" glyph-name="ij" horiz-adv-x="1099" unicode="ĳ"/><glyph d="M696 659l604 -659h-382l-438 521h-21v-521h-300v1318h300v-523h15l425 523h371zM683 -121q72 0 110 -49.5t38 -133.5q0 -220 -227 -254l-29 92q101 19 125 65h-17q-58 0 -94 38.5t-36 99.5q0 65 35 103.5t95 38.5z" glyph-name="Kcommaaccent" horiz-adv-x="1331" unicode="Ķ"/><glyph d="M696 497l422 -499h-398l-278 364h-31v-362h-300v1399h300v-762h40l238 302h379zM572 -121q72 0 110 -49.5t38 -133.5q0 -220 -227 -254l-29 92q101 19 125 65h-17q-58 0 -94 38.5t-36 99.5q0 65 35 103.5t95 38.5z" glyph-name="kcommaaccent" horiz-adv-x="1117" unicode="ķ"/><glyph d="M633 1556l-421 -110l-43 102l386 225zM459 275h608v-275h-908v1319h300v-1044z" glyph-name="Lacute" horiz-adv-x="1174" unicode="Ĺ"/><glyph d="M147 1577l-43 102l386 226l78 -217zM521 253l44 -229q-97 -36 -178.5 -41t-148 22t-103 104t-36.5 200v1119h295v-1085q1 -116 127 -90z" glyph-name="lacute" horiz-adv-x="636" unicode="ĺ"/><glyph d="M459 275h608v-275h-908v1319h300v-1044zM640 -121q72 0 110 -49.5t38 -133.5q0 -220 -227 -254l-29 92q101 19 125 65h-17q-58 0 -94 38.5t-36 99.5q0 65 35 103.5t95 38.5z" glyph-name="Lcommaaccent" horiz-adv-x="1174" unicode="Ļ"/><glyph d="M565 24q-97 -36 -178.5 -41t-148 22t-103 104t-36.5 200v1119h295v-1085q0 -116 127 -90zM343 -121q72 0 110.5 -49.5t38.5 -133.5q0 -220 -227 -254l-29 92q101 19 124 65h-17q-58 0 -94 38.5t-36 99.5q0 65 35 103.5t95 38.5z" glyph-name="lcommaaccent" horiz-adv-x="636" unicode="ļ"/><glyph d="M838 1231l-220 -379l-103 42l113 432zM459 275h608v-275h-908v1319h300v-1044z" glyph-name="Lcaron" horiz-adv-x="1174" unicode="Ľ"/><glyph d="M553 983l-102 43l112 431l210 -95zM521 253l44 -229q-97 -36 -178.5 -41t-148 22t-103 104t-36.5 200v1119h295v-1085q1 -116 127 -90z" glyph-name="lcaron" horiz-adv-x="653" unicode="ľ"/><glyph d="M473 280h529v-280h-835v461l-136 -60v232l136 60v626h306v-493l182 79v-233l-182 -78v-314z" glyph-name="Lslash" horiz-adv-x="1085" unicode="Ł"/><glyph d="M628 266l44 -228q-97 -34 -178 -39.5t-147.5 22t-103 104t-36.5 199.5v244l-130 -58v231l130 58v652h303v-516l140 63v-232l-140 -63v-345q0 -63 28.5 -82.5t89.5 -9.5z" glyph-name="lslash" horiz-adv-x="721" unicode="ł"/><glyph d="M1079 1556l-422 -110l-43 102l386 225zM1103 1319h290v-1319h-294l-648 843v-843h-292v1319h295l649 -850v850z" glyph-name="Nacute" horiz-adv-x="1549" unicode="Ń"/><glyph d="M858 1176l-421 -111l-43 102l386 226zM686 964q150 0 245 -89.5t95 -290.5v-584h-309l3 527q0 79 -24 120t-85 41q-90 0 -200 -109v-579h-305v939h235l48 -118q133 143 297 143zM275 650l-4 -10l5 10h-1z" glyph-name="nacute" horiz-adv-x="1128" unicode="ń"/><glyph d="M1103 1319h290v-1319h-294l-648 843v-843h-292v1319h295l649 -850v850zM797 -121q72 0 110 -49.5t38 -133.5q0 -220 -226 -254l-30 92q101 19 125 65h-17q-58 0 -94 38.5t-36 99.5q0 65 35 103.5t95 38.5z" glyph-name="Ncommaaccent" horiz-adv-x="1549" unicode="Ņ"/><glyph d="M686 964q150 0 245 -89.5t95 -290.5v-584h-309l3 527q0 79 -24 120t-85 41q-90 0 -200 -109v-579h-305v939h235l48 -118q133 143 297 143zM275 650l-4 -10l5 10h-1zM591 -121q72 0 110 -49.5t38 -133.5q0 -220 -227 -254l-29 92q101 19 125 65h-17q-58 0 -94 38.5 t-36 99.5q0 65 35 103.5t95 38.5z" glyph-name="ncommaaccent" horiz-adv-x="1128" unicode="ņ"/><glyph d="M802 1447h-83l-255 226l79 102l216 -111l221 111l76 -102zM1103 1319h290v-1319h-294l-648 843v-843h-292v1319h295l649 -850v850z" glyph-name="Ncaron" horiz-adv-x="1549" unicode="Ň"/><glyph d="M582 1067h-84l-254 225l79 102l216 -111l220 111l77 -102zM686 964q150 0 245 -89.5t95 -290.5v-584h-309l3 527q0 79 -24 120t-85 41q-90 0 -200 -109v-579h-305v939h235l48 -118q133 143 297 143zM275 650l-4 -10l5 10h-1z" glyph-name="ncaron" horiz-adv-x="1128" unicode="ň"/><glyph d="M1015 1319h303v-1333q0 -121 -28.5 -215t-81.5 -157t-106.5 -102t-128.5 -77l-140 215l17 9q15 10 42.5 32t52 53t43.5 82t19 111v65l-544 810v-812h-304v1319h310l546 -816v816z" glyph-name="Eng" horiz-adv-x="1474" unicode="Ŋ"/><glyph d="M686 964q150 0 245 -89.5t95 -290.5v-598q0 -121 -29 -215.5t-83 -158t-107.5 -102.5t-128.5 -75l-132 215l7 5q9 3 25 14.5t34 27t36.5 39t34 52t25 67.5t9.5 82v203h2l1 411q0 79 -24 120.5t-85 41.5q-89 0 -200 -111v-602h-305v939h235l46 -122q133 147 299 147z M278 650q-2 -5 -3 -10l5 10h-2z" glyph-name="eng" horiz-adv-x="1128" unicode="ŋ"/><glyph d="M456 1478v172h597v-172h-597zM748 1350q287 0 465 -192t178 -498q0 -302 -176 -496.5t-467 -194.5q-285 0 -466 194.5t-181 496.5q0 304 177.5 497t469.5 193zM748 1077q-167 0 -257 -117t-90 -299.5t89.5 -298.5t257 -116t256 115t88.5 299q0 188 -91 302.5t-253 114.5z " glyph-name="Omacron" horiz-adv-x="1493" unicode="Ō"/><glyph d="M249 1097v173h598v-173h-598zM568 966q222 0 366.5 -137.5t144.5 -360.5q0 -92 -30 -176.5t-89 -158t-160.5 -117t-231.5 -43.5q-225 0 -367.5 134.5t-142.5 360.5q0 227 142.5 362.5t367.5 135.5zM568 708q-104 0 -154 -71.5t-50 -168.5q0 -96 50 -167t154 -71 q102 0 153.5 72t51.5 166q0 97 -51.5 168.5t-153.5 71.5z" glyph-name="omacron" horiz-adv-x="1138" unicode="ō"/><glyph d="M643 1420l-109 26l38 326l222 -64zM910 1420l-110 26l36 326l224 -64zM748 1350q287 0 465 -192t178 -498q0 -302 -176 -496.5t-467 -194.5q-285 0 -466 194.5t-181 496.5q0 304 177.5 497t469.5 193zM748 1077q-167 0 -257 -117t-90 -299.5t89.5 -298.5t257 -116 t256 115t88.5 299q0 188 -91 302.5t-253 114.5z" glyph-name="Ohungarumlaut" horiz-adv-x="1493" unicode="Ő"/><glyph d="M437 1039l-109 26l37 326l222 -63zM703 1039l-109 26l36 326l223 -63zM568 966q222 0 366.5 -137.5t144.5 -360.5q0 -92 -30 -176.5t-89 -158t-160.5 -117t-231.5 -43.5q-225 0 -367.5 134.5t-142.5 360.5q0 227 142.5 362.5t367.5 135.5zM568 708q-104 0 -154 -71.5 t-50 -168.5q0 -96 50 -167t154 -71q102 0 153.5 72t51.5 166q0 97 -51.5 168.5t-153.5 71.5z" glyph-name="ohungarumlaut" horiz-adv-x="1138" unicode="ő"/><glyph d="M1973 1039h-553v-235h346v-282h-346v-242h553v-280h-833v138q-166 -169 -423 -169q-273 0 -444.5 194.5t-171.5 496.5q0 304 169 497t447 193q258 0 423 -169v138h833v-280zM747.5 251q163.5 0 251.5 113.5t88 295.5q0 184 -89.5 298t-249.5 114q-166 0 -254 -115.5 t-88 -296t89 -295t252.5 -114.5z" glyph-name="OE" horiz-adv-x="2092" unicode="Œ"/><glyph d="M1287 203q111 0 278 82l125 -210q-186 -102 -403 -102q-253 0 -372 167q-118 -167 -372 -167q-208 0 -346.5 135.5t-138.5 359.5q0 225 138.5 361.5t346.5 136.5q239 0 362 -160q109 160 344 160q259 0 365 -154.5t67 -424.5h-594q34 -184 200 -184zM1249 736 q-41 0 -70.5 -14t-47.5 -40.5t-26.5 -49.5t-17.5 -59h328q12 63 -31 113t-135 50zM568 230q92 0 148.5 73.5t56.5 164.5q0 94 -54.5 167t-150 73t-150 -73.5t-54.5 -166.5q0 -92 54 -165t150 -73z" glyph-name="oe" horiz-adv-x="1786" unicode="œ"/><glyph d="M966 1556l-422 -110l-42 102l385 225zM1253 0h-325l-216 423q-22 -2 -65 -1h-188v-422h-300v1319h513q305 0 433.5 -117.5t128.5 -332.5q0 -297 -254 -396zM459 674h188q138 0 209 41t71 150q0 108 -65 149.5t-190 41.5h-213v-382z" glyph-name="Racute" horiz-adv-x="1317" unicode="Ŕ"/><glyph d="M708 1176l-421 -111l-43 102l386 226zM577 966q102 0 203 -61l-133 -272q-72 38 -116 38q-51 0 -86 -44.5t-49 -111.5v-515h-290v939h220l44 -103q76 130 207 130z" glyph-name="racute" horiz-adv-x="802" unicode="ŕ"/><glyph d="M980 473l273 -473h-325l-216 423q-22 -2 -65 -1h-188v-422h-300v1319h513q305 0 433.5 -117.5t128.5 -332.5q0 -297 -254 -396zM459 674h188q138 0 209 41t71 150q0 108 -65 149.5t-190 41.5h-213v-382zM672 -121q72 0 110.5 -49.5t38.5 -133.5q0 -220 -227 -254l-29 92 q101 19 124 65h-17q-58 0 -93.5 38.5t-35.5 99.5q0 65 34.5 103.5t94.5 38.5z" glyph-name="Rcommaaccent" horiz-adv-x="1317" unicode="Ŗ"/><glyph d="M577 966q102 0 203 -61l-133 -272q-72 38 -116 38q-51 0 -86 -44.5t-49 -111.5v-515h-290v939h220l44 -103q76 130 207 130zM241 -121q72 0 110 -49.5t38 -133.5q0 -220 -227 -254l-29 92q101 19 125 65h-17q-58 0 -94 38.5t-36 99.5q0 65 35 103.5t95 38.5z" glyph-name="rcommaaccent" horiz-adv-x="802" unicode="ŗ"/><glyph d="M689 1447h-83l-254 226l78 102l217 -111l220 111l77 -102zM1253 0h-325l-216 423q-22 -2 -65 -1h-188v-422h-300v1319h513q305 0 433.5 -117.5t128.5 -332.5q0 -297 -254 -396zM459 674h188q138 0 209 41t71 150q0 108 -65 149.5t-190 41.5h-213v-382z" glyph-name="Rcaron" horiz-adv-x="1317" unicode="Ř"/><glyph d="M432 1067h-84l-254 225l78 102l217 -111l220 111l77 -102zM577 966q102 0 203 -61l-133 -272q-72 38 -116 38q-51 0 -86 -44.5t-49 -111.5v-515h-290v939h220l44 -103q76 130 207 130z" glyph-name="rcaron" horiz-adv-x="802" unicode="ř"/><glyph d="M529 1446l-43 102l386 225l79 -217zM73 229l222 189q154 -177 340 -177q84 0 140 36.5t56 91.5q0 51 -50.5 91t-126 66.5t-163.5 65t-164 81t-126.5 119.5t-50.5 177q0 171 133 277.5t357 106.5q282 0 471 -184l-210 -186q-80 60 -137 87t-132.5 27t-120.5 -36.5 t-45 -79.5q0 -38 37.5 -69t97 -54t131.5 -49t143.5 -60t131.5 -79t97.5 -116t37.5 -161q0 -189 -147.5 -304.5t-369.5 -115.5q-318 0 -552 256z" glyph-name="Sacute" horiz-adv-x="1230" unicode="Ś"/><glyph d="M374 1246l-43 102l386 226l78 -217zM481 -27q-121 0 -252.5 37.5t-184.5 85.5l116 216q46 -34 153 -71.5t184 -37.5q123 0 123 67q0 34 -41 54.5t-102 29t-131.5 26.5t-131 44.5t-101.5 86t-41 146.5q0 125 105 217t297 92q114 0 201.5 -25t191.5 -77l-102 -209 q-157 80 -291 81q-119 0 -119 -58q0 -32 41 -52t101.5 -27.5t132 -26.5t132.5 -46.5t102 -90.5t41 -155q0 -133 -110.5 -220t-313.5 -87z" glyph-name="sacute" horiz-adv-x="964" unicode="ś"/><glyph d="M1142 393q0 -177 -131.5 -291t-334.5 -128l-7 -61q80 -3 149 -50t61 -145q-9 -79 -49 -120.5t-103 -45t-120 7t-122 34.5l32 130q29 -19 78.5 -33.5t95 -9.5t46.5 43q2 31 -19.5 50t-54 26t-56 9.5t-44.5 1.5l19 163q-294 17 -509 255l222 189q154 -177 340 -177 q84 0 140 36.5t56 91.5q0 51 -50.5 91t-126 66.5t-163.5 65t-164 81t-126.5 119.5t-50.5 177q0 171 133 277.5t357 106.5q282 0 471 -184l-210 -186q-80 60 -137 87t-132.5 27t-120.5 -36.5t-45 -79.5q0 -38 37.5 -69t97 -54t131.5 -49t143.5 -60t131.5 -79t97.5 -116 t37.5 -161z" glyph-name="Scedilla" horiz-adv-x="1230" unicode="Ş"/><glyph d="M905 280q0 -125 -98.5 -210t-277.5 -96l-7 -61q75 -3 143.5 -46t70.5 -125q-5 -162 -173 -186q-72 -12 -135.5 3.5t-89.5 34.5l32 130q29 -19 78.5 -33.5t95 -9.5t47.5 43q2 31 -19.5 50t-54 26t-56.5 9.5t-45 1.5l19 163q-116 7 -230.5 43t-160.5 79l116 216 q46 -34 153 -71.5t184 -37.5q123 0 123 67q0 34 -41 54.5t-102 29t-131.5 26.5t-131 44.5t-101.5 86t-41 146.5q0 125 105 217t297 92q114 0 201.5 -25t191.5 -77l-102 -209q-157 80 -291 81q-119 0 -119 -58q0 -32 41 -52t101.5 -27.5t132 -26.5t132.5 -46.5t102 -90.5 t41 -155z" glyph-name="scedilla" horiz-adv-x="964" unicode="ş"/><glyph d="M591 1447l-255 226l79 102l216 -111l221 111l76 -102l-254 -226h-83zM73 229l222 189q154 -177 340 -177q84 0 140 36.5t56 91.5q0 51 -50.5 91t-126 66.5t-163.5 65t-164 81t-126.5 119.5t-50.5 177q0 171 133 277.5t357 106.5q282 0 471 -184l-210 -186q-80 60 -137 87 t-132.5 27t-120.5 -36.5t-45 -79.5q0 -38 37.5 -69t97 -54t131.5 -49t143.5 -60t131.5 -79t97.5 -116t37.5 -161q0 -189 -147.5 -304.5t-369.5 -115.5q-318 0 -552 256z" glyph-name="Scaron" horiz-adv-x="1230" unicode="Š"/><glyph d="M435 1248l-254 225l78 102l217 -111l220 111l77 -102l-254 -225h-84zM481 -27q-121 0 -252.5 37.5t-184.5 85.5l116 216q46 -34 153 -71.5t184 -37.5q123 0 123 67q0 34 -41 54.5t-102 29t-131.5 26.5t-131 44.5t-101.5 86t-41 146.5q0 125 105 217t297 92 q114 0 201.5 -25t191.5 -77l-102 -209q-157 80 -291 81q-119 0 -119 -58q0 -32 41 -52t101.5 -27.5t132 -26.5t132.5 -46.5t102 -90.5t41 -155q0 -133 -110.5 -220t-313.5 -87z" glyph-name="scaron" horiz-adv-x="964" unicode="š"/><glyph d="M749 0h-99l-8 -87q80 -3 149 -50t61 -145q-9 -79 -49 -120.5t-103 -45t-120.5 7t-122.5 34.5l33 130q29 -19 78.5 -33.5t94.5 -9.5t47 43q2 31 -19.5 50t-54 26t-56.5 9.5t-44 1.5l22 189h-104v1046h-389v273h1072v-273h-388v-1046z" glyph-name="Tcommaaccent" horiz-adv-x="1206" unicode="Ţ"/><glyph d="M510 -87q80 -3 149.5 -50t60.5 -145q-9 -79 -49 -120.5t-103 -45t-120 7t-122 34.5l32 130q29 -19 78.5 -33.5t95 -9.5t47.5 43q2 31 -19.5 50t-54 26t-56.5 9.5t-45 1.5l21 177q-261 72 -261 461v259h-133v231h133v293h295v-293h212l-24 -231h-188v-286 q0 -116 42 -167.5t98 -43t113 18.5q17 3 25 6l-18 -236q-108 -32 -202 -27z" glyph-name="tcommaaccent" horiz-adv-x="759" unicode="ţ"/><glyph d="M647 1447h-84l-254 226l78 102l217 -111l220 111l77 -102zM1137 1319v-273h-388v-1046h-295v1046h-389v273h1072z" glyph-name="Tcaron" horiz-adv-x="1206" unicode="Ť"/><glyph d="M891 1398l-220 -379l-103 43l113 431zM459 422q0 -116 42 -167.5t98 -43t113 18.5q17 3 25 6l-18 -236q-84 -24 -161 -27.5t-149.5 20.5t-126 77t-86 149.5t-32.5 229.5v259h-133v231h133v293h295v-293h212l-24 -231h-188v-286z" glyph-name="tcaron" horiz-adv-x="759" unicode="ť"/><glyph d="M1137 1039h-383v-179h246v-281h-246v-579h-305v579h-248v281h248v179h-384v280h1072v-280z" glyph-name="Tbar" horiz-adv-x="1206" unicode="Ŧ"/><glyph d="M459 420q0 -116 42 -167.5t98 -43t113 19.5q17 3 25 5l-18 -236q-82 -24 -158 -28t-149.5 19t-129 72.5t-90.5 141.5t-38 219h-89v196h89v90h-123v231h123v293h305v-293h212l-24 -231h-188v-90h179l-18 -196h-161v-2z" glyph-name="tbar" horiz-adv-x="759" unicode="ŧ"/><glyph d="M515 1437h-170q0 121 72.5 195.5t164.5 74.5q63 0 131.5 -51.5t105.5 -51.5q56 0 57 96h168q0 -138 -64 -205t-157 -67q-53 0 -96.5 27.5t-77 55t-62.5 27.5q-72 0 -72 -101zM1299 1319v-677q0 -326 -134 -499.5t-440 -173.5q-309 0 -442 172.5t-133 500.5v677h301v-636 q0 -138 23 -233t64.5 -141t86 -64t101 -18t100.5 19t86 65.5t64 140.5t22 231v636h301z" glyph-name="Utilde" horiz-adv-x="1447" unicode="Ũ"/><glyph d="M418 1157q-72 0 -72 -101h-170q0 121 72.5 195.5t164.5 74.5q63 0 131.5 -51t105.5 -51q56 0 57 95h169q0 -138 -64 -204.5t-158 -66.5q-53 0 -96.5 27.5t-77 54.5t-62.5 27zM715 939h306v-939h-236l-48 119q-131 -145 -297 -145q-150 0 -244.5 90t-94.5 291v584h307 l-2 -490q0 -79 24 -120t85 -41q92 0 200 106v545z" glyph-name="utilde" horiz-adv-x="1128" unicode="ũ"/><glyph d="M425 1478v172h597v-172h-597zM1299 1319v-677q0 -326 -134 -499.5t-440 -173.5q-309 0 -442 172.5t-133 500.5v677h301v-636q0 -138 23 -233t64.5 -141t86 -64t101 -18t100.5 19t86 65.5t64 140.5t22 231v636h301z" glyph-name="Umacron" horiz-adv-x="1447" unicode="Ū"/><glyph d="M853 1270v-173h-597v173h597zM715 939h306v-939h-236l-48 119q-131 -145 -297 -145q-150 0 -244.5 90t-94.5 291v584h307l-2 -490q0 -79 24 -120t85 -41q92 0 200 106v545z" glyph-name="umacron" horiz-adv-x="1128" unicode="ū"/><glyph d="M717 1831q87 0 140.5 -57t53.5 -151q0 -87 -53.5 -149.5t-140.5 -62.5t-141.5 61t-54.5 151q0 97 53 152.5t143 55.5zM717 1705q-34 0 -54.5 -23t-20.5 -59q0 -34 21 -58t54 -24q34 0 53.5 24t19.5 58t-20.5 58t-52.5 24zM1299 1319v-677q0 -326 -134 -499.5t-440 -173.5 q-309 0 -442 172.5t-133 500.5v677h301v-636q0 -138 23 -233t64.5 -141t86 -64t101 -18t100.5 19t86 65.5t64 140.5t22 231v636h301z" glyph-name="Uring" horiz-adv-x="1447" unicode="Ů"/><glyph d="M548 1031q-87 0 -141.5 60.5t-54.5 150.5q0 97 52.5 153t143.5 56q87 0 140.5 -57.5t53.5 -151.5q0 -87 -53.5 -149t-140.5 -62zM548 1324q-34 0 -54.5 -23t-20.5 -59q0 -34 21 -57.5t54 -23.5q34 0 53.5 23.5t19.5 58t-20.5 58t-52.5 23.5zM715 939h306v-939h-236 l-48 119q-131 -145 -297 -145q-150 0 -244.5 90t-94.5 291v584h307l-2 -490q0 -79 24 -120t85 -41q92 0 200 106v545z" glyph-name="uring" horiz-adv-x="1128" unicode="ů"/><glyph d="M613 1420l-110 26l38 326l222 -64zM879 1420l-109 26l36 326l223 -64zM1299 1319v-677q0 -326 -134 -499.5t-440 -173.5q-309 0 -442 172.5t-133 500.5v677h301v-636q0 -138 23 -233t64.5 -141t86 -64t101 -18t100.5 19t86 65.5t64 140.5t22 231v636h301z" glyph-name="Uhungarumlaut" horiz-adv-x="1447" unicode="Ű"/><glyph d="M594 1328l-150 -289l-109 26l37 326zM860 1328l-150 -289l-109 26l36 326zM715 939h306v-939h-236l-48 119q-131 -145 -297 -145q-150 0 -244.5 90t-94.5 291v584h307l-2 -490q0 -79 24 -120t85 -41q92 0 200 106v545z" glyph-name="uhungarumlaut" horiz-adv-x="1128" unicode="ű"/><glyph d="M998 1319h301v-677q0 -512 -321 -632q-61 -79 -85 -119.5t-24 -74.5q0 -55 51 -55q38 0 73 34l53 -89q-70 -75 -157 -78t-134 38.5t-43 113.5q0 87 104 194q-41 -5 -91 -5q-309 0 -442 172.5t-133 500.5v677h301v-636q0 -138 23 -233t64.5 -141t86 -64t101 -18t100.5 19 t86 65.5t64 140.5t22 231v636z" glyph-name="Uogonek" horiz-adv-x="1447" unicode="Ų"/><glyph d="M1021 0h-115q-61 -80 -84 -119.5t-23 -73.5q0 -55 51 -54q38 0 73 34l53 -89q-70 -75 -157 -78.5t-134 38.5t-43 113q0 56 42.5 118.5t100.5 110.5l-48 119q-131 -145 -297 -145q-150 0 -244.5 90t-94.5 291v584h307l-2 -490q0 -79 24 -120t85 -41q92 0 200 106v545h306 v-939z" glyph-name="uogonek" horiz-adv-x="1128" unicode="ų"/><glyph d="M845 1550l-217 -111l-78 102l254 225h83l255 -225l-77 -102zM1382 1319h343l-308 -1319h-294l-229 833l-261 -833h-288l-273 1319h322l128 -814l280 814h198l248 -798z" glyph-name="Wcircumflex" horiz-adv-x="1798" unicode="Ŵ"/><glyph d="M788 1169l-216 -111l-79 103l255 225h83l254 -225l-76 -103zM1220 939h323l-316 -939h-292l-145 633l-147 -633h-295l-316 939h304l145 -548l178 549h261l171 -530z" glyph-name="wcircumflex" horiz-adv-x="1580" unicode="ŵ"/><glyph d="M596 1538l-217 -111l-79 102l255 225h83l255 -225l-77 -102zM1157 1319l-404 -795h-2v-524h-316v531l-401 788h340l222 -568l220 568h341z" glyph-name="Ycircumflex" horiz-adv-x="1196" unicode="Ŷ"/><glyph d="M468 1169l-217 -111l-79 103l255 225h83l255 -225l-77 -103zM614 939h296l-337 -1055q-20 -68 -39.5 -117t-50.5 -100t-72 -81t-95.5 -51t-131 -19.5t-170.5 23.5l22 282q36 -14 65 -21.5t51 -7t39 3.5t32.5 18t24 24.5t18.5 34.5t15.5 38.5t15.5 45t15 46.5l-310 936 h302l157 -581z" glyph-name="ycircumflex" horiz-adv-x="923" unicode="ŷ"/><glyph d="M433.5 1446q-51.5 0 -83 34t-31.5 87q0 56 31 88.5t83 32.5q49 0 82 -33.5t33 -87.5q0 -48 -31.5 -84.5t-83 -36.5zM770 1446q-51 0 -82 34t-31 87q0 56 30 88.5t83 32.5q51 0 82.5 -33.5t31.5 -87.5q0 -49 -31.5 -85t-82.5 -36zM1157 1319l-404 -795h-2v-524h-316v531 l-401 788h340l222 -568l220 568h341z" glyph-name="Ydieresis" horiz-adv-x="1196" unicode="Ÿ"/><glyph d="M993 1556l-421 -110l-43 102l386 225zM1234 1318v-173l-703 -882l703 17v-280h-1123v169l705 886l-705 -17v280h1123z" glyph-name="Zacute" horiz-adv-x="1336" unicode="Ź"/><glyph d="M780 1176l-422 -111l-42 102l385 226zM872 939v-279l-461 -406l461 24v-278h-824v278l450 406l-450 -24v279h824z" glyph-name="zacute" horiz-adv-x="918" unicode="ź"/><glyph d="M672.5 1415q-71.5 0 -117 49.5t-45.5 124.5q0 79 44.5 125t117.5 46q72 0 116.5 -47t44.5 -124q0 -70 -44.5 -122t-116 -52zM1234 1318v-173l-703 -882l703 17v-280h-1123v169l705 886l-705 -17v280h1123z" glyph-name="Zdotaccent" horiz-adv-x="1336" unicode="Ż"/><glyph d="M459 1034q-72 0 -117 49.5t-45 124.5q0 79 44.5 125t117.5 46q72 0 116.5 -47t44.5 -124q0 -70 -44.5 -122t-116.5 -52zM872 939v-279l-461 -406l461 24v-278h-824v278l450 406l-450 -24v279h824z" glyph-name="zdotaccent" horiz-adv-x="918" unicode="ż"/><glyph d="M717 1447h-84l-254 226l78 102l217 -111l220 111l77 -102zM1234 1318v-173l-703 -882l703 17v-280h-1123v169l705 886l-705 -17v280h1123z" glyph-name="Zcaron" horiz-adv-x="1336" unicode="Ž"/><glyph d="M503 1067h-83l-254 225l78 102l217 -111l220 111l77 -102zM872 939v-279l-461 -406l461 24v-278h-824v278l450 406l-450 -24v279h824z" glyph-name="zcaron" horiz-adv-x="918" unicode="ž"/><glyph d="M155 1017q0 288 154.5 396.5t400.5 20.5l-2 -234q-41 15 -73.5 22t-70 5t-62 -19.5t-41 -59.5t-16.5 -107v-1041h-290v683h-116v256h116v78z" glyph-name="longs" horiz-adv-x="733" unicode="ſ"/><glyph d="M1461 1468q17 -56 16 -113.5t-19 -108.5t-65.5 -83.5t-121.5 -32.5h-34q154 -189 154 -470q0 -302 -176 -496.5t-467 -194.5q-285 0 -466 194.5t-181 496.5q0 304 177.5 498t469.5 194h1q60 0 126.5 -4.5t148.5 -11.5t126 -10q116 -5 91 142h220zM747.5 246 q167.5 0 256 115t88.5 299q0 188 -91 302.5t-253 114.5q-167 0 -257 -117t-90 -299.5t89.5 -298.5t257 -116z" glyph-name="Ohorn" horiz-adv-x="1508" unicode="Ơ"/><glyph d="M1191 1091q17 -46 13 -98.5t-22 -96.5t-66 -75t-118 -34q106 -133 106 -319q0 -92 -30 -176.5t-88.5 -158t-160 -117t-231.5 -43.5q-225 0 -367.5 134.5t-142.5 360.5q0 227 142.5 362.5t367.5 135.5q48 0 287 -15q61 -3 81.5 33.5t8.5 106.5h220zM594 230 q92 0 148.5 73.5t56.5 164.5q0 94 -55 167t-150.5 73t-150 -73.5t-54.5 -166.5q0 -92 54.5 -165t150.5 -73z" glyph-name="ohorn" horiz-adv-x="1189" unicode="ơ"/><glyph d="M1635 1456q10 -53 1.5 -112t-27 -109.5t-68 -82.5t-123.5 -32l-100 1v-476q0 -326 -134 -499t-440 -173q-309 0 -443 172t-134 500v674h301v-633q0 -138 23 -233t65.5 -141t87 -64t100.5 -18t100.5 19t86.5 66t64 141t22 230v633h307q61 -3 82 33t9 104h220z" glyph-name="Uhorn" horiz-adv-x="1575" unicode="Ư"/><glyph d="M1333 1075q10 -53 1.5 -111.5t-27 -109t-68 -83t-123.5 -32.5l-70 2v-741h-235l-48 119q-131 -145 -297 -145q-150 0 -245 90t-95 291v584h307l-1 -490q0 -79 23 -120t84 -41q94 0 202 106v545h302q92 7 70 136h220z" glyph-name="uhorn" horiz-adv-x="1377" unicode="ư"/><glyph d="M782 1447h-84l-254 226l78 102l217 -111l220 111l77 -102zM1092 0l-95 270h-531l-96 -270h-317l500 1319h355l503 -1319h-319zM565 550h331l-166 465z" glyph-name="uni01CD" horiz-adv-x="1467" unicode="Ǎ"/><glyph d="M551 1067h-83l-255 225l79 102l217 -111l220 111l77 -102zM782 939h283v-939h-218l-47 135q-94 -162 -303 -162q-200 0 -319.5 136.5t-119.5 358.5q0 224 118.5 361t313.5 137q191 0 292 -149v122zM568 236q96 0 153 63t57 170q0 106 -56 170t-153.5 64t-154.5 -64 t-57 -169.5t57 -169.5t154 -64z" glyph-name="uni01CE" horiz-adv-x="1198" unicode="ǎ"/><glyph d="M273 1447l-254 226l78 102l217 -111l220 111l77 -102l-254 -226h-84zM459 0h-300v1319h300v-1319z" glyph-name="uni01CF" horiz-adv-x="614" unicode="Ǐ"/><glyph d="M244 1067l-254 225l78 102l217 -111l220 111l77 -102l-254 -225h-84zM432 0h-295v939h295v-939z" glyph-name="uni01D0" horiz-adv-x="566" unicode="ǐ"/><glyph d="M710 1447l-254 226l78 102l217 -111l220 111l77 -102l-254 -226h-84zM748 1350q287 0 465 -192t178 -498q0 -302 -176 -496.5t-467 -194.5q-285 0 -466 194.5t-181 496.5q0 304 177.5 497t469.5 193zM748 1077q-167 0 -257 -117t-90 -299.5t89.5 -298.5t257 -116t256 115 t88.5 299q0 188 -91 302.5t-253 114.5z" glyph-name="uni01D1" horiz-adv-x="1493" unicode="Ǒ"/><glyph d="M503 1067l-254 225l79 102l216 -111l221 111l76 -102l-254 -225h-84zM568 966q222 0 366.5 -137.5t144.5 -360.5q0 -92 -30 -176.5t-89 -158t-160.5 -117t-231.5 -43.5q-225 0 -367.5 134.5t-142.5 360.5q0 227 142.5 362.5t367.5 135.5zM568 708q-104 0 -154 -71.5 t-50 -168.5q0 -96 50 -167t154 -71q102 0 153.5 72t51.5 166q0 97 -51.5 168.5t-153.5 71.5z" glyph-name="uni01D2" horiz-adv-x="1138" unicode="ǒ"/><glyph d="M679 1447l-254 226l78 102l217 -111l220 111l77 -102l-254 -226h-84zM1299 1319v-677q0 -326 -134 -499.5t-440 -173.5q-309 0 -442 172.5t-133 500.5v677h301v-636q0 -138 23 -233t64.5 -141t86 -64t101 -18t100.5 19t86 65.5t64 140.5t22 231v636h301z" glyph-name="uni01D3" horiz-adv-x="1447" unicode="Ǔ"/><glyph d="M594 1067h-84l-254 225l79 102l216 -111l220 111l77 -102zM715 939h306v-939h-236l-48 119q-131 -145 -297 -145q-150 0 -244.5 90t-94.5 291v584h307l-2 -490q0 -79 24 -120t85 -41q92 0 200 106v545z" glyph-name="uni01D4" horiz-adv-x="1128" unicode="ǔ"/><glyph d="M430 1859v172h597v-172h-597zM555 1700q49 0 81.5 -33.5t32.5 -87.5q0 -48 -31.5 -85t-83 -37t-83 34.5t-31.5 87.5q0 56 31 88.5t84 32.5zM891 1700q51 0 82.5 -33.5t31.5 -87.5q0 -49 -31.5 -85.5t-82.5 -36.5t-82 34.5t-31 87.5q0 56 30 88.5t83 32.5zM1299 1319v-677 q0 -326 -134 -499.5t-440 -173.5q-309 0 -442 172.5t-133 500.5v677h301v-636q0 -138 23 -233t64.5 -141t86 -64t101 -18t100.5 19t86 65.5t64 140.5t22 231v636h301z" glyph-name="uni01D5" horiz-adv-x="1447" unicode="Ǖ"/><glyph d="M858 1650v-172h-597v172h597zM271 1198q0 56 31 88.5t84 32.5q49 0 81.5 -33t32.5 -88q0 -48 -31.5 -84.5t-82.5 -36.5t-83 34t-32 87zM609 1198q0 56 30 88.5t83 32.5q51 0 82.5 -33t31.5 -88q0 -49 -31.5 -85t-82.5 -36t-82 34t-31 87zM715 939h306v-939h-236l-48 119 q-131 -145 -297 -145q-150 0 -244.5 90t-94.5 291v584h307l-2 -490q0 -79 24 -120t85 -41q92 0 200 106v545z" glyph-name="uni01D6" horiz-adv-x="1128" unicode="ǖ"/><glyph d="M623 1826l-43 103l386 225l78 -217zM555 1700q49 0 81.5 -33.5t32.5 -87.5q0 -48 -31.5 -85t-83 -37t-83 34.5t-31.5 87.5q0 56 31 88.5t84 32.5zM891 1700q51 0 82.5 -33.5t31.5 -87.5q0 -49 -31.5 -85.5t-82.5 -36.5t-82 34.5t-31 87.5q0 56 30 88.5t83 32.5z M1299 1319v-677q0 -326 -134 -499.5t-440 -173.5q-309 0 -442 172.5t-133 500.5v677h301v-636q0 -138 23 -233t64.5 -141t86 -64t101 -18t100.5 19t86 65.5t64 140.5t22 231v636h301z" glyph-name="uni01D7" horiz-adv-x="1447" unicode="Ǘ"/><glyph d="M876 1556l-422 -110l-43 102l386 225zM386 1077q-51 0 -83 34t-32 87q0 56 31 88.5t84 32.5q49 0 81.5 -33t32.5 -88q0 -48 -31.5 -84.5t-82.5 -36.5zM609 1198q0 56 30 88.5t83 32.5q51 0 82.5 -33t31.5 -88q0 -49 -31.5 -85t-82.5 -36t-82 34t-31 87zM715 939h306v-939 h-236l-48 119q-131 -145 -297 -145q-150 0 -244.5 90t-94.5 291v584h307l-2 -490q0 -79 24 -120t85 -41q92 0 200 106v545z" glyph-name="uni01D8" horiz-adv-x="1128" unicode="ǘ"/><glyph d="M684 1828l-254 225l79 103l216 -111l220 111l77 -103l-254 -225h-84zM555 1700q49 0 81.5 -33.5t32.5 -87.5q0 -48 -31.5 -85t-83 -37t-83 34.5t-31.5 87.5q0 56 31 88.5t84 32.5zM891 1700q51 0 82.5 -33.5t31.5 -87.5q0 -49 -31.5 -85.5t-82.5 -36.5t-82 34.5t-31 87.5 q0 56 30 88.5t83 32.5zM1299 1319v-677q0 -326 -134 -499.5t-440 -173.5q-309 0 -442 172.5t-133 500.5v677h301v-636q0 -138 23 -233t64.5 -141t86 -64t101 -18t100.5 19t86 65.5t64 140.5t22 231v636h301z" glyph-name="uni01D9" horiz-adv-x="1447" unicode="Ǚ"/><glyph d="M599 1447h-84l-254 226l79 102l216 -111l221 111l76 -102zM271 1198q0 56 31 88.5t84 32.5q49 0 81.5 -33t32.5 -88q0 -48 -31.5 -84.5t-82.5 -36.5t-83 34t-32 87zM609 1198q0 56 30 88.5t83 32.5q51 0 82.5 -33t31.5 -88q0 -49 -31.5 -85t-82.5 -36t-82 34t-31 87z M715 939h306v-939h-236l-48 119q-131 -145 -297 -145q-150 0 -244.5 90t-94.5 291v584h307l-2 -490q0 -79 24 -120t85 -41q92 0 200 106v545z" glyph-name="uni01DA" horiz-adv-x="1128" unicode="ǚ"/><glyph d="M806 1826l-422 111l79 217l387 -225zM555 1700q49 0 81.5 -33.5t32.5 -87.5q0 -48 -31.5 -85t-83 -37t-83 34.5t-31.5 87.5q0 56 31 88.5t84 32.5zM891 1700q51 0 82.5 -33.5t31.5 -87.5q0 -49 -31.5 -85.5t-82.5 -36.5t-82 34.5t-31 87.5q0 56 30 88.5t83 32.5z M1299 1319v-677q0 -326 -134 -499.5t-440 -173.5q-309 0 -442 172.5t-133 500.5v677h301v-636q0 -138 23 -233t64.5 -141t86 -64t101 -18t100.5 19t86 65.5t64 140.5t22 231v636h301z" glyph-name="uni01DB" horiz-adv-x="1447" unicode="Ǜ"/><glyph d="M681 1548l-44 -102l-422 110l79 217zM271 1198q0 56 31 88.5t84 32.5q49 0 81.5 -33t32.5 -88q0 -48 -31.5 -84.5t-82.5 -36.5t-83 34t-32 87zM609 1198q0 56 30 88.5t83 32.5q51 0 82.5 -33t31.5 -88q0 -49 -31.5 -85t-82.5 -36t-82 34t-31 87zM715 939h306v-939h-236 l-48 119q-131 -145 -297 -145q-150 0 -244.5 90t-94.5 291v584h307l-2 -490q0 -79 24 -120t85 -41q92 0 200 106v545z" glyph-name="uni01DC" horiz-adv-x="1128" unicode="ǜ"/><glyph d="M1046 2031v-172h-597v172h597zM459 1579q0 56 31 88.5t83 32.5q49 0 82 -33.5t33 -87.5q0 -48 -31.5 -85t-83 -37t-83 34.5t-31.5 87.5zM797 1579q0 56 30 88.5t83 32.5q51 0 82.5 -33.5t31.5 -87.5q0 -49 -31.5 -85.5t-83 -36.5t-82 34.5t-30.5 87.5zM1092 0l-95 270 h-531l-96 -270h-317l500 1319h355l503 -1319h-319zM565 550h331l-166 465z" glyph-name="uni01DE" horiz-adv-x="1467" unicode="Ǟ"/><glyph d="M816 1650v-172h-598v172h598zM229 1198q0 56 30.5 88.5t83.5 32.5q49 0 81.5 -33t32.5 -88q0 -48 -31.5 -84.5t-82.5 -36.5t-82.5 34t-31.5 87zM567 1198q0 56 29.5 88.5t82.5 32.5q51 0 83 -33t32 -88q0 -49 -32 -85t-83 -36t-81.5 34t-30.5 87zM782 939h283v-939h-218 l-47 135q-94 -162 -303 -162q-200 0 -319.5 136.5t-119.5 358.5q0 224 118.5 361t313.5 137q191 0 292 -149v122zM568 236q96 0 153 63t57 170q0 106 -56 170t-153.5 64t-154.5 -64t-57 -169.5t57 -169.5t154 -64z" glyph-name="uni01DF" horiz-adv-x="1198" unicode="ǟ"/><glyph d="M788 1447h-83l-254 226l78 102l217 -111l220 111l77 -102zM1260 746v-516q-87 -121 -223 -189t-298 -68q-278 0 -458 194.5t-180 498.5q0 302 176.5 494.5t461.5 192.5q331 0 524 -252l-219 -183q-51 70 -134.5 115.5t-180.5 45.5q-154 0 -241 -118t-87 -297 q0 -183 91.5 -299t256.5 -116q128 0 188 77v145h-212v275h535z" glyph-name="Gcaron" horiz-adv-x="1399" unicode="Ǧ"/><glyph d="M609 1067h-83l-255 225l79 102l217 -111l220 111l77 -102zM847 939h232v-965q0 -99 -28.5 -183.5t-85.5 -154t-158.5 -109t-236.5 -39.5q-335 0 -485 229l210 162q19 -22 26.5 -30.5t36 -34.5t52 -38.5t61.5 -24.5t77 -12q90 0 162.5 63t72.5 208v132 q-101 -116 -286 -116q-201 0 -320 129.5t-119 337.5q0 207 117 340t315 133q205 0 312 -152zM568 276q94 0 154.5 60t60.5 156q0 94 -59.5 152.5t-155.5 58.5q-94 0 -154.5 -59t-60.5 -152q0 -96 60.5 -156t154.5 -60z" glyph-name="gcaron" horiz-adv-x="1189" unicode="ǧ"/><glyph d="M1108 1176l-422 -111l-43 102l386 226zM1166 203q113 0 276 82l126 -210q-186 -102 -402 -102q-278 0 -396 201q-49 -94 -142.5 -149.5t-221.5 -55.5q-155 0 -251.5 85.5t-96.5 230.5q0 148 101.5 227t270.5 79q116 0 222 -35q-22 148 -224 149q-135 0 -274 -68l-94 247 q198 82 370 82q217 0 345 -174q106 174 353 174q259 0 365 -154.5t67 -424.5h-594q34 -184 200 -184zM1128 736q-41 0 -71 -14t-47.5 -40.5t-26 -49.5t-17.5 -59h328q12 63 -31 113t-135 50zM480 218q51 0 101 32.5t68 95.5q-77 22 -152 23q-121 0 -122 -77q1 -74 105 -74z " glyph-name="aeacute" horiz-adv-x="1665" unicode="ǽ"/><glyph d="M1118 1556l-422 -110l-42 102l385 225zM1493 1184l-145 -146q90 -166 91 -378q0 -302 -176 -496.5t-468 -194.5q-222 0 -389 125l-131 -132l-174 175l143 145q-94 166 -94 378q0 304 176.5 497t468.5 193q229 0 391 -125l133 134zM454 660q0 -77 19 -151l507 510 q-77 53 -185 53q-166 0 -253.5 -115.5t-87.5 -296.5zM1135 660q0 84 -17 147l-505 -507q80 -49 182 -49q166 0 253 113t87 296z" glyph-name="Oslashacute" horiz-adv-x="1595" unicode="Ǿ"/><glyph d="M884 1176l-421 -111l-43 102l386 226zM959 794q113 -131 113 -326q0 -92 -30 -176.5t-89 -158t-160.5 -117t-231.5 -43.5q-195 0 -324 99l-80 -81l-78 79l76 77q-104 131 -104 321q0 227 142.5 362.5t367.5 135.5q183 0 318 -96l87 87l78 -78zM357 468q0 -49 18 -101 l303 302q-51 39 -117 39q-96 0 -150 -73t-54 -167zM561 230q92 0 148.5 73.5t56.5 164.5q0 60 -22 111l-305 -306q54 -43 122 -43z" glyph-name="oslashacute" horiz-adv-x="1124" unicode="ǿ"/><glyph d="M466 981q0 -38 37.5 -69t97 -54t131.5 -49t143.5 -60t131.5 -79t97.5 -116t37.5 -161q0 -189 -147.5 -304.5t-369.5 -115.5q-317 0 -552 256l222 189q154 -177 340 -177q84 0 140 36.5t56 91.5q0 51 -50.5 91t-126 66.5t-163.5 65t-164 81t-126.5 119.5t-50.5 177 q0 171 133 277.5t357 106.5q282 0 471 -184l-210 -186q-80 60 -137 87t-132.5 27t-120.5 -36.5t-45 -79.5zM633 -121q72 0 110.5 -49.5t38.5 -133.5q0 -220 -227 -254l-29 92q101 19 124 65h-17q-58 0 -94 38.5t-36 99.5q0 65 35 103.5t95 38.5z" glyph-name="Scommaaccent" horiz-adv-x="1230" unicode="Ș"/><glyph d="M481 -27q-121 0 -252.5 37.5t-184.5 85.5l116 216q46 -34 153 -71.5t184 -37.5q123 0 123 67q0 34 -41 54.5t-102 29t-131.5 26.5t-131 44.5t-101.5 86t-41 146.5q0 125 105 217t297 92q114 0 201.5 -25t191.5 -77l-102 -209q-157 80 -291 81q-119 0 -119 -58 q0 -32 41 -52t101.5 -27.5t132 -26.5t132.5 -46.5t102 -90.5t41 -155q0 -133 -110.5 -220t-313.5 -87zM486 -121q72 0 110.5 -49.5t38.5 -133.5q0 -220 -227 -254l-29 92q101 19 124 65h-17q-58 0 -93.5 38.5t-35.5 99.5q0 65 34.5 103.5t94.5 38.5z" glyph-name="scommaaccent" horiz-adv-x="964" unicode="ș"/><glyph d="M65 1319h1072v-273h-388v-1046h-295v1046h-389v273zM606 -121q72 0 110 -49.5t38 -133.5q0 -220 -227 -254l-29 92q101 19 125 65h-17q-58 0 -94 38.5t-36 99.5q0 65 35 103.5t95 38.5z" glyph-name="uni021A" horiz-adv-x="1206" unicode="Ț"/><glyph d="M459 422q0 -116 42 -167.5t98 -43t113 18.5q17 3 25 6l-18 -236q-84 -24 -161 -27.5t-149.5 20.5t-126 77t-86 149.5t-32.5 229.5v259h-133v231h133v293h295v-293h212l-24 -231h-188v-286zM474 -121q72 0 110.5 -49.5t38.5 -133.5q0 -220 -227 -254l-29 92q101 19 125 65 h-18q-58 0 -93.5 38.5t-35.5 99.5q0 65 34.5 103.5t94.5 38.5z" glyph-name="uni021B" horiz-adv-x="759" unicode="ț"/><glyph d="M1067 1053h-618v-249l485 -4v-254h-485v-280h618v-266h-444l-9 -87q75 -3 143.5 -46t70.5 -125q-5 -162 -173 -186q-72 -12 -135.5 3.5t-89.5 34.5l33 130q29 -19 78.5 -33.5t94.5 -9.5t47 43q2 31 -19.5 50t-54 26t-56.5 9.5t-44 1.5l22 189h-372v1319h908v-266z" glyph-name="uni0228" horiz-adv-x="1184" unicode="Ȩ"/><glyph d="M959 75q-179 -99 -367 -102l-7 -60q75 -3 143.5 -46t70.5 -125q-5 -162 -173 -186q-72 -12 -135.5 3.5t-89.5 34.5l32 130q29 -19 78.5 -33.5t95 -9.5t47.5 43q2 31 -19.5 50t-54 26t-56.5 9.5t-44 1.5l18 165q-201 22 -320.5 155.5t-119.5 339.5q0 97 27.5 183.5t83 157 t150 112.5t215.5 42q246 0 357 -158t61 -421h-580q34 -184 198 -184q114 0 278 82zM541 751q-63 0 -103 -38.5t-53 -79.5t-13 -80h331q5 73 -32.5 135.5t-129.5 62.5z" glyph-name="uni0229" unicode="ȩ"/><glyph d="M461 1859v172h597v-172h-597zM585 1700q49 0 82 -33.5t33 -87.5q0 -48 -31.5 -85t-83 -37t-83 34.5t-31.5 87.5q0 56 30.5 88.5t83.5 32.5zM922 1700q51 0 82.5 -33.5t31.5 -87.5q0 -49 -31.5 -85.5t-83 -36.5t-82 34.5t-30.5 87.5q0 56 30 88.5t83 32.5zM748 1350 q287 0 465 -192t178 -498q0 -302 -176 -496.5t-467 -194.5q-285 0 -466 194.5t-181 496.5q0 304 177.5 497t469.5 193zM748 1077q-167 0 -257 -117t-90 -299.5t89.5 -298.5t257 -116t256 115t88.5 299q0 188 -91 302.5t-253 114.5z" glyph-name="uni022A" horiz-adv-x="1493" unicode="Ȫ"/><glyph d="M254 1478v172h598v-172h-598zM379 1319q49 0 81.5 -33t32.5 -88q0 -48 -31.5 -84.5t-82.5 -36.5t-82.5 34t-31.5 87q0 56 30.5 88.5t83.5 32.5zM715 1319q51 0 82.5 -33t31.5 -88q0 -49 -31.5 -85t-82.5 -36t-82 34t-31 87q0 56 30 88.5t83 32.5zM568 966 q222 0 366.5 -137.5t144.5 -360.5q0 -92 -30 -176.5t-89 -158t-160.5 -117t-231.5 -43.5q-225 0 -367.5 134.5t-142.5 360.5q0 227 142.5 362.5t367.5 135.5zM568 708q-104 0 -154 -71.5t-50 -168.5q0 -96 50 -167t154 -71q102 0 153.5 72t51.5 166q0 97 -51.5 168.5 t-153.5 71.5z" glyph-name="uni022B" horiz-adv-x="1138" unicode="ȫ"/><glyph d="M485 939v-953q0 -121 -28.5 -215t-82 -157t-107.5 -102t-129 -77l-133 215l9 5q10 3 25.5 14.5t34 27t37.5 39t34 52t25.5 67.5t10.5 82v1002h304z" glyph-name="uni0237" horiz-adv-x="653" unicode="ȷ"/><glyph d="M1563 939v-113h-136v-181q0 -326 -134 -499t-440 -173q-309 0 -442 172t-133 500v183h-136v111h136v380h301v-380h547v380h301v-380h136zM1126 686v140l-547 2v-142q0 -138 23 -233t64.5 -141t86 -64t101 -18t100.5 19t86 66t64 140.5t22 230.5z" glyph-name="uni0244" horiz-adv-x="1704" unicode="Ʉ"/><glyph d="M635 230q119 0 254 46l92 -242q-184 -65 -368 -65q-97 0 -182 22.5t-152 67.5t-106.5 122t-39.5 176v578h241l44 -118q92 148 290 149q155 0 241.5 -87t86.5 -229q0 -154 -104 -240t-280 -86q-125 0 -224 38v-34q0 -98 207 -98zM609 742q-65 0 -116 -50t-61 -142 q70 -27 145 -28q65 0 109 34.5t44 80.5q0 49 -34 77t-87 28z" glyph-name="uni0250" horiz-adv-x="1093" unicode="ɐ"/><glyph d="M782 939h283v-939h-218l-47 135q-94 -162 -303 -162q-200 0 -319.5 136.5t-119.5 358.5q0 224 118.5 361t313.5 137q191 0 292 -149v122zM568 236q96 0 153 63t57 170q0 106 -56 170t-153.5 64t-154.5 -64t-57 -169.5t57 -169.5t154 -64z" glyph-name="uni0251" horiz-adv-x="1198" unicode="ɑ"/><glyph d="M1004 468q0 -97 -27.5 -183.5t-83 -157.5t-150 -112.5t-216.5 -41.5q-246 0 -356.5 157.5t-62.5 420.5h581q-34 184 -199 185q-113 0 -277 -82l-111 210q96 53 181.5 77.5t206.5 24.5q232 0 373 -136.5t141 -361.5zM689 386h-332q-3 -73 34 -135.5t130 -62.5 q63 0 103 38.5t52.5 79.5t12.5 80z" glyph-name="uni0259" unicode="ə"/><glyph d="M1200 633v-111h-113v-522h-235l-48 119q-131 -145 -297 -145q-150 0 -245 90t-95 291v167h-109v111h109v306h307l-1 -306h309v306h305v-306h113zM782 394v128h-309v-73q0 -79 23 -120t84 -41q94 0 202 106z" glyph-name="uni0289" horiz-adv-x="1259" unicode="ʉ"/><glyph d="M365 1386h84l254 -225l-77 -103l-220 111l-217 -111l-78 103z" glyph-name="circumflex" horiz-adv-x="810" unicode="ˆ"/><glyph d="M365 1067l-254 225l78 102l217 -111l220 111l77 -102l-254 -225h-84z" glyph-name="caron" horiz-adv-x="810" unicode="ˇ"/><glyph d="M509 1319h177q-3 -109 -65.5 -179t-200.5 -70q-259 0 -265 249h178q12 -96 87 -95q20 0 36.5 6t25 15t14.5 22t7.5 21.5t3.5 18.5t2 12z" glyph-name="breve" horiz-adv-x="837" unicode="˘"/><glyph d="M459 1379q72 0 116.5 -47t44.5 -124q0 -70 -44.5 -122t-116.5 -52t-117 49.5t-45 124.5q0 79 44.5 125t117.5 46z" glyph-name="dotaccent" horiz-adv-x="916" unicode="˙"/><glyph d="M423 1451q87 0 141 -57.5t54 -151.5q0 -87 -54 -149t-141 -62t-141.5 60.5t-54.5 150.5q0 97 53 153t143 56zM423 1324q-34 0 -54.5 -23t-20.5 -59q0 -34 21.5 -57.5t53.5 -23.5q34 0 54 23.5t20 58t-21 58t-53 23.5z" glyph-name="ring" horiz-adv-x="849" unicode="˚"/><glyph d="M428 17h118q-65 -84 -89.5 -124.5t-24.5 -76.5q0 -55 51 -55q38 0 73 34l53 -89q-70 -75 -157 -78t-134 38.5t-43 113.5q0 58 46.5 123.5t106.5 113.5z" glyph-name="ogonek" horiz-adv-x="856" unicode="˛"/><glyph d="M357 1056h-171q0 121 72.5 195.5t164.5 74.5q63 0 131.5 -51t105.5 -51q56 0 57 95h169q0 -138 -64 -204.5t-158 -66.5q-53 0 -96.5 27.5t-77 54.5t-62.5 27q-71 0 -71 -101z" glyph-name="tilde" horiz-adv-x="1073" unicode="˜"/><glyph d="M195 1034l-110 26l38 326l222 -63zM461 1034l-109 26l35 326l224 -63z" glyph-name="hungarumlaut" horiz-adv-x="682" unicode="˝"/><glyph d="M-259 1065l-422 111l79 217l387 -226z" glyph-name="gravecomb" horiz-adv-x="0" unicode="̀"/><glyph d="M-526 1065l-42 102l385 226l79 -217z" glyph-name="acutecomb" horiz-adv-x="0" unicode="́"/><glyph d="M-445 1386h83l254 -225l-76 -103l-220 111l-217 -111l-79 103z" glyph-name="uni0302" horiz-adv-x="0" unicode="̂"/><glyph d="M-717 1056h-170q0 121 72.5 195.5t164.5 74.5q63 0 131 -51t106 -51q56 0 56 95h169q0 -138 -64 -204.5t-158 -66.5q-53 0 -96.5 27.5t-76.5 54.5t-62 27q-72 0 -72 -101z" glyph-name="tildecomb" horiz-adv-x="0" unicode="̃"/><glyph d="M-741 1097v173h598v-173h-598z" glyph-name="uni0304" horiz-adv-x="0" unicode="̄"/><glyph d="M-329 1319h177q-3 -109 -65.5 -179t-200.5 -70q-259 0 -265 249h178q12 -96 87 -95q20 0 36.5 6t25 15t14.5 22t7.5 21.5t3.5 18.5t2 12z" glyph-name="uni0306" horiz-adv-x="0" unicode="̆"/><glyph d="M-457 1379q72 0 116 -47t44 -124q0 -70 -44.5 -122t-116 -52t-117 49.5t-45.5 124.5q0 79 45 125t118 46z" glyph-name="uni0307" horiz-adv-x="0" unicode="̇"/><glyph d="M-631 1319q49 0 81.5 -33t32.5 -88q0 -48 -31.5 -84.5t-83 -36.5t-83 34t-31.5 87q0 56 31 88.5t84 32.5zM-295 1319q51 0 82.5 -33t31.5 -88q0 -49 -31.5 -85t-82.5 -36t-82 34t-31 87q0 56 30 88.5t83 32.5z" glyph-name="uni0308" horiz-adv-x="0" unicode="̈"/><glyph d="M-340 1051h-117q15 20 39.5 52t33.5 44t20.5 30t15 30.5t3.5 28.5q0 55 -51 54q-34 0 -73 -34l-53 89q73 75 158.5 78.5t132.5 -38.5t43 -114q-2 -101 -152 -220z" glyph-name="hookabovecomb" horiz-adv-x="0" unicode="̉"/><glyph d="M-427 1451q87 0 141 -57.5t54 -151.5q0 -87 -54 -149t-141 -62t-141.5 60.5t-54.5 150.5q0 97 53 153t143 56zM-427 1324q-34 0 -54.5 -23t-20.5 -59q0 -34 21.5 -57.5t53.5 -23.5q34 0 54 23.5t20 58t-21 58t-53 23.5z" glyph-name="uni030A" horiz-adv-x="0" unicode="̊"/><glyph d="M-488 1034l-109 26l37 326l222 -63zM-222 1034l-109 26l36 326l223 -63z" glyph-name="uni030B" horiz-adv-x="0" unicode="̋"/><glyph d="M-445 1067l-255 225l79 102l217 -111l220 111l76 -102l-254 -225h-83z" glyph-name="uni030C" horiz-adv-x="0" unicode="̌"/><glyph d="M-268 1200q0 -63 -36.5 -101.5t-98.5 -38.5q-72 0 -107.5 49.5t-35.5 134.5q0 106 58 171.5t169 82.5l27 -93q-101 -19 -123 -65h16q58 0 94.5 -39.5t36.5 -100.5z" glyph-name="uni0312" horiz-adv-x="0" unicode="̒"/><glyph d="M-457 -99q72 0 116 -47t44 -124q0 -70 -44.5 -122t-116 -52t-117 49.5t-45.5 124.5q0 79 45 125t118 46z" glyph-name="dotbelowcomb" horiz-adv-x="0" unicode="̣"/><glyph d="M-416 -121q72 0 110 -49.5t38 -133.5q0 -220 -227 -254l-29 92q101 19 125 65h-17q-58 0 -94 38.5t-36 99.5q0 65 35 103.5t95 38.5z" glyph-name="uni0326" horiz-adv-x="0" unicode="̦"/><glyph d="M-474 19l92 -7l-11 -99q75 -3 143.5 -46t70.5 -125q-5 -162 -173 -186q-72 -12 -135.5 3.5t-89.5 34.5l33 130q29 -19 78.5 -33.5t94.5 -9.5t47 43q2 31 -19.5 50t-54 26t-56.5 9.5t-44 1.5z" glyph-name="uni0327" horiz-adv-x="0" unicode="̧"/><glyph d="M-428 17h117q-65 -84 -89.5 -124.5t-24.5 -76.5q0 -55 51 -55q38 0 74 34l53 -89q-70 -75 -157.5 -78t-134 38.5t-43.5 113.5q0 58 47 123.5t107 113.5z" glyph-name="uni0328" horiz-adv-x="0" unicode="̨"/><glyph d="M-498 -171h85l253 -225l-77 -102l-220 111l-217 -111l-79 102z" glyph-name="uni032D" horiz-adv-x="0" unicode="̭"/><glyph d="M-737 -343v172h597v-172h-597z" glyph-name="uni0331" horiz-adv-x="0" unicode="̱"/><glyph d="M930 630q75 -39 118.5 -119.5t43.5 -181.5q0 -143 -86 -236t-224 -93h-125v-159h-113v159h-385v1161h385v158h113v-158h77q126 0 207 -85.5t81 -218.5q0 -145 -92 -227zM544 925h-128v-212h128v212zM691 925h-34v-212h27q44 0 78.5 26.5t34.5 79.5q0 49 -30 77.5 t-76 28.5zM416 236h128v237h-128v-237zM744 236q44 0 79 34t35 85q0 56 -38 87t-90 31h-73v-237h87z" glyph-name="uni0E3F" horiz-adv-x="1184" unicode="฿"/><glyph d="M1021 713q89 -44 140 -134.5t51 -204.5q0 -164 -101 -269t-261 -105h-691v1319h636q148 0 242.5 -97t94.5 -249q0 -159 -111 -260zM749 1053h-298v-254h286q55 0 97.5 34t42.5 92q0 56 -37.5 92t-90.5 36zM806 266q56 0 99.5 42t43.5 102q0 65 -46 104t-109 39h-343v-287 h355zM649 -99q72 0 116 -47t44 -124q0 -70 -44.5 -122t-116 -52t-117 49.5t-45.5 124.5q0 79 45 125t118 46z" glyph-name="uni1E04" horiz-adv-x="1303" unicode="Ḅ"/><glyph d="M688 966q203 0 320.5 -138.5t117.5 -356.5q0 -220 -118.5 -359t-312.5 -139q-207 0 -316 162l-51 -135h-217v1468h290v-625q103 123 287 123zM616 236q94 0 154.5 64.5t60.5 168.5t-60.5 169t-154.5 65t-154.5 -64t-60.5 -170q0 -104 60.5 -168.5t154.5 -64.5zM650 -99 q72 0 116.5 -47t44.5 -124q0 -70 -44.5 -122t-116 -52t-117 49.5t-45.5 124.5q0 79 44.5 125t117.5 46z" glyph-name="uni1E05" horiz-adv-x="1187" unicode="ḅ"/><glyph d="M761 1319q283 0 459 -184t176 -480q0 -288 -176.5 -471.5t-458.5 -183.5h-602v1319h602zM761 275q150 0 236.5 105.5t86.5 274.5q0 171 -87 280t-236 109h-302v-769h302zM732 -99q72 0 116.5 -47t44.5 -124q0 -70 -44.5 -122t-116.5 -52t-117 49.5t-45 124.5 q0 79 44.5 125t117.5 46z" glyph-name="uni1E0C" horiz-adv-x="1498" unicode="Ḍ"/><glyph d="M783 1468h290v-1468h-215l-52 137q-111 -164 -316 -164q-195 0 -313.5 139t-118.5 359q0 218 118 356.5t321 138.5q186 0 286 -123v625zM568 236q94 0 154.5 64.5t60.5 168.5q0 106 -60.5 170t-154.5 64t-154.5 -65t-60.5 -169t60.5 -168.5t154.5 -64.5zM524 -99 q72 0 116 -47t44 -124q0 -70 -44 -122t-116 -52t-117 49.5t-45 124.5q0 79 44.5 125t117.5 46z" glyph-name="uni1E0D" horiz-adv-x="1187" unicode="ḍ"/><glyph d="M761 1319q283 0 459 -184t176 -480q0 -288 -176.5 -471.5t-458.5 -183.5h-602v1319h602zM761 275q150 0 236.5 105.5t86.5 274.5q0 171 -87 280t-236 109h-302v-769h302zM452 -343v172h598v-172h-598z" glyph-name="uni1E0E" horiz-adv-x="1498" unicode="Ḏ"/><glyph d="M783 1468h290v-1468h-215l-52 137q-111 -164 -316 -164q-195 0 -313.5 139t-118.5 359q0 218 118 356.5t321 138.5q186 0 286 -123v625zM568 236q94 0 154.5 64.5t60.5 168.5q0 106 -60.5 170t-154.5 64t-154.5 -65t-60.5 -169t60.5 -168.5t154.5 -64.5zM244 -343v172 h597v-172h-597z" glyph-name="uni1E0F" horiz-adv-x="1187" unicode="ḏ"/><glyph d="M761 1319q283 0 459 -184t176 -480q0 -288 -176.5 -471.5t-458.5 -183.5h-602v1319h602zM761 275q150 0 236.5 105.5t86.5 274.5q0 171 -87 280t-236 109h-302v-769h302zM691 -171h86l252 -225l-77 -102l-220 111l-217 -111l-78 102z" glyph-name="uni1E12" horiz-adv-x="1498" unicode="Ḓ"/><glyph d="M783 1468h290v-1468h-215l-52 137q-111 -164 -316 -164q-195 0 -313.5 139t-118.5 359q0 218 118 356.5t321 138.5q186 0 286 -123v625zM568 236q94 0 154.5 64.5t60.5 168.5q0 106 -60.5 170t-154.5 64t-154.5 -65t-60.5 -169t60.5 -168.5t154.5 -64.5zM483 -171h85 l253 -225l-77 -102l-220 111l-217 -111l-78 102z" glyph-name="uni1E13" horiz-adv-x="1187" unicode="ḓ"/><glyph d="M1004 1319h300v-1319h-300v521h-545v-521h-300v1319h300v-524h545v524zM756 -99q72 0 116 -47t44 -124q0 -70 -44 -122t-116 -52t-117 49.5t-45 124.5q0 79 44.5 125t117.5 46z" glyph-name="uni1E24" horiz-adv-x="1462" unicode="Ḥ"/><glyph d="M691 964q150 0 245 -88.5t95 -291.5v-584h-307l1 527q0 79 -23 120t-84 41q-90 0 -202 -109v-579h-305v1449h305v-606q121 121 275 121zM276 650q-2 -3 -1 -7v-1q2 3 3 7zM575 -99q72 0 116.5 -47t44.5 -124q0 -70 -44.5 -122t-116.5 -52t-117 49.5t-45 124.5 q0 79 44.5 125t117.5 46z" glyph-name="uni1E25" horiz-adv-x="1121" unicode="ḥ"/><glyph d="M217 1826l-43 103l386 225l78 -217zM148 1700q49 0 82 -33.5t33 -87.5q0 -48 -31.5 -85t-83 -37t-83 34.5t-31.5 87.5q0 56 30.5 88.5t83.5 32.5zM485 1700q51 0 82.5 -33.5t31.5 -87.5q0 -49 -31.5 -85.5t-83 -36.5t-82 34.5t-30.5 87.5q0 56 30 88.5t83 32.5zM459 0 h-300v1319h300v-1319z" glyph-name="uni1E2E" horiz-adv-x="614" unicode="Ḯ"/><glyph d="M188 1446l-43 102l386 225l78 -217zM119 1319q49 0 82 -33t33 -88q0 -48 -31.5 -84.5t-83 -36.5t-83 34t-31.5 87q0 56 30.5 88.5t83.5 32.5zM456 1319q51 0 82.5 -33t31.5 -88q0 -49 -31.5 -85t-83 -36t-82 34t-30.5 87q0 56 30 88.5t83 32.5zM432 0h-295v939h295v-939z " glyph-name="uni1E2F" horiz-adv-x="566" unicode="ḯ"/><glyph d="M459 275h608v-275h-908v1319h300v-1044zM640 -99q72 0 116 -47t44 -124q0 -70 -44 -122t-116 -52t-117 49.5t-45 124.5q0 79 44.5 125t117.5 46z" glyph-name="uni1E36" horiz-adv-x="1174" unicode="Ḷ"/><glyph d="M521 253l44 -229q-97 -36 -178.5 -41t-148 22t-103 104t-36.5 200v1119h295v-1085q1 -116 127 -90zM343 -99q72 0 116 -47t44 -124q0 -70 -44 -122t-116 -52t-117 49.5t-45 124.5q0 79 44.5 125t117.5 46z" glyph-name="uni1E37" horiz-adv-x="636" unicode="ḷ"/><glyph d="M459 275h608v-275h-908v1319h300v-1044zM599 -171h85l253 -225l-77 -102l-220 111l-217 -111l-78 102z" glyph-name="uni1E3C" horiz-adv-x="1174" unicode="Ḽ"/><glyph d="M521 253l44 -229q-97 -36 -178.5 -41t-148 22t-103 104t-36.5 200v1119h295v-1085q1 -116 127 -90zM302 -171h85l253 -225l-77 -102l-220 111l-217 -111l-78 102z" glyph-name="uni1E3D" horiz-adv-x="636" unicode="ḽ"/><glyph d="M1154 1556l-422 -110l-43 102l386 225zM1521 0h-296l-51 872l-237 -872h-239l-230 829l-50 -829h-300l85 1319h376l240 -899l241 899h375z" glyph-name="uni1E3E" horiz-adv-x="1643" unicode="Ḿ"/><glyph d="M1132 1176l-422 -111l-43 102l386 226zM1184 964q140 0 229 -88.5t89 -291.5v-584h-292l2 551q0 80 -20.5 121t-75.5 41q-68 0 -162 -87q2 -14 2 -42v-584h-294l4 551q0 80 -20.5 121t-75.5 41q-70 0 -159 -83v-630h-305v939h235l38 -96q118 121 259 121q189 0 268 -145 q121 145 278 145zM251 649z" glyph-name="uni1E3F" horiz-adv-x="1604" unicode="ḿ"/><glyph d="M757.5 1415q-71.5 0 -116.5 49.5t-45 124.5q0 79 44 125t118 46q72 0 116 -47t44 -124q0 -70 -44.5 -122t-116 -52zM1103 1319h290v-1319h-294l-648 843v-843h-292v1319h295l649 -850v850z" glyph-name="uni1E44" horiz-adv-x="1549" unicode="Ṅ"/><glyph d="M537.5 1034q-71.5 0 -117 49.5t-45.5 124.5q0 79 44.5 125t118.5 46q72 0 116 -47t44 -124q0 -70 -44.5 -122t-116 -52zM686 964q150 0 245 -89.5t95 -290.5v-584h-309l3 527q0 79 -24 120t-85 41q-90 0 -200 -109v-579h-305v939h235l48 -118q133 143 297 143zM275 650 l-4 -10l5 10h-1z" glyph-name="uni1E45" horiz-adv-x="1128" unicode="ṅ"/><glyph d="M1103 1319h290v-1319h-294l-648 843v-843h-292v1319h295l649 -850v850zM797 -99q72 0 116 -47t44 -124q0 -70 -44 -122t-116 -52t-117 49.5t-45 124.5q0 79 44.5 125t117.5 46z" glyph-name="uni1E46" horiz-adv-x="1549" unicode="Ṇ"/><glyph d="M686 964q150 0 245 -89.5t95 -290.5v-584h-309l3 527q0 79 -24 120t-85 41q-90 0 -200 -109v-579h-305v939h235l48 -118q133 143 297 143zM275 650l-4 -10l5 10h-1zM591 -99q72 0 116 -47t44 -124q0 -70 -44.5 -122t-116 -52t-117 49.5t-45.5 124.5q0 79 45 125t118 46z " glyph-name="uni1E47" horiz-adv-x="1128" unicode="ṇ"/><glyph d="M1103 1319h290v-1319h-294l-648 843v-843h-292v1319h295l649 -850v850zM756 -171h85l253 -225l-77 -102l-220 111l-217 -111l-78 102z" glyph-name="uni1E4A" horiz-adv-x="1549" unicode="Ṋ"/><glyph d="M686 964q150 0 245 -89.5t95 -290.5v-584h-309l3 527q0 79 -24 120t-85 41q-90 0 -200 -109v-579h-305v939h235l48 -118q133 143 297 143zM275 650l-4 -10l5 10h-1zM550 -171h85l252 -225l-76 -102l-220 111l-217 -111l-79 102z" glyph-name="uni1E4B" horiz-adv-x="1128" unicode="ṋ"/><glyph d="M679 1826l-42 103l385 225l79 -217zM573 1437h-170q0 121 72.5 195.5t164.5 74.5q63 0 131.5 -51.5t105.5 -51.5q56 0 57 96h169q0 -138 -64 -205t-158 -67q-53 0 -96.5 27.5t-77 55t-62.5 27.5q-72 0 -72 -101zM748 1350q287 0 465 -192t178 -498q0 -302 -176 -496.5 t-467 -194.5q-285 0 -466 194.5t-181 496.5q0 304 177.5 497t469.5 193zM748 1077q-167 0 -257 -117t-90 -299.5t89.5 -298.5t257 -116t256 115t88.5 299q0 188 -91 302.5t-253 114.5z" glyph-name="uni1E4C" horiz-adv-x="1493" unicode="Ṍ"/><glyph d="M473 1446l-43 102l386 225l78 -217zM367 1056h-171q0 121 72.5 195.5t164.5 74.5q63 0 131.5 -51t106.5 -51q56 0 56 95h169q0 -138 -64 -204.5t-158 -66.5q-53 0 -96.5 27.5t-76.5 54.5t-62 27q-72 0 -72 -101zM568 966q222 0 366.5 -137.5t144.5 -360.5 q0 -92 -30 -176.5t-89 -158t-160.5 -117t-231.5 -43.5q-225 0 -367.5 134.5t-142.5 360.5q0 227 142.5 362.5t367.5 135.5zM568 708q-104 0 -154 -71.5t-50 -168.5q0 -96 50 -167t154 -71q102 0 153.5 72t51.5 166q0 97 -51.5 168.5t-153.5 71.5z" glyph-name="uni1E4D" horiz-adv-x="1138" unicode="ṍ"/><glyph d="M833 1826l-422 111l79 217l387 -225zM456 1478v172h597v-172h-597zM748 1350q287 0 465 -192t178 -498q0 -302 -176 -496.5t-467 -194.5q-285 0 -466 194.5t-181 496.5q0 304 177.5 497t469.5 193zM748 1077q-167 0 -257 -117t-90 -299.5t89.5 -298.5t257 -116t256 115 t88.5 299q0 188 -91 302.5t-253 114.5z" glyph-name="uni1E50" horiz-adv-x="1493" unicode="Ṑ"/><glyph d="M626 1446l-421 110l78 217l388 -225zM249 1097v173h598v-173h-598zM568 966q222 0 366.5 -137.5t144.5 -360.5q0 -92 -30 -176.5t-89 -158t-160.5 -117t-231.5 -43.5q-225 0 -367.5 134.5t-142.5 360.5q0 227 142.5 362.5t367.5 135.5zM568 708q-104 0 -154 -71.5 t-50 -168.5q0 -96 50 -167t154 -71q102 0 153.5 72t51.5 166q0 97 -51.5 168.5t-153.5 71.5z" glyph-name="uni1E51" horiz-adv-x="1138" unicode="ṑ"/><glyph d="M650 1826l-42 103l385 225l79 -217zM456 1478v172h597v-172h-597zM748 1350q287 0 465 -192t178 -498q0 -302 -176 -496.5t-467 -194.5q-285 0 -466 194.5t-181 496.5q0 304 177.5 497t469.5 193zM748 1077q-167 0 -257 -117t-90 -299.5t89.5 -298.5t257 -116t256 115 t88.5 299q0 188 -91 302.5t-253 114.5z" glyph-name="uni1E52" horiz-adv-x="1493" unicode="Ṓ"/><glyph d="M444 1446l-43 102l386 225l78 -217zM249 1097v173h598v-173h-598zM568 966q222 0 366.5 -137.5t144.5 -360.5q0 -92 -30 -176.5t-89 -158t-160.5 -117t-231.5 -43.5q-225 0 -367.5 134.5t-142.5 360.5q0 227 142.5 362.5t367.5 135.5zM568 708q-104 0 -154 -71.5 t-50 -168.5q0 -96 50 -167t154 -71q102 0 153.5 72t51.5 166q0 97 -51.5 168.5t-153.5 71.5z" glyph-name="uni1E53" horiz-adv-x="1138" unicode="ṓ"/><glyph d="M73 229l222 189q154 -177 340 -177q84 0 140 36.5t56 91.5q0 51 -50.5 91t-126 66.5t-163.5 65t-164 81t-126.5 119.5t-50.5 177q0 171 133 277.5t357 106.5q282 0 471 -184l-210 -186q-80 60 -137 87t-132.5 27t-120.5 -36.5t-45 -79.5q0 -38 37.5 -69t97 -54t131.5 -49 t143.5 -60t131.5 -79t97.5 -116t37.5 -161q0 -189 -147.5 -304.5t-369.5 -115.5q-318 0 -552 256zM633 -99q72 0 116.5 -47t44.5 -124q0 -70 -44.5 -122t-116.5 -52t-117 49.5t-45 124.5q0 79 44.5 125t117.5 46z" glyph-name="uni1E62" horiz-adv-x="1230" unicode="Ṣ"/><glyph d="M481 -27q-121 0 -252.5 37.5t-184.5 85.5l116 216q46 -34 153 -71.5t184 -37.5q123 0 123 67q0 34 -41 54.5t-102 29t-131.5 26.5t-131 44.5t-101.5 86t-41 146.5q0 125 105 217t297 92q114 0 201.5 -25t191.5 -77l-102 -209q-157 80 -291 81q-119 0 -119 -58 q0 -32 41 -52t101.5 -27.5t132 -26.5t132.5 -46.5t102 -90.5t41 -155q0 -133 -110.5 -220t-313.5 -87zM486 -99q72 0 116.5 -47t44.5 -124q0 -70 -44.5 -122t-116 -52t-117 49.5t-45.5 124.5q0 79 44.5 125t117.5 46z" glyph-name="uni1E63" horiz-adv-x="964" unicode="ṣ"/><glyph d="M65 1319h1072v-273h-388v-1046h-295v1046h-389v273zM606 -99q72 0 116 -47t44 -124q0 -70 -44 -122t-116 -52t-117 49.5t-45 124.5q0 79 44.5 125t117.5 46z" glyph-name="uni1E6C" horiz-adv-x="1206" unicode="Ṭ"/><glyph d="M459 422q0 -116 42 -167.5t98 -43t113 18.5q17 3 25 6l-18 -236q-84 -24 -161 -27.5t-149.5 20.5t-126 77t-86 149.5t-32.5 229.5v259h-133v231h133v293h295v-293h212l-24 -231h-188v-286zM474 -99q72 0 116.5 -47t44.5 -124q0 -70 -44.5 -122t-116 -52t-117 49.5 t-45.5 124.5q0 79 44.5 125t117.5 46z" glyph-name="uni1E6D" horiz-adv-x="759" unicode="ṭ"/><glyph d="M65 1319h1072v-273h-388v-1046h-295v1046h-389v273zM326 -343v172h597v-172h-597z" glyph-name="uni1E6E" horiz-adv-x="1206" unicode="Ṯ"/><glyph d="M719 0q-84 -24 -161 -27.5t-149.5 20.5t-126 77t-86 149.5t-32.5 229.5v259h-133v231h133v293h295v-293h212l-24 -231h-188v-286q0 -116 42 -167.5t98 -43t113 18.5q17 3 25 6zM195 -171h597v-172h-597v172z" glyph-name="uni1E6F" horiz-adv-x="759" unicode="ṯ"/><glyph d="M65 1319h1072v-273h-388v-1046h-295v1046h-389v273zM565 -171h85l253 -225l-77 -102l-220 111l-217 -111l-78 102z" glyph-name="uni1E70" horiz-adv-x="1206" unicode="Ṱ"/><glyph d="M719 0q-84 -24 -161 -27.5t-149.5 20.5t-126 77t-86 149.5t-32.5 229.5v259h-133v231h133v293h295v-293h212l-24 -231h-188v-286q0 -116 42 -167.5t98 -43t113 18.5q17 3 25 6zM519 -171l252 -225l-76 -102l-221 111l-216 -111l-79 102l254 225h86z" glyph-name="uni1E71" horiz-adv-x="759" unicode="ṱ"/><glyph d="M973 1548l-45 -102l-421 110l78 217zM1382 1319h343l-308 -1319h-294l-229 833l-261 -833h-288l-273 1319h322l128 -814l280 814h198l248 -798z" glyph-name="Wgrave" horiz-adv-x="1798" unicode="Ẁ"/><glyph d="M916 1167l-44 -102l-421 111l78 217zM1220 939h323l-316 -939h-292l-145 633l-147 -633h-295l-316 939h304l145 -548l178 549h261l171 -530z" glyph-name="wgrave" horiz-adv-x="1580" unicode="ẁ"/><glyph d="M1167 1556l-421 -110l-43 102l386 225zM1382 1319h343l-308 -1319h-294l-229 833l-261 -833h-288l-273 1319h322l128 -814l280 814h198l248 -798z" glyph-name="Wacute" horiz-adv-x="1798" unicode="Ẃ"/><glyph d="M1111 1176l-422 -111l-42 102l386 226zM1220 939h323l-316 -939h-292l-145 633l-147 -633h-295l-316 939h304l145 -548l178 549h261l171 -530z" glyph-name="wacute" horiz-adv-x="1580" unicode="ẃ"/><glyph d="M682.5 1457q-51.5 0 -83 34.5t-31.5 87.5q0 56 31 88.5t84 32.5q49 0 81.5 -33.5t32.5 -87.5q0 -48 -31.5 -85t-83 -37zM1019 1457q-51 0 -82 34.5t-31 87.5q0 56 30 88.5t83 32.5q51 0 82.5 -33.5t31.5 -87.5q0 -49 -31.5 -85.5t-82.5 -36.5zM1382 1319h343l-308 -1319 h-294l-229 833l-261 -833h-288l-273 1319h322l128 -814l280 814h198l248 -798z" glyph-name="Wdieresis" horiz-adv-x="1798" unicode="Ẅ"/><glyph d="M626.5 1077q-51.5 0 -83 34t-31.5 87q0 56 30.5 88.5t83.5 32.5q49 0 82 -33t33 -88q0 -48 -31.5 -84.5t-83 -36.5zM962.5 1077q-51.5 0 -82 34t-30.5 87q0 56 30 88.5t83 32.5q51 0 82.5 -33t31.5 -88q0 -49 -31.5 -85t-83 -36zM1220 939h323l-316 -939h-292l-145 633 l-147 -633h-295l-316 939h304l145 -548l178 549h261l171 -530z" glyph-name="wdieresis" horiz-adv-x="1580" unicode="ẅ"/><glyph d="M1234 1318v-173l-703 -882l703 17v-280h-1123v169l705 886l-705 -17v280h1123zM686 -99q72 0 116.5 -47t44.5 -124q0 -70 -44.5 -122t-116.5 -52t-117 49.5t-45 124.5q0 79 44.5 125t117.5 46z" glyph-name="uni1E92" horiz-adv-x="1336" unicode="Ẓ"/><glyph d="M872 939v-279l-461 -406l461 24v-278h-824v278l450 406l-450 -24v279h824zM459 -99q72 0 116.5 -47t44.5 -124q0 -70 -44.5 -122t-116.5 -52t-117 49.5t-45 124.5q0 79 44.5 125t117.5 46z" glyph-name="uni1E93" horiz-adv-x="1024" unicode="ẓ"/><glyph d="M862 773q324 -48 324 -363q0 -77 -19.5 -144.5t-63 -130t-129 -99t-204.5 -36.5h-173v247h154q126 0 126 149q0 65 -41.5 100.5t-116.5 35.5q-38 0 -79 -3l-2 -2l-46 222l195 301l-179 1q-68 2 -106.5 -40t-38.5 -113v-898h-304v896q0 207 108 315t315 108h529v-273z" glyph-name="uni1E9E" horiz-adv-x="1278" unicode="ẞ"/><glyph d="M1411 0h-319l-95 270h-531l-96 -270h-317l500 1319h355zM565 550h331l-166 465zM746 -99q72 0 116 -47t44 -124q0 -70 -44.5 -122t-116 -52t-116.5 49.5t-45 124.5q0 79 44.5 125t117.5 46z" glyph-name="uni1EA0" horiz-adv-x="1467" unicode="Ạ"/><glyph d="M782 939h283v-939h-218l-47 135q-94 -162 -303 -162q-200 0 -319.5 136.5t-119.5 358.5q0 224 118.5 361t313.5 137q191 0 292 -149v122zM568 236q96 0 153 63t57 170q0 106 -56 170t-153.5 64t-154.5 -64t-57 -169.5t57 -169.5t154 -64zM541 -99q72 0 116 -47t44 -124 q0 -70 -44 -122t-116 -52t-117 49.5t-45 124.5q0 79 44.5 125t117.5 46z" glyph-name="uni1EA1" horiz-adv-x="1198" unicode="ạ"/><glyph d="M727 1671q-34 0 -73 -34l-53 88q73 75 158.5 78.5t132.5 -38t43 -113.5q-2 -101 -152 -220h-117q15 20 39.5 52t33.5 43.5t20.5 29.5t15 31t3.5 28q0 55 -51 55zM1092 0l-95 270h-531l-96 -270h-317l500 1319h355l503 -1319h-319zM565 550h331l-166 465z" glyph-name="uni1EA2" horiz-adv-x="1467" unicode="Ả"/><glyph d="M497 1290q-34 0 -74 -34l-53 89q73 75 158.5 78.5t132.5 -38.5t44 -114q-2 -101 -152 -220h-118q15 20 40 52t33.5 44t20.5 30t15.5 30.5t3.5 28.5q0 54 -51 54zM782 939h283v-939h-218l-47 135q-94 -162 -303 -162q-200 0 -319.5 136.5t-119.5 358.5q0 224 118.5 361 t313.5 137q191 0 292 -149v122zM568 236q96 0 153 63t57 170q0 106 -56 170t-153.5 64t-154.5 -64t-57 -169.5t57 -169.5t154 -64z" glyph-name="uni1EA3" horiz-adv-x="1198" unicode="ả"/><glyph d="M1058 1937l-421 -111l-43 103l386 225zM736 1550l-217 -111l-79 102l255 225h83l255 -225l-77 -102zM1092 0l-95 270h-531l-96 -270h-317l500 1319h355l503 -1319h-319zM565 550h331l-166 465z" glyph-name="uni1EA4" horiz-adv-x="1467" unicode="Ấ"/><glyph d="M828 1556l-422 -110l-42 102l385 225zM505 1169l-217 -111l-78 103l254 225h84l254 -225l-77 -103zM782 939h283v-939h-218l-47 135q-94 -162 -303 -162q-200 0 -319.5 136.5t-119.5 358.5q0 224 118.5 361t313.5 137q191 0 292 -149v122zM568 236q96 0 153 63t57 170 q0 106 -56 170t-153.5 64t-154.5 -64t-57 -169.5t57 -169.5t154 -64z" glyph-name="uni1EA5" horiz-adv-x="1198" unicode="ấ"/><glyph d="M864 1929l-45 -103l-421 111l78 217zM695 1766h83l255 -225l-77 -102l-220 111l-217 -111l-79 102zM1092 0l-95 270h-531l-96 -270h-317l500 1319h355l503 -1319h-319zM565 550h331l-166 465z" glyph-name="uni1EA6" horiz-adv-x="1467" unicode="Ầ"/><glyph d="M633 1548l-44 -102l-422 110l79 217zM464 1386h84l254 -225l-77 -103l-220 111l-217 -111l-78 103zM782 939h283v-939h-218l-47 135q-94 -162 -303 -162q-200 0 -319.5 136.5t-119.5 358.5q0 224 118.5 361t313.5 137q191 0 292 -149v122zM568 236q96 0 153 63t57 170 q0 106 -56 170t-153.5 64t-154.5 -64t-57 -169.5t57 -169.5t154 -64z" glyph-name="uni1EA7" horiz-adv-x="1198" unicode="ầ"/><glyph d="M727 2051q-34 0 -73 -34l-53 89q73 75 158.5 78.5t132.5 -38.5t43 -113q-2 -101 -152 -221h-117q15 20 39.5 52t33.5 44t20.5 30t15 30.5t3.5 28.5q0 54 -51 54zM736 1550l-217 -111l-79 102l255 225h83l255 -225l-77 -102zM1092 0l-95 270h-531l-96 -270h-317l500 1319 h355l503 -1319h-319zM565 550h331l-166 465z" glyph-name="uni1EA8" horiz-adv-x="1467" unicode="Ẩ"/><glyph d="M497 1671q-34 0 -74 -34l-53 88q73 75 158.5 78.5t132.5 -38t44 -113.5q-2 -101 -152 -220h-118q15 20 40 52t33.5 43.5t20.5 29.5t15.5 31t3.5 28q0 55 -51 55zM505 1169l-217 -111l-78 103l254 225h84l254 -225l-77 -103zM782 939h283v-939h-218l-47 135 q-94 -162 -303 -162q-200 0 -319.5 136.5t-119.5 358.5q0 224 118.5 361t313.5 137q191 0 292 -149v122zM568 236q96 0 153 63t57 170q0 106 -56 170t-153.5 64t-154.5 -64t-57 -169.5t57 -169.5t154 -64z" glyph-name="uni1EA9" horiz-adv-x="1198" unicode="ẩ"/><glyph d="M633 1918q-72 0 -72 -100h-170q0 121 72.5 195t164.5 74q63 0 131.5 -51t105.5 -51q56 0 57 95h169q0 -138 -64 -204.5t-158 -66.5q-53 0 -96.5 27.5t-77 54.5t-62.5 27zM695 1766h83l255 -225l-77 -102l-220 111l-217 -111l-79 102zM1092 0l-95 270h-531l-96 -270h-317 l500 1319h355l503 -1319h-319zM565 550h331l-166 465z" glyph-name="uni1EAA" horiz-adv-x="1467" unicode="Ẫ"/><glyph d="M403 1538q-72 0 -72 -101h-171q0 121 72.5 195.5t165.5 74.5q63 0 131 -51.5t106 -51.5q56 0 56 96h169q0 -138 -64 -205t-158 -67q-53 0 -96.5 27.5t-76.5 55t-62 27.5zM464 1386h84l254 -225l-77 -103l-220 111l-217 -111l-78 103zM782 939h283v-939h-218l-47 135 q-94 -162 -303 -162q-200 0 -319.5 136.5t-119.5 358.5q0 224 118.5 361t313.5 137q191 0 292 -149v122zM568 236q96 0 153 63t57 170q0 106 -56 170t-153.5 64t-154.5 -64t-57 -169.5t57 -169.5t154 -64z" glyph-name="uni1EAB" horiz-adv-x="1198" unicode="ẫ"/><glyph d="M736 1550l-217 -111l-79 102l255 225h83l255 -225l-77 -102zM1411 0h-319l-95 270h-531l-96 -270h-317l500 1319h355zM565 550h331l-166 465zM746 -99q72 0 116 -47t44 -124q0 -70 -44.5 -122t-116 -52t-116.5 49.5t-45 124.5q0 79 44.5 125t117.5 46z" glyph-name="uni1EAC" horiz-adv-x="1467" unicode="Ậ"/><glyph d="M505 1169l-217 -111l-78 103l254 225h84l254 -225l-77 -103zM782 939h283v-939h-218l-47 135q-94 -162 -303 -162q-200 0 -319.5 136.5t-119.5 358.5q0 224 118.5 361t313.5 137q191 0 292 -149v122zM568 236q96 0 153 63t57 170q0 106 -56 170t-153.5 64t-154.5 -64 t-57 -169.5t57 -169.5t154 -64zM541 -99q72 0 116 -47t44 -124q0 -70 -44 -122t-116 -52t-117 49.5t-45 124.5q0 79 44.5 125t117.5 46z" glyph-name="uni1EAD" horiz-adv-x="1198" unicode="ậ"/><glyph d="M1058 1937l-421 -111l-43 103l386 225zM736 1451q-259 0 -265 249h178q12 -96 87 -96q20 0 36 6t25 15.5t14.5 22.5t7.5 21.5t3.5 18.5t1.5 12h178q-3 -109 -65.5 -179t-200.5 -70zM1092 0l-95 270h-531l-96 -270h-317l500 1319h355l503 -1319h-319zM565 550h331 l-166 465z" glyph-name="uni1EAE" horiz-adv-x="1467" unicode="Ắ"/><glyph d="M828 1556l-422 -110l-42 102l385 225zM505 1070q-259 0 -264 249h177q12 -96 87 -95q20 0 36.5 6t25 15t14.5 22t8 21.5t3.5 19t1.5 11.5h177q-3 -109 -65.5 -179t-200.5 -70zM782 939h283v-939h-218l-47 135q-94 -162 -303 -162q-200 0 -319.5 136.5t-119.5 358.5 q0 224 118.5 361t313.5 137q191 0 292 -149v122zM568 236q96 0 153 63t57 170q0 106 -56 170t-153.5 64t-154.5 -64t-57 -169.5t57 -169.5t154 -64z" glyph-name="uni1EAF" horiz-adv-x="1198" unicode="ắ"/><glyph d="M864 1929l-45 -103l-421 111l78 217zM736 1604q20 0 36 6t25 15.5t14.5 22.5t7.5 21.5t3.5 18.5t1.5 12h178q-3 -109 -65.5 -179t-200.5 -70q-259 0 -265 249h178q12 -96 87 -96zM1092 0l-95 270h-531l-96 -270h-317l500 1319h355l503 -1319h-319zM565 550h331l-166 465z " glyph-name="uni1EB0" horiz-adv-x="1467" unicode="Ằ"/><glyph d="M633 1548l-44 -102l-422 110l79 217zM505 1224q20 0 36.5 6t25 15t14.5 22t8 21.5t3.5 19t1.5 11.5h177q-3 -109 -65.5 -179t-200.5 -70q-259 0 -264 249h177q12 -95 87 -95zM782 939h283v-939h-218l-47 135q-94 -162 -303 -162q-200 0 -319.5 136.5t-119.5 358.5 q0 224 118.5 361t313.5 137q191 0 292 -149v122zM568 236q96 0 153 63t57 170q0 106 -56 170t-153.5 64t-154.5 -64t-57 -169.5t57 -169.5t154 -64z" glyph-name="uni1EB1" horiz-adv-x="1198" unicode="ằ"/><glyph d="M727 2051q-34 0 -73 -34l-53 89q73 75 158.5 78.5t132.5 -38.5t43 -113q-2 -101 -152 -221h-117q15 20 39.5 52t33.5 44t20.5 30t15 30.5t3.5 28.5q0 54 -51 54zM736 1451q-259 0 -265 249h178q12 -96 87 -96q20 0 36 6t25 15.5t14.5 22.5t7.5 21.5t3.5 18.5t1.5 12h178 q-3 -109 -65.5 -179t-200.5 -70zM1092 0l-95 270h-531l-96 -270h-317l500 1319h355l503 -1319h-319zM565 550h331l-166 465z" glyph-name="uni1EB2" horiz-adv-x="1467" unicode="Ẳ"/><glyph d="M497 1671q-34 0 -74 -34l-53 88q73 75 158.5 78.5t132.5 -38t44 -113.5q-2 -101 -152 -220h-118q15 20 40 52t33.5 43.5t20.5 29.5t15.5 31t3.5 28q0 55 -51 55zM505 1070q-259 0 -264 249h177q12 -96 87 -95q20 0 36.5 6t25 15t14.5 22t8 21.5t3.5 19t1.5 11.5h177 q-3 -109 -65.5 -179t-200.5 -70zM782 939h283v-939h-218l-47 135q-94 -162 -303 -162q-200 0 -319.5 136.5t-119.5 358.5q0 224 118.5 361t313.5 137q191 0 292 -149v122zM568 236q96 0 153 63t57 170q0 106 -56 170t-153.5 64t-154.5 -64t-57 -169.5t57 -169.5t154 -64z " glyph-name="uni1EB3" horiz-adv-x="1198" unicode="ẳ"/><glyph d="M633 1918q-72 0 -72 -100h-170q0 121 72.5 195t164.5 74q63 0 131.5 -51t105.5 -51q56 0 57 95h169q0 -138 -64 -204.5t-158 -66.5q-53 0 -96.5 27.5t-77 54.5t-62.5 27zM736 1604q20 0 36 6t25 15.5t14.5 22.5t7.5 21.5t3.5 18.5t1.5 12h178q-3 -109 -65.5 -179 t-200.5 -70q-259 0 -265 249h178q12 -96 87 -96zM1092 0l-95 270h-531l-96 -270h-317l500 1319h355l503 -1319h-319zM565 550h331l-166 465z" glyph-name="uni1EB4" horiz-adv-x="1467" unicode="Ẵ"/><glyph d="M403 1538q-72 0 -72 -101h-171q0 121 72.5 195.5t165.5 74.5q63 0 131 -51.5t106 -51.5q56 0 56 96h169q0 -138 -64 -205t-158 -67q-53 0 -96.5 27.5t-76.5 55t-62 27.5zM505 1224q20 0 36.5 6t25 15t14.5 22t8 21.5t3.5 19t1.5 11.5h177q-3 -109 -65.5 -179t-200.5 -70 q-259 0 -264 249h177q12 -95 87 -95zM782 939h283v-939h-218l-47 135q-94 -162 -303 -162q-200 0 -319.5 136.5t-119.5 358.5q0 224 118.5 361t313.5 137q191 0 292 -149v122zM568 236q96 0 153 63t57 170q0 106 -56 170t-153.5 64t-154.5 -64t-57 -169.5t57 -169.5t154 -64 z" glyph-name="uni1EB5" horiz-adv-x="1198" unicode="ẵ"/><glyph d="M736 1451q-259 0 -265 249h178q12 -96 87 -96q20 0 36 6t25 15.5t14.5 22.5t7.5 21.5t3.5 18.5t1.5 12h178q-3 -109 -65.5 -179t-200.5 -70zM1411 0h-319l-95 270h-531l-96 -270h-317l500 1319h355zM565 550h331l-166 465zM746 -99q72 0 116 -47t44 -124 q0 -70 -44.5 -122t-116 -52t-116.5 49.5t-45 124.5q0 79 44.5 125t117.5 46z" glyph-name="uni1EB6" horiz-adv-x="1467" unicode="Ặ"/><glyph d="M505 1070q-259 0 -264 249h177q12 -96 87 -95q20 0 36.5 6t25 15t14.5 22t8 21.5t3.5 19t1.5 11.5h177q-3 -109 -65.5 -179t-200.5 -70zM782 939h283v-939h-218l-47 135q-94 -162 -303 -162q-200 0 -319.5 136.5t-119.5 358.5q0 224 118.5 361t313.5 137q191 0 292 -149 v122zM568 236q96 0 153 63t57 170q0 106 -56 170t-153.5 64t-154.5 -64t-57 -169.5t57 -169.5t154 -64zM541 -99q72 0 116 -47t44 -124q0 -70 -44 -122t-116 -52t-117 49.5t-45 124.5q0 79 44.5 125t117.5 46z" glyph-name="uni1EB7" horiz-adv-x="1198" unicode="ặ"/><glyph d="M1067 1053h-618v-249l485 -4v-254h-485v-280h618v-266h-908v1319h908v-266zM579 -99q72 0 116 -47t44 -124q0 -70 -44.5 -122t-116 -52t-117 49.5t-45.5 124.5q0 79 45 125t118 46z" glyph-name="uni1EB8" horiz-adv-x="1184" unicode="Ẹ"/><glyph d="M58 471q0 97 27.5 183.5t83 157t150 112.5t215.5 42q246 0 357 -158t61 -421h-580q34 -184 198 -184q114 0 278 82l111 -210q-96 -53 -182 -77.5t-207 -24.5q-232 0 -372 136.5t-140 361.5zM372 553h331q5 73 -32.5 135.5t-129.5 62.5q-63 0 -103 -38.5t-53 -79.5 t-13 -80zM550 -99q72 0 116 -47t44 -124q0 -70 -44.5 -122t-116 -52t-117 49.5t-45.5 124.5q0 79 45 125t118 46z" glyph-name="uni1EB9" unicode="ẹ"/><glyph d="M591 1671q-34 0 -74 -34l-53 88q73 75 158.5 78.5t132.5 -38t44 -113.5q-2 -101 -152 -220h-118q15 20 40 52t33.5 43.5t20.5 29.5t15.5 31t3.5 28q0 55 -51 55zM1067 1053h-618v-249l485 -4v-254h-485v-280h618v-266h-908v1319h908v-266z" glyph-name="uni1EBA" horiz-adv-x="1184" unicode="Ẻ"/><glyph d="M565 1051h-118q15 20 40 52t33.5 44t20.5 30t15.5 30.5t3.5 28.5q0 55 -51 54q-34 0 -74 -34l-53 89q73 75 158.5 78.5t132.5 -38.5t44 -114q-2 -101 -152 -220zM58 471q0 97 27.5 183.5t83 157t150 112.5t215.5 42q246 0 357 -158t61 -421h-580q34 -184 198 -184 q114 0 278 82l111 -210q-96 -53 -182 -77.5t-207 -24.5q-232 0 -372 136.5t-140 361.5zM372 553h331q5 73 -32.5 135.5t-129.5 62.5q-63 0 -103 -38.5t-53 -79.5t-13 -80z" glyph-name="uni1EBB" unicode="ẻ"/><glyph d="M469 1538q-72 0 -71 -101h-171q0 121 72.5 195.5t164.5 74.5q63 0 131.5 -51.5t105.5 -51.5q56 0 57 96h169q0 -138 -64 -205t-158 -67q-53 0 -96.5 27.5t-77 55t-62.5 27.5zM1067 1053h-618v-249l485 -4v-254h-485v-280h618v-266h-908v1319h908v-266z" glyph-name="uni1EBC" horiz-adv-x="1184" unicode="Ẽ"/><glyph d="M343 1056h-171q0 121 72.5 195.5t165.5 74.5q63 0 131 -51t106 -51q56 0 56 95h169q0 -138 -64 -204.5t-158 -66.5q-53 0 -96.5 27.5t-76.5 54.5t-62 27q-72 0 -72 -101zM58 471q0 97 27.5 183.5t83 157t150 112.5t215.5 42q246 0 357 -158t61 -421h-580 q34 -184 198 -184q114 0 278 82l111 -210q-96 -53 -182 -77.5t-207 -24.5q-232 0 -372 136.5t-140 361.5zM372 553h331q5 73 -32.5 135.5t-129.5 62.5q-63 0 -103 -38.5t-53 -79.5t-13 -80z" glyph-name="uni1EBD" unicode="ẽ"/><glyph d="M922 1937l-422 -111l-43 103l386 225zM599 1550l-217 -111l-78 102l254 225h84l254 -225l-77 -102zM1067 1053h-618v-249l485 -4v-254h-485v-280h618v-266h-908v1319h908v-266z" glyph-name="uni1EBE" horiz-adv-x="1184" unicode="Ế"/><glyph d="M418 1446l-43 102l386 225l79 -217zM476 1386h84l254 -225l-77 -103l-220 111l-217 -111l-78 103zM58 471q0 97 27.5 183.5t83 157t150 112.5t215.5 42q246 0 357 -158t61 -421h-580q34 -184 198 -184q114 0 278 82l111 -210q-96 -53 -182 -77.5t-207 -24.5 q-232 0 -372 136.5t-140 361.5zM372 553h331q5 73 -32.5 135.5t-129.5 62.5q-63 0 -103 -38.5t-53 -79.5t-13 -80z" glyph-name="uni1EBF" unicode="ế"/><glyph d="M727 1929l-44 -103l-422 111l79 217zM558 1766h84l254 -225l-77 -102l-220 111l-217 -111l-78 102zM1067 1053h-618v-249l485 -4v-254h-485v-280h618v-266h-908v1319h908v-266z" glyph-name="uni1EC0" horiz-adv-x="1184" unicode="Ề"/><glyph d="M601 1446l-422 110l79 217l387 -225zM476 1386h84l254 -225l-77 -103l-220 111l-217 -111l-78 103zM58 471q0 97 27.5 183.5t83 157t150 112.5t215.5 42q246 0 357 -158t61 -421h-580q34 -184 198 -184q114 0 278 82l111 -210q-96 -53 -182 -77.5t-207 -24.5 q-232 0 -372 136.5t-140 361.5zM372 553h331q5 73 -32.5 135.5t-129.5 62.5q-63 0 -103 -38.5t-53 -79.5t-13 -80z" glyph-name="uni1EC1" unicode="ề"/><glyph d="M591 2051q-34 0 -74 -34l-53 89q73 75 158.5 78.5t132.5 -38.5t44 -113q-2 -101 -152 -221h-118q15 20 40 52t33.5 44t20.5 30t15.5 30.5t3.5 28.5q0 54 -51 54zM599 1550l-217 -111l-78 102l254 225h84l254 -225l-77 -102zM1067 1053h-618v-249l485 -4v-254h-485v-280 h618v-266h-908v1319h908v-266z" glyph-name="uni1EC2" horiz-adv-x="1184" unicode="Ể"/><glyph d="M565 1432h-118q15 20 40 52t33.5 43.5t20.5 29.5t15.5 31t3.5 28q0 55 -51 55q-34 0 -74 -34l-53 88q73 75 158.5 78.5t132.5 -38t44 -113.5q-2 -101 -152 -220zM476 1386h84l254 -225l-77 -103l-220 111l-217 -111l-78 103zM58 471q0 97 27.5 183.5t83 157t150 112.5 t215.5 42q246 0 357 -158t61 -421h-580q34 -184 198 -184q114 0 278 82l111 -210q-96 -53 -182 -77.5t-207 -24.5q-232 0 -372 136.5t-140 361.5zM372 553h331q5 73 -32.5 135.5t-129.5 62.5q-63 0 -103 -38.5t-53 -79.5t-13 -80z" glyph-name="uni1EC3" unicode="ể"/><glyph d="M497 1918q-72 0 -72 -100h-171q0 121 72.5 195t165.5 74q63 0 131 -51t106 -51q56 0 56 95h169q0 -138 -64 -204.5t-158 -66.5q-53 0 -96.5 27.5t-76.5 54.5t-62 27zM558 1766h84l254 -225l-77 -102l-220 111l-217 -111l-78 102zM1067 1053h-618v-249l485 -4v-254h-485 v-280h618v-266h-908v1319h908v-266z" glyph-name="uni1EC4" horiz-adv-x="1184" unicode="Ễ"/><glyph d="M343 1437h-171q0 121 72.5 195.5t165.5 74.5q63 0 131 -51.5t106 -51.5q56 0 56 96h169q0 -138 -64 -205t-158 -67q-53 0 -96.5 27.5t-76.5 55t-62 27.5q-72 0 -72 -101zM476 1386h84l254 -225l-77 -103l-220 111l-217 -111l-78 103zM58 471q0 97 27.5 183.5t83 157 t150 112.5t215.5 42q246 0 357 -158t61 -421h-580q34 -184 198 -184q114 0 278 82l111 -210q-96 -53 -182 -77.5t-207 -24.5q-232 0 -372 136.5t-140 361.5zM372 553h331q5 73 -32.5 135.5t-129.5 62.5q-63 0 -103 -38.5t-53 -79.5t-13 -80z" glyph-name="uni1EC5" unicode="ễ"/><glyph d="M599 1550l-217 -111l-78 102l254 225h84l254 -225l-77 -102zM1067 1053h-618v-249l485 -4v-254h-485v-280h618v-266h-908v1319h908v-266zM579 -99q72 0 116 -47t44 -124q0 -70 -44.5 -122t-116 -52t-117 49.5t-45.5 124.5q0 79 45 125t118 46z" glyph-name="uni1EC6" horiz-adv-x="1184" unicode="Ệ"/><glyph d="M476 1386h84l254 -225l-77 -103l-220 111l-217 -111l-78 103zM58 471q0 97 27.5 183.5t83 157t150 112.5t215.5 42q246 0 357 -158t61 -421h-580q34 -184 198 -184q114 0 278 82l111 -210q-96 -53 -182 -77.5t-207 -24.5q-232 0 -372 136.5t-140 361.5zM372 553h331 q5 73 -32.5 135.5t-129.5 62.5q-63 0 -103 -38.5t-53 -79.5t-13 -80zM550 -99q72 0 116 -47t44 -124q0 -70 -44.5 -122t-116 -52t-117 49.5t-45.5 124.5q0 79 45 125t118 46z" glyph-name="uni1EC7" unicode="ệ"/><glyph d="M358 1432h-117q15 20 39.5 52t33.5 43.5t20.5 29.5t15 31t3.5 28q0 55 -51 55q-34 0 -73 -34l-53 88q73 75 158.5 78.5t132.5 -38t43 -113.5q-2 -101 -152 -220zM459 0h-300v1319h300v-1319z" glyph-name="uni1EC8" horiz-adv-x="614" unicode="Ỉ"/><glyph d="M329 1051h-117q15 20 39.5 52t33.5 44t20.5 30t15 30.5t3.5 28.5q0 55 -51 54q-34 0 -73 -34l-53 89q73 75 158.5 78.5t132.5 -38.5t43 -114q-2 -101 -152 -220zM432 0h-295v939h295v-939z" glyph-name="uni1EC9" horiz-adv-x="566" unicode="ỉ"/><glyph d="M459 0h-300v1319h300v-1319zM314 -99q72 0 116 -47t44 -124q0 -70 -44 -122t-116 -52t-117 49.5t-45 124.5q0 79 44.5 125t117.5 46z" glyph-name="uni1ECA" horiz-adv-x="614" unicode="Ị"/><glyph d="M263 1469q70 0 112.5 -45t42.5 -118q0 -68 -42.5 -118t-112.5 -50q-67 0 -110.5 48t-43.5 120q0 75 42 119t112 44zM411 0h-295v939h295v-939zM261 -99q72 0 116.5 -47t44.5 -124q0 -70 -44.5 -122t-116.5 -52t-117 49.5t-45 124.5q0 79 44.5 125t117.5 46z" glyph-name="uni1ECB" horiz-adv-x="551" unicode="ị"/><glyph d="M748 1350q287 0 465 -192t178 -498q0 -302 -176 -496.5t-467 -194.5q-285 0 -466 194.5t-181 496.5q0 304 177.5 497t469.5 193zM748 1077q-167 0 -257 -117t-90 -299.5t89.5 -298.5t257 -116t256 115t88.5 299q0 188 -91 302.5t-253 114.5zM748 -99q72 0 116 -47 t44 -124q0 -70 -44.5 -122t-116 -52t-117 49.5t-45.5 124.5q0 79 45 125t118 46z" glyph-name="uni1ECC" horiz-adv-x="1493" unicode="Ọ"/><glyph d="M568 966q222 0 366.5 -137.5t144.5 -360.5q0 -92 -30 -176.5t-89 -158t-160.5 -117t-231.5 -43.5q-225 0 -367.5 134.5t-142.5 360.5q0 227 142.5 362.5t367.5 135.5zM568 708q-104 0 -154 -71.5t-50 -168.5q0 -96 50 -167t154 -71q102 0 153.5 72t51.5 166 q0 97 -51.5 168.5t-153.5 71.5zM568 -99q72 0 116.5 -47t44.5 -124q0 -70 -44.5 -122t-116 -52t-117 49.5t-45.5 124.5q0 79 44.5 125t117.5 46z" glyph-name="uni1ECD" horiz-adv-x="1138" unicode="ọ"/><glyph d="M795 1432h-117q15 20 39.5 52t33 43.5t20.5 29.5t15.5 31t3.5 28q0 55 -51 55q-34 0 -73 -34l-53 88q73 75 158.5 78.5t132.5 -38t43 -113.5q-2 -101 -152 -220zM748 1350q287 0 465 -192t178 -498q0 -302 -176 -496.5t-467 -194.5q-285 0 -466 194.5t-181 496.5 q0 304 177.5 497t469.5 193zM748 1077q-167 0 -257 -117t-90 -299.5t89.5 -298.5t257 -116t256 115t88.5 299q0 188 -91 302.5t-253 114.5z" glyph-name="uni1ECE" horiz-adv-x="1493" unicode="Ỏ"/><glyph d="M589 1051h-118q15 20 40 52t33.5 44t20.5 30t15.5 30.5t3.5 28.5q0 55 -52 54q-34 0 -73 -34l-53 89q73 75 158.5 78.5t132.5 -38.5t44 -114q-2 -101 -152 -220zM568 966q222 0 366.5 -137.5t144.5 -360.5q0 -92 -30 -176.5t-89 -158t-160.5 -117t-231.5 -43.5 q-225 0 -367.5 134.5t-142.5 360.5q0 227 142.5 362.5t367.5 135.5zM568 708q-104 0 -154 -71.5t-50 -168.5q0 -96 50 -167t154 -71q102 0 153.5 72t51.5 166q0 97 -51.5 168.5t-153.5 71.5z" glyph-name="uni1ECF" horiz-adv-x="1138" unicode="ỏ"/><glyph d="M649 1826l-43 103l386 225l78 -217zM707 1766h83l254 -225l-76 -102l-220 111l-217 -111l-79 102zM748 1350q287 0 465 -192t178 -498q0 -302 -176 -496.5t-467 -194.5q-285 0 -466 194.5t-181 496.5q0 304 177.5 497t469.5 193zM748 1077q-167 0 -257 -117t-90 -299.5 t89.5 -298.5t257 -116t256 115t88.5 299q0 188 -91 302.5t-253 114.5z" glyph-name="uni1ED0" horiz-adv-x="1493" unicode="Ố"/><glyph d="M442 1446l-43 102l386 225l79 -217zM500 1386h84l254 -225l-77 -103l-220 111l-217 -111l-78 103zM568 966q222 0 366.5 -137.5t144.5 -360.5q0 -92 -30 -176.5t-89 -158t-160.5 -117t-231.5 -43.5q-225 0 -367.5 134.5t-142.5 360.5q0 227 142.5 362.5t367.5 135.5z M568 708q-104 0 -154 -71.5t-50 -168.5q0 -96 50 -167t154 -71q102 0 153.5 72t51.5 166q0 97 -51.5 168.5t-153.5 71.5z" glyph-name="uni1ED1" horiz-adv-x="1138" unicode="ố"/><glyph d="M831 1826l-421 111l78 217l388 -225zM707 1766h83l254 -225l-76 -102l-220 111l-217 -111l-79 102zM748 1350q287 0 465 -192t178 -498q0 -302 -176 -496.5t-467 -194.5q-285 0 -466 194.5t-181 496.5q0 304 177.5 497t469.5 193zM748 1077q-167 0 -257 -117t-90 -299.5 t89.5 -298.5t257 -116t256 115t88.5 299q0 188 -91 302.5t-253 114.5z" glyph-name="uni1ED2" horiz-adv-x="1493" unicode="Ồ"/><glyph d="M625 1446l-422 110l79 217l387 -225zM500 1386h84l254 -225l-77 -103l-220 111l-217 -111l-78 103zM568 966q222 0 366.5 -137.5t144.5 -360.5q0 -92 -30 -176.5t-89 -158t-160.5 -117t-231.5 -43.5q-225 0 -367.5 134.5t-142.5 360.5q0 227 142.5 362.5t367.5 135.5z M568 708q-104 0 -154 -71.5t-50 -168.5q0 -96 50 -167t154 -71q102 0 153.5 72t51.5 166q0 97 -51.5 168.5t-153.5 71.5z" glyph-name="uni1ED3" horiz-adv-x="1138" unicode="ồ"/><glyph d="M795 1812h-117q15 20 39.5 52t33 44t20.5 30t15.5 30.5t3.5 28.5q0 55 -51 54q-34 0 -73 -34l-53 89q73 75 158.5 78.5t132.5 -38.5t43 -113q-2 -102 -152 -221zM707 1766h83l254 -225l-76 -102l-220 111l-217 -111l-79 102zM748 1350q287 0 465 -192t178 -498 q0 -302 -176 -496.5t-467 -194.5q-285 0 -466 194.5t-181 496.5q0 304 177.5 497t469.5 193zM748 1077q-167 0 -257 -117t-90 -299.5t89.5 -298.5t257 -116t256 115t88.5 299q0 188 -91 302.5t-253 114.5z" glyph-name="uni1ED4" horiz-adv-x="1493" unicode="Ổ"/><glyph d="M589 1432h-118q15 20 40 52t33.5 43.5t20.5 29.5t15.5 31t3.5 28q0 55 -52 55q-34 0 -73 -34l-53 88q73 75 158.5 78.5t132.5 -38t44 -113.5q-2 -101 -152 -220zM500 1386h84l254 -225l-77 -103l-220 111l-217 -111l-78 103zM568 966q222 0 366.5 -137.5t144.5 -360.5 q0 -92 -30 -176.5t-89 -158t-160.5 -117t-231.5 -43.5q-225 0 -367.5 134.5t-142.5 360.5q0 227 142.5 362.5t367.5 135.5zM568 708q-104 0 -154 -71.5t-50 -168.5q0 -96 50 -167t154 -71q102 0 153.5 72t51.5 166q0 97 -51.5 168.5t-153.5 71.5z" glyph-name="uni1ED5" horiz-adv-x="1138" unicode="ổ"/><glyph d="M573 1818h-170q0 121 72.5 195t164.5 74q63 0 131.5 -51t105.5 -51q56 0 57 95h169q0 -138 -64 -204.5t-158 -66.5q-53 0 -96.5 27.5t-77 54.5t-62.5 27q-72 1 -72 -100zM707 1766h83l254 -225l-76 -102l-220 111l-217 -111l-79 102zM748 1350q287 0 465 -192t178 -498 q0 -302 -176 -496.5t-467 -194.5q-285 0 -466 194.5t-181 496.5q0 304 177.5 497t469.5 193zM748 1077q-167 0 -257 -117t-90 -299.5t89.5 -298.5t257 -116t256 115t88.5 299q0 188 -91 302.5t-253 114.5z" glyph-name="uni1ED6" horiz-adv-x="1493" unicode="Ỗ"/><glyph d="M367 1437h-171q0 121 72.5 195.5t164.5 74.5q63 0 131.5 -51.5t106.5 -51.5q56 0 56 96h169q0 -138 -64 -205t-158 -67q-53 0 -96.5 27.5t-76.5 55t-62 27.5q-72 0 -72 -101zM500 1386h84l254 -225l-77 -103l-220 111l-217 -111l-78 103zM568 966q222 0 366.5 -137.5 t144.5 -360.5q0 -92 -30 -176.5t-89 -158t-160.5 -117t-231.5 -43.5q-225 0 -367.5 134.5t-142.5 360.5q0 227 142.5 362.5t367.5 135.5zM568 708q-104 0 -154 -71.5t-50 -168.5q0 -96 50 -167t154 -71q102 0 153.5 72t51.5 166q0 97 -51.5 168.5t-153.5 71.5z" glyph-name="uni1ED7" horiz-adv-x="1138" unicode="ỗ"/><glyph d="M707 1766h83l254 -225l-76 -102l-220 111l-217 -111l-79 102zM748 1350q287 0 465 -192t178 -498q0 -302 -176 -496.5t-467 -194.5q-285 0 -466 194.5t-181 496.5q0 304 177.5 497t469.5 193zM748 1077q-167 0 -257 -117t-90 -299.5t89.5 -298.5t257 -116t256 115 t88.5 299q0 188 -91 302.5t-253 114.5zM748 -99q72 0 116 -47t44 -124q0 -70 -44.5 -122t-116 -52t-117 49.5t-45.5 124.5q0 79 45 125t118 46z" glyph-name="uni1ED8" horiz-adv-x="1493" unicode="Ộ"/><glyph d="M500 1386h84l254 -225l-77 -103l-220 111l-217 -111l-78 103zM568 966q222 0 366.5 -137.5t144.5 -360.5q0 -92 -30 -176.5t-89 -158t-160.5 -117t-231.5 -43.5q-225 0 -367.5 134.5t-142.5 360.5q0 227 142.5 362.5t367.5 135.5zM568 708q-104 0 -154 -71.5t-50 -168.5 q0 -96 50 -167t154 -71q102 0 153.5 72t51.5 166q0 97 -51.5 168.5t-153.5 71.5zM568 -99q72 0 116.5 -47t44.5 -124q0 -70 -44.5 -122t-116 -52t-117 49.5t-45.5 124.5q0 79 44.5 125t117.5 46z" glyph-name="uni1ED9" horiz-adv-x="1138" unicode="ộ"/><glyph d="M1072 1556l-422 -110l-42 102l385 225zM1461 1468q17 -56 16 -113.5t-19 -108.5t-65.5 -83.5t-121.5 -32.5h-34q154 -189 154 -470q0 -302 -176 -496.5t-467 -194.5q-285 0 -466 194.5t-181 496.5q0 304 177.5 498t469.5 194h1q60 0 126.5 -4.5t148.5 -11.5t126 -10 q116 -5 91 142h220zM747.5 246q167.5 0 256 115t88.5 299q0 188 -91 302.5t-253 114.5q-167 0 -257 -117t-90 -299.5t89.5 -298.5t257 -116z" glyph-name="uni1EDA" horiz-adv-x="1508" unicode="Ớ"/><glyph d="M918 1176l-421 -111l-43 102l386 226zM1191 1091q17 -46 13 -98.5t-22 -96.5t-66 -75t-118 -34q106 -133 106 -319q0 -92 -30 -176.5t-88.5 -158t-160 -117t-231.5 -43.5q-225 0 -367.5 134.5t-142.5 360.5q0 227 142.5 362.5t367.5 135.5q48 0 287 -15q61 -3 81.5 33.5 t8.5 106.5h220zM594 230q92 0 148.5 73.5t56.5 164.5q0 94 -55 167t-150.5 73t-150 -73.5t-54.5 -166.5q0 -92 54.5 -165t150.5 -73z" glyph-name="uni1EDB" horiz-adv-x="1189" unicode="ớ"/><glyph d="M877 1548l-44 -102l-422 110l79 217zM1461 1468q17 -56 16 -113.5t-19 -108.5t-65.5 -83.5t-121.5 -32.5h-34q154 -189 154 -470q0 -302 -176 -496.5t-467 -194.5q-285 0 -466 194.5t-181 496.5q0 304 177.5 498t469.5 194h1q60 0 126.5 -4.5t148.5 -11.5t126 -10 q116 -5 91 142h220zM747.5 246q167.5 0 256 115t88.5 299q0 188 -91 302.5t-253 114.5q-167 0 -257 -117t-90 -299.5t89.5 -298.5t257 -116z" glyph-name="uni1EDC" horiz-adv-x="1508" unicode="Ờ"/><glyph d="M724 1167l-45 -102l-421 111l78 217zM1191 1091q17 -46 13 -98.5t-22 -96.5t-66 -75t-118 -34q106 -133 106 -319q0 -92 -30 -176.5t-88.5 -158t-160 -117t-231.5 -43.5q-225 0 -367.5 134.5t-142.5 360.5q0 227 142.5 362.5t367.5 135.5q48 0 287 -15q61 -3 81.5 33.5 t8.5 106.5h220zM594 230q92 0 148.5 73.5t56.5 164.5q0 94 -55 167t-150.5 73t-150 -73.5t-54.5 -166.5q0 -92 54.5 -165t150.5 -73z" glyph-name="uni1EDD" horiz-adv-x="1189" unicode="ờ"/><glyph d="M741 1671q-34 0 -74 -34l-53 88q73 75 158.5 78.5t132.5 -38t44 -113.5q-2 -101 -152 -220h-118q15 20 40 52t33.5 43.5t20.5 29.5t15.5 31t3.5 28q0 55 -51 55zM1461 1468q17 -56 16 -113.5t-19 -108.5t-65.5 -83.5t-121.5 -32.5h-34q154 -189 154 -470 q0 -302 -176 -496.5t-467 -194.5q-285 0 -466 194.5t-181 496.5q0 304 177.5 498t469.5 194h1q60 0 126.5 -4.5t148.5 -11.5t126 -10q116 -5 91 142h220zM747.5 246q167.5 0 256 115t88.5 299q0 188 -91 302.5t-253 114.5q-167 0 -257 -117t-90 -299.5t89.5 -298.5t257 -116 z" glyph-name="uni1EDE" horiz-adv-x="1508" unicode="Ở"/><glyph d="M587 1290q-34 0 -73 -34l-53 89q73 75 158.5 78.5t132.5 -38.5t43 -114q-2 -101 -152 -220h-117q15 20 40 52t33.5 44t20 30t15 30.5t3.5 28.5q0 54 -51 54zM1191 1091q17 -46 13 -98.5t-22 -96.5t-66 -75t-118 -34q106 -133 106 -319q0 -92 -30 -176.5t-88.5 -158 t-160 -117t-231.5 -43.5q-225 0 -367.5 134.5t-142.5 360.5q0 227 142.5 362.5t367.5 135.5q48 0 287 -15q61 -3 81.5 33.5t8.5 106.5h220zM594 230q92 0 148.5 73.5t56.5 164.5q0 94 -55 167t-150.5 73t-150 -73.5t-54.5 -166.5q0 -92 54.5 -165t150.5 -73z" glyph-name="uni1EDF" horiz-adv-x="1189" unicode="ở"/><glyph d="M647 1538q-72 0 -72 -101h-171q0 121 73 195.5t165 74.5q63 0 131 -51.5t106 -51.5q56 0 56 96h169q0 -138 -64 -205t-158 -67q-53 0 -96.5 27.5t-76.5 55t-62 27.5zM1461 1468q17 -56 16 -113.5t-19 -108.5t-65.5 -83.5t-121.5 -32.5h-34q154 -189 154 -470 q0 -302 -176 -496.5t-467 -194.5q-285 0 -466 194.5t-181 496.5q0 304 177.5 498t469.5 194h1q60 0 126.5 -4.5t148.5 -11.5t126 -10q116 -5 91 142h220zM747.5 246q167.5 0 256 115t88.5 299q0 188 -91 302.5t-253 114.5q-167 0 -257 -117t-90 -299.5t89.5 -298.5t257 -116 z" glyph-name="uni1EE0" horiz-adv-x="1508" unicode="Ỡ"/><glyph d="M493 1157q-72 0 -71 -101h-171q0 121 72.5 195.5t164.5 74.5q63 0 131.5 -51t105.5 -51q56 0 57 95h169q0 -138 -64 -204.5t-158 -66.5q-53 0 -96.5 27.5t-77 54.5t-62.5 27zM1191 1091q17 -46 13 -98.5t-22 -96.5t-66 -75t-118 -34q106 -133 106 -319q0 -92 -30 -176.5 t-88.5 -158t-160 -117t-231.5 -43.5q-225 0 -367.5 134.5t-142.5 360.5q0 227 142.5 362.5t367.5 135.5q48 0 287 -15q61 -3 81.5 33.5t8.5 106.5h220zM594 230q92 0 148.5 73.5t56.5 164.5q0 94 -55 167t-150.5 73t-150 -73.5t-54.5 -166.5q0 -92 54.5 -165t150.5 -73z" glyph-name="uni1EE1" horiz-adv-x="1189" unicode="ỡ"/><glyph d="M1461 1468q17 -56 16 -113.5t-19 -108.5t-65.5 -83.5t-121.5 -32.5h-34q154 -189 154 -470q0 -302 -176 -496.5t-467 -194.5q-285 0 -466 194.5t-181 496.5q0 304 177.5 498t469.5 194h1q60 0 126.5 -4.5t148.5 -11.5t126 -10q116 -5 91 142h220zM747.5 246 q167.5 0 256 115t88.5 299q0 188 -91 302.5t-253 114.5q-167 0 -257 -117t-90 -299.5t89.5 -298.5t257 -116zM753 -99q72 0 116 -47t44 -124q0 -70 -44.5 -122t-116 -52t-116.5 49.5t-45 124.5q0 79 44.5 125t117.5 46z" glyph-name="uni1EE2" horiz-adv-x="1508" unicode="Ợ"/><glyph d="M1191 1091q17 -46 13 -98.5t-22 -96.5t-66 -75t-118 -34q106 -133 106 -319q0 -92 -30 -176.5t-88.5 -158t-160 -117t-231.5 -43.5q-225 0 -367.5 134.5t-142.5 360.5q0 227 142.5 362.5t367.5 135.5q48 0 287 -15q61 -3 81.5 33.5t8.5 106.5h220zM594 230 q92 0 148.5 73.5t56.5 164.5q0 94 -55 167t-150.5 73t-150 -73.5t-54.5 -166.5q0 -92 54.5 -165t150.5 -73zM592 -99q72 0 116.5 -47t44.5 -124q0 -70 -44.5 -122t-116 -52t-117 49.5t-45.5 124.5q0 79 44.5 125t117.5 46z" glyph-name="uni1EE3" horiz-adv-x="1189" unicode="ợ"/><glyph d="M1299 1319v-677q0 -326 -134 -499.5t-440 -173.5q-309 0 -442 172.5t-133 500.5v677h301v-636q0 -138 23 -233t64.5 -141t86 -64t101 -18t100.5 19t86 65.5t64 140.5t22 231v636h301zM725 -99q72 0 116.5 -47t44.5 -124q0 -70 -44.5 -122t-116 -52t-117 49.5t-45.5 124.5 q0 79 44.5 125t117.5 46z" glyph-name="uni1EE4" horiz-adv-x="1447" unicode="Ụ"/><glyph d="M715 939h306v-939h-236l-48 119q-131 -145 -297 -145q-150 0 -244.5 90t-94.5 291v584h307l-2 -490q0 -79 24 -120t85 -41q92 0 200 106v545zM532 -99q72 0 116.5 -47t44.5 -124q0 -70 -44.5 -122t-116 -52t-117 49.5t-45.5 124.5q0 79 44.5 125t117.5 46z" glyph-name="uni1EE5" horiz-adv-x="1128" unicode="ụ"/><glyph d="M765 1432h-118q15 20 40 52t33.5 43.5t20.5 29.5t15 31t3 28q0 55 -51 55q-34 0 -73 -34l-53 88q73 75 158.5 78.5t132.5 -38t43 -113.5q-1 -101 -151 -220zM1299 1319v-677q0 -326 -134 -499.5t-440 -173.5q-309 0 -442 172.5t-133 500.5v677h301v-636q0 -138 23 -233 t64.5 -141t86 -64t101 -18t100.5 19t86 65.5t64 140.5t22 231v636h301z" glyph-name="uni1EE6" horiz-adv-x="1447" unicode="Ủ"/><glyph d="M539 1290q-34 0 -73 -34l-53 89q73 75 158.5 78.5t132.5 -38.5t44 -114q-2 -101 -152 -220h-118q15 20 40 52t33.5 44t20.5 30t15.5 30.5t3.5 28.5q-1 54 -52 54zM715 939h306v-939h-236l-48 119q-131 -145 -297 -145q-150 0 -244.5 90t-94.5 291v584h307l-2 -490 q0 -79 24 -120t85 -41q92 0 200 106v545z" glyph-name="uni1EE7" horiz-adv-x="1128" unicode="ủ"/><glyph d="M1077 1556l-422 -110l-42 102l385 225zM1635 1456q10 -53 1.5 -112t-27 -109.5t-68 -82.5t-123.5 -32l-100 1v-476q0 -326 -134 -499t-440 -173q-309 0 -443 172t-134 500v674h301v-633q0 -138 23 -233t65.5 -141t87 -64t100.5 -18t100.5 19t86.5 66t64 141t22 230v633 h307q61 -3 82 33t9 104h220z" glyph-name="uni1EE8" horiz-adv-x="1575" unicode="Ứ"/><glyph d="M916 1176l-421 -111l-43 102l386 226zM1333 1075q10 -53 1.5 -111.5t-27 -109t-68 -83t-123.5 -32.5l-70 2v-741h-235l-48 119q-131 -145 -297 -145q-150 0 -245 90t-95 291v584h307l-1 -490q0 -79 23 -120t84 -41q94 0 202 106v545h302q92 7 70 136h220z" glyph-name="uni1EE9" horiz-adv-x="1377" unicode="ứ"/><glyph d="M882 1548l-44 -102l-422 110l79 217zM1635 1456q10 -53 1.5 -112t-27 -109.5t-68 -82.5t-123.5 -32l-100 1v-476q0 -326 -134 -499t-440 -173q-309 0 -443 172t-134 500v674h301v-633q0 -138 23 -233t65.5 -141t87 -64t100.5 -18t100.5 19t86.5 66t64 141t22 230v633h307 q61 -3 82 33t9 104h220z" glyph-name="uni1EEA" horiz-adv-x="1575" unicode="Ừ"/><glyph d="M722 1167l-44 -102l-422 111l79 217zM1333 1075q10 -53 1.5 -111.5t-27 -109t-68 -83t-123.5 -32.5l-70 2v-741h-235l-48 119q-131 -145 -297 -145q-150 0 -245 90t-95 291v584h307l-1 -490q0 -79 23 -120t84 -41q94 0 202 106v545h302q92 7 70 136h220z" glyph-name="uni1EEB" horiz-adv-x="1377" unicode="ừ"/><glyph d="M746 1671q-34 0 -74 -34l-52 88q73 75 158.5 78.5t132 -38t43.5 -113.5q-2 -101 -152 -220h-118q15 20 40 52t33.5 43.5t20.5 29.5t15.5 31t3.5 28q0 55 -51 55zM1635 1456q10 -53 1.5 -112t-27 -109.5t-68 -82.5t-123.5 -32l-100 1v-476q0 -326 -134 -499t-440 -173 q-309 0 -443 172t-134 500v674h301v-633q0 -138 23 -233t65.5 -141t87 -64t100.5 -18t100.5 19t86.5 66t64 141t22 230v633h307q61 -3 82 33t9 104h220z" glyph-name="uni1EEC" horiz-adv-x="1575" unicode="Ử"/><glyph d="M585 1290q-34 0 -73 -34l-53 89q73 75 158.5 78.5t132.5 -38.5t44 -114q-2 -101 -152 -220h-118q15 20 40 52t33.5 44t20.5 30t15.5 30.5t3.5 28.5q-1 54 -52 54zM1333 1075q10 -53 1.5 -111.5t-27 -109t-68 -83t-123.5 -32.5l-70 2v-741h-235l-48 119 q-131 -145 -297 -145q-150 0 -245 90t-95 291v584h307l-1 -490q0 -79 23 -120t84 -41q94 0 202 106v545h302q92 7 70 136h220z" glyph-name="uni1EED" horiz-adv-x="1377" unicode="ử"/><glyph d="M652 1538q-72 0 -72 -101h-170q0 121 72.5 195.5t164.5 74.5q63 0 131.5 -51.5t105.5 -51.5q56 0 56 96h169q0 -138 -64 -205t-158 -67q-53 0 -96 27.5t-76.5 55t-62.5 27.5zM1635 1456q10 -53 1.5 -112t-27 -109.5t-68 -82.5t-123.5 -32l-100 1v-476q0 -326 -134 -499 t-440 -173q-309 0 -443 172t-134 500v674h301v-633q0 -138 23 -233t65.5 -141t87 -64t100.5 -18t100.5 19t86.5 66t64 141t22 230v633h307q61 -3 82 33t9 104h220z" glyph-name="uni1EEE" horiz-adv-x="1575" unicode="Ữ"/><glyph d="M492 1157q-72 0 -72 -101h-171q0 121 72.5 195.5t164.5 74.5q63 0 131.5 -51t106.5 -51q56 0 56 95h169q0 -138 -64 -204.5t-158 -66.5q-53 0 -96.5 27.5t-76.5 54.5t-62 27zM1333 1075q10 -53 1.5 -111.5t-27 -109t-68 -83t-123.5 -32.5l-70 2v-741h-235l-48 119 q-131 -145 -297 -145q-150 0 -245 90t-95 291v584h307l-1 -490q0 -79 23 -120t84 -41q94 0 202 106v545h302q92 7 70 136h220z" glyph-name="uni1EEF" horiz-adv-x="1377" unicode="ữ"/><glyph d="M1635 1456q10 -53 1.5 -112t-27 -109.5t-68 -82.5t-123.5 -32l-100 1v-476q0 -326 -134 -499t-440 -173q-309 0 -443 172t-134 500v674h301v-633q0 -138 23 -233t65.5 -141t87 -64t100.5 -18t100.5 19t86.5 66t64 141t22 230v633h307q61 -3 82 33t9 104h220zM744 -99 q72 0 116.5 -47t44.5 -124q0 -70 -44.5 -122t-116.5 -52t-117 49.5t-45 124.5q0 79 44.5 125t117.5 46z" glyph-name="uni1EF0" horiz-adv-x="1575" unicode="Ự"/><glyph d="M1333 1075q10 -53 1.5 -111.5t-27 -109t-68 -83t-123.5 -32.5l-70 2v-741h-235l-48 119q-131 -145 -297 -145q-150 0 -245 90t-95 291v584h307l-1 -490q0 -79 23 -120t84 -41q94 0 202 106v545h302q92 7 70 136h220zM469 -99q72 0 116.5 -47t44.5 -124q0 -70 -44.5 -122 t-116 -52t-117 49.5t-45.5 124.5q0 79 44.5 125t117.5 46z" glyph-name="uni1EF1" horiz-adv-x="1377" unicode="ự"/><glyph d="M724 1536l-45 -102l-421 111l78 216zM1157 1319l-404 -795h-2v-524h-316v531l-401 788h340l222 -568l220 568h341z" glyph-name="Ygrave" horiz-adv-x="1196" unicode="Ỳ"/><glyph d="M596 1167l-45 -102l-421 111l78 217zM614 939h296l-337 -1055q-20 -68 -39.5 -117t-50.5 -100t-72 -81t-95.5 -51t-131 -19.5t-170.5 23.5l22 282q36 -14 65 -21.5t51 -7t39 3.5t32.5 18t24 24.5t18.5 34.5t15.5 38.5t15.5 45t15 46.5l-310 936h302l157 -581z" glyph-name="ygrave" horiz-adv-x="923" unicode="ỳ"/><glyph d="M816 1319h341l-404 -795h-2v-524h-316v531l-401 788h340l222 -568zM592 -99q72 0 116.5 -47t44.5 -124q0 -70 -44.5 -122t-116 -52t-117 49.5t-45.5 124.5q0 79 44.5 125t117.5 46z" glyph-name="uni1EF4" horiz-adv-x="1196" unicode="Ỵ"/><glyph d="M573 -116q-20 -68 -39.5 -117t-50.5 -100t-72 -81t-95.5 -51t-131 -19.5t-170.5 23.5l22 282q36 -14 65 -21.5t51 -7t39 3.5t32.5 18t24 24.5t18.5 34.5t15.5 38.5t15.5 45t15 46.5l-310 936h302l157 -581l153 581h296zM422 -589q72 0 116 -47t44 -123 q0 -70 -44.5 -122.5t-116 -52.5t-117 49.5t-45.5 125.5q0 79 45 124.5t118 45.5z" glyph-name="uni1EF5" horiz-adv-x="923" unicode="ỵ"/><glyph d="M587 1659q-34 0 -73 -34l-53 88q73 75 158.5 78.5t132.5 -38t43 -113.5q-2 -101 -152 -220h-117q15 20 40 52t33.5 43.5t20 29.5t15 31t3.5 28q0 55 -51 55zM1157 1319l-404 -795h-2v-524h-316v531l-401 788h340l222 -568l220 568h341z" glyph-name="uni1EF6" horiz-adv-x="1196" unicode="Ỷ"/><glyph d="M459 1290q-34 0 -73 -34l-53 89q73 75 158.5 78.5t132.5 -38.5t43 -114q-2 -101 -152 -220h-117q15 20 40 52t33.5 44t20 30t15 30.5t3.5 28.5q0 54 -51 54zM614 939h296l-337 -1055q-20 -68 -39.5 -117t-50.5 -100t-72 -81t-95.5 -51t-131 -19.5t-170.5 23.5l22 282 q36 -14 65 -21.5t51 -7t39 3.5t32.5 18t24 24.5t18.5 34.5t15.5 38.5t15.5 45t15 46.5l-310 936h302l157 -581z" glyph-name="uni1EF7" horiz-adv-x="923" unicode="ỷ"/><glyph d="M466 1526q-72 0 -72 -101h-170q0 121 72.5 195.5t164.5 74.5q63 0 131 -51.5t106 -51.5q56 0 56 96h169q0 -138 -64 -204.5t-158 -66.5q-53 0 -96.5 27t-76.5 54.5t-62 27.5zM1157 1319l-404 -795h-2v-524h-316v531l-401 788h340l222 -568l220 568h341z" glyph-name="uni1EF8" horiz-adv-x="1196" unicode="Ỹ"/><glyph d="M338 1157q-72 0 -72 -101h-170q0 121 72.5 195.5t164.5 74.5q63 0 131 -51t106 -51q56 0 56 95h169q0 -138 -64 -204.5t-158 -66.5q-53 0 -96.5 27.5t-76.5 54.5t-62 27zM614 939h296l-337 -1055q-20 -68 -39.5 -117t-50.5 -100t-72 -81t-95.5 -51t-131 -19.5 t-170.5 23.5l22 282q36 -14 65 -21.5t51 -7t39 3.5t32.5 18t24 24.5t18.5 34.5t15.5 38.5t15.5 45t15 46.5l-310 936h302l157 -581z" glyph-name="uni1EF9" horiz-adv-x="923" unicode="ỹ"/><glyph glyph-name="uni2009" horiz-adv-x="322" unicode=" "/><glyph d="M899 725v-262h-805v262h805z" glyph-name="endash" horiz-adv-x="991" unicode="–"/><glyph d="M1606 732v-259h-1512v259h1512z" glyph-name="emdash" horiz-adv-x="1699" unicode="—"/><glyph d="M140 983q-60 0 -95 41t-35 116q0 189 169 328q31 -31 55 -51q-123 -108 -118 -190q15 3 27 4q49 0 82.5 -36t33.5 -91q0 -51 -33 -86t-86 -35z" glyph-name="quoteleft" horiz-adv-x="295" unicode="‘"/><glyph d="M157 1468q58 0 93 -41t35 -115q0 -191 -169 -329l-53 53q121 109 116 189q-14 -3 -27 -3q-49 0 -82.5 35t-33.5 91q0 51 33 85.5t88 34.5z" glyph-name="quoteright" horiz-adv-x="295" unicode="’"/><glyph d="M225 311q85 -2 132 -62.5t42 -154.5q-17 -253 -239 -418q-58 67 -73 77q70 55 118 116t39 105q-19 -3 -31 -3q-68 3 -113 55.5t-42 130.5q3 67 47.5 112t119.5 42z" glyph-name="quotesinglbase" horiz-adv-x="1024" unicode="‚"/><glyph d="M265 983q-58 0 -93 41t-35 116q0 193 168 328q41 -41 53 -51q-121 -106 -116 -190q14 3 28 4q49 0 81.5 -36t32.5 -91q0 -51 -33 -86t-86 -35zM555 983q-58 0 -93 41t-35 116q0 193 169 328q41 -41 53 -51q-121 -106 -117 -190q14 3 28 4q49 0 81.5 -36t32.5 -91 q0 -51 -33 -86t-86 -35z" glyph-name="quotedblleft" horiz-adv-x="771" unicode="“"/><glyph d="M215 1468q58 0 93 -41t35 -115q0 -193 -167 -329q-43 43 -55 53q119 106 118 189q-15 -3 -27 -3q-51 0 -83.5 35t-32.5 91q0 51 32 85.5t87 34.5zM505 1468q58 0 93 -41t35 -115q0 -193 -167 -329q-43 43 -55 53q119 106 118 189q-15 -3 -27 -3q-51 0 -83.5 35t-32.5 91 q0 51 32 85.5t87 34.5z" glyph-name="quotedblright" horiz-adv-x="771" unicode="”"/><glyph d="M225 311q85 -2 132 -62.5t42 -154.5q-17 -253 -239 -418q-58 67 -73 77q70 55 118 116t39 105q-7 -2 -12 -1.5t-8.5 -0.5t-6.5 -1h-4q-68 3 -113 55.5t-42 130.5q3 67 47.5 112t119.5 42zM225 311q-75 3 -119.5 -42t-47.5 -112q-3 -79 42 -131t113 -55h4q3 0 6.5 1t8.5 1 t12 1q9 -44 -39 -105.5t-118 -115.5q15 -10 73 -77q222 166 239 418q5 94 -42 154.5t-132 62.5z" glyph-name="quotedblbase" horiz-adv-x="380" unicode="„"/><glyph d="M722 1290h85v-305h-85l-130 30l31 -196v-246h-306v246l33 196l-130 -30h-85v305h85l126 -29l-29 121v86h306v-86l-29 -122z" glyph-name="dagger" horiz-adv-x="943" unicode="†"/><glyph d="M807 836h-85l-126 28l27 -134v-93l-31 -151l130 31h85v-305h-85l-128 29l29 -174v-171h-306v171l33 174l-130 -29h-85v305h85l128 -29l-31 149v93l29 134l-126 -28h-85v306h85l126 -31l-29 123v234h306v-234l-29 -123l128 31h85v-306z" glyph-name="daggerdbl" horiz-adv-x="943" unicode="‡"/><glyph d="M312 940q90 0 146 -59.5t56 -155.5q0 -89 -56.5 -152.5t-145.5 -63.5q-90 0 -145.5 61t-55.5 155q0 97 54.5 156t146.5 59z" glyph-name="bullet" horiz-adv-x="626" unicode="•"/><glyph d="M246 239q56 0 91 -36.5t35 -96.5q0 -55 -35 -96t-91.5 -41t-91.5 39.5t-35 97.5q0 61 34.5 97t92.5 36zM620 239q56 0 91 -36.5t35 -96.5q0 -55 -35 -96t-91.5 -41t-91.5 39.5t-35 97.5q0 61 34.5 97t92.5 36zM992 239q56 0 91 -36.5t35 -96.5q0 -55 -35 -96t-91.5 -41 t-91.5 39.5t-35 97.5q0 61 34.5 97t92.5 36z" glyph-name="ellipsis" horiz-adv-x="1237" unicode="…"/><glyph d="M454 -22l-174 102l700 1157l172 -104zM365.5 1193q124.5 0 207 -73.5t82.5 -194.5q0 -99 -71.5 -182t-218.5 -83q-125 0 -205.5 72t-80.5 193q0 123 81 195.5t205.5 72.5zM365 1007q-60 0 -60 -82q0 -77 60 -77q29 0 44.5 24t15.5 53q0 32 -15.5 57t-44.5 25zM1053 521 q125 0 207.5 -73.5t82.5 -194.5q0 -44 -15.5 -88t-47 -85t-91 -66.5t-136.5 -25.5q-125 0 -205 71t-80 193.5t80 195.5t205 73zM1679 521q123 0 206 -74.5t83 -193.5q0 -99 -71 -182t-218 -83q-125 0 -205.5 71t-80.5 193.5t80.5 195.5t205.5 73zM1053 335q-27 0 -41.5 -26 t-14.5 -56.5t13.5 -53.5t42.5 -23t46 24t17 53q0 32 -15.5 57t-47.5 25zM1679 335q-29 0 -43.5 -25t-14.5 -57q0 -31 14.5 -54t43.5 -23t46.5 24t17.5 53q0 31 -16.5 56.5t-47.5 25.5z" glyph-name="perthousand" horiz-adv-x="2042" unicode="‰"/><glyph d="M684 707l-237 -233l237 -235l-194 -186l-352 420l352 420z" glyph-name="guilsinglleft" horiz-adv-x="863" unicode="‹"/><glyph d="M375 893l350 -420l-350 -420l-196 186l239 235l-239 233z" glyph-name="guilsinglright" horiz-adv-x="863" unicode="›"/><glyph d="M565 1485q227 0 362 -126.5t135 -319.5q0 -195 -103.5 -310.5t-287.5 -151.5l-17 -161h-183l-51 448v187h281v-187l-3 -26q109 65 109 201q0 97 -71.5 143.5t-168.5 46.5q-131 0 -244 -152l-236 150q60 108 185.5 183t292.5 75zM560 297q68 0 109 -43.5t41 -115.5 q0 -67 -42 -115.5t-108 -48.5q-68 0 -110 47t-42 117q0 73 41 116t111 43z" glyph-name="uni203D" horiz-adv-x="1174" unicode="‽"/><glyph d="M539 1401l164 -90l-838 -1342l-165 86z" glyph-name="fraction" horiz-adv-x="378" unicode="⁄"/><glyph d="M353.5 809q-119.5 0 -188.5 86t-69 217.5t70 218t189 86.5t188.5 -84.5t69.5 -218t-70 -219.5t-189.5 -86zM355 1266q-17 0 -30.5 -6t-21.5 -15t-14 -23t-8.5 -26t-4 -27t-1.5 -24.5t0.5 -20t0.5 -11.5q0 -150 77 -150q82 0 82 146q0 157 -80 157z" glyph-name="uni2070" horiz-adv-x="708" unicode="⁰"/><glyph d="M623 1075v-155h-79v-99h-162v99h-234l-59 155l293 326h162v-331zM244 1050l138 10v145z" glyph-name="uni2074" horiz-adv-x="704" unicode="⁴"/><glyph d="M317 1190q89 0 149.5 -55t60.5 -138q0 -77 -52 -131.5t-171 -54.5q-113 0 -220 78l95 109q56 -43 109 -42q67 0 67 49q0 24 -14.5 40.5t-40.5 16.5q-17 0 -32 -14l-133 82l25 271h321v-169l-179 12l-5 -56q6 2 20 2z" glyph-name="uni2075" horiz-adv-x="629" unicode="⁵"/><glyph d="M369 1196q82 0 142.5 -51t60.5 -140q0 -85 -60.5 -139.5t-170.5 -54.5q-128 0 -186.5 82t-58.5 211q0 138 69 225.5t188 87.5q114 0 191 -62l-116 -113q-34 22 -78 23q-61 0 -74 -84q30 15 93 15zM340 966q12 0 20.5 1t13.5 4.5t7.5 6t4 7.5t1.5 6.5v8.5v5q0 17 -15 27.5 t-34 10.5q7 0 -5 5q-39 19 -65 -12q7 -70 72 -70z" glyph-name="uni2076" horiz-adv-x="669" unicode="⁶"/><glyph d="M119 1401h405v-150l-183 -430h-196l205 420l-231 -16v176z" glyph-name="uni2077" horiz-adv-x="609" unicode="⁷"/><glyph d="M439 1125q85 -51 85 -137q0 -72 -59 -125.5t-163 -53.5q-96 0 -157 48.5t-61 128.5q0 87 83 139q-72 41 -71 123q0 77 58 123t151 46q90 0 148.5 -47t58.5 -124t-73 -121zM302 1292q-61 0 -61 -61q0 -24 17 -40.5t44 -16.5q31 0 48 15.5t17 41.5q0 61 -65 61zM302 945 q70 0 70 59q0 22 -19.5 40t-50.5 18q-29 0 -47.5 -18t-18.5 -40q-1 -59 66 -59z" glyph-name="uni2078" horiz-adv-x="610" unicode="⁸"/><glyph d="M328 1417q128 0 186.5 -82t58.5 -212q0 -137 -69 -224.5t-188 -87.5q-116 0 -188 65l111 110q29 -22 82 -22q56 0 72 82q-32 -15 -93 -15q-82 0 -142.5 52t-60.5 142q0 82 61.5 137t169.5 55zM328 1184q-7 0 5 -5q41 -19 66 16q-7 67 -71 66q-24 0 -36 -7.5t-12 -12 v-16.5q0 -19 15.5 -30t32.5 -11z" glyph-name="uni2079" horiz-adv-x="658" unicode="⁹"/><glyph d="M722 213q131 0 194 128l204 -143q-147 -232 -384 -232q-169 0 -294 114.5t-171 303.5h-128l28 145h80q-2 17 -2 51q0 29 2 45h-108l28 145h99q44 193 167.5 309.5t298.5 116.5q116 0 215.5 -59.5t168.5 -168.5l-200 -140q-70 121 -193 121q-137 0 -195 -179h296l-28 -145 h-291q-2 -14 -2 -43q0 -36 2 -53h276l-27 -145h-222q26 -79 73.5 -125t112.5 -46z" glyph-name="Euro" horiz-adv-x="1230" unicode="€"/><glyph d="M1215 763v-75h-102q-10 -171 -125.5 -275t-318.5 -104h-155v-309h-273v688h-82v75h82v398h428q203 0 317.5 -111t126.5 -287h102zM514 879v-116h305q-15 56 -70.5 86t-127.5 30h-107zM623 579q73 0 125 29t69 80h-303v-109h109z" glyph-name="uni20B1" horiz-adv-x="1326" unicode="₱"/><glyph d="M722 360h-166v-84h188v-141h-188v-135h-271v135h-126v141h126v84h-126v270h126v531h437q215 0 327.5 -112t112.5 -298q0 -183 -112.5 -287t-327.5 -104zM556 879v-249h118q196 0 196 126q0 123 -196 123h-118z" glyph-name="uni20BD" horiz-adv-x="1273" unicode="₽"/><glyph d="M930 630q75 -39 118.5 -119.5t43.5 -181.5q0 -143 -86 -236t-224 -93h-57v-159h-112v159h-72v-159h-116v159h-266v1161h266v158h116v-158h72v158h112v-158h9q126 0 207 -85.5t81 -218.5q0 -145 -92 -227zM691 925h-275v-212h268q44 0 78.5 26.5t34.5 79.5q0 49 -30 77.5 t-76 28.5zM744 236q44 0 79 34t35 85q0 56 -38 87t-90 31h-314v-237h328z" glyph-name="uni20BF" horiz-adv-x="1184" unicode="₿"/><glyph d="M1777 531q-188 0 -306 110t-118 299.5t117 301t307 111.5q184 0 302.5 -113.5t118.5 -299.5q0 -166 -106.5 -287.5t-314.5 -121.5zM869 510v809h288v-1319h-293l-429 802v-802h-292v1319h297zM1788.5 1096q-61.5 0 -95.5 -48t-34 -108q0 -58 34 -105t96 -47q60 0 96.5 48 t36.5 104q0 60 -36 108t-97.5 48zM1410 0v258h742v-258h-742z" glyph-name="afii61352" horiz-adv-x="2298" unicode="№"/><glyph d="M703 1251q249 0 418 -164t169 -423q0 -263 -169 -426t-418 -163t-419 164t-170 425q0 259 170 423t419 164zM703 224q186 0 312.5 121t126.5 319t-125.5 318.5t-313.5 120.5q-186 0 -313 -121.5t-127 -317.5q0 -198 127 -319t313 -121zM703 922q123 0 182.5 -49 t59.5 -131q0 -89 -57 -133t-185 -44h-31v-171h-136v528h167zM703 679q29 0 42.5 1t30 7t23.5 19t7 35q0 41 -26 52t-77 11h-31v-125h31z" glyph-name="uni2117" horiz-adv-x="1435" unicode="℗"/><glyph d="M77 1176v143h428v-143h-135v-384h-158v384h-135zM1109 792h-155l-12 268l-49 -268h-128l-48 263l-14 -263h-157l34 527h198l51 -309l48 309h198z" glyph-name="trademark" horiz-adv-x="1218" unicode="™"/><glyph d="M355 631v-339q0 -22 15 -38q160 -160 424 -160q299 0 462 181h82q-92 -113 -236.5 -176t-311.5 -63q-285 0 -488 181q-201 179 -201 438q0 258 201 440.5t488 182.5q290 0 492 -182q203 -184 203 -441v-17h-1121q-9 0 -9 -7zM364 695h858q7 0 7 12v317q0 24 -16 41 q-159 159 -419 159q-256 0 -422 -166q-17 -12 -17 -41v-310q0 -12 9 -12z" glyph-name="estimated" horiz-adv-x="1588" unicode="℮"/><glyph d="M1145 1401l164 -90l-838 -1342l-166 86zM413 736h-183v404l-95 -32l-50 150l219 58h109v-580zM1423 304q85 -51 86 -137q0 -72 -59 -125.5t-163 -53.5q-96 0 -157.5 48.5t-61.5 129.5q0 87 84 138q-72 41 -72 123q0 77 58 123t152 46q90 0 148.5 -47t58 -124t-73.5 -121z M1287 471q-61 0 -62 -61q0 -24 17.5 -40.5t44.5 -16.5q31 0 48 15.5t17 41.5q0 61 -65 61zM1287 125q70 0 70 58q0 22 -19.5 40t-50.5 18q-29 0 -48 -18t-19 -40q0 -58 67 -58z" glyph-name="oneeighth" horiz-adv-x="1595" unicode="⅛"/><glyph d="M1229 1401l164 -90l-838 -1342l-166 86zM509 908q0 -73 -53 -128.5t-188 -55.5q-101 0 -188 59l115 108q32 -14 73 -14q26 0 40.5 10.5t15.5 20.5l2 8q0 41 -58 41q-3 0 -17 3t-29 3l-43 126l79 61l-135 -8v174h375v-149l-117 -109q61 -17 94.5 -58t33.5 -92zM1507 304 q85 -51 85 -137q0 -72 -58.5 -125.5t-163.5 -53.5q-96 0 -157 48.5t-61 129.5q0 87 84 138q-72 41 -72 123q0 77 58 123t152 46q90 0 148 -47t58 -124t-73 -121zM1370 471q-61 0 -61 -61q0 -24 17 -40.5t44 -16.5q31 0 48 15.5t17 41.5q0 61 -65 61zM1370 125q70 0 70 58 q0 22 -19.5 40t-50.5 18q-29 0 -47.5 -18t-18.5 -40q-1 -58 66 -58z" glyph-name="threeeighths" horiz-adv-x="1679" unicode="⅜"/><glyph d="M1169 1401l164 -90l-838 -1342l-166 86zM527 911q0 -77 -52 -131.5t-171 -54.5q-113 0 -220 79l95 109q56 -43 109 -43q67 0 67 50q0 24 -14.5 40t-40.5 16q-17 0 -32 -13l-133 81l25 272h321v-169l-179 12l-5 -56q7 2 20 1q89 0 149.5 -54.5t60.5 -138.5zM1447 304 q85 -51 86 -137q0 -72 -59 -125.5t-163 -53.5q-96 0 -157.5 48.5t-61.5 129.5q0 87 84 138q-72 41 -72 123q0 77 58 123t152 46q90 0 148.5 -47t58 -124t-73.5 -121zM1311 471q-61 0 -62 -61q0 -24 17 -40.5t45 -16.5q31 0 48 15.5t17 41.5q0 61 -65 61zM1311 125 q70 0 70 58q0 22 -20 40t-50 18q-29 0 -48 -18t-19 -40q0 -58 67 -58z" glyph-name="fiveeighths" horiz-adv-x="1619" unicode="⅝"/><glyph d="M1072 1401l164 -90l-838 -1342l-166 86zM341 736h-196l205 419l-231 -15v176h405v-150zM1350 304q85 -51 85 -137q0 -72 -58.5 -125.5t-163.5 -53.5q-96 0 -157 48.5t-61 129.5q0 87 84 138q-72 41 -72 123q0 77 58 123t152 46q90 0 148 -47t58 -124t-73 -121zM1213 471 q-61 0 -61 -61q0 -24 17 -40.5t44 -16.5q31 0 48 15.5t17 41.5q0 61 -65 61zM1213 125q70 0 70 58q0 22 -19.5 40t-50.5 18q-29 0 -47.5 -18t-18.5 -40q-1 -58 66 -58z" glyph-name="seveneighths" horiz-adv-x="1522" unicode="⅞"/><glyph d="M732 935h-136v-710h136v-225h-573v225h136v710h-136v226h573v-226z" glyph-name="uni2160" horiz-adv-x="887" unicode="Ⅰ"/><glyph d="M1258 935h-137v-710h137v-225h-1099v225h136v710h-136v226h1099v-226zM821 225v710h-225v-710h225z" glyph-name="uni2161" horiz-adv-x="1414" unicode="Ⅱ"/><glyph d="M1783 935h-136v-710h136v-225h-1624v225h136v710h-136v226h1624v-226zM596 225h225v710h-225v-710zM1347 225v710h-226v-710h226z" glyph-name="uni2162" horiz-adv-x="1938" unicode="Ⅲ"/><glyph d="M1567 1161h353l-428 -1161h-372l-347 935h-177v-710h136v-225h-573v225h136v710h-136v226h882l265 -867z" glyph-name="uni2163" horiz-adv-x="1976" unicode="Ⅳ"/><glyph d="M1283 1161l-430 -1161h-370l-430 1161h351l263 -867l263 867h353z" glyph-name="uni2164" horiz-adv-x="1338" unicode="Ⅴ"/><glyph d="M1816 935h-137v-710h137v-225h-574v225h137v710h-179l-347 -935h-370l-430 1161h353l261 -867l265 867h884v-226z" glyph-name="uni2165" horiz-adv-x="1971" unicode="Ⅵ"/><glyph d="M2342 935h-137v-710h137v-225h-1100v225h137v710h-179l-347 -935h-370l-430 1161h353l261 -867l265 867h1410v-226zM1905 225v710h-226v-710h226z" glyph-name="uni2166" horiz-adv-x="2498" unicode="Ⅶ"/><glyph d="M2865 935h-136v-710h136v-225h-1623v225h137v710h-179l-347 -935h-370l-430 1161h353l261 -867l265 867h1933v-226zM1679 225h226v710h-226v-710zM2429 225v710h-224v-710h224z" glyph-name="uni2167" horiz-adv-x="3020" unicode="Ⅷ"/><glyph d="M1306 568l372 -568h-323l-201 316l-186 -316h-809v225h136v710h-136v226h780l208 -357l200 357h319zM788 225l212 343l-235 367h-169v-710h192z" glyph-name="uni2168" horiz-adv-x="1716" unicode="Ⅸ"/><glyph d="M55 0l351 568l-382 593h319l208 -357l200 357h319l-360 -593l372 -568h-323l-201 316l-184 -316h-319z" glyph-name="uni2169" horiz-adv-x="1121" unicode="Ⅹ"/><glyph d="M1553 935h-136v-710h136v-225h-811l-186 316l-201 -316h-321l372 568l-360 593h319l198 -357l208 357h782v-226zM1116 225v710h-171l-235 -367l212 -343h194z" glyph-name="uni216A" horiz-adv-x="1710" unicode="Ⅺ"/><glyph d="M2140 935h-138v-710h138v-225h-1381l-201 316l-184 -316h-319l351 568l-382 593h319l208 -357l200 357h1389v-226zM935 225h241v710h-242l-224 -367zM1702 225v710h-226v-710h226z" glyph-name="uni216B" horiz-adv-x="2295" unicode="Ⅻ"/><glyph d="M459 275h533v-275h-833v1161h300v-886z" glyph-name="uni216C" horiz-adv-x="1099" unicode="Ⅼ"/><glyph d="M1126 963l-240 -173q-94 128 -215 128q-130 0 -201.5 -95.5t-71.5 -238.5q0 -147 72.5 -242.5t200.5 -95.5q65 0 121 37.5t92 93.5l246 -172q-79 -108 -199 -168.5t-260 -60.5q-246 0 -408 171.5t-162 436.5q0 263 158.5 433.5t411.5 170.5q142 0 260 -59.5t195 -165.5z " glyph-name="uni216D" horiz-adv-x="1199" unicode="Ⅽ"/><glyph d="M689 1161q268 0 434.5 -162.5t166.5 -425.5q0 -254 -167 -413.5t-434 -159.5h-530v1161h530zM689 271q138 0 214.5 83t76.5 219q0 140 -78.5 228t-212.5 88h-232v-618h232z" glyph-name="uni216E" horiz-adv-x="1392" unicode="Ⅾ"/><glyph d="M1546 0h-297l-51 746l-247 -746h-239l-243 703l-51 -703h-300l87 1161h375l251 -748l253 748h375z" glyph-name="uni216F" horiz-adv-x="1669" unicode="Ⅿ"/><glyph d="M1396 771v-230h-910l168 -157l-147 -162l-294 297l-136 140l430 440l147 -154l-180 -174h922z" glyph-name="arrowleft" horiz-adv-x="1471" unicode="←"/><glyph d="M963 887l-163 -145l-157 168v-910h-230v922l-174 -180l-154 145l441 432l140 -136l-2 -2z" glyph-name="arrowup" horiz-adv-x="1049" unicode="↑"/><glyph d="M1396 659l-138 -140l-294 -297l-147 162l168 157h-908v230h920l-180 174l147 154z" glyph-name="arrowright" horiz-adv-x="1464" unicode="→"/><glyph d="M1002 432l-297 -295l-138 -137l-441 432l154 145l172 -179v921h232v-909l156 167z" glyph-name="arrowdown" horiz-adv-x="1129" unicode="↓"/><glyph d="M1659 659l-138 -140l-294 -297l-147 162l168 157h-762l168 -157l-147 -162l-294 297l-136 140l430 440l147 -154l-180 -174h786l-180 174l147 154z" glyph-name="arrowboth" horiz-adv-x="1739" unicode="↔"/><glyph d="M807 447l162 -147l-297 -293l-138 -137l-440 430l153 147l173 -179v785l-173 -179l-153 147l440 430l138 -137l297 -293l-162 -147l-157 169v-765z" glyph-name="arrowupdn" horiz-adv-x="1064" unicode="↕"/><glyph d="M1128 273l-164 -164l-643 644l8 -241h-218l3 613l615 7v-212l-255 3z" glyph-name="uni2196" horiz-adv-x="1174" unicode="↖"/><glyph d="M1067 512h-217l8 242l-643 -645l-164 164l654 650l-254 -3v212l614 -7z" glyph-name="uni2197" horiz-adv-x="1174" unicode="↗"/><glyph d="M862 768h211l-6 -614l-613 -4v219l241 -9l-644 644l164 163l652 -653z" glyph-name="uni2198" horiz-adv-x="1186" unicode="↘"/><glyph d="M1133 1004l-643 -644l242 9v-219l-614 4l-7 614h213l-5 -253l652 652z" glyph-name="uni2199" horiz-adv-x="1186" unicode="↙"/><glyph d="M575 1234q212 0 329 -161.5t117 -422.5q0 -138 -30 -257.5t-90 -214t-159.5 -149.5t-231.5 -55q-191 0 -291.5 114.5t-105.5 290.5q-5 125 57 218.5t151.5 136.5t187.5 43q145 0 230 -106q-7 319 -174 319q-97 0 -179 -67l-169 183q63 56 160 92t198 36zM536 220 q145 0 186 212q-29 55 -75 87t-94 32q-65 0 -105 -53t-44 -119q-3 -61 24.5 -110t107.5 -49z" glyph-name="partialdiff" horiz-adv-x="1131" unicode="∂"/><glyph d="M983 783q102 -130 102 -315q0 -92 -29.5 -176.5t-88.5 -158t-160.5 -117t-231.5 -43.5q-183 0 -312 90l-103 -102l-102 104l99 99q-92 128 -92 304q0 227 142.5 362.5t367.5 135.5q172 0 301 -84l104 104l104 -102zM321 468q0 -63 20 -120l372 372q-58 43 -138 43 q-119 0 -186.5 -88.5t-67.5 -206.5zM575 176q116 0 186 88.5t70 203.5q0 75 -27 136l-377 -377q59 -51 148 -51z" glyph-name="emptyset" horiz-adv-x="1143" unicode="∅"/><glyph d="M1010 1321v-280h-24v-1041h-305v1041h-210v-1041h-305v1041h-23v280h867z" glyph-name="product" horiz-adv-x="1138" unicode="∏"/><glyph d="M891 1161v-289l-449 24l251 -449l-251 -456l449 24v-288h-746v249h2l257 469l-259 466v250h746z" glyph-name="summation" horiz-adv-x="986" unicode="∑"/><glyph d="M855 836v-263h-715v262z" glyph-name="minus" horiz-adv-x="996" unicode="−"/><glyph d="M952 893q140 0 229 -88t89 -225q0 -131 -84.5 -217.5t-216.5 -86.5q-166 0 -278 142q-118 -142 -275 -142q-130 0 -216.5 87.5t-86.5 220.5q0 135 90.5 222t229.5 87q164 0 263 -137q97 137 256 137zM406 464q108 0 188 121q-31 67 -68.5 93.5t-92.5 26.5 q-70 0 -110 -32.5t-40 -88.5q0 -55 35 -87.5t88 -32.5zM973 464q58 0 92 32.5t34 85.5q0 56 -39 89.5t-109 33.5q-55 0 -85.5 -27.5t-71.5 -100.5q71 -113 179 -113z" glyph-name="infinity" horiz-adv-x="1384" unicode="∞"/><glyph d="M-34 -512v271h49q77 0 119 41t42 118v908q0 493 493 493h19v-271h-48q-77 0 -118 -41t-41 -118v-908q0 -493 -495 -493h-20z" glyph-name="integral" horiz-adv-x="764" unicode="∫"/><glyph d="M352 744h-186q0 131 80 208t182 77q73 0 152.5 -53.5t126.5 -53.5q68 0 68 100h182q0 -147 -72.5 -217.5t-176.5 -70.5q-49 0 -92 18.5t-67.5 40t-55 40.5t-60.5 19q-48 0 -64.5 -27.5t-16.5 -80.5zM352 404h-186q0 131 80 208t182 77q73 0 152.5 -53.5t126.5 -53.5 q68 0 68 101h182q0 -147 -72.5 -218t-176.5 -71q-60 0 -109 30t-89.5 59t-76.5 29q-48 0 -64.5 -27.5t-16.5 -80.5z" glyph-name="approxequal" horiz-adv-x="1121" unicode="≈"/><glyph d="M865 756h-223l-70 -133h293v-232h-414l-128 -244l-127 70l92 174h-122v232h244l70 133h-314v230l436 2l120 227l125 -70l-82 -157h100v-232z" glyph-name="notequal" horiz-adv-x="1073" unicode="≠"/><glyph d="M802 539l-51 -208l-582 133v285l582 169l43 -215l-437 -92zM169 265l659 -2v-181h-659v183z" glyph-name="lessequal" horiz-adv-x="938" unicode="≤"/><glyph d="M188 918l580 -169v-285l-580 -133l-53 208l445 72l-437 92zM109 82l2 181l657 2v-183h-659z" glyph-name="greaterequal" horiz-adv-x="938" unicode="≥"/><glyph d="M633 1161l423 -591l-423 -570h-83l-422 570l422 591h83zM601 300l174 273l-178 287h-12l-175 -288l172 -272h19z" glyph-name="lozenge" horiz-adv-x="1181" unicode="◊"/><glyph d="M635 362l-299 -116l17 317l-198 246l306 89l174 263l172 -263l307 -89l-201 -246l21 -317z" glyph-name="uni2605" horiz-adv-x="1269" unicode="★"/><glyph d="M635 362l-299 -116l17 317l-198 246l306 89l174 263l172 -263l307 -89l-201 -246l21 -317zM635 544l118 -42l-2 124l75 101l-121 39l-70 101l-72 -101l-121 -39l75 -101l-2 -124z" glyph-name="uni2606" horiz-adv-x="1269" unicode="☆"/><glyph d="M1514 253l44 -229q-109 -39 -197 -42.5t-157 41.5t-95 144q-142 -198 -442 -198q-249 0 -407.5 194.5t-158.5 497t156 496t410 193.5q282 0 425 -178v147h296v-976q0 -116 126 -90zM747.5 246q167.5 0 256 115t88.5 299q0 188 -91 302.5t-253 114.5q-167 0 -257 -117 t-90 -299.5t89.5 -298.5t257 -116z" glyph-name="uni2C6D" horiz-adv-x="1631" unicode="Ɑ"/><glyph d="M65 1319h1072v-273h-1072v273zM65 626v273h1072v-273h-388v-626h-295v626h-389z" glyph-name="uni3012" horiz-adv-x="1206" unicode="〒"/><glyph d="M1021 973q51 -171 51 -398q0 -58 -14 -118q-3 -9 -8 -1q-9 19 -22 35t-21 24l-10 7q2 -3 5 -9t11.5 -25t12 -36t5.5 -43.5t-7 -48.5q-17 -48 -58 -84q-7 -3 -7 4q-2 17 -8 30.5t-11 20.5l-5 5q0 -5 -0.5 -12.5t-8.5 -31.5t-19 -46t-36.5 -51t-59.5 -52q-2 0 -4.5 -1.5 t-4.5 -3t-3 -1.5q-5 -3 -8.5 -1t-0.5 7q5 12 7.5 23t1.5 17v5q-5 -9 -15.5 -24.5t-50.5 -45t-88 -43.5q-48 14 -87 42t-55 50l-15 21q-5 -19 7 -45q2 -5 0 -7.5t-7 1.5q-3 2 -6.5 4t-7.5 2q-55 36 -85.5 84t-33.5 78l-5 31q-19 -19 -24 -56q0 -7 -7 -4q-41 34 -56 84 q-10 43 -4 78.5t17 59.5l14 24q-34 -26 -53 -66q-9 -10 -10 1q-14 60 -14 118q0 101 13 201t27 149l12 48q3 15 11 17q114 31 210 43l14 34q2 2 3 1q44 -15 62 -10q38 9 75 75q2 3 5 0q38 -67 75 -75q22 -5 62 10q3 0 3 -1l14 -34q68 -9 210 -43q9 -3 12 -17zM435 975 q-2 0 3.5 -26.5t10.5 -54.5l5 -27q41 39 96 39h3q14 0 27 -5q24 -7 40.5 -24t21.5 -30l3 -12q2 3 3.5 7.5t4 18t1.5 23.5q20 12 39.5 18t36 5t32 -4.5t25.5 -9.5t18.5 -11.5t13.5 -11.5l4 -3l15 111l-58 -44l-29 87l-58 -58l-56 100l-60 -97l-51 58l-31 -92zM370 823 q20 -2 31 -21q15 15 41 26q-5 10 -16 17.5t-20 11.5l-10 1l22 14q-56 14 -85 -39q-14 -29 -9.5 -53t16.5 -39l12 -14q3 17 15 36q9 15 9.5 29.5t-2.5 23.5zM923 727q5 5 11 14.5t15.5 38.5t-7.5 53q-14 24 -35 33.5t-37 7.5l-13 -2l22 -14q-34 -9 -46 -30q24 -10 43 -26 q5 9 11.5 14t11.5 7h6q-15 -24 3 -58zM836 561q9 0 17.5 -5t13.5 -10l3 -5q0 58 -39 82q2 7 4.5 17t1.5 39t-9.5 51.5t-36.5 43.5t-72 26l15 21q-63 7 -97 -46q-15 24 -40 35t-41 11h-17q15 -14 16 -21q-70 -9 -98.5 -53t-21.5 -85l7 -39q-17 -10 -27.5 -30.5t-11.5 -36.5 v-15q15 20 34 20q-3 -5 -7.5 -13.5t-9 -39t11.5 -61.5l20 -37q20 24 45 42q-19 31 -19 58q0 48 43 87q-24 -41 -19 -82q12 -39 32 -39q10 0 46 25.5t41 39.5q10 27 2 50q-12 10 -28 17.5t-27 9.5l-10 3q7 20 22 29q7 3 28.5 -2.5t28 -5.5t28 6t28.5 2.5t12 -11.5t7 -13l1 -5 q-39 -7 -63 -30q-3 -5 -2 -21.5t6 -28.5q3 -14 39 -39.5t48 -25.5q7 0 17 13t13 26q5 41 -18 82q41 -38 41 -87q0 -12 -4.5 -26.5t-7.5 -22.5l-5 -9l44 -42q10 14 19 37q12 36 12 61.5t-9 39.5zM500 707l-26 15q60 -3 94 -15q-3 -17 -13.5 -36t-18.5 -29l-7 -12l3 30h-10 q-12 0 -21 9t-9.5 19t8.5 19zM744 630q-27 32 -37 77q15 5 38 9t40 4l15 2l-23 -14q5 -10 5 -17q0 -29 -31 -29q-2 0 -5.5 1t-4.5 1zM695 369q14 12 22 29t10 27v10q-17 24 -47.5 48t-42.5 24t-43 -24t-46 -48q-5 -39 27 -60v14q31 -24 62 -24q14 0 34 7q22 10 22 27 q3 -7 4 -14.5t-1 -12.5z" glyph-name="uniF8FF" horiz-adv-x="1283" unicode=""/><glyph d="M748 1350q287 0 465 -192t178 -498q0 -302 -176 -496.5t-467 -194.5q-285 0 -466 194.5t-181 496.5q0 304 177.5 497t469.5 193zM457 952l159 -99q61 87 132 87q34 0 66.5 -23.5t32.5 -73.5q0 -61 -47 -92t-160 -31l34 -234h149l18 98q210 48 210 257q0 116 -82.5 193 t-220.5 77q-102 0 -179.5 -46t-111.5 -113zM744 377q-34 0 -57 -24t-23 -61q0 -39 23 -65t59 -26t59 26.5t23 64.5q0 36 -24 60.5t-60 24.5z" glyph-name="uniFFFD" horiz-adv-x="1493" unicode="�"/><glyph d="M949 0q-26 159 -55 280h-474q-22 -101 -51 -280h-316q55 244 99 411.5t131 419t198 488.5h355q150 -335 243 -627.5t186 -691.5h-316zM488 560h335q-72 237 -166 481q-109 -266 -169 -481z" glyph-name="A.salt" horiz-adv-x="1320"/><glyph d="M985 1556l-422 -110l-42 102l385 225zM949 0q-26 159 -55 280h-474q-22 -101 -51 -280h-316q55 244 99 411.5t131 419t198 488.5h355q150 -335 243 -627.5t186 -691.5h-316zM488 560h335q-72 237 -166 481q-109 -266 -169 -481z" glyph-name="Aacute.salt" horiz-adv-x="1320"/><glyph d="M662 1451q-259 0 -264 249h177q12 -96 87 -96q20 0 36.5 6t25 15.5t14.5 22.5t8 21.5t3.5 18.5t1.5 12h177q-3 -109 -65.5 -179t-200.5 -70zM949 0q-26 159 -55 280h-474q-22 -101 -51 -280h-316q55 244 99 411.5t131 419t198 488.5h355q150 -335 243 -627.5t186 -691.5 h-316zM488 560h335q-72 237 -166 481q-109 -266 -169 -481z" glyph-name="Abreve.salt" horiz-adv-x="1320"/><glyph d="M708 1447h-83l-255 226l79 102l217 -111l220 111l77 -102zM949 0q-26 159 -55 280h-474q-22 -101 -51 -280h-316q55 244 99 411.5t131 419t198 488.5h355q150 -335 243 -627.5t186 -691.5h-316zM488 560h335q-72 237 -166 481q-109 -266 -169 -481z" glyph-name="uni01CD.salt" horiz-adv-x="1320"/><glyph d="M662 1550l-217 -111l-78 102l254 225h84l254 -225l-77 -102zM949 0q-26 159 -55 280h-474q-22 -101 -51 -280h-316q55 244 99 411.5t131 419t198 488.5h355q150 -335 243 -627.5t186 -691.5h-316zM488 560h335q-72 237 -166 481q-109 -266 -169 -481z" glyph-name="Acircumflex.salt" horiz-adv-x="1320"/><glyph d="M500 1457q-51 0 -82.5 34.5t-31.5 87.5q0 56 30.5 88.5t83.5 32.5q49 0 81.5 -33.5t32.5 -87.5q0 -48 -31.5 -85t-82.5 -37zM836 1457q-51 0 -81.5 34.5t-30.5 87.5q0 56 29.5 88.5t82.5 32.5q51 0 83 -33.5t32 -87.5q0 -49 -32 -85.5t-83 -36.5zM949 0q-26 159 -55 280 h-474q-22 -101 -51 -280h-316q55 244 99 411.5t131 419t198 488.5h355q150 -335 243 -627.5t186 -691.5h-316zM488 560h335q-72 237 -166 481q-109 -266 -169 -481z" glyph-name="Adieresis.salt" horiz-adv-x="1320"/><glyph d="M790 1548l-44 -102l-422 110l79 217zM949 0q-26 159 -55 280h-474q-22 -101 -51 -280h-316q55 244 99 411.5t131 419t198 488.5h355q150 -335 243 -627.5t186 -691.5h-316zM488 560h335q-72 237 -166 481q-109 -266 -169 -481z" glyph-name="Agrave.salt" horiz-adv-x="1320"/><glyph d="M968 1650v-172h-598v172h598zM949 0q-26 159 -55 280h-474q-22 -101 -51 -280h-316q55 244 99 411.5t131 419t198 488.5h355q150 -335 243 -627.5t186 -691.5h-316zM488 560h335q-72 237 -166 481q-109 -266 -169 -481z" glyph-name="Amacron.salt" horiz-adv-x="1320"/><glyph d="M1005 -254q38 0 74 34l53 -89q-70 -75 -157.5 -78.5t-134 38.5t-43.5 113q0 58 46 124t106 112q-26 159 -55 280h-474q-22 -101 -51 -280h-316q55 244 99 411.5t131 419t198 488.5h355q150 -335 243 -627.5t186 -691.5h-198q-65 -84 -89 -124t-24 -76q0 -54 51 -54z M488 560h335q-72 237 -166 481q-109 -266 -169 -481z" glyph-name="Aogonek.salt" horiz-adv-x="1320"/><glyph d="M662 1411q-87 0 -141.5 61t-54.5 151q0 97 53 152.5t143 55.5q87 0 141 -57t54 -151q0 -87 -54 -149.5t-141 -62.5zM662 1705q-34 0 -54.5 -23t-20.5 -59q0 -34 21.5 -58t53.5 -24q34 0 54 24t20 58t-21 58t-53 24zM949 0q-26 159 -55 280h-474q-22 -101 -51 -280h-316 q55 244 99 411.5t131 419t198 488.5h355q150 -335 243 -627.5t186 -691.5h-316zM488 560h335q-72 237 -166 481q-109 -266 -169 -481z" glyph-name="Aring.salt" horiz-adv-x="1320"/><glyph d="M532 1538q-72 0 -71 -101h-171q0 121 72.5 195.5t164.5 74.5q63 0 131.5 -51.5t106.5 -51.5q56 0 56 96h169q0 -138 -64 -205t-158 -67q-53 0 -96.5 27.5t-77 55t-62.5 27.5zM949 0q-26 159 -55 280h-474q-22 -101 -51 -280h-316q55 244 99 411.5t131 419t198 488.5h355 q150 -335 243 -627.5t186 -691.5h-316zM488 560h335q-72 237 -166 481q-109 -266 -169 -481z" glyph-name="Atilde.salt" horiz-adv-x="1320"/><glyph d="M1391 748v-65q0 -321 -170.5 -515t-471.5 -194q-299 0 -473.5 189.5t-174.5 500.5q0 319 181.5 504t471.5 185q215 0 363 -96t197 -235l-273 -114q-49 92 -115 145t-175 53q-160 0 -252.5 -124t-92.5 -327q0 -193 83.5 -311.5t252.5 -118.5q259 0 325 275h-374v248h698z " glyph-name="G.salt" horiz-adv-x="1493"/><glyph d="M742 1451q-259 0 -264 249h177q12 -96 87 -96q20 0 36.5 6t25 15.5t14.5 22.5t8 21.5t3.5 18.5t1.5 12h178q-3 -109 -66 -179t-201 -70zM1391 748v-65q0 -321 -170.5 -515t-471.5 -194q-299 0 -473.5 189.5t-174.5 500.5q0 319 181.5 504t471.5 185q215 0 363 -96 t197 -235l-273 -114q-49 92 -115 145t-175 53q-160 0 -252.5 -124t-92.5 -327q0 -193 83.5 -311.5t252.5 -118.5q259 0 325 275h-374v248h698z" glyph-name="Gbreve.salt" horiz-adv-x="1493"/><glyph d="M788 1447h-83l-254 226l78 102l217 -111l220 111l77 -102zM1391 748v-65q0 -321 -170.5 -515t-471.5 -194q-299 0 -473.5 189.5t-174.5 500.5q0 319 181.5 504t471.5 185q215 0 363 -96t197 -235l-273 -114q-49 92 -115 145t-175 53q-160 0 -252.5 -124t-92.5 -327 q0 -193 83.5 -311.5t252.5 -118.5q259 0 325 275h-374v248h698z" glyph-name="Gcaron.salt" horiz-adv-x="1493"/><glyph d="M1391 748v-65q0 -321 -170.5 -515t-471.5 -194q-299 0 -473.5 189.5t-174.5 500.5q0 319 181.5 504t471.5 185q215 0 363 -96t197 -235l-273 -114q-49 92 -115 145t-175 53q-160 0 -252.5 -124t-92.5 -327q0 -193 83.5 -311.5t252.5 -118.5q259 0 325 275h-374v248h698z M744 -121q72 0 110.5 -49.5t38.5 -133.5q0 -220 -227 -254l-29 92q101 19 124 65h-17q-58 0 -94 38.5t-36 99.5q0 65 35 103.5t95 38.5z" glyph-name="Gcommaaccent.salt" horiz-adv-x="1493"/><glyph d="M744 1415q-72 0 -117 49.5t-45 124.5q0 79 44.5 125t117.5 46q72 0 116.5 -47t44.5 -124q0 -70 -44.5 -122t-116.5 -52zM1391 748v-65q0 -321 -170.5 -515t-471.5 -194q-299 0 -473.5 189.5t-174.5 500.5q0 319 181.5 504t471.5 185q215 0 363 -96t197 -235l-273 -114 q-49 92 -115 145t-175 53q-160 0 -252.5 -124t-92.5 -327q0 -193 83.5 -311.5t252.5 -118.5q259 0 325 275h-374v248h698z" glyph-name="Gdotaccent.salt" horiz-adv-x="1493"/><glyph d="M456 0h-301v1319h301v-1319zM188 -345l201 162q51 -68 98 -101t112 -33q84 0 147 60.5t63 205.5v1370h300v-1408q0 -101 -23.5 -183.5t-77.5 -152.5t-151.5 -109t-230.5 -39q-152 0 -267 66t-171 162z" glyph-name="IJ.aalt" horiz-adv-x="1264"/><glyph d="M548 1319v-1333q0 -113 -32.5 -210t-88 -167t-116 -118.5t-130.5 -82.5l-125 268l9 3q9 5 25 16t34 26.5t36.5 39.5t34 51.5t25.5 66.5t10 82v1358h318z" glyph-name="J.salt" horiz-adv-x="703"/><glyph d="M1609 0h-300q-19 316 -49.5 515.5t-85.5 397.5l-222 -913h-194l-210 891q-104 -307 -145 -891h-299q5 258 76 623t184 696h344l149 -694l148 694h342q218 -611 262 -1319z" glyph-name="M.salt" horiz-adv-x="1715"/><glyph d="M1179 1556l-421 -110l-43 102l386 225zM1609 0h-300q-19 316 -49.5 515.5t-85.5 397.5l-222 -913h-194l-210 891q-104 -307 -145 -891h-299q5 258 76 623t184 696h344l149 -694l148 694h342q218 -611 262 -1319z" glyph-name="uni1E3E.salt" horiz-adv-x="1715"/><glyph d="M1009 1319h305v-1319h-310q0 85 -25 159.5t-80.5 144.5t-106.5 120t-138 124q-135 114 -191 167v-715h-304v1319h309q0 -152 90.5 -278t265.5 -275q114 -97 185 -162v715z" glyph-name="N.salt" horiz-adv-x="1471"/><glyph d="M1079 1556l-422 -110l-43 102l386 225zM1009 1319h305v-1319h-310q0 85 -25 159.5t-80.5 144.5t-106.5 120t-138 124q-135 114 -191 167v-715h-304v1319h309q0 -152 90.5 -278t265.5 -275q114 -97 185 -162v715z" glyph-name="Nacute.salt" horiz-adv-x="1471"/><glyph d="M802 1447h-83l-255 226l79 102l216 -111l221 111l76 -102zM1009 1319h305v-1319h-310q0 85 -25 159.5t-80.5 144.5t-106.5 120t-138 124q-135 114 -191 167v-715h-304v1319h309q0 -152 90.5 -278t265.5 -275q114 -97 185 -162v715z" glyph-name="Ncaron.salt" horiz-adv-x="1471"/><glyph d="M1009 1319h305v-1319h-310q0 85 -25 159.5t-80.5 144.5t-106.5 120t-138 124q-135 114 -191 167v-715h-304v1319h309q0 -152 90.5 -278t265.5 -275q114 -97 185 -162v715zM765 -121q72 0 110 -49.5t38 -133.5q0 -220 -227 -254l-29 92q101 19 125 65h-17q-58 0 -94 38.5 t-36 99.5q0 65 35 103.5t95 38.5z" glyph-name="Ncommaaccent.salt" horiz-adv-x="1471"/><glyph d="M1273 -177l142 -146q-49 -68 -130.5 -125t-161.5 -57q-82 0 -150 25.5t-107.5 56t-102 56.5t-137.5 26q-65 0 -124 -33l-87 -65l-103 101v2l-47 48l365 268q-239 39 -384 225t-145 455q0 300 178 494t469 194q288 0 465.5 -191t177.5 -497q0 -193 -76 -347t-212 -245 l-286 -210q24 -12 84 -47.5t103.5 -52t89.5 -16.5q20 0 41.5 4.5t38.5 11t32.5 15.5t27.5 18t20.5 16t13.5 12zM406 660q0 -181 89 -296t253 -115q162 0 251.5 115.5t89.5 296t-92 295t-249 114.5q-164 0 -253 -115.5t-89 -294.5z" glyph-name="Q.salt" horiz-adv-x="1518"/><glyph d="M882 430q38 -51 62 -75t89.5 -47t164.5 -23v-285q-162 0 -268 30t-158 77.5t-87.5 97t-89.5 98.5t-132 72v-375h-304v1318h462q294 0 437 -123t143 -338q0 -340 -319 -427zM621 1048h-158v-389h158q65 0 108.5 6.5t83 25.5t58 59t18.5 103q0 61 -20.5 102.5t-60.5 60 t-83 25.5t-104 7z" glyph-name="R.salt" horiz-adv-x="1264"/><glyph d="M1285 1318q-162 -754 -435 -1318h-364q-285 591 -433 1318h346q32 -220 108.5 -536t159.5 -517q135 350 272 1053h346z" glyph-name="V.salt" horiz-adv-x="1339"/><glyph d="M1574 1318q-5 -258 -75.5 -621.5t-184.5 -696.5h-334l-159 620l-159 -620h-331q-218 613 -263 1318h319q15 -270 32.5 -406.5t82.5 -447.5l223 855h195l220 -858q72 249 118 857h316z" glyph-name="W.salt" horiz-adv-x="1645"/><glyph d="M722 1446l-43 102l386 225l78 -217zM1574 1318q-5 -258 -75.5 -621.5t-184.5 -696.5h-334l-159 620l-159 -620h-331q-218 613 -263 1318h319q15 -270 32.5 -406.5t82.5 -447.5l223 855h195l220 -858q72 249 118 857h316z" glyph-name="Wacute.salt" horiz-adv-x="1645"/><glyph d="M780 1766h84l254 -225l-77 -102l-220 111l-217 -111l-78 102zM1574 1318q-5 -258 -75.5 -621.5t-184.5 -696.5h-334l-159 620l-159 -620h-331q-218 613 -263 1318h319q15 -270 32.5 -406.5t82.5 -447.5l223 855h195l220 -858q72 249 118 857h316z" glyph-name="Wcircumflex.salt" horiz-adv-x="1645"/><glyph d="M659 1700q49 0 81.5 -33.5t32.5 -87.5q0 -48 -31.5 -85t-82.5 -37t-83 34.5t-32 87.5q0 56 31 88.5t84 32.5zM995 1700q51 0 82.5 -33.5t31.5 -87.5q0 -49 -31.5 -85.5t-82.5 -36.5t-82 34.5t-31 87.5q0 56 30 88.5t83 32.5zM1574 1318q-5 -258 -75.5 -621.5 t-184.5 -696.5h-334l-159 620l-159 -620h-331q-218 613 -263 1318h319q15 -270 32.5 -406.5t82.5 -447.5l223 855h195l220 -858q72 249 118 857h316z" glyph-name="Wdieresis.salt" horiz-adv-x="1645"/><glyph d="M905 1446l-422 110l78 217l388 -225zM1574 1318q-5 -258 -75.5 -621.5t-184.5 -696.5h-334l-159 620l-159 -620h-331q-218 613 -263 1318h319q15 -270 32.5 -406.5t82.5 -447.5l223 855h195l220 -858q72 249 118 857h316z" glyph-name="Wgrave.salt" horiz-adv-x="1645"/><glyph d="M1222 1318q-73 -258 -155 -405.5t-285 -390.5h-4v-522h-305v524q-195 266 -253 363q-99 171 -186 431h323q58 -210 118.5 -340t152.5 -248q102 123 158.5 250.5t112.5 337.5h323z" glyph-name="Y.salt" horiz-adv-x="1261"/><glyph d="M951 1556l-422 -110l-43 102l386 225zM1222 1318q-73 -258 -155 -405.5t-285 -390.5h-4v-522h-305v524q-195 266 -253 363q-99 171 -186 431h323q58 -210 118.5 -340t152.5 -248q102 123 158.5 250.5t112.5 337.5h323z" glyph-name="Yacute.salt" horiz-adv-x="1261"/><glyph d="M628 1550l-217 -111l-78 102l254 225h84l254 -225l-77 -102zM1222 1318q-73 -258 -155 -405.5t-285 -390.5h-4v-522h-305v524q-195 266 -253 363q-99 171 -186 431h323q58 -210 118.5 -340t152.5 -248q102 123 158.5 250.5t112.5 337.5h323z" glyph-name="Ycircumflex.salt" horiz-adv-x="1261"/><glyph d="M466 1457q-51 0 -82.5 34.5t-31.5 87.5q0 56 30.5 88.5t83.5 32.5q49 0 81.5 -33.5t32.5 -87.5q0 -48 -31.5 -85t-82.5 -37zM802 1457q-51 0 -82 34.5t-31 87.5q0 56 30 88.5t83 32.5q51 0 82.5 -33.5t31.5 -87.5q0 -49 -31.5 -85.5t-82.5 -36.5zM1222 1318 q-73 -258 -155 -405.5t-285 -390.5h-4v-522h-305v524q-195 266 -253 363q-99 171 -186 431h323q58 -210 118.5 -340t152.5 -248q102 123 158.5 250.5t112.5 337.5h323z" glyph-name="Ydieresis.salt" horiz-adv-x="1261"/><glyph d="M756 1548l-44 -102l-422 110l79 217zM1222 1318q-73 -258 -155 -405.5t-285 -390.5h-4v-522h-305v524q-195 266 -253 363q-99 171 -186 431h323q58 -210 118.5 -340t152.5 -248q102 123 158.5 250.5t112.5 337.5h323z" glyph-name="Ygrave.salt" horiz-adv-x="1261"/><glyph d="M498 1538q-72 0 -71 -101h-171q0 121 72.5 195.5t164.5 74.5q63 0 131.5 -51.5t105.5 -51.5q56 0 57 96h169q0 -138 -64 -205t-158 -67q-53 0 -96.5 27.5t-77 55t-62.5 27.5zM1222 1318q-73 -258 -155 -405.5t-285 -390.5h-4v-522h-305v524q-195 266 -253 363 q-99 171 -186 431h323q58 -210 118.5 -340t152.5 -248q102 123 158.5 250.5t112.5 337.5h323z" glyph-name="uni1EF8.salt" horiz-adv-x="1261"/><glyph d="M515 966q200 0 335.5 -123t135.5 -340v-503h-240l-41 111q-92 -142 -285 -142q-159 0 -247 89t-88 224q0 148 96.5 226.5t265.5 78.5q133 0 244 -49v20q0 70 -54.5 108.5t-143.5 38.5q-109 0 -247 -46l-92 242q187 65 361 65zM853 451q2 2 2 8zM517 193q60 0 105 38.5 t61 116.5q-72 39 -152 39q-68 0 -105 -25.5t-37 -69.5q0 -41 32.5 -70t95.5 -29z" glyph-name="a.salt" horiz-adv-x="1133"/><glyph d="M283 1379q72 0 116.5 -47t44.5 -124q0 -70 -44.5 -122t-116 -52t-117 49.5t-45.5 124.5q0 79 44.5 125t117.5 46zM432 0h-295v939h295v-939z" glyph-name="i.locl" horiz-adv-x="566"/><glyph d="M404 0h-295v1428h295v-1428z" glyph-name="l.salt" horiz-adv-x="537"/><glyph d="M157 1577l-43 102l386 226l79 -217zM404 0h-295v1428h295v-1428z" glyph-name="lacute.salt" horiz-adv-x="537"/><glyph d="M563 983l-102 43l112 431l210 -95zM404 0h-295v1428h295v-1428z" glyph-name="lcaron.salt" horiz-adv-x="537"/><glyph d="M404 1428v-1428h-295v1428h295zM259 -121q72 0 110.5 -49.5t38.5 -133.5q0 -220 -227 -254l-29 92q101 19 124 65h-17q-58 0 -93.5 38.5t-35.5 99.5q0 65 34.5 103.5t94.5 38.5z" glyph-name="lcommaaccent.salt" horiz-adv-x="537"/><glyph d="M683 998v-232l-133 -59v-707h-297v575l-144 -65v231l144 65v622h297v-489z" glyph-name="lslash.salt" horiz-adv-x="815"/><glyph d="M413 -24q-104 0 -216 32.5t-158 73.5l99 181q38 -29 128.5 -60.5t160.5 -31.5q109 0 109 59q0 34 -48.5 53t-118 30t-138.5 31.5t-117.5 75t-48.5 143.5q0 108 89.5 185.5t251.5 77.5q169 0 335 -87l-87 -172q-133 68 -248 68q-106 0 -106 -55q0 -29 35 -47t88 -24 t113.5 -22t113.5 -39t88 -77t35 -132q0 -114 -94 -188.5t-266 -74.5z" glyph-name="glyph630" horiz-adv-x="826"/><glyph d="M858 413q143 -44 233 -163.5t90 -304.5q0 -210 -125.5 -342t-301.5 -132q-196 0 -385 121l169 210q99 -63 179 -63q73 0 128.5 56.5t55.5 160.5q0 123 -58 180t-142 57q-43 0 -93 -17l-79 211l256 299l-340 -3v-683h-290v681l-116 -2v260h116v78q0 288 154.5 396.5 t400.5 20.5l-2 -234q-41 15 -73.5 22t-70 5t-62 -19.5t-41 -59.5t-16.5 -107v-102h644v-250z" glyph-name="germandbls.salt" horiz-adv-x="1184"/><glyph d="M1065 939q-58 -266 -134 -474.5t-206 -464.5h-370q-133 254 -208 460.5t-133 478.5h303q32 -201 95.5 -413t126.5 -343q61 143 124.5 349.5t99.5 406.5h302z" glyph-name="v.ss02" horiz-adv-x="1082"/><glyph d="M1176 939h312q-79 -348 -145 -549t-157 -390h-304l-128 640l-128 -640h-305q-89 201 -177.5 465.5t-121.5 473.5h313q36 -297 105 -558l154 558h317l154 -550q82 314 111 550z" glyph-name="w.salt" horiz-adv-x="1515"/><glyph d="M1077 1176l-422 -111l-42 102l385 226zM1176 939h312q-79 -348 -145 -549t-157 -390h-304l-128 640l-128 -640h-305q-89 201 -177.5 465.5t-121.5 473.5h313q36 -297 105 -558l154 558h317l154 -550q82 314 111 550z" glyph-name="wacute.salt" horiz-adv-x="1515"/><glyph d="M754 1169l-216 -111l-79 103l254 225h84l254 -225l-76 -103zM1176 939h312q-79 -348 -145 -549t-157 -390h-304l-128 640l-128 -640h-305q-89 201 -177.5 465.5t-121.5 473.5h313q36 -297 105 -558l154 558h317l154 -550q82 314 111 550z" glyph-name="wcircumflex.salt" horiz-adv-x="1515"/><glyph d="M592 1077q-51 0 -82.5 34t-31.5 87q0 56 30.5 88.5t83.5 32.5q49 0 82 -33t33 -88q0 -48 -32 -84.5t-83 -36.5zM928.5 1077q-51.5 0 -82 34t-30.5 87q0 56 30 88.5t82 32.5q51 0 83 -33t32 -88q0 -49 -31.5 -85t-83 -36zM1176 939h312q-79 -348 -145 -549t-157 -390h-304 l-128 640l-128 -640h-305q-89 201 -177.5 465.5t-121.5 473.5h313q36 -297 105 -558l154 558h317l154 -550q82 314 111 550z" glyph-name="wdieresis.salt" horiz-adv-x="1515"/><glyph d="M882 1167l-44 -102l-422 111l79 217zM1176 939h312q-79 -348 -145 -549t-157 -390h-304l-128 640l-128 -640h-305q-89 201 -177.5 465.5t-121.5 473.5h313q36 -297 105 -558l154 558h317l154 -550q82 314 111 550z" glyph-name="wgrave.salt" horiz-adv-x="1515"/><glyph d="M628 939h295l-460 -1451h-303l166 515l-312 936h302l157 -579z" glyph-name="y.salt" horiz-adv-x="936"/><glyph d="M804 1176l-422 -111l-42 102l385 226zM628 939h295l-460 -1451h-303l166 515l-312 936h302l157 -579z" glyph-name="yacute.salt" horiz-adv-x="936"/><glyph d="M481 1169l-216 -111l-79 103l254 225h84l254 -225l-77 -103zM628 939h295l-460 -1451h-303l166 515l-312 936h302l157 -579z" glyph-name="ycircumflex.salt" horiz-adv-x="936"/><glyph d="M319 1077q-51 0 -82.5 34t-31.5 87q0 56 30.5 88.5t83.5 32.5q49 0 81.5 -33t32.5 -88q0 -48 -31.5 -84.5t-82.5 -36.5zM655.5 1077q-51.5 0 -82 34t-30.5 87q0 56 29.5 88.5t82.5 32.5q51 0 83 -33t32 -88q0 -49 -31.5 -85t-83 -36zM628 939h295l-460 -1451h-303 l166 515l-312 936h302l157 -579z" glyph-name="ydieresis.salt" horiz-adv-x="936"/><glyph d="M628 939h295l-460 -1451h-303l166 515l-312 936h302l157 -579zM800 -198q72 0 116.5 -47t44.5 -124q0 -70 -44.5 -122t-116 -52t-117 49.5t-45.5 124.5q0 79 44.5 125t117.5 46z" glyph-name="uni1EF5.salt" horiz-adv-x="936"/><glyph d="M609 1167l-44 -102l-422 111l79 217zM628 939h295l-460 -1451h-303l166 515l-312 936h302l157 -579z" glyph-name="ygrave.salt" horiz-adv-x="936"/><glyph d="M473 1290q-34 0 -74 -34l-53 89q73 75 159 78.5t132.5 -38.5t43.5 -114q-2 -101 -152 -220h-118q15 20 40 52t33.5 44t20.5 30t15.5 30.5t3.5 28.5q0 54 -51 54zM628 939h295l-460 -1451h-303l166 515l-312 936h302l157 -579z" glyph-name="uni1EF7.salt" horiz-adv-x="936"/><glyph d="M379 1157q-72 0 -72 -101h-170q0 121 72.5 195.5t164.5 74.5q63 0 131 -51t106 -51q56 0 56 95h169q0 -138 -64 -204.5t-158 -66.5q-53 0 -96.5 27.5t-76.5 54.5t-62 27zM628 939h295l-460 -1451h-303l166 515l-312 936h302l157 -579z" glyph-name="uni1EF9.salt" horiz-adv-x="936"/><glyph d="M459 1319v-1068h756v-251h-1056v1319h300zM1806 0h-319l-137 408h-759l356 911h355zM975 664h290l-142 420z" glyph-name="L_A.dlig" horiz-adv-x="1860"/><glyph d="M1087 435q-210 0 -341.5 121.5t-131.5 334.5q0 217 131.5 339.5t341.5 122.5q207 0 340 -124.5t133 -337.5q0 -89 -27.5 -167.5t-81 -144t-147.5 -105t-217 -39.5zM459 1319v-1025h1080v-294h-1380v1319h300zM1087 1089q-79 0 -119.5 -55.5t-40.5 -139.5q0 -79 41.5 -134 t118.5 -55q72 2 116.5 58t44.5 131q0 84 -42 139.5t-119 55.5z" glyph-name="L_O.dlig" horiz-adv-x="1664"/><glyph d="M1667 964q150 0 245 -88.5t95 -291.5v-584h-307l2 527q0 79 -23.5 120t-84.5 41q-90 0 -201 -109v-579h-306v1207q-160 60 -232 -14q-34 -34 -43.5 -92t14.5 -134t82 -148q31 -34 43 -53l-219 -143q-72 90 -186 90q-97 0 -140.5 -69t-43.5 -176q0 -104 43.5 -173.5 t140.5 -69.5q99 0 186 91l220 -142q-131 -201 -404 -201q-227 0 -357 131.5t-130 363.5q0 234 130 365t357 133h22q-60 215 58 365q73 94 179 124t194 13t206.5 -43.5t181.5 -26.5h4v-557q122 123 274 123zM1261 650z" glyph-name="c_h.dlig" horiz-adv-x="2097"/><glyph d="M1717 -2l-278 364h-31v-362h-300v1198q-174 73 -253 -5q-34 -34 -43.5 -92t14.5 -134t82 -148q31 -34 43 -53l-219 -143q-72 90 -186 90q-97 0 -140.5 -69t-43.5 -176q0 -104 43.5 -173.5t140.5 -69.5q99 0 186 91l220 -142q-131 -201 -404 -201q-227 0 -357 131.5 t-130 363.5q0 234 130 365t357 133h25q-56 215 55 365q53 73 124 107.5t150 32.5t150 -14.5t159.5 -32t140.5 -25.5h56v-762h39l239 302h379l-372 -442l422 -499h-398z" glyph-name="c_k.dlig" horiz-adv-x="2112"/><glyph d="M1376 966q205 0 332.5 -138.5t127.5 -360t-118.5 -358t-328.5 -136.5q-186 0 -307 129l-46 -102h-219v1213q-174 53 -273 15.5t-99 -187.5v-102h226v-256h-226v-683h-297v683h-109v256h109v128q0 99 26.5 173t73.5 121t117 74.5t149.5 36t179.5 1.5t199 -24t216 -44v-540 q115 101 267 101zM1319 242q97 0 157 61t60 165q0 114 -59 171t-158 57q-96 0 -153 -60.5t-57 -167.5q0 -104 58 -165t152 -61z" glyph-name="f_b.dlig" horiz-adv-x="1897"/><glyph d="M1384 964q150 0 245 -89.5t95 -290.5v-584h-307l1 527q0 79 -24 120t-85 41q-90 0 -200 -109v-579h-305v1217q-167 49 -263 10t-96 -186v-102h226v-256h-226v-683h-297v683h-109v256h109v128q0 99 26.5 173t73.5 121t117 74.5t149.5 36t179.5 1.5t199 -24t216 -44v-562 q125 121 275 121zM976 650q-2 -5 -3 -10l5 10h-2z" glyph-name="f_h.dlig" horiz-adv-x="1814"/><glyph d="M1080 939v-939h-295v683h-340v-683h-297v683h-109v256h109v87q0 150 63.5 250.5t161.5 140t219 43t236.5 -25t214.5 -77.5l-103 -241q-87 38 -170.5 56t-158.5 16t-120.5 -43t-45.5 -119v-87h635z" glyph-name="f_i.dlig" horiz-adv-x="1213"/><glyph d="M1106 939v-953q0 -121 -28 -215t-82 -157t-107.5 -102t-129.5 -77l-133 215l9 5q10 3 25.5 14.5t34 27t37.5 39t34.5 52t25.5 67.5t10 82v746h-357v-683h-297v683h-109v256h109v87q0 150 63.5 250.5t161.5 140t219 43t236.5 -25t214.5 -77.5l-103 -241q-87 38 -170.5 56 t-158.5 16t-120.5 -43t-45.5 -119v-87h661z" glyph-name="f_j.dlig" horiz-adv-x="1240"/><glyph d="M1236 253l44 -229q-97 -36 -178 -41t-148 22t-103.5 104t-36.5 200v904q-172 53 -270.5 15t-98.5 -187v-102h226v-256h-226v-683h-297v683h-109v256h109v128q0 99 26.5 173t73.5 121t117 74.5t149.5 36t179.5 1.5t199 -24t216 -44l-1 -11h1v-1051q0 -63 33 -82.5t94 -7.5 z" glyph-name="f_l.dlig" horiz-adv-x="1351"/></font>
</defs>
</svg>
