<svg xmlns="http://www.w3.org/2000/svg">
<defs>
<font horiz-adv-x="0" id="ywftsvg"><font-face ascent="1638" bbox="-906 -956 2987 2185.19" cap-height="1319" descent="-410" font-family="" font-stretch="normal" font-weight="900" panose-1="2 11 0 3 5 4 1 2 5 4" underline-position="0" underline-thickness="0" unicode-range="U+0020-FFFD" units-per-em="2048" x-height="939"/><missing-glyph d="M1063 973q51 -171 51 -398q0 -58 -13 -118q-3 -9 -9 -1q-9 19 -21.5 35t-22.5 24l-9 7q2 -3 5.5 -9t12 -25t12 -36t5 -43.5t-6.5 -48.5q-17 -48 -58 -84q-7 -3 -7 4q-2 17 -8 30.5t-11 20.5l-5 5q0 -5 -1 -12.5t-8.5 -31.5t-18.5 -46t-37 -51t-60 -52q-2 0 -4 -1.5l-4 -3 t-4 -1.5q-5 -3 -8.5 -1t0.5 7q5 12 7.5 23t2.5 17l-2 5q-5 -9 -15 -24.5t-50 -45t-88 -43.5q-48 14 -87.5 42t-54.5 50l-15 21q-5 -19 7 -45q2 -5 0 -7.5t-7 1.5q-2 2 -6 4t-8 2q-55 36 -85.5 84t-35.5 78l-3 31q-19 -19 -24 -56q0 -7 -7 -4q-41 34 -57 84q-10 43 -4 78.5 t20 59.5l12 24q-34 -26 -53 -66q-9 -10 -10 1q-14 60 -14 118q0 101 13 201t25 149l13 48q3 15 12 17q114 31 210 43l14 34q2 2 3 1q44 -15 62 -10q38 9 75 75q3 3 5 0q38 -67 75 -75q22 -5 61 10q3 0 4 -1l13 -34q68 -9 210 -43q9 -3 12 -17zM478 975q-2 0 3 -26.5 t11 -54.5l5 -27q41 39 95 39h4q15 0 27 -5q24 -7 40 -24t20 -30l5 -12q2 3 3.5 7.5t4 18t0.5 23.5q20 12 40 18t36 5t31.5 -4.5t26 -9.5t19 -11.5t11.5 -11.5l5 -3l16 111l-58 -44l-29 87l-58 -58l-57 100l-59 -97l-52 58l-30 -92zM413 823q20 -2 31 -21q15 15 41 26 q-5 10 -16.5 17.5t-21.5 11.5l-8 1l22 14q-56 14 -86 -39q-14 -29 -9.5 -53t16.5 -39l12 -14q3 17 16 36q9 15 9.5 29.5t-3.5 23.5zM966 727q5 5 11 14.5t15.5 38.5t-7.5 53q-14 24 -35.5 33.5t-34.5 7.5l-16 -2l23 -14q-34 -9 -46 -30q24 -10 42 -26q5 9 12 14t12 7h5 q-15 -24 4 -58zM879 561q9 0 17.5 -5t11.5 -10l5 -5q0 58 -39 82q2 7 4.5 17t1.5 39t-9.5 51.5t-36.5 43.5t-73 26l16 21q-63 7 -98 -46q-15 24 -40 35t-42 11h-15q15 -14 15 -21q-70 -9 -98 -53t-21 -85l7 -39q-17 -10 -27.5 -30.5t-10.5 -36.5l-2 -15q15 20 35 20 q-3 -5 -7.5 -13.5t-9 -39t10.5 -61.5l21 -37q20 24 44 42q-19 31 -18 58q0 48 42 87q-24 -41 -19 -82q12 -39 33 -39q10 0 46 25.5t41 39.5q10 27 2 50q-12 10 -28.5 17.5t-26.
<glyph d="M1551 1200q-38 15 -68.5 22t-68 5t-65.5 -19.5t-51 -59.5t-35 -107l-19 -102h236l-46 -256h-234l-195 -1098h-290l193 1098h-347l-203 -1098h-298l205 1098h-188l44 256h191l21 112q29 167 126 273t218.5 135t245 5t210.5 -95q181 171 461 65zM609 939h343l14 78 q14 75 32 128q-60 58 -140 70t-145.5 -31.5t-82.5 -133.5z" glyph-name="f_f.liga" horiz-adv-x="1467" unicode="ff"/><glyph d="M1744 338q-12 -63 13.5 -82.5t92.5 -9.5l5 -220q-104 -36 -184 -41t-140 22t-83 102t-2 195l66 379h-317l-191 -1098h-299l191 1098h-333l-203 -1098h-297l202 1098h-188l44 256h191l21 112q24 137 94.5 234t163.5 140t195.5 50.5t197.5 -24t161 -92.5q104 77 249 94.5 t276.5 -10.5t239.5 -86l-147 -241q-80 38 -160.5 56t-154.5 16t-127 -43t-67 -119l-15 -87h608zM611 939h329l16 87q12 63 34 128q-61 53 -138 62t-140 -35t-81 -131z" glyph-name="f_f_i.liga" horiz-adv-x="1972" unicode="ffi"/><glyph d="M1799 343q-9 -63 20 -82.5t92 -7.5l4 -229q-102 -36 -184 -41t-144.5 22t-85.5 104t-1 200l154 867q-140 53 -260.5 12t-140.5 -162l-16 -87h232l-46 -256h-230l-189 -1098h-301l191 1098h-333l-203 -1098h-298l205 1098h-188l44 256h191l21 112q22 137 92 233.5t162 139 t193.5 51t196.5 -22t163 -88.5q106 84 255.5 104t299.5 -15t283 -112zM609 939h330l15 87q12 63 34 128q-60 53 -137.5 62t-140.5 -35t-80 -131z" glyph-name="f_f_l.liga" horiz-adv-x="2007" unicode="ffl"/><glyph d="M1063 973q51 -171 51 -398q0 -58 -13 -118q-3 -9 -9 -1q-9 19 -21.5 35t-22.5 24l-9 7q2 -3 5.5 -9t12 -25t12 -36t5 -43.5t-6.5 -48.5q-17 -48 -58 -84q-7 -3 -7 4q-2 17 -8 30.5t-11 20.5l-5 5q0 -5 -1 -12.5t-8.5 -31.5t-18.5 -46t-37 -51t-60 -52q-2 0 -4 -1.5l-4 -3 t-4 -1.5q-5 -3 -8.5 -1t0.5 7q5 12 7.5 23t2.5 17l-2 5q-5 -9 -15 -24.5t-50 -45t-88 -43.5q-48 14 -87.5 42t-54.5 50l-15 21q-5 -19 7 -45q2 -5 0 -7.5t-7 1.5q-2 2 -6 4t-8 2q-55 36 -85.5 84t-35.5 78l-3 31q-19 -19 -24 -56q0 -7 -7 -4q-41 34 -57 84q-10 43 -4 78.5 t20 59.5l12 24q-34 -26 -53 -66q-9 -10 -10 1q-14 60 -14 118q0 101 13 201t25 149l13 48q3 15 12 17q114 31 210 43l14 34q2 2 3 1q44 -15 62 -10q38 9 75 75q3 3 5 0q38 -67 75 -75q22 -5 61 10q3 0 4 -1l13 -34q68 -9 210 -43q9 -3 12 -17zM478 975q-2 0 3 -26.5 t11 -54.5l5 -27q41 39 95 39h4q15 0 27 -5q24 -7 40 -24t20 -30l5 -12q2 3 3.5 7.5t4 18t0.5 23.5q20 12 40 18t36 5t31.5 -4.5t26 -9.5t19 -11.5t11.5 -11.5l5 -3l16 111l-58 -44l-29 87l-58 -58l-57 100l-59 -97l-52 58l-30 -92zM413 823q20 -2 31 -21q15 15 41 26 q-5 10 -16.5 17.5t-21.5 11.5l-8 1l22 14q-56 14 -86 -39q-14 -29 -9.5 -53t16.5 -39l12 -14q3 17 16 36q9 15 9.5 29.5t-3.5 23.5zM966 727q5 5 11 14.5t15.5 38.5t-7.5 53q-14 24 -35.5 33.5t-34.5 7.5l-16 -2l23 -14q-34 -9 -46 -30q24 -10 42 -26q5 9 12 14t12 7h5 q-15 -24 4 -58zM879 561q9 0 17.5 -5t11.5 -10l5 -5q0 58 -39 82q2 7 4.5 17t1.5 39t-9.5 51.5t-36.5 43.5t-73 26l16 21q-63 7 -98 -46q-15 24 -40 35t-42 11h-15q15 -14 15 -21q-70 -9 -98 -53t-21 -85l7 -39q-17 -10 -27.5 -30.5t-10.5 -36.5l-2 -15q15 20 35 20 q-3 -5 -7.5 -13.5t-9 -39t10.5 -61.5l21 -37q20 24 44 42q-19 31 -18 58q0 48 42 87q-24 -41 -19 -82q12 -39 33 -39q10 0 46 25.5t41 39.5q10 27 2 50q-12 10 -28.5 17.5t-26.5 9.5l-10 3q7 20 22 29q7 3 28 -2.5t28 -5.5t28.5 6t28 2.5t12 -11.5t6.5 -13l2 -5 q-39 -7 -63 -30q-3 -5 -2.5 -21.5t5.5 -28.5q3 -14 39 -39.5t48 -25.5q7 0 17.5 13t13.5 26q5 41 -19 82q41 -38 41 -87q0 -12 -4 -26.5t-9 -22.5l-4 -9l45 -42q10 14 18 37q12 36 12 61.5t-7 39.5zM543 707l-26 15q60 -3 94 -15q-3 -17 -13.5 -36t-17.5 -29l-8 -12l3 30 h-10q-12 0 -21.5 9t-9.5 19t9 19zM787 630q-27 32 -38 77q15 5 38.5 9t38.5 4l17 2l-24 -14q5 -10 5 -17q0 -29 -30 -29q-2 0 -5.5 1t-5.5 1zM737 369q14 12 22.5 29t8.5 27l2 10q-17 24 -48 48t-43 24t-42.5 -24t-45.5 -48q-5 -39 27 -60v14q31 -24 61 -24q14 0 34 7 q22 10 23 27q3 -7 4 -14.5t-1 -12.5z" glyph-name=".notdef" horiz-adv-x="1315"/><glyph glyph-name="glyph1"/><glyph glyph-name="glyph2" horiz-adv-x="682"/><glyph glyph-name="space" horiz-adv-x="484" unicode=" "/><glyph d="M372 391h-184l66 696l63 381h337l-75 -364zM258 225q44 0 72 -29.5t28 -77.5q0 -60 -41.5 -105t-101.5 -45q-48 0 -75 31.5t-27 77.5q0 67 40 107.5t105 40.5z" glyph-name="exclam" horiz-adv-x="599" unicode="!"/><glyph d="M367 1056h-160l17 412h249zM700 1056h-161l16 412h251z" glyph-name="quotedbl" horiz-adv-x="679" unicode="&quot;"/><glyph d="M1184 683h-194l-87 -222h169l-33 -193h-215l-105 -268h-212l106 268l-224 -2l-106 -266h-213l106 266h-130l29 195h179l89 223h-152l31 197h200l110 280h212l-111 -280h222l111 280h215l-111 -280h150zM689 461l88 222l-222 1l-89 -223h223z" glyph-name="numbersign" horiz-adv-x="1225" unicode="#"/><glyph d="M469 780q0 -32 39.5 -58t96.5 -47t113.5 -47.5t95.5 -77t39 -118.5q0 -126 -99 -214t-244 -107l-8 -111h-169l32 114q-166 27 -271 171l164 159q39 -63 103 -101t122 -38q53 0 91.5 25t38.5 61q0 38 -39.5 66t-95.5 51t-111.5 50t-95 77.5t-39.5 120.5q0 108 85.5 188 t228.5 97l7 120h169l-34 -118q143 -19 235 -121l-170 -149q-22 32 -72 59.5t-101 27.5t-81 -27t-30 -53z" glyph-name="dollar" horiz-adv-x="1003" unicode="$"/><glyph d="M391 -24l-157 104l949 1302l153 -105zM541 1340q111 0 181 -68.5t70 -179.5q0 -126 -92 -238t-263 -112q-113 0 -181 67t-68 177q0 157 104 255.5t249 98.5zM509 1149q-44 0 -67.5 -41t-23.5 -94q0 -79 51 -79q41 0 66 41t25 91q0 82 -51 82zM1118 582q109 0 178 -68.5 t69 -180.5q0 -56 -20.5 -114.5t-59.5 -112t-110.5 -87.5t-164.5 -34q-111 0 -180 66.5t-69 177.5q0 157 105 255t252 98zM1082 391q-41 0 -63 -41t-22 -94q0 -79 47 -79q41 0 66 40.5t25 91.5q0 82 -53 82z" glyph-name="percent" horiz-adv-x="1479" unicode="%"/><glyph d="M1671 787l-36 -186h-254q9 -51 8 -106q0 -224 -176.5 -375t-461.5 -151q-234 0 -406 142l-181 -167l-109 128l175 162q-116 166 -112 374q0 201 88.5 375t239.5 275t325 97q84 -2 149.5 -31t100.5 -74t53 -93.5t18 -98.5v-31l318 294l109 -126l-864 -799q-44 -41 -64 -61 l-2 1l-60 -56q97 -90 253 -92q123 -2 214 69t91 185q0 70 -48 142l215 203h417zM410 584q0 -85 25 -161l210 193q205 210 205 377q0 26 -3.5 47.5t-13.5 50.5t-37.5 45t-68.5 14q-111 -7 -215 -173t-102 -393z" glyph-name="ampersand" horiz-adv-x="1713" unicode="&amp;"/><glyph d="M355 1056h-160l17 412h249z" glyph-name="quotesingle" horiz-adv-x="319" unicode="'"/><glyph d="M911 1384q-457 -410 -457 -990q0 -372 176 -601l-185 -116q-273 328 -273 748q0 331 149.5 581t448.5 496z" glyph-name="parenleft" horiz-adv-x="761" unicode="("/><glyph d="M324 1384l183 118q276 -323 276 -746q0 -331 -149 -581t-448 -498l-143 116q227 201 343 443t116 498q-1 421 -178 650z" glyph-name="parenright" horiz-adv-x="716" unicode=")"/><glyph d="M236 812l192 168l-206 47l113 200l162 -102l5 216h223l-71 -216l199 102l43 -200l-225 -47l135 -168l-198 -126l-76 193l-145 -193z" glyph-name="asterisk" horiz-adv-x="918" unicode="*"/><glyph d="M1024 666l-44 -263h-285l-55 -313h-285l55 313h-282l46 261h282l53 297h285l-53 -295h283z" glyph-name="plus" horiz-adv-x="1133" unicode="+"/><glyph d="M249 311q90 -2 127 -67t8 -167q-77 -251 -304 -401q-5 12 -28 41t-33 36q80 55 138 116t56 105l-32 -3q-70 3 -106.5 58.5t-14.5 137.5q20 63 70.5 105t118.5 39z" glyph-name="comma" horiz-adv-x="588" unicode=","/><glyph d="M771 614l-44 -259h-630l45 259h629z" glyph-name="hyphen" horiz-adv-x="868" unicode="-"/><glyph d="M191 326q68 0 106.5 -39.5t38.5 -105.5q0 -82 -58 -145t-140 -63q-65 0 -102.5 41.5t-37.5 110.5q0 85 56.5 143t136.5 58z" glyph-name="period" horiz-adv-x="462" unicode="."/><glyph d="M348 -142h-293l824 1436h290z" glyph-name="slash" horiz-adv-x="1157" unicode="/"/><glyph d="M541 -24q-200 0 -308 134t-108 349q0 198 77.5 364.5t223.5 266.5t328 100q198 0 308 -133.5t110 -346.5q0 -305 -178 -519.5t-453 -214.5zM712 937q-68 0 -122 -38.5t-83 -91.5t-47 -120t-23 -115t-5 -86q0 -46 6.5 -87t22 -81t48 -64t76.5 -24q96 0 161 73.5t89.5 171 t24.5 209.5q0 253 -148 253z" glyph-name="zero" horiz-adv-x="1254" unicode="0"/><glyph d="M618 1161h193l-198 -1161h-316l147 869l-214 -72l-39 246z" glyph-name="one" horiz-adv-x="887" unicode="1"/><glyph d="M676 372l-152 -107l410 18l-53 -283h-835l41 244l413 302q113 84 162.5 148t49.5 129q0 34 -16.5 58.5t-41 34t-44 14t-37.5 4.5q-41 0 -90.5 -26.5t-75.5 -49t-76 -68.5l-160 186q208 213 472 214q166 0 270 -79.5t104 -224.5q0 -265 -341 -514z" glyph-name="two" horiz-adv-x="1095" unicode="2"/><glyph d="M1019 1161l-44 -250l-309 -249q119 -26 182 -100t63 -176q0 -68 -25.5 -134t-81.5 -131t-165.5 -105t-257.5 -40q-125 0 -221.5 44.5t-135.5 97.5l227 177q68 -58 172 -58q97 0 137.5 47t40.5 91q0 113 -133 113q-31 0 -59 -2.5t-50.5 -7t-30.5 -4.5l-4 219l272 198 l-374 -19l53 289h744z" glyph-name="three" horiz-adv-x="1051" unicode="3"/><glyph d="M1034 476l-44 -258h-152l-39 -218h-280l39 218h-464l-17 258l648 685h280l-121 -685h150zM369 476h235l55 307z" glyph-name="four" horiz-adv-x="1116" unicode="4"/><glyph d="M601 737q150 0 250 -79t100 -223q0 -82 -29 -160.5t-88 -146.5t-161.5 -110t-235.5 -42q-150 0 -241.5 49.5t-159.5 129.5l198 183q90 -119 222 -120q96 0 145 55t49 128q0 53 -29.5 90.5t-88.5 37.5q-60 0 -126 -49l-199 136l146 545h642l-48 -289l-403 26l-47 -173 q63 12 104 12z" glyph-name="five" horiz-adv-x="1082" unicode="5"/><glyph d="M688 749q167 0 268.5 -101.5t69.5 -280.5q-29 -164 -172.5 -277.5t-339.5 -113.5q-198 0 -294.5 126.5t-96.5 329.5q0 321 174 539.5t451 218.5q108 0 199 -34.5t140 -88.5l-222 -190q-63 55 -169 55q-198 0 -257 -282q101 99 249 99zM712 367q9 56 -23 92t-93 36 q-104 0 -178 -92q7 -167 138 -167q67 0 107 40t49 91z" glyph-name="six" horiz-adv-x="1165" unicode="6"/><glyph d="M210 1161h812l-44 -260l-567 -901h-332l592 886l-514 -26z" glyph-name="seven" horiz-adv-x="1017" unicode="7"/><glyph d="M816 604q145 -72 145 -225q0 -160 -136.5 -281.5t-365.5 -121.5q-176 0 -281.5 82t-105.5 218q0 234 240 332q-121 68 -121 206q0 159 136.5 267.5t336.5 108.5q166 0 265.5 -79.5t99.5 -202.5q0 -99 -55.5 -178.5t-157.5 -125.5zM626 969q-73 0 -115 -48.5t-42 -108.5 q0 -48 27.5 -81t78.5 -33q72 0 118 48t46 114q0 44 -26.5 76.5t-86.5 32.5zM502 224q75 0 119.5 44t44.5 106q0 49 -32 79t-86 30q-75 0 -120.5 -47t-45.5 -107q0 -48 31 -76.5t89 -28.5z" glyph-name="eight" horiz-adv-x="1082" unicode="8"/><glyph d="M676 1191q90 0 161 -29t114.5 -76t71.5 -110t39 -125.5t11 -128.5q0 -99 -23.5 -201.5t-75 -199.5t-123 -172.5t-174 -121.5t-221.5 -46q-222 0 -348 121l167 192q101 -75 203 -76q215 0 280 306q-121 -118 -285 -118q-154 0 -244.5 105t-59.5 279q27 160 162 280.5 t345 120.5zM580 599q48 0 105 29t95 84v30q0 217 -133 217q-63 0 -116 -45t-67 -126q-17 -89 16 -139t100 -50z" glyph-name="nine" horiz-adv-x="1152" unicode="9"/><glyph d="M360 843q65 0 102.5 -39t37.5 -106q0 -80 -57 -142.5t-143 -62.5q-63 0 -98.5 39.5t-35.5 104.5q0 90 52.5 148t141.5 58zM276 324q65 0 102.5 -40t37.5 -105q0 -80 -57 -143t-144 -63q-63 0 -99 40t-36 105q0 90 53.5 148t142.5 58z" glyph-name="colon" horiz-adv-x="597" unicode=":"/><glyph d="M247 493q-63 0 -98.5 39.5t-35.5 104.5q0 90 53.5 148t144.5 58q65 0 101.5 -39t36.5 -106q0 -80 -58.5 -142.5t-143.5 -62.5zM251 319q89 -3 126.5 -68t8.5 -167q-80 -253 -307 -401q-5 12 -27.5 41t-32.5 35q198 138 193 222q-19 -3 -31 -3q-72 3 -108.5 59.5 t-14.5 136.5q20 65 70.5 106.5t122.5 38.5z" glyph-name="semicolon" horiz-adv-x="558" unicode=";"/><glyph d="M918 678l-488 -156l430 -152l-145 -242l-563 247l41 233l12 64l655 248z" glyph-name="less" horiz-adv-x="998" unicode="&lt;"/><glyph d="M927 817l-41 -232h-700l43 231zM864 452l-43 -232h-700l43 232h700z" glyph-name="equal" horiz-adv-x="1034" unicode="="/><glyph d="M864 672l-43 -233l-12 -64l-654 -247l-59 242l486 154l-434 154l146 242z" glyph-name="greater" horiz-adv-x="998" unicode=">"/><glyph d="M1169 1104q0 -198 -117 -326.5t-320 -171.5l-53 -184h-223l10 385q207 0 302.5 70t95.5 190q0 77 -50.5 119.5t-115.5 42.5q-140 0 -265 -152l-213 150q73 108 211.5 183t305.5 75q203 0 317.5 -107t114.5 -274zM539 282q56 0 88 -34.5t32 -90.5q0 -70 -50.5 -127 t-122.5 -57q-55 0 -87 36.5t-32 92.5q0 80 46.5 130t125.5 50z" glyph-name="question" horiz-adv-x="1148" unicode="?"/><glyph d="M843 1188q236 0 375 -141t139 -364q0 -188 -83 -286t-216 -98q-56 0 -104.5 27t-66.5 80q-90 -113 -252 -112q-106 0 -166.5 68t-60.5 177q0 145 94.5 248.5t236.5 103.5q152 0 205 -120l42 62h81l-57 -330q-3 -27 14 -46.5t51 -19.5q68 0 100.5 68t32.5 162 q0 179 -108 277.5t-283 98.5q-242 0 -399 -145t-157 -403q0 -181 110 -276.5t288 -95.5q142 0 261 63l53 -125q-164 -89 -343 -88q-251 0 -383.5 148.5t-132.5 363.5q0 188 87 347.5t256 257.5t386 98zM703 433q80 0 129 54t49 139q0 58 -31 91.5t-91 33.5q-79 0 -129 -53 t-50 -137q0 -56 33.5 -92t89.5 -36z" glyph-name="at" horiz-adv-x="1430" unicode="@"/><glyph d="M1010 0l-49 270h-529l-144 -270h-317l730 1319h355l273 -1319h-319zM580 550h330l-86 457z" glyph-name="A" horiz-adv-x="1467" unicode="A"/><glyph d="M1014 713q67 -38 104 -111t37 -165q0 -184 -127 -310.5t-309 -126.5h-640l230 1319h587q128 0 205 -79t77 -206q0 -195 -164 -321zM749 809q63 0 113.5 36t50.5 106q0 48 -30 75t-77 27h-251l-43 -244h237zM720 266q67 0 120 45.5t53 111.5q0 55 -40.5 87.5t-93.5 32.5 h-293l-50 -277h304z" glyph-name="B" horiz-adv-x="1259" unicode="B"/><glyph d="M1423 1094l-276 -174q-92 157 -265 157q-200 0 -325 -145t-125 -350q0 -148 79.5 -242t224.5 -94q172 0 319 158l216 -174q-113 -123 -266 -191t-317 -68q-254 0 -408 160.5t-154 416.5q0 340 232.5 571t568.5 231q167 0 296.5 -67.5t199.5 -188.5z" glyph-name="C" horiz-adv-x="1387" unicode="C"/><glyph d="M872 1319q244 0 387.5 -149t143.5 -393q0 -335 -220 -556t-541 -221h-563l230 1319h563zM686 275q179 0 290 132t111 330q0 137 -68 222t-191 85h-267l-134 -769h259z" glyph-name="D" horiz-adv-x="1464" unicode="D"/><glyph d="M1140 1053h-587l-44 -254h454l-45 -268h-457l-46 -265h583l-44 -266h-875l230 1319h875z" glyph-name="E" horiz-adv-x="1160" unicode="E"/><glyph d="M1147 1044h-584l-53 -293h449l-46 -275h-450l-84 -476h-300l230 1319h882z" glyph-name="F" horiz-adv-x="1146" unicode="F"/><glyph d="M1314 746l-92 -516q-106 -121 -254.5 -189t-310.5 -68q-239 0 -383 157.5t-144 412.5q0 343 221.5 576.5t546.5 233.5q164 0 288.5 -66.5t194.5 -185.5l-253 -183q-39 70 -114 115.5t-173 45.5q-181 0 -293.5 -147t-112.5 -355q0 -148 72.5 -238t211.5 -90q125 0 197 74 l26 148h-210l50 275h532z" glyph-name="G" horiz-adv-x="1402" unicode="G"/><glyph d="M1154 1319h300l-230 -1319h-301l91 521h-545l-90 -521h-300l230 1319h300l-92 -524h545z" glyph-name="H" horiz-adv-x="1464" unicode="H"/><glyph d="M379 0h-300l230 1319h300z" glyph-name="I" horiz-adv-x="616" unicode="I"/><glyph d="M39 205l232 160q39 -68 79.5 -101.5t105.5 -33.5q84 0 156 61t98 206l143 822h304l-152 -860q-17 -101 -55.5 -183.5t-103 -152.5t-169 -109.5t-237.5 -39.5q-152 0 -256 67t-145 164z" glyph-name="J" horiz-adv-x="1163" unicode="J"/><glyph d="M1420 1318l-691 -659l491 -659h-382l-348 521h-21l-90 -521h-300l230 1318h300l-92 -523h15l518 523h370z" glyph-name="K" horiz-adv-x="1332" unicode="K"/><glyph d="M427 275h529l-45 -275h-832l230 1319h300z" glyph-name="L" horiz-adv-x="1099" unicode="L"/><glyph d="M1208 1319h376l-145 -1319h-296l105 872l-393 -872h-239l-85 826l-195 -826h-300l316 1319h375l85 -899z" glyph-name="M" horiz-adv-x="1643" unicode="M"/><glyph d="M1178 1319h305l-230 -1319h-311q14 85 2 159.5t-55.5 144.5t-84.5 119.5t-115 124.5q-113 113 -163 171l-125 -719h-305l230 1319h311q-27 -152 41 -278t218 -275q109 -106 157 -160z" glyph-name="N" horiz-adv-x="1510" unicode="N"/><glyph d="M903 1350q249 0 394 -153.5t145 -408.5q0 -346 -221 -582.5t-557 -236.5q-246 0 -392 158t-146 412q0 343 222 577t555 234zM858 1077q-196 0 -311 -147t-115 -358q0 -147 70.5 -236.5t210.5 -89.5q196 0 310 146t114 361q0 148 -72 236t-207 88z" glyph-name="O" horiz-adv-x="1503" unicode="O"/><glyph d="M681 1318q263 0 390 -99t127 -270q0 -524 -672 -524h-72l-75 -425h-300l230 1318h372zM568 681q82 0 134 7.5t97.5 30t66.5 68.5t21 118q0 90 -64 120t-186 30h-74l-65 -374h70z" glyph-name="P" horiz-adv-x="1204" unicode="P"/><glyph d="M971 -258q44 0 92 20.5t73.5 38.5t25.5 22l118 -146q-61 -68 -152.5 -125t-171.5 -57q-84 0 -147 25.5t-97 56t-92.5 56.5t-133.5 26q-61 0 -119 -29l-106 -69l-84 101l-40 50l411 268q-196 36 -309 186t-113 372q0 341 223 575.5t554 234.5q251 0 395 -153.5t144 -407.5 q0 -247 -119.5 -446t-322.5 -297l-285 -186q17 -10 74.5 -47.5t96.5 -53t85 -15.5zM437 572q0 -147 70 -235t206 -88q189 0 304 145t115 354q0 147 -72 234.5t-203 87.5q-193 0 -306.5 -145t-113.5 -353z" glyph-name="Q" horiz-adv-x="1522" unicode="Q"/><glyph d="M1261 945q0 -365 -326 -476l188 -469h-324l-144 423q-22 -2 -66 -1h-137l-73 -422h-300l230 1319h439q261 0 387 -100t126 -274zM631 674q160 0 240.5 48.5t80.5 178.5q0 87 -64.5 121t-184.5 34h-140l-66 -382h134z" glyph-name="R" horiz-adv-x="1245" unicode="R"/><glyph d="M31 227l256 189q133 -176 356 -175q108 0 162.5 41t54.5 102q0 58 -65 101.5t-157 77t-183 76t-156 124.5t-65 198q0 162 160.5 277t397.5 115q317 0 481 -184l-220 -184q-106 114 -295 114q-89 0 -146 -37.5t-57 -92.5q0 -38 34 -70t89.5 -57t122 -51t133 -60.5t122 -78 t89.5 -111t34 -150.5q0 -183 -152.5 -300t-425.5 -117q-140 0 -308 65t-262 188z" glyph-name="S" horiz-adv-x="1286" unicode="S"/><glyph d="M1287 1319l-45 -273h-389l-184 -1046h-295l182 1046h-385l44 273h1072z" glyph-name="T" horiz-adv-x="1211" unicode="T"/><glyph d="M1449 1319l-120 -677q-58 -328 -221 -500.5t-468 -172.5q-309 0 -413 172.5t-46 500.5l119 677h297l-111 -636q-24 -114 -18.5 -195.5t20 -132t48.5 -79.5t68 -39t79 -10q56 0 104 19t96.5 65.5t87.5 140.5t63 231l111 636h304z" glyph-name="U" horiz-adv-x="1448" unicode="U"/><glyph d="M1454 1318l-671 -1318h-370l-210 1318h352l95 -1024l451 1024h353z" glyph-name="V" horiz-adv-x="1360" unicode="V"/><glyph d="M1555 1319h343l-541 -1319h-292l-84 833l-408 -833h-288l-41 1319h323l-16 -817l424 817h197l108 -798z" glyph-name="W" horiz-adv-x="1843" unicode="W"/><glyph d="M-26 0l502 649l-304 670h347l167 -414l297 414h346l-523 -670l305 -649h-346l-166 374l-280 -374h-345z" glyph-name="X" horiz-adv-x="1232" unicode="X"/><glyph d="M1307 1319l-542 -795h-2l-92 -524h-316l94 531l-265 788h340l121 -568l321 568h341z" glyph-name="Y" horiz-adv-x="1196" unicode="Y"/><glyph d="M1386 1318l-33 -173l-860 -882l714 17l-52 -280h-1121l31 169l862 886l-714 -17l52 280h1121z" glyph-name="Z" horiz-adv-x="1344" unicode="Z"/><glyph d="M874 1405l-41 -227h-217l-208 -1188h217l-41 -227h-468l290 1642h468z" glyph-name="bracketleft" horiz-adv-x="750" unicode="["/><glyph d="M1007 51l-299 -131l-490 1597l299 132z" glyph-name="backslash" horiz-adv-x="1172" unicode="\"/><glyph d="M358 1405h468l-290 -1642h-468l40 227h220l208 1188h-219z" glyph-name="bracketright" horiz-adv-x="750" unicode="]"/><glyph d="M1108 736l-261 -103l-140 500l-316 -498l-225 101l425 583h298z" glyph-name="asciicircum" horiz-adv-x="1179" unicode="^"/><glyph d="M860 -68l-41 -237h-877l41 237h877z" glyph-name="underscore" horiz-adv-x="1037" unicode="_"/><glyph d="M631 1065l-399 111l118 217l343 -226z" glyph-name="grave" horiz-adv-x="785" unicode="`"/><glyph d="M1155 246l6 -220q-358 -121 -412 100q-121 -154 -336 -153q-169 0 -265.5 107.5t-96.5 286.5q0 256 147.5 427.5t356 171.5t285.5 -160l24 133h288l-102 -601q-12 -63 13 -82.5t92 -9.5zM531 236q85 0 150 48.5t90 131.5l14 76v25q0 85 -45 135.5t-129 50.5 q-114 0 -185 -79.5t-71 -200.5q0 -87 46 -137t130 -50z" glyph-name="a" horiz-adv-x="1278" unicode="a"/><glyph d="M777 966q171 0 266 -109t95 -287q0 -254 -152.5 -425.5t-377.5 -171.5q-200 0 -282 167l-79 -140h-216l256 1468h290l-108 -615q122 113 308 113zM579 236q106 0 181.5 78.5t75.5 197.5q0 87 -47.5 139t-126.5 52q-89 0 -159 -53.5t-93 -142.5l-9 -53q-2 -10 -2 -29 q0 -87 48 -138t132 -51z" glyph-name="b" horiz-adv-x="1192" unicode="b"/><glyph d="M46 365q0 261 166.5 431t415.5 170q119 0 222.5 -55.5t146.5 -144.5l-243 -143q-58 90 -160 90q-118 0 -187 -87t-69 -213q0 -87 46 -136.5t114 -49.5q102 0 203 89l195 -142q-164 -201 -440 -201q-183 0 -296.5 102t-113.5 290z" glyph-name="c" horiz-adv-x="988" unicode="c"/><glyph d="M963 1468h290l-258 -1468h-217l-27 126q-135 -154 -343 -153q-166 0 -260.5 110t-94.5 291q0 253 149.5 422.5t386.5 169.5q183 0 261 -135zM532 236q87 0 156.5 55t91.5 144l8 48q2 10 2 29q0 89 -47.5 140t-128.5 51q-108 0 -183.5 -77.5t-75.5 -195.5q0 -90 47.5 -142 t129.5 -52z" glyph-name="d" horiz-adv-x="1203" unicode="d"/><glyph d="M531 184q58 0 146.5 31t143.5 61l87 -201q-193 -102 -411 -102q-224 0 -336.5 109t-112.5 297q0 237 178 412t429 175q147 0 248 -65t101 -188q0 -113 -56.5 -194.5t-155.5 -127t-205.5 -67.5t-234.5 -29q29 -111 179 -111zM652 754q-99 0 -183.5 -70.5t-115.5 -186.5 q73 3 140 15t129 31.5t99 52t37 75.5q0 83 -106 83z" glyph-name="e" horiz-adv-x="1035" unicode="e"/><glyph d="M905 1200q-48 19 -86.5 25t-82 -3t-74.5 -55t-46 -126l-19 -102h234l-46 -256h-232l-195 -1096h-288l191 1096h-184l46 256h182l14 78q51 288 224.5 396.5t403.5 20.5z" glyph-name="f" horiz-adv-x="820" unicode="f"/><glyph d="M956 939h232l-167 -965q-24 -135 -89 -239.5t-194 -175.5t-306.5 -71t-288.5 64t-160 165l241 162q85 -140 215 -140q61 0 115.5 21.5t106.5 85.5t69 164l18 101q-118 -106 -303 -106q-174 0 -269.5 105t-95.5 281q0 242 149.5 408.5t378.5 166.5q196 0 279 -160z M561 266q84 0 150.5 45.5t94.5 123.5l13 79v8q0 82 -48.5 131.5t-130.5 49.5q-106 0 -182 -71.5t-76 -182.5q0 -82 49.5 -132.5t129.5 -50.5z" glyph-name="g" horiz-adv-x="1218" unicode="g"/><glyph d="M778 964q150 0 229.5 -88.5t45.5 -291.5l-104 -584h-307l94 527q14 77 -2.5 119t-78.5 42q-89 0 -216 -109l-2 1l-102 -580h-306l254 1449h306l-106 -604q145 119 295 119zM307 650l2 -1z" glyph-name="h" horiz-adv-x="1121" unicode="h"/><glyph d="M403 1469q60 0 95.5 -36.5t35.5 -94.5q0 -79 -53 -139.5t-133 -60.5q-58 0 -94 39.5t-36 99.5q0 84 52.5 138t132.5 54zM469 246l5 -220q-104 -36 -184 -41t-140 22t-83 102t-2 195l112 635h289l-102 -601q-12 -63 13 -82.5t92 -9.5z" glyph-name="i" horiz-adv-x="592" unicode="i"/><glyph d="M406 1468q63 0 99 -37t36 -96q0 -77 -54.5 -137.5t-134.5 -60.5q-56 0 -91.5 39t-35.5 101q0 80 52 135.5t129 55.5zM500 939l-167 -953q-22 -121 -66.5 -215t-109.5 -157t-127 -102t-144 -77l-93 215l11 5q10 3 28 14.5t39 27t44.5 39t44 52t36.5 67.5t23 82l176 1002 h305z" glyph-name="j" horiz-adv-x="544" unicode="j"/><glyph d="M744 492q2 -5 18 -37.5t20.5 -40.5t22.5 -34.5t30 -35t35.5 -26.5t48.5 -24.5t60 -12.5t76 -6l-46 -275q-106 0 -182 19.5t-116 52t-66.5 71t-44.5 77t-39.5 71t-60.5 52t-101 19.5h-6l-64 -362h-300l246 1399h300l-133 -762h58q22 0 32 -2l285 304h355z" glyph-name="k" horiz-adv-x="1088" unicode="k"/><glyph d="M495 253l5 -229q-104 -36 -186 -41t-143.5 22t-84.5 104t-2 200l196 1119h295l-186 -1085q-12 -63 15.5 -82.5t90.5 -7.5z" glyph-name="l" horiz-adv-x="592" unicode="l"/><glyph d="M1271 964q140 0 213.5 -88.5t39.5 -291.5l-104 -584h-292l96 551q19 72 5 117t-68 45q-70 0 -178 -87q-3 -27 -7 -42l-102 -584h-294l98 551q17 72 4 117t-68 45q-67 0 -174 -82l-111 -631h-305l164 939h235l22 -96q137 121 280 121q189 0 243 -143q146 143 303 143z M828 649q-3 -5 -5 -11z" glyph-name="m" horiz-adv-x="1604" unicode="m"/><glyph d="M773 964q150 0 229.5 -89.5t43.5 -290.5l-102 -584h-309l95 527q14 77 -2 119t-79 42q-89 0 -217 -109l-103 -579h-305l164 939h235l28 -118q156 143 322 143zM304 650l1 -1z" glyph-name="n" horiz-adv-x="1128" unicode="n"/><glyph d="M659 966q195 0 313.5 -113.5t118.5 -302.5q0 -101 -38 -201t-109.5 -185t-191 -138t-266.5 -53q-198 0 -315.5 110t-117.5 298q0 261 175 423t431 162zM613 708q-108 0 -178 -89.5t-70 -191.5q0 -80 41 -138.5t123 -58.5q106 0 179.5 87t73.5 190q0 82 -43.5 141.5 t-125.5 59.5z" glyph-name="o" horiz-adv-x="1145" unicode="o"/><glyph d="M777 966q167 0 261.5 -110t94.5 -291q0 -251 -149 -421.5t-387 -170.5q-181 0 -264 136l-108 -621h-290l254 1451h215l28 -130q135 157 345 157zM570 236q108 0 184.5 76.5t76.5 196.5q0 89 -49.5 141.5t-129.5 52.5q-90 0 -161 -59.5t-92 -153.5l-3 -22q-3 -27 -3 -41 q0 -89 49 -140t128 -51z" glyph-name="p" horiz-adv-x="1186" unicode="p"/><glyph d="M942 939h217l-254 -1451h-291l105 596q-119 -111 -306 -111q-172 0 -267 109t-95 287q0 254 151 425.5t378 171.5q201 0 282 -169zM532 236q89 0 159 58t91 153l3 17q3 31 3 48q0 87 -46.5 139t-128.5 52q-106 0 -183 -78.5t-77 -194.5q0 -89 48.5 -141.5t130.5 -52.5z " glyph-name="q" horiz-adv-x="1181" unicode="q"/><glyph d="M664 966q92 0 193 -61l-183 -272q-58 38 -107 38q-51 0 -94 -44.5t-69 -111.5l-23 -143v-7l-2 2l-65 -367h-290l164 939h220l27 -103q99 130 229 130z" glyph-name="r" horiz-adv-x="824" unicode="r"/><glyph d="M17 181l205 169q128 -118 247 -118q96 0 96 53q0 24 -42 46t-101.5 46t-118.5 58t-101 96.5t-42 144.5q0 108 112 199t298 91q241 0 372 -131l-210 -185q-87 75 -188 75q-73 0 -73 -42q0 -22 42 -46t100.5 -51.5t117.5 -63.5t101 -98t42 -142q0 -128 -105 -214.5 t-301 -86.5q-135 0 -258 52t-193 148z" glyph-name="s" horiz-adv-x="969" unicode="s"/><glyph d="M451 422q-7 -39 -7 -72t3.5 -55t15 -38t21 -25.5t31 -14t33.5 -6t38.5 2t37.5 6t39 8.5t35 8l-61 -236q-87 -24 -164 -27.5t-147 19.5t-112.5 78.5t-60.5 148.5t9 230l45 259h-135l42 231h133l52 293h293l-51 -293h213l-66 -231h-188z" glyph-name="t" horiz-adv-x="762" unicode="t"/><glyph d="M797 939h306l-161 -939h-237l-27 119q-159 -145 -323 -145q-150 0 -230.5 89t-44.5 292l103 584h305l-87 -490q-14 -79 3.5 -120t78.5 -41q53 0 101.5 26t115.5 84l3 -2z" glyph-name="u" horiz-adv-x="1129" unicode="u"/><glyph d="M1147 939q-106 -268 -218 -476.5t-287 -462.5h-369q-89 254 -128 461.5t-49 477.5h317q-5 -437 82 -719q174 266 307 719h345z" glyph-name="v" horiz-adv-x="1082" unicode="v"/><glyph d="M1341 939h304l-70 -434q-49 -302 -166 -416.5t-353 -114.5q-113 0 -209 43.5t-146 124.5q-140 -167 -337 -168q-68 0 -123 19t-101 63.5t-60.5 117t0.5 181.5l103 584h303l-97 -533q-14 -73 12.5 -116.5t93.5 -43.5q51 0 99.5 38.5t76.5 97.5l99 557h305l-92 -523 q-12 -75 13.5 -125t87.5 -50q145 0 186 245z" glyph-name="w" horiz-adv-x="1672" unicode="w"/><glyph d="M68 939h354l104 -279l204 279h330l-384 -473l220 -466h-355l-94 254l-176 -254h-344l372 452z" glyph-name="x" horiz-adv-x="979" unicode="x"/><glyph d="M845 939h295l-169 -965q-17 -101 -58 -184.5t-111 -153t-181 -109t-254 -39.5q-162 0 -275.5 66.5t-159.5 162.5l242 162q85 -140 212 -140q101 0 184.5 62t110.5 209l14 80q-142 -116 -289 -116q-150 0 -229.5 90t-45.5 291l105 584h305l-87 -490q-12 -79 4 -120t78 -41 q51 0 99 24t114 81z" glyph-name="y" horiz-adv-x="1165" unicode="y"/><glyph d="M464 280q49 0 110 -16.5t102 -26.5t108.5 3t149.5 62l-50 -276q-90 -53 -169.5 -56.5t-140 22t-123 51t-144.5 19.5t-177 -62l-127 222l569 462l-439 -24l50 279h788l-49 -279z" glyph-name="z" horiz-adv-x="1008" unicode="z"/><glyph d="M502 -254q-166 0 -240 85t-47 237l51 292q9 55 -8 78t-75 23h-40l36 210h39q58 0 85.5 24.5t36.5 77.5l51 292q27 152 131 238t270 86l-43 -235q-67 0 -89.5 -28.5t-38.5 -116.5l-39 -229q-15 -92 -53.5 -139t-134.5 -74q87 -29 107.5 -74.5t3.5 -139.5l-41 -227 q-15 -87 -1.5 -116.5t78.5 -29.5z" glyph-name="braceleft" horiz-adv-x="706" unicode="{"/><glyph d="M338 -375h-306l297 1694h306z" glyph-name="bar" horiz-adv-x="667" unicode="|"/><glyph d="M350 1389q166 0 240 -86t47 -238l-52 -292q-10 -53 7 -77.5t75 -24.5h40l-36 -210h-40q-58 0 -84 -23t-35 -78l-53 -292q-27 -152 -130.5 -237t-268.5 -85l41 234q67 0 91.5 29t39.5 117l39 227q17 92 54 138.5t136 75.5q-89 27 -108.5 73t-4.5 140l39 229q17 85 2.5 115 t-80.5 30z" glyph-name="braceright" horiz-adv-x="698" unicode="}"/><glyph d="M367 551h-186q20 131 113 208t198 77q58 0 101.5 -27t80 -53.5t77.5 -26.5q72 0 89 100h181q-27 -148 -111 -218t-188 -70q-48 0 -86.5 19t-59.5 40t-50 40t-58 19q-48 0 -70 -27.5t-31 -80.5z" glyph-name="asciitilde" horiz-adv-x="1121" unicode="~"/><glyph d="M355 807q-49 0 -78.5 31t-29.5 82q0 61 44 109t107 48q49 0 79 -33.5t30 -82.5q0 -68 -42.5 -111t-109.5 -43zM259 689h152l-63 -803l-22 -309h-338l70 309z" glyph-name="exclamdown" horiz-adv-x="593" unicode="¡"/><glyph d="M536 336q92 0 201 91l174 -128q-147 -169 -373 -185l-16 -114h-148l27 119q-179 27 -253.5 158t-24.5 339q48 184 164.5 293.5t284.5 133.5l19 118h138l-24 -113q220 -20 307 -183l-218 -128q-67 89 -171 89q-150 0 -230 -212q-31 -116 3 -197t140 -81z" glyph-name="cent" horiz-adv-x="1017" unicode="¢"/><glyph d="M538 493q-19 -113 -40 -225h425l-47 -268h-837l29 179l130 55q7 36 23 122t26 137h-112l20 169h123l16 96q36 213 167 321.5t307 108.5q191 0 333 -126l-186 -183q-61 61 -152 61q-147 0 -181 -182q-2 -5 -4.5 -22t-6 -36t-6.5 -38h237l-25 -169h-239z" glyph-name="sterling" horiz-adv-x="1109" unicode="£"/><glyph d="M935 667q0 -157 -83 -269l107 -104l-162 -140l-87 128q-90 -43 -200 -43q-113 0 -186 53l-135 -140l-117 140l158 118q-22 61 -22 128q0 150 80 259l-109 109l162 140l87 -135q90 46 207 46q106 0 181 -46l133 133l118 -139l-156 -108q24 -58 24 -130zM539 435 q167 0 168 207q0 119 -105 119q-89 0 -127 -59t-38 -146q0 -121 102 -121z" glyph-name="currency" horiz-adv-x="1087" unicode="¤"/><glyph d="M1290 1161l-457 -579h143l-22 -159h-718l22 159h158l-261 579h333l149 -482l320 482h333zM191 179l27 161h719l-27 -161h-215l-29 -179h-296l29 179h-208z" glyph-name="yen" horiz-adv-x="1206" unicode="¥"/><glyph d="M512 618h-305l124 701h306zM340 -375h-306l130 739h305z" glyph-name="brokenbar" horiz-adv-x="669" unicode="¦"/><glyph d="M478 1012q0 -51 47 -89.5t113.5 -66t133 -59.5t113.5 -91t47 -143q0 -201 -184 -280q97 -80 97 -204q0 -189 -140 -289.5t-340 -100.5q-266 0 -399 174l174 178q39 -63 108 -100t150 -37q171 0 170 135q0 55 -47 91.5t-114 60.5t-134.5 53t-114.5 85.5t-47 139.5 q0 205 193 287q-108 84 -108 207q0 167 139 278.5t339 111.5q225 0 343 -146l-150 -168q-32 39 -94.5 70t-130.5 31q-73 0 -118.5 -34t-45.5 -94zM393 534q0 -49 37.5 -80t112.5 -63q48 -5 77 27.5t29 79.5q0 46 -34.5 79.5t-100.5 65.5q-55 7 -88 -24.5t-33 -84.5z" glyph-name="section" horiz-adv-x="1006" unicode="§"/><glyph d="M447 1319q43 0 69.5 -27t26.5 -73q0 -55 -41 -98.5t-99 -43.5q-43 0 -69.5 28t-26.5 74q0 61 38.5 100.5t101.5 39.5zM783 1319q44 0 70 -27t26 -73q0 -56 -40 -99t-98 -43q-44 0 -70 28t-26 74q0 61 38.5 100.5t99.5 39.5z" glyph-name="dieresis" horiz-adv-x="931" unicode="¨"/><glyph d="M843 1251q218 0 356.5 -135.5t138.5 -356.5q0 -198 -99 -356.5t-258.5 -243t-342.5 -84.5q-218 0 -356.5 135.5t-138.5 356.5q0 295 209 489.5t491 194.5zM819 1103q-212 0 -369.5 -144.5t-157.5 -367.5q0 -164 104 -265.5t268 -101.5q213 0 368.5 143t155.5 370 q0 166 -103.5 266t-265.5 100zM454 691q36 131 129 203t219 72q80 0 140 -35t82 -91l-174 -98q-15 44 -77 45q-75 0 -116 -103q-15 -60 3.5 -97t68.5 -37q48 0 100 47l137 -100q-38 -51 -108.5 -89.5t-162.5 -38.5q-140 0 -206.5 87.5t-34.5 234.5z" glyph-name="copyright" horiz-adv-x="1443" unicode="©"/><glyph d="M510 1353q147 0 234 -67t62 -202l-74 -406h-172l-19 85q-84 -106 -222 -106q-94 0 -142.5 48.5t-48.5 132.5q0 125 87 197.5t225 72.5q79 0 145 -24l4 20q5 29 -29 42t-97 13q-96 0 -187 -29l-32 182q177 41 266 41zM425 821q38 0 76 33t60 95q-43 15 -87 15t-78 -27 t-34 -63q0 -53 63 -53z" glyph-name="ordfeminine" horiz-adv-x="721" unicode="ª"/><glyph d="M734 701l-278 -227l199 -230l-233 -191l-277 420l423 420zM1208 701l-278 -227l200 -230l-234 -191l-276 420l423 420z" glyph-name="guillemotleft" horiz-adv-x="1341" unicode="«"/><glyph d="M1118 792l-85 -500h-233l52 293h-664l36 207h894z" glyph-name="logicalnot" horiz-adv-x="1228" unicode="¬"/><glyph d="M613 1353q135 0 213.5 -81.5t78.5 -216.5q0 -179 -119.5 -303t-299.5 -124q-137 0 -216 82t-79 217q0 183 120.5 304.5t301.5 121.5zM497 688q148 0 243.5 101.5t95.5 254.5q0 111 -62 178.5t-173 67.5q-150 0 -246 -101.5t-96 -254.5q0 -111 62.5 -178.5t175.5 -67.5z M565 1184q157 0 157 -109q0 -119 -111 -150l65 -137h-101l-48 127h-12h-37l-22 -127h-89l70 396h128zM529 990q53 0 77 14.5t24 55.5q0 27 -19 35.5t-61 8.5h-38l-20 -114h37z" glyph-name="registered" horiz-adv-x="913" unicode="®"/><glyph d="M254 1097l29 173h598l-29 -173h-598z" glyph-name="macron" horiz-adv-x="882" unicode="¯"/><glyph d="M440 1355q77 0 124 -45t47 -120q0 -94 -71.5 -166.5t-174.5 -72.5q-77 0 -122 47.5t-45 122.5q0 106 66.5 170t175.5 64zM415 1220q-38 0 -58.5 -21t-20.5 -52q0 -26 15.5 -43t41.5 -17q34 0 57 23t23 52q0 27 -16 42.5t-42 15.5z" glyph-name="degree" horiz-adv-x="563" unicode="°"/><glyph d="M703 804h249l-42 -236h-246l-29 -172h-261l29 172h-246l43 236h242l27 157h260zM73 90l43 238h753l-43 -238h-753z" glyph-name="plusminus" horiz-adv-x="1076" unicode="±"/><glyph d="M517 1009l-37 -29l163 8l-12 -167h-419l10 143l182 145q3 3 15.5 13.5t15 14t11 13t12 15.5t7.5 15.5t6 18.5t2 20q0 44 -50 47q-14 0 -28 -7.5t-24.5 -16t-26 -24t-23.5 -22.5l-106 115q101 106 230 106q89 0 148 -44t59 -125q0 -130 -135 -239z" glyph-name="uni00B2" horiz-adv-x="667" unicode="²"/><glyph d="M620 1401l-14 -148l-126 -110q58 -15 88.5 -53.5t30.5 -85.5q0 -32 -10 -62.5t-35 -62.5t-78 -51t-128 -19q-109 0 -186 60l123 107q27 -14 70 -13q17 0 29 4t18 10t9.5 13t4.5 10v4q0 39 -52 39q-3 0 -17 2.5t-30 2.5l-34 126h2l82 62l-135 -9l12 174h376z" glyph-name="uni00B3" horiz-adv-x="605" unicode="³"/><glyph d="M365 1065l-24 102l429 226l39 -217z" glyph-name="acute" horiz-adv-x="786" unicode="´"/><glyph d="M824 939h306l-166 -939h-237l-26 118q-157 -143 -320 -144q-61 0 -108 14l-87 -500h-230l163 939l93 512h303l-87 -490q-14 -79 2.5 -120t78.5 -41q53 0 101.5 25t118.5 85z" glyph-name="uni00B5" horiz-adv-x="1179" unicode="µ"/><glyph d="M1403 1318l-285 -1625h-231l238 1357h-183l-237 -1357h-231l128 734q-461 20 -460 358q0 234 152.5 376.5t464.5 154.5v2h644z" glyph-name="paragraph" horiz-adv-x="1418" unicode="¶"/><glyph d="M312 785q48 0 77 -30.5t29 -80.5q0 -63 -44.5 -111t-107.5 -48q-48 0 -77 33.5t-29 82.5q0 68 42.5 111t109.5 43z" glyph-name="periodcentered" horiz-adv-x="512" unicode="·"/><glyph d="M307 19l91 -7l-28 -99q80 -3 141 -50t35 -145q-73 -258 -415 -124l55 130q27 -19 74 -33.5t93 -9.5t55 43q7 31 -11 50t-50.5 26t-56.5 9.5t-44 1.5z" glyph-name="cedilla" horiz-adv-x="861" unicode="¸"/><glyph d="M461 1401h109l-41 -580h-183l29 404l-99 -32l-37 150z" glyph-name="uni00B9" horiz-adv-x="607" unicode="¹"/><glyph d="M579 1353q137 0 221 -79t84 -211q0 -68 -25.5 -137t-75 -129.5t-135 -99t-191.5 -38.5q-140 0 -224.5 76.5t-84.5 208.5q0 184 123.5 296.5t307.5 112.5zM544 1152q-79 0 -114.5 -56.5t-35.5 -120.5q0 -114 96 -115q72 0 110 56.5t38 117.5q0 48 -21.5 83t-72.5 35z" glyph-name="ordmasculine" horiz-adv-x="844" unicode="º"/><glyph d="M454 893l278 -420l-427 -420l-162 191l279 230l-200 227zM920 893l278 -420l-425 -420l-164 191l278 230l-198 227z" glyph-name="guillemotright" horiz-adv-x="1343" unicode="»"/><glyph d="M1306 1401l150 -90l-1069 -1342l-155 86zM348 1140l-104 -32l-22 150l230 58h109l-104 -580h-181zM1500 254l-27 -155h-77l-17 -99h-164l17 99h-235l-33 155l352 326h164l-58 -331zM1114 229l142 10l26 145z" glyph-name="onequarter" horiz-adv-x="1619" unicode="¼"/><glyph d="M1306 1401l150 -90l-1069 -1342l-155 86zM348 1140l-104 -32l-22 150l230 58h109l-104 -580h-181zM1324 188l-41 -29l166 8l-31 -167h-420l28 143l198 145q5 5 17 15.5t17 15t14.5 13t13 15t8.5 15t6.5 18t1.5 19.5q-3 43 -44 46q-17 0 -34 -9t-44.5 -33t-32.5 -28 l-94 115q114 106 244 106q82 0 135 -39.5t53 -114.5q-1 -135 -161 -254z" glyph-name="onehalf" horiz-adv-x="1599" unicode="½"/><glyph d="M1394 1401l151 -90l-1069 -1342l-155 86zM592 927q0 -29 -11 -60.5t-38.5 -66t-86 -55.5t-139.5 -21q-111 0 -180 59l134 108q26 -14 70 -14q56 0 69 45q0 36 -53 35q-5 0 -19 3t-27 3l-21 126l89 61l-135 -8l31 174h374l-29 -149l-137 -109q51 -15 80 -51t29 -80z M1589 254l-27 -155h-77l-17 -99h-164l17 99h-236l-32 155l352 326h163l-58 -331zM1203 229l142 10l25 145z" glyph-name="threequarters" horiz-adv-x="1708" unicode="¾"/><glyph d="M613 754q-58 0 -94 36t-36 94q0 75 53 134t128 59q58 0 93 -39.5t35 -98.5q0 -84 -50 -134.5t-129 -50.5zM739 -31l208 -150q-73 -108 -211.5 -183t-305.5 -75q-201 0 -316.5 107t-115.5 276q0 200 119 327t323 169l69 195h189l5 -396q-394 0 -394 -259q0 -79 48.5 -121 t111.5 -42q135 0 270 152z" glyph-name="questiondown" horiz-adv-x="1148" unicode="¿"/><glyph d="M1048 1548l-62 -102l-399 110l118 217zM1010 0l-49 270h-529l-144 -270h-317l730 1319h355l273 -1319h-319zM580 550h330l-86 457z" glyph-name="Agrave" horiz-adv-x="1467" unicode="À"/><glyph d="M1251 1556l-444 -110l-24 102l429 225zM1010 0l-49 270h-529l-144 -270h-317l730 1319h355l273 -1319h-319zM580 550h330l-86 457z" glyph-name="Aacute" horiz-adv-x="1467" unicode="Á"/><glyph d="M930 1550l-239 -111l-60 102l291 225h85l217 -225l-96 -102zM1010 0l-49 270h-529l-144 -270h-317l730 1319h355l273 -1319h-319zM580 550h330l-86 457z" glyph-name="Acircumflex" horiz-adv-x="1467" unicode="Â"/><glyph d="M794 1538q-75 0 -91 -101h-169q20 121 106.5 195.5t176.5 74.5q63 0 123 -51.5t99 -51.5q55 0 72 96h171q-26 -138 -102.5 -205t-169.5 -67q-43 0 -77 17.5t-51.5 38t-40.5 37.5t-47 17zM1010 0l-49 270h-529l-144 -270h-317l730 1319h355l273 -1319h-319zM580 550h330 l-86 457z" glyph-name="Atilde" horiz-adv-x="1467" unicode="Ã"/><glyph d="M742 1457q-43 0 -69 28.5t-26 74.5q0 61 38.5 100.5t101.5 39.5q43 0 69 -27.5t26 -73.5q0 -55 -41 -98.5t-99 -43.5zM1080 1457q-44 0 -69.5 28.5t-25.5 74.5q0 61 38.5 100.5t99.5 39.5q44 0 70 -27.5t26 -73.5q0 -56 -40.5 -99t-98.5 -43zM1010 0l-49 270h-529 l-144 -270h-317l730 1319h355l273 -1319h-319zM580 550h330l-86 457z" glyph-name="Adieresis" horiz-adv-x="1467" unicode="Ä"/><glyph d="M899 1411q-75 0 -117.5 49t-42.5 127q0 108 66.5 176t170.5 68q73 0 117 -47t44 -123q0 -99 -69.5 -174.5t-168.5 -75.5zM949 1705q-34 0 -61.5 -29t-27.5 -68q0 -29 18 -48t45 -19q39 0 65 28t26 68q0 29 -18 48.5t-47 19.5zM1010 0l-49 270h-529l-144 -270h-317 l730 1319h355l273 -1319h-319zM580 550h330l-86 457z" glyph-name="Aring" horiz-adv-x="1467" unicode="Å"/><glyph d="M1864 1039h-553l-43 -235h348l-53 -282h-344l-43 -242h558l-51 -280h-835l48 270h-394l-212 -270h-333l1115 1319h841zM684 500h251l72 410z" glyph-name="AE" horiz-adv-x="1885" unicode="Æ"/><glyph d="M736 246q172 0 319 158l216 -174q-108 -114 -249 -182t-293 -75l-17 -60q80 -3 140.5 -50t34.5 -145q-73 -258 -414 -124l54 130q27 -19 74.5 -33.5t93.5 -9.5t54 43q7 31 -11 50t-50.5 26t-56 9.5t-44.5 1.5l48 162q-232 17 -370.5 174.5t-138.5 400.5q0 340 232.5 571 t568.5 231q167 0 296.5 -67.5t199.5 -188.5l-276 -174q-92 157 -265 157q-200 0 -325 -145t-125 -350q0 -148 79.5 -242t224.5 -94z" glyph-name="Ccedilla" horiz-adv-x="1387" unicode="Ç"/><glyph d="M913 1548l-61 -102l-400 110l118 217zM1140 1053h-587l-44 -254h454l-45 -268h-457l-46 -265h583l-44 -266h-875l230 1319h875z" glyph-name="Egrave" horiz-adv-x="1160" unicode="È"/><glyph d="M1116 1556l-444 -110l-23 102l428 225zM1140 1053h-587l-44 -254h454l-45 -268h-457l-46 -265h583l-44 -266h-875l230 1319h875z" glyph-name="Eacute" horiz-adv-x="1160" unicode="É"/><glyph d="M795 1550l-239 -111l-59 102l290 225h85l217 -225l-96 -102zM1140 1053h-587l-44 -254h454l-45 -268h-457l-46 -265h583l-44 -266h-875l230 1319h875z" glyph-name="Ecircumflex" horiz-adv-x="1160" unicode="Ê"/><glyph d="M608 1457q-43 0 -69.5 28.5t-26.5 74.5q0 61 38.5 100.5t101.5 39.5q43 0 69.5 -27.5t26.5 -73.5q0 -55 -41 -98.5t-99 -43.5zM945 1457q-44 0 -69.5 28.5t-25.5 74.5q0 61 38.5 100.5t99.5 39.5q44 0 70 -27.5t26 -73.5q0 -56 -40.5 -99t-98.5 -43zM1140 1053h-587 l-44 -254h454l-45 -268h-457l-46 -265h583l-44 -266h-875l230 1319h875z" glyph-name="Edieresis" horiz-adv-x="1160" unicode="Ë"/><glyph d="M563 1446l-399 110l118 217l343 -225zM379 0h-300l230 1319h300z" glyph-name="Igrave" horiz-adv-x="616" unicode="Ì"/><glyph d="M384 1446l-24 102l428 225l40 -217zM379 0h-300l230 1319h300z" glyph-name="Iacute" horiz-adv-x="616" unicode="Í"/><glyph d="M498 1766h86l216 -225l-95 -102l-198 111l-239 -111l-60 102zM379 0h-300l230 1319h300z" glyph-name="Icircumflex" horiz-adv-x="616" unicode="Î"/><glyph d="M364 1700q43 0 69 -27.5t26 -73.5q0 -55 -41 -98.5t-99 -43.5q-43 0 -69 28.5t-26 74.5q0 61 38.5 100.5t101.5 39.5zM700 1700q44 0 69.5 -27.5t25.5 -73.5q0 -56 -40 -99t-98 -43q-44 0 -70 28.5t-26 74.5q0 61 39 100.5t100 39.5zM379 0h-300l230 1319h300z" glyph-name="Idieresis" horiz-adv-x="616" unicode="Ï"/><glyph d="M838 1319q244 0 387.5 -149t143.5 -393q0 -336 -220.5 -556.5t-544.5 -220.5h-486l89 509h-108l51 281h106l94 529h488zM652 280q179 0 286.5 130.5t107.5 326.5q0 135 -69 218.5t-192 83.5h-179l-45 -249h279l-52 -281h-276l-39 -229h179z" glyph-name="Eth" horiz-adv-x="1443" unicode="Ð"/><glyph d="M862 1538q-75 0 -91 -101h-169q20 121 106.5 195.5t177.5 74.5q63 0 122.5 -51.5t99.5 -51.5q55 0 71 96h171q-26 -138 -102.5 -205t-168.5 -67q-43 0 -77 17.5t-52 38t-41 37.5t-47 17zM1178 1319h305l-230 -1319h-311q14 85 2 159.5t-55.5 144.5t-84.5 119.5 t-115 124.5q-113 113 -163 171l-125 -719h-305l230 1319h311q-27 -152 41 -278t218 -275q109 -106 157 -160z" glyph-name="Ntilde" horiz-adv-x="1510" unicode="Ñ"/><glyph d="M1004 1446l-400 110l118 217l343 -225zM903 1350q249 0 394 -153.5t145 -408.5q0 -346 -221 -582.5t-557 -236.5q-246 0 -392 158t-146 412q0 343 222 577t555 234zM858 1077q-196 0 -311 -147t-115 -358q0 -147 70.5 -236.5t210.5 -89.5q196 0 310 146t114 361 q0 148 -72 236t-207 88z" glyph-name="Ograve" horiz-adv-x="1503" unicode="Ò"/><glyph d="M824 1446l-24 102l429 225l39 -217zM903 1350q249 0 394 -153.5t145 -408.5q0 -346 -221 -582.5t-557 -236.5q-246 0 -392 158t-146 412q0 343 222 577t555 234zM858 1077q-196 0 -311 -147t-115 -358q0 -147 70.5 -236.5t210.5 -89.5q196 0 310 146t114 361 q0 148 -72 236t-207 88z" glyph-name="Oacute" horiz-adv-x="1503" unicode="Ó"/><glyph d="M939 1766h85l217 -225l-96 -102l-198 111l-239 -111l-59 102zM903 1350q249 0 394 -153.5t145 -408.5q0 -346 -221 -582.5t-557 -236.5q-246 0 -392 158t-146 412q0 343 222 577t555 234zM858 1077q-196 0 -311 -147t-115 -358q0 -147 70.5 -236.5t210.5 -89.5 q196 0 310 146t114 361q0 148 -72 236t-207 88z" glyph-name="Ocircumflex" horiz-adv-x="1503" unicode="Ô"/><glyph d="M720 1437h-169q20 121 106.5 195.5t177.5 74.5q63 0 122.5 -51.5t98.5 -51.5q55 0 72 96h171q-26 -138 -102.5 -205t-169.5 -67q-43 0 -77 17.5t-51.5 38t-40.5 37.5t-47 17q-76 0 -91 -101zM903 1350q249 0 394 -153.5t145 -408.5q0 -346 -221 -582.5t-557 -236.5 q-246 0 -392 158t-146 412q0 343 222 577t555 234zM858 1077q-196 0 -311 -147t-115 -358q0 -147 70.5 -236.5t210.5 -89.5q196 0 310 146t114 361q0 148 -72 236t-207 88z" glyph-name="Otilde" horiz-adv-x="1503" unicode="Õ"/><glyph d="M804 1700q43 0 69 -27.5t26 -73.5q0 -55 -41 -98.5t-99 -43.5q-43 0 -69 28.5t-26 74.5q0 61 38.5 100.5t101.5 39.5zM1140 1700q44 0 70 -27.5t26 -73.5q0 -56 -40.5 -99t-98.5 -43q-44 0 -69.5 28.5t-25.5 74.5q0 61 38.5 100.5t99.5 39.5zM903 1350q249 0 394 -153.5 t145 -408.5q0 -346 -221 -582.5t-557 -236.5q-246 0 -392 158t-146 412q0 343 222 577t555 234zM858 1077q-196 0 -311 -147t-115 -358q0 -147 70.5 -236.5t210.5 -89.5q196 0 310 146t114 361q0 148 -72 236t-207 88z" glyph-name="Odieresis" horiz-adv-x="1503" unicode="Ö"/><glyph d="M963 887l-209 -177l162 -198l-235 -201l-164 198l-206 -178l-151 188l204 174l-151 183l234 204l154 -186l206 178z" glyph-name="multiply" horiz-adv-x="1053" unicode="×"/><glyph d="M1582 1184l-177 -151q43 -113 42 -245q0 -346 -221 -582.5t-554 -236.5q-220 0 -363 130l-162 -137l-140 175l174 148q-46 113 -46 254q0 225 100 410.5t278 293t400 107.5q220 0 364 -130l162 139zM444 572q0 -22 3 -60l591 505q-72 55 -173 55q-195 0 -308 -145 t-113 -355zM1142 753q0 20 -4 54l-590 -503q67 -53 171 -53q198 0 310.5 143.5t112.5 358.5z" glyph-name="Oslash" horiz-adv-x="1513" unicode="Ø"/><glyph d="M971 1446l-399 110l117 217l344 -225zM1449 1319l-120 -677q-58 -328 -221 -500.5t-468 -172.5q-309 0 -413 172.5t-46 500.5l119 677h297l-111 -636q-24 -114 -18.5 -195.5t20 -132t48.5 -79.5t68 -39t79 -10q56 0 104 19t96.5 65.5t87.5 140.5t63 231l111 636h304z" glyph-name="Ugrave" horiz-adv-x="1448" unicode="Ù"/><glyph d="M792 1446l-24 102l428 225l40 -217zM1449 1319l-120 -677q-58 -328 -221 -500.5t-468 -172.5q-309 0 -413 172.5t-46 500.5l119 677h297l-111 -636q-24 -114 -18.5 -195.5t20 -132t48.5 -79.5t68 -39t79 -10q56 0 104 19t96.5 65.5t87.5 140.5t63 231l111 636h304z" glyph-name="Uacute" horiz-adv-x="1448" unicode="Ú"/><glyph d="M906 1766h86l216 -225l-95 -102l-198 111l-239 -111l-60 102zM1449 1319l-120 -677q-58 -328 -221 -500.5t-468 -172.5q-309 0 -413 172.5t-46 500.5l119 677h297l-111 -636q-24 -114 -18.5 -195.5t20 -132t48.5 -79.5t68 -39t79 -10q56 0 104 19t96.5 65.5t87.5 140.5 t63 231l111 636h304z" glyph-name="Ucircumflex" horiz-adv-x="1448" unicode="Û"/><glyph d="M771 1700q43 0 69.5 -27.5t26.5 -73.5q0 -55 -41 -98.5t-99 -43.5q-43 0 -69.5 28.5t-26.5 74.5q0 61 38.5 100.5t101.5 39.5zM1108 1700q44 0 69.5 -27.5t25.5 -73.5q0 -56 -40 -99t-98 -43q-44 0 -70 28.5t-26 74.5q0 61 39 100.5t100 39.5zM1449 1319l-120 -677 q-58 -328 -221 -500.5t-468 -172.5q-309 0 -413 172.5t-46 500.5l119 677h297l-111 -636q-24 -114 -18.5 -195.5t20 -132t48.5 -79.5t68 -39t79 -10q56 0 104 19t96.5 65.5t87.5 140.5t63 231l111 636h304z" glyph-name="Udieresis" horiz-adv-x="1448" unicode="Ü"/><glyph d="M1109 1545l-443 -111l-24 102l428 225zM1307 1319l-542 -795h-2l-92 -524h-316l94 531l-265 788h340l121 -568l321 568h341z" glyph-name="Yacute" horiz-adv-x="1196" unicode="Ý"/><glyph d="M647 1145q265 0 393.5 -99t128.5 -271q0 -522 -679 -522h-63l-45 -253h-303l230 1318h304l-31 -173h65zM539 510q162 0 235.5 42t73.5 180q0 87 -62 115.5t-187 28.5h-63l-65 -366h68z" glyph-name="Thorn" horiz-adv-x="1208" unicode="Þ"/><glyph d="M43 -183q73 176 121 454l82 451q48 278 189.5 437.5t388.5 159.5q164 0 264 -81t100 -207q0 -65 -19.5 -116t-56.5 -85.5t-70 -56.5t-81 -47.5t-70 -41.5q-5 -3 -17 -11.5t-16.5 -12l-13.5 -10.5t-12 -10t-9 -10t-7.5 -12t-3 -12t-1.5 -14q0 -31 41.5 -52t101.5 -38 t120.5 -43t102.5 -79.5t42 -133.5q0 -126 -113 -198t-307 -72q-111 0 -204 31.5t-134 74.5l131 183q36 -32 107 -63t142 -31q131 0 132 82q0 34 -41 56t-101 39t-118.5 38.5t-99.5 67.5t-41 114q0 49 28 94.5t60.5 74t85.5 65.5q29 19 70 44.5t59 38.5t39 31t28 36.5t7 44.5 q0 48 -43.5 76t-105.5 28q-239 0 -307 -377l-80 -453q-58 -317 -133 -508z" glyph-name="germandbls" horiz-adv-x="1355" unicode="ß"/><glyph d="M754 1167l-61 -102l-399 111l117 217zM1155 246l6 -220q-358 -121 -412 100q-121 -154 -336 -153q-169 0 -265.5 107.5t-96.5 286.5q0 256 147.5 427.5t356 171.5t285.5 -160l24 133h288l-102 -601q-12 -63 13 -82.5t92 -9.5zM531 236q85 0 150 48.5t90 131.5l14 76v25 q0 85 -45 135.5t-129 50.5q-114 0 -185 -79.5t-71 -200.5q0 -87 46 -137t130 -50z" glyph-name="agrave" horiz-adv-x="1278" unicode="à"/><glyph d="M957 1176l-443 -111l-24 102l428 226zM1155 246l6 -220q-358 -121 -412 100q-121 -154 -336 -153q-169 0 -265.5 107.5t-96.5 286.5q0 256 147.5 427.5t356 171.5t285.5 -160l24 133h288l-102 -601q-12 -63 13 -82.5t92 -9.5zM531 236q85 0 150 48.5t90 131.5l14 76v25 q0 85 -45 135.5t-129 50.5q-114 0 -185 -79.5t-71 -200.5q0 -87 46 -137t130 -50z" glyph-name="aacute" horiz-adv-x="1278" unicode="á"/><glyph d="M637 1169l-239 -111l-60 103l290 225h85l217 -225l-95 -103zM1155 246l6 -220q-358 -121 -412 100q-121 -154 -336 -153q-169 0 -265.5 107.5t-96.5 286.5q0 256 147.5 427.5t356 171.5t285.5 -160l24 133h288l-102 -601q-12 -63 13 -82.5t92 -9.5zM531 236 q85 0 150 48.5t90 131.5l14 76v25q0 85 -45 135.5t-129 50.5q-114 0 -185 -79.5t-71 -200.5q0 -87 46 -137t130 -50z" glyph-name="acircumflex" horiz-adv-x="1278" unicode="â"/><glyph d="M527 1157q-75 0 -90 -101h-169q20 121 106.5 195.5t176.5 74.5q63 0 123 -51t99 -51q55 0 72 95h170q-26 -138 -102.5 -204.5t-168.5 -66.5q-43 0 -77 17t-52 37.5t-41 37.5t-47 17zM1155 246l6 -220q-358 -121 -412 100q-121 -154 -336 -153q-169 0 -265.5 107.5 t-96.5 286.5q0 256 147.5 427.5t356 171.5t285.5 -160l24 133h288l-102 -601q-12 -63 13 -82.5t92 -9.5zM531 236q85 0 150 48.5t90 131.5l14 76v25q0 85 -45 135.5t-129 50.5q-114 0 -185 -79.5t-71 -200.5q0 -87 46 -137t130 -50z" glyph-name="atilde" horiz-adv-x="1278" unicode="ã"/><glyph d="M449 1077q-43 0 -69.5 28t-26.5 74q0 61 38.5 100.5t101.5 39.5q43 0 69.5 -27t26.5 -73q0 -55 -41 -98.5t-99 -43.5zM787 1077q-44 0 -70 28t-26 74q0 61 38.5 100.5t99.5 39.5q44 0 70 -27t26 -73q0 -56 -40 -99t-98 -43zM1155 246l6 -220q-358 -121 -412 100 q-121 -154 -336 -153q-169 0 -265.5 107.5t-96.5 286.5q0 256 147.5 427.5t356 171.5t285.5 -160l24 133h288l-102 -601q-12 -63 13 -82.5t92 -9.5zM531 236q85 0 150 48.5t90 131.5l14 76v25q0 85 -45 135.5t-129 50.5q-114 0 -185 -79.5t-71 -200.5q0 -87 46 -137t130 -50 z" glyph-name="adieresis" horiz-adv-x="1278" unicode="ä"/><glyph d="M606 1031q-75 0 -118 48.5t-43 127.5q0 108 67 176t171 68q73 0 116.5 -47t43.5 -124q0 -99 -69 -174t-168 -75zM655 1324q-34 0 -61 -29t-27 -68q0 -29 17.5 -47.5t45.5 -18.5q39 0 64.5 28t25.5 67q0 29 -18 48.5t-47 19.5zM1155 246l6 -220q-358 -121 -412 100 q-121 -154 -336 -153q-169 0 -265.5 107.5t-96.5 286.5q0 256 147.5 427.5t356 171.5t285.5 -160l24 133h288l-102 -601q-12 -63 13 -82.5t92 -9.5zM531 236q85 0 150 48.5t90 131.5l14 76v25q0 85 -45 135.5t-129 50.5q-114 0 -185 -79.5t-71 -200.5q0 -87 46 -137t130 -50 z" glyph-name="aring" horiz-adv-x="1278" unicode="å"/><glyph d="M1596 664q-17 -96 -81 -166.5t-159.5 -111t-189.5 -61t-202 -28.5q27 -94 159 -94q108 0 292 82l87 -210q-106 -55 -185.5 -78.5t-174.5 -23.5q-155 0 -256 64t-140 176q-65 -109 -175 -176.5t-250 -67.5q-138 0 -218.5 71t-80.5 192q0 172 120.5 265.5t309.5 93.5 q118 0 217 -35q3 70 -48 109.5t-152 39.5q-130 0 -285 -68l-51 247q212 82 386 82q242 0 331 -212q75 99 180 155.5t224 56.5q164 0 266 -78.5t76 -223.5zM1340 654q5 38 -24 60t-77 22q-85 0 -163.5 -64t-107.5 -177q345 17 372 159zM433 193q67 0 119 40t78 112 q-68 24 -150 24q-147 0 -157 -82q-7 -48 24 -71t86 -23z" glyph-name="ae" horiz-adv-x="1631" unicode="æ"/><glyph d="M498 227q102 0 203 89l195 -142q-152 -186 -401 -200l-17 -61q80 -3 140.5 -50t35.5 -145q-73 -258 -415 -124l55 130q27 -19 74 -33.5t93 -9.5t54 43q7 31 -11 50t-50 26t-56 9.5t-45 1.5l48 163q-160 15 -257.5 117t-97.5 274q0 261 166.5 431t415.5 170 q119 0 222.5 -55.5t146.5 -144.5l-243 -143q-58 90 -160 90q-118 0 -187 -87t-69 -213q0 -87 46 -136.5t114 -49.5z" glyph-name="ccedilla" horiz-adv-x="988" unicode="ç"/><glyph d="M821 1167l-62 -102l-399 111l118 217zM531 184q58 0 146.5 31t143.5 61l87 -201q-193 -102 -411 -102q-224 0 -336.5 109t-112.5 297q0 237 178 412t429 175q147 0 248 -65t101 -188q0 -113 -56.5 -194.5t-155.5 -127t-205.5 -67.5t-234.5 -29q29 -111 179 -111zM652 754 q-99 0 -183.5 -70.5t-115.5 -186.5q73 3 140 15t129 31.5t99 52t37 75.5q0 83 -106 83z" glyph-name="egrave" horiz-adv-x="1035" unicode="è"/><glyph d="M1024 1176l-444 -111l-24 102l429 226zM1004 713q0 -113 -56.5 -194.5t-155.5 -127t-205.5 -67.5t-234.5 -29q29 -111 179 -111q58 0 146.5 31t143.5 61l87 -201q-193 -102 -411 -102q-224 0 -336.5 109t-112.5 297q0 237 178 412t429 175q147 0 248 -65t101 -188z M353 497q73 3 140 15t129 31.5t99 52t37 75.5q0 84 -106 83q-99 0 -183.5 -70.5t-115.5 -186.5z" glyph-name="eacute" horiz-adv-x="1035" unicode="é"/><glyph d="M703 1169l-239 -111l-60 103l291 225h85l217 -225l-96 -103zM531 184q58 0 146.5 31t143.5 61l87 -201q-193 -102 -411 -102q-224 0 -336.5 109t-112.5 297q0 237 178 412t429 175q147 0 248 -65t101 -188q0 -113 -56.5 -194.5t-155.5 -127t-205.5 -67.5t-234.5 -29 q29 -111 179 -111zM652 754q-99 0 -183.5 -70.5t-115.5 -186.5q73 3 140 15t129 31.5t99 52t37 75.5q0 83 -106 83z" glyph-name="ecircumflex" horiz-adv-x="1035" unicode="ê"/><glyph d="M515 1077q-43 0 -69 28t-26 74q0 61 38.5 100.5t101.5 39.5q43 0 69 -27t26 -73q0 -55 -41 -98.5t-99 -43.5zM853 1077q-44 0 -69.5 28t-25.5 74q0 61 38.5 100.5t99.5 39.5q44 0 70 -27t26 -73q0 -56 -40.5 -99t-98.5 -43zM531 184q58 0 146.5 31t143.5 61l87 -201 q-193 -102 -411 -102q-224 0 -336.5 109t-112.5 297q0 237 178 412t429 175q147 0 248 -65t101 -188q0 -113 -56.5 -194.5t-155.5 -127t-205.5 -67.5t-234.5 -29q29 -111 179 -111zM652 754q-99 0 -183.5 -70.5t-115.5 -186.5q73 3 140 15t129 31.5t99 52t37 75.5 q0 83 -106 83z" glyph-name="edieresis" horiz-adv-x="1035" unicode="ë"/><glyph d="M529 1065l-399 111l117 217l344 -226zM579 246l5 -220q-104 -36 -184.5 -41t-140 22t-82.5 102t-3 195l113 635h288l-102 -601q-12 -63 13.5 -82.5t92.5 -9.5z" glyph-name="igrave" horiz-adv-x="650" unicode="ì"/><glyph d="M350 1065l-24 102l428 226l40 -217zM579 246l5 -220q-104 -36 -184.5 -41t-140 22t-82.5 102t-3 195l113 635h288l-102 -601q-12 -63 13.5 -82.5t92.5 -9.5z" glyph-name="iacute" horiz-adv-x="650" unicode="í"/><glyph d="M464 1386h86l216 -225l-95 -103l-198 111l-239 -111l-60 103zM579 246l5 -220q-104 -36 -184.5 -41t-140 22t-82.5 102t-3 195l113 635h288l-102 -601q-12 -63 13.5 -82.5t92.5 -9.5z" glyph-name="icircumflex" horiz-adv-x="650" unicode="î"/><glyph d="M329 1319q43 0 69.5 -27t26.5 -73q0 -55 -41 -98.5t-99 -43.5q-43 0 -69.5 28t-26.5 74q0 61 38.5 100.5t101.5 39.5zM666 1319q44 0 69.5 -27t25.5 -73q0 -56 -40 -99t-98 -43q-44 0 -70 28t-26 74q0 61 39 100.5t100 39.5zM579 246l5 -220q-104 -36 -184.5 -41t-140 22 t-82.5 102t-3 195l113 635h288l-102 -601q-12 -63 13.5 -82.5t92.5 -9.5z" glyph-name="idieresis" horiz-adv-x="650" unicode="ï"/><glyph d="M1138 1193l-152 -72q85 -166 86 -360q0 -116 -24 -227.5t-76 -214t-125.5 -179.5t-179.5 -123t-232 -46q-171 0 -274 95.5t-118 242.5q-12 166 61 293.5t189.5 190t247.5 62.5q167 0 247 -135v4q0 152 -68 271l-201 -96l-53 171l138 67q-68 58 -150 97l140 246 q63 -20 141.5 -74t148.5 -136l203 97zM490 220q177 0 258 236q-22 73 -76 121t-117 48q-85 0 -141 -62.5t-69 -146.5q-14 -75 18.5 -135.5t126.5 -60.5z" glyph-name="eth" horiz-adv-x="1133" unicode="ð"/><glyph d="M527 1157q-75 0 -90 -101h-169q20 121 106.5 195.5t176.5 74.5q63 0 123 -51t99 -51q55 0 72 95h170q-26 -138 -102.5 -204.5t-168.5 -66.5q-43 0 -77 17t-52 37.5t-41 37.5t-47 17zM773 964q150 0 229.5 -89.5t43.5 -290.5l-102 -584h-309l95 527q14 77 -2 119t-79 42 q-89 0 -217 -109l-103 -579h-305l164 939h235l28 -118q156 143 322 143zM304 650l1 -1z" glyph-name="ntilde" horiz-adv-x="1128" unicode="ñ"/><glyph d="M729 1065l-400 111l118 217l343 -226zM659 966q195 0 313.5 -113.5t118.5 -302.5q0 -101 -38 -201t-109.5 -185t-191 -138t-266.5 -53q-198 0 -315.5 110t-117.5 298q0 261 175 423t431 162zM613 708q-108 0 -178 -89.5t-70 -191.5q0 -80 41 -138.5t123 -58.5 q106 0 179.5 87t73.5 190q0 82 -43.5 141.5t-125.5 59.5z" glyph-name="ograve" horiz-adv-x="1145" unicode="ò"/><glyph d="M550 1065l-24 102l428 226l39 -217zM659 966q195 0 313.5 -113.5t118.5 -302.5q0 -101 -38 -201t-109.5 -185t-191 -138t-266.5 -53q-198 0 -315.5 110t-117.5 298q0 261 175 423t431 162zM613 708q-108 0 -178 -89.5t-70 -191.5q0 -80 41 -138.5t123 -58.5 q106 0 179.5 87t73.5 190q0 82 -43.5 141.5t-125.5 59.5z" glyph-name="oacute" horiz-adv-x="1145" unicode="ó"/><glyph d="M664 1386h85l217 -225l-96 -103l-198 111l-239 -111l-59 103zM659 966q195 0 313.5 -113.5t118.5 -302.5q0 -101 -38 -201t-109.5 -185t-191 -138t-266.5 -53q-198 0 -315.5 110t-117.5 298q0 261 175 423t431 162zM613 708q-108 0 -178 -89.5t-70 -191.5 q0 -80 41 -138.5t123 -58.5q106 0 179.5 87t73.5 190q0 82 -43.5 141.5t-125.5 59.5z" glyph-name="ocircumflex" horiz-adv-x="1145" unicode="ô"/><glyph d="M445 1056h-169q20 121 106.5 195.5t177.5 74.5q51 0 88.5 -25.5t68.5 -51t65 -25.5q55 0 71 95h171q-26 -138 -102.5 -204.5t-168.5 -66.5q-43 0 -77 17t-52 37.5t-41 37.5t-47 17q-76 0 -91 -101zM659 966q195 0 313.5 -113.5t118.5 -302.5q0 -101 -38 -201t-109.5 -185 t-191 -138t-266.5 -53q-198 0 -315.5 110t-117.5 298q0 261 175 423t431 162zM613 708q-108 0 -178 -89.5t-70 -191.5q0 -80 41 -138.5t123 -58.5q106 0 179.5 87t73.5 190q0 82 -43.5 141.5t-125.5 59.5z" glyph-name="otilde" horiz-adv-x="1145" unicode="õ"/><glyph d="M529 1319q43 0 69.5 -27t26.5 -73q0 -55 -41 -98.5t-99 -43.5q-43 0 -69.5 28t-26.5 74q0 61 38.5 100.5t101.5 39.5zM865 1319q44 0 70 -27t26 -73q0 -56 -40 -99t-98 -43q-44 0 -70 28t-26 74q0 61 38.5 100.5t99.5 39.5zM659 966q195 0 313.5 -113.5t118.5 -302.5 q0 -101 -38 -201t-109.5 -185t-191 -138t-266.5 -53q-198 0 -315.5 110t-117.5 298q0 261 175 423t431 162zM613 708q-108 0 -178 -89.5t-70 -191.5q0 -80 41 -138.5t123 -58.5q106 0 179.5 87t73.5 190q0 82 -43.5 141.5t-125.5 59.5z" glyph-name="odieresis" horiz-adv-x="1145" unicode="ö"/><glyph d="M660 1167q48 0 75.5 -29.5t27.5 -81.5q0 -61 -44.5 -109.5t-107.5 -48.5q-48 0 -76 32.5t-28 81.5q0 70 40.5 112.5t112.5 42.5zM985 811l-40 -212h-783l41 212h782zM544 512q48 0 76.5 -30.5t28.5 -80.5q0 -61 -45.5 -110t-108.5 -49q-48 0 -76 32.5t-28 82.5 q0 70 42.5 112.5t110.5 42.5z" glyph-name="divide" horiz-adv-x="1068" unicode="÷"/><glyph d="M1125 879l-104 -87q67 -101 66 -239q0 -102 -38.5 -203t-110 -186t-192 -138t-266.5 -53q-189 0 -306 102l-99 -84l-61 79l95 82q-61 99 -61 230q0 259 175 421.5t434 162.5q181 0 294 -97l104 88zM357 427q0 -32 7 -58l351 300q-43 39 -107 39q-106 0 -178.5 -89.5 t-72.5 -191.5zM777 507q0 32 -9 70l-357 -301q46 -46 111 -46q108 0 181.5 87.5t73.5 189.5z" glyph-name="oslash" horiz-adv-x="1134" unicode="ø"/><glyph d="M794 1167l-62 -102l-399 111l118 217zM797 939h306l-161 -939h-237l-27 119q-159 -145 -323 -145q-150 0 -230.5 89t-44.5 292l103 584h305l-87 -490q-14 -79 3.5 -120t78.5 -41q53 0 101.5 26t115.5 84l3 -2z" glyph-name="ugrave" horiz-adv-x="1129" unicode="ù"/><glyph d="M997 1176l-444 -111l-24 102l428 226zM797 939h306l-161 -939h-237l-27 119q-159 -145 -323 -145q-150 0 -230.5 89t-44.5 292l103 584h305l-87 -490q-14 -79 3.5 -120t78.5 -41q53 0 101.5 26t115.5 84l3 -2z" glyph-name="uacute" horiz-adv-x="1129" unicode="ú"/><glyph d="M676 1169l-239 -111l-60 103l290 225h86l216 -225l-95 -103zM797 939h306l-161 -939h-237l-27 119q-159 -145 -323 -145q-150 0 -230.5 89t-44.5 292l103 584h305l-87 -490q-14 -79 3.5 -120t78.5 -41q53 0 101.5 26t115.5 84l3 -2z" glyph-name="ucircumflex" horiz-adv-x="1129" unicode="û"/><glyph d="M488 1077q-43 0 -69 28t-26 74q0 61 38 100.5t101 39.5q43 0 69.5 -27t26.5 -73q0 -55 -41 -98.5t-99 -43.5zM826 1077q-44 0 -70 28t-26 74q0 61 38.5 100.5t100.5 39.5q44 0 69.5 -27t25.5 -73q0 -56 -40 -99t-98 -43zM797 939h306l-161 -939h-237l-27 119 q-159 -145 -323 -145q-150 0 -230.5 89t-44.5 292l103 584h305l-87 -490q-14 -79 3.5 -120t78.5 -41q53 0 101.5 26t115.5 84l3 -2z" glyph-name="udieresis" horiz-adv-x="1129" unicode="ü"/><glyph d="M975 1176l-444 -111l-24 102l428 226zM845 939h295l-169 -965q-17 -101 -58 -184.5t-111 -153t-181 -109t-254 -39.5q-162 0 -275.5 66.5t-159.5 162.5l242 162q85 -140 212 -140q101 0 184.5 62t110.5 209l14 80q-142 -116 -289 -116q-150 0 -229.5 90t-45.5 291 l105 584h305l-87 -490q-12 -79 4 -120t78 -41q51 0 99 24t114 81z" glyph-name="yacute" horiz-adv-x="1165" unicode="ý"/><glyph d="M770 966q169 0 270.5 -113.5t101.5 -297.5q0 -244 -159.5 -413t-395.5 -169q-155 0 -246 94l-100 -579h-306l343 1963h306l-65 -367l-36 -207q130 89 287 89zM584 236q108 0 184.5 76.5t76.5 196.5q0 89 -48.5 141.5t-129.5 52.5q-89 0 -157 -54.5t-92 -143.5l-8 -51 q-2 -9 -2 -27q0 -89 48.5 -140t127.5 -51z" glyph-name="thorn" horiz-adv-x="1194" unicode="þ"/><glyph d="M466 1077q-43 0 -69.5 28t-26.5 74q0 61 38.5 100.5t101.5 39.5q43 0 69.5 -27t26.5 -73q0 -55 -41 -98.5t-99 -43.5zM804 1077q-44 0 -70 28t-26 74q0 61 38.5 100.5t100.5 39.5q44 0 69.5 -27t25.5 -73q0 -56 -40 -99t-98 -43zM845 939h295l-169 -965 q-17 -101 -58 -184.5t-111 -153t-181 -109t-254 -39.5q-162 0 -275.5 66.5t-159.5 162.5l242 162q85 -140 212 -140q101 0 184.5 62t110.5 209l14 80q-142 -116 -289 -116q-150 0 -229.5 90t-45.5 291l105 584h305l-87 -490q-12 -79 4 -120t78 -41q51 0 99 24t114 81z" glyph-name="ydieresis" horiz-adv-x="1165" unicode="ÿ"/><glyph d="M1249 1650l-29 -172h-597l29 172h597zM1010 0l-49 270h-529l-144 -270h-317l730 1319h355l273 -1319h-319zM580 550h330l-86 457z" glyph-name="Amacron" horiz-adv-x="1467" unicode="Ā"/><glyph d="M956 1270l-29 -173h-598l29 173h598zM1155 246l6 -220q-358 -121 -412 100q-121 -154 -336 -153q-169 0 -265.5 107.5t-96.5 286.5q0 256 147.5 427.5t356 171.5t285.5 -160l24 133h288l-102 -601q-12 -63 13 -82.5t92 -9.5zM531 236q85 0 150 48.5t90 131.5l14 76v25 q0 85 -45 135.5t-129 50.5q-114 0 -185 -79.5t-71 -200.5q0 -87 46 -137t130 -50z" glyph-name="amacron" horiz-adv-x="1278" unicode="ā"/><glyph d="M905 1451q-256 0 -219 249h178q2 -10 0 -31.5t16.5 -43t56.5 -21.5q24 0 42.5 8.5t29 22.5t16.5 26t10 24.5t4 14.5h178q-24 -109 -99 -179t-213 -70zM1010 0l-49 270h-529l-144 -270h-317l730 1319h355l273 -1319h-319zM580 550h330l-86 457z" glyph-name="Abreve" horiz-adv-x="1467" unicode="Ă"/><glyph d="M611 1070q-256 0 -218 249h177q2 -10 0 -31.5t17 -42.5t56 -21q24 0 43 8.5t29 22t16 25.5t10.5 25t4.5 14h177q-24 -109 -99 -179t-213 -70zM1155 246l6 -220q-358 -121 -412 100q-121 -154 -336 -153q-169 0 -265.5 107.5t-96.5 286.5q0 256 147.5 427.5t356 171.5 t285.5 -160l24 133h288l-102 -601q-12 -63 13 -82.5t92 -9.5zM531 236q85 0 150 48.5t90 131.5l14 76v25q0 85 -45 135.5t-129 50.5q-114 0 -185 -79.5t-71 -200.5q0 -87 46 -137t130 -50z" glyph-name="abreve" horiz-adv-x="1278" unicode="ă"/><glyph d="M1024 -254q39 0 82 34l39 -89q-85 -75 -174 -78q-90 -3 -129.5 42t-20.5 120q19 55 75 118t118 107h-4l-49 270h-529l-144 -270h-317l730 1319h355l273 -1319h-197q-116 -125 -137 -160q-14 -26 -14 -52q0 -42 43 -42zM580 550h330l-86 457z" glyph-name="Aogonek" horiz-adv-x="1467" unicode="Ą"/><glyph d="M1130 -200l39 -88q-85 -75 -174 -79q-90 -3 -129.5 42t-20.5 120q29 87 148 191q-207 -22 -244 140q-121 -154 -336 -153q-169 0 -265.5 107.5t-96.5 286.5q0 256 147.5 427.5t356 171.5t285.5 -160l24 133h288l-102 -601q-12 -63 13.5 -82.5t91.5 -9.5l6 -220 q-2 -2 -5.5 -2t-5.5 -2h7q-118 -126 -138 -162q-14 -27 -14 -51q0 -43 43 -43q39 0 82 34zM531 236q85 0 150 48.5t90 131.5l14 76v25q0 85 -45 135.5t-129 50.5q-114 0 -185 -79.5t-71 -200.5q0 -87 46 -137t130 -50z" glyph-name="aogonek" horiz-adv-x="1278" unicode="ą"/><glyph d="M829 1446l-23 102l428 225l39 -217zM1423 1094l-276 -174q-92 157 -265 157q-200 0 -325 -145t-125 -350q0 -148 79.5 -242t224.5 -94q172 0 319 158l216 -174q-113 -123 -266 -191t-317 -68q-254 0 -408 160.5t-154 416.5q0 340 232.5 571t568.5 231q167 0 296.5 -67.5 t199.5 -188.5z" glyph-name="Cacute" horiz-adv-x="1387" unicode="Ć"/><glyph d="M527 1065l-24 102l429 226l39 -217zM46 365q0 261 166.5 431t415.5 170q119 0 222.5 -55.5t146.5 -144.5l-243 -143q-58 90 -160 90q-118 0 -187 -87t-69 -213q0 -87 46 -136.5t114 -49.5q102 0 203 89l195 -142q-164 -201 -440 -201q-183 0 -296.5 102t-113.5 290z" glyph-name="cacute" horiz-adv-x="988" unicode="ć"/><glyph d="M980 1760q65 0 101.5 -38t36.5 -101q0 -82 -55.5 -144t-139.5 -62q-61 0 -97 41t-36 104q0 85 54 142.5t136 57.5zM1423 1094l-276 -174q-92 157 -265 157q-200 0 -325 -145t-125 -350q0 -148 79.5 -242t224.5 -94q172 0 319 158l216 -174q-113 -123 -266 -191t-317 -68 q-254 0 -408 160.5t-154 416.5q0 340 232.5 571t568.5 231q167 0 296.5 -67.5t199.5 -188.5z" glyph-name="Cdotaccent" horiz-adv-x="1387" unicode="Ċ"/><glyph d="M678 1379q65 0 101.5 -37.5t36.5 -100.5q0 -82 -55.5 -144.5t-139.5 -62.5q-61 0 -97 41t-36 104q0 85 54 142.5t136 57.5zM46 365q0 261 166.5 431t415.5 170q119 0 222.5 -55.5t146.5 -144.5l-243 -143q-58 90 -160 90q-118 0 -187 -87t-69 -213q0 -87 46 -136.5 t114 -49.5q102 0 203 89l195 -142q-164 -201 -440 -201q-183 0 -296.5 102t-113.5 290z" glyph-name="cdotaccent" horiz-adv-x="988" unicode="ċ"/><glyph d="M894 1447l-218 226l97 102l195 -111l242 111l60 -102l-292 -226h-84zM1423 1094l-276 -174q-92 157 -265 157q-200 0 -325 -145t-125 -350q0 -148 79.5 -242t224.5 -94q172 0 319 158l216 -174q-113 -123 -266 -191t-317 -68q-254 0 -408 160.5t-154 416.5 q0 340 232.5 571t568.5 231q167 0 296.5 -67.5t199.5 -188.5z" glyph-name="Ccaron" horiz-adv-x="1387" unicode="Č"/><glyph d="M592 1067l-218 225l97 102l195 -111l242 111l60 -102l-292 -225h-84zM46 365q0 261 166.5 431t415.5 170q119 0 222.5 -55.5t146.5 -144.5l-243 -143q-58 90 -160 90q-118 0 -187 -87t-69 -213q0 -87 46 -136.5t114 -49.5q102 0 203 89l195 -142q-164 -201 -440 -201 q-183 0 -296.5 102t-113.5 290z" glyph-name="ccaron" horiz-adv-x="988" unicode="č"/><glyph d="M930 1447h-83l-219 226l97 102l195 -111l242 111l60 -102zM872 1319q244 0 387.5 -149t143.5 -393q0 -335 -220 -556t-541 -221h-563l230 1319h563zM686 275q179 0 290 132t111 330q0 137 -68 222t-191 85h-267l-134 -769h259z" glyph-name="Dcaron" horiz-adv-x="1464" unicode="Ď"/><glyph d="M1437 1475l198 -96l-288 -379l-94 43zM963 1468h290l-258 -1468h-217l-27 126q-135 -154 -343 -153q-166 0 -260.5 110t-94.5 291q0 253 149.5 422.5t386.5 169.5q183 0 261 -135zM532 236q87 0 156.5 55t91.5 144l8 48q2 10 2 29q0 89 -47.5 140t-128.5 51 q-108 0 -183.5 -77.5t-75.5 -195.5q0 -90 47.5 -142t129.5 -52z" glyph-name="dcaron" horiz-adv-x="1220" unicode="ď"/><glyph d="M838 1319q244 0 387.5 -149t143.5 -393q0 -336 -220.5 -556.5t-544.5 -220.5h-486l89 509h-108l51 281h106l94 529h488zM652 280q179 0 286.5 130.5t107.5 326.5q0 135 -69 218.5t-192 83.5h-179l-45 -249h279l-52 -281h-276l-39 -229h179z" glyph-name="Dcroat" horiz-adv-x="1443" unicode="Đ"/><glyph d="M1381 1299l-34 -183h-98l-194 -1116h-207l-31 125q-148 -152 -354 -152q-179 0 -275 107.5t-96 288.5q0 258 161.5 427.5t396.5 169.5q152 0 248 -109l46 259h-215l34 183h213l29 169h306l-29 -169h99zM579 247q108 0 179 72t71 193q0 85 -45 132t-125 47 q-114 0 -184.5 -67.5t-70.5 -196.5q0 -85 46.5 -132.5t128.5 -47.5z" glyph-name="dcroat" horiz-adv-x="1310" unicode="đ"/><glyph d="M1114 1650l-29 -172h-597l29 172h597zM1140 1053h-587l-44 -254h454l-45 -268h-457l-46 -265h583l-44 -266h-875l230 1319h875z" glyph-name="Emacron" horiz-adv-x="1160" unicode="Ē"/><glyph d="M1022 1270l-29 -173h-597l29 173h597zM1004 713q0 -113 -56.5 -194.5t-155.5 -127t-205.5 -67.5t-234.5 -29q29 -111 179 -111q58 0 146.5 31t143.5 61l87 -201q-193 -102 -411 -102q-224 0 -336.5 109t-112.5 297q0 237 178 412t429 175q147 0 248 -65t101 -188z M353 497q73 3 140 15t129 31.5t99 52t37 75.5q0 84 -106 83q-99 0 -183.5 -70.5t-115.5 -186.5z" glyph-name="emacron" horiz-adv-x="1035" unicode="ē"/><glyph d="M766 1415q-61 0 -97 41t-36 104q0 85 54 142.5t136 57.5q65 0 101.5 -38t36.5 -101q0 -82 -55.5 -144t-139.5 -62zM1140 1053h-587l-44 -254h454l-45 -268h-457l-46 -265h583l-44 -266h-875l230 1319h875z" glyph-name="Edotaccent" horiz-adv-x="1160" unicode="Ė"/><glyph d="M674 1034q-61 0 -97 41t-36 104q0 85 54 142.5t135 57.5q65 0 102 -37.5t37 -100.5q0 -82 -55.5 -144.5t-139.5 -62.5zM531 184q58 0 146.5 31t143.5 61l87 -201q-193 -102 -411 -102q-224 0 -336.5 109t-112.5 297q0 237 178 412t429 175q147 0 248 -65t101 -188 q0 -113 -56.5 -194.5t-155.5 -127t-205.5 -67.5t-234.5 -29q29 -111 179 -111zM652 754q-99 0 -183.5 -70.5t-115.5 -186.5q73 3 140 15t129 31.5t99 52t37 75.5q0 83 -106 83z" glyph-name="edotaccent" horiz-adv-x="1035" unicode="ė"/><glyph d="M1140 1053h-587l-44 -254h454l-45 -268h-457l-46 -265h583l-44 -266h-114q-116 -123 -135 -159q-14 -26 -14 -51q0 -43 43 -43q39 0 82 35l39 -89q-85 -75 -174 -79q-90 -3 -129.5 42t-20.5 120q19 55 74 118t115 106h-641l230 1319h875z" glyph-name="Eogonek" horiz-adv-x="1160" unicode="Ę"/><glyph d="M908 75l-38 -19q-61 -65 -83 -90.5t-41 -57t-19 -56.5q0 -43 43 -43q39 0 82 34l39 -89q-85 -75 -174 -78q-90 -3 -129.5 42t-20.5 120q20 67 105 152q-80 -17 -175 -17q-224 0 -336.5 109t-112.5 297q0 237 178 412t429 175q147 0 248 -65t101 -188q0 -113 -56.5 -194.5 t-155.5 -127t-205.5 -67.5t-234.5 -29q29 -111 179 -111q58 0 146.5 31t143.5 61zM652 754q-99 0 -183.5 -70.5t-115.5 -186.5q73 3 140 15t129 31.5t99 52t37 75.5q0 83 -106 83z" glyph-name="eogonek" horiz-adv-x="1035" unicode="ę"/><glyph d="M821 1447h-84l-218 226l97 102l195 -111l242 111l60 -102zM1140 1053h-587l-44 -254h454l-45 -268h-457l-46 -265h583l-44 -266h-875l230 1319h875z" glyph-name="Ecaron" horiz-adv-x="1160" unicode="Ě"/><glyph d="M729 1067h-84l-218 225l97 102l195 -111l242 111l60 -102zM1004 713q0 -113 -56.5 -194.5t-155.5 -127t-205.5 -67.5t-234.5 -29q29 -111 179 -111q58 0 146.5 31t143.5 61l87 -201q-193 -102 -411 -102q-224 0 -336.5 109t-112.5 297q0 237 178 412t429 175 q147 0 248 -65t101 -188zM353 497q73 3 140 15t129 31.5t99 52t37 75.5q0 84 -106 83q-99 0 -183.5 -70.5t-115.5 -186.5z" glyph-name="ecaron" horiz-adv-x="1035" unicode="ě"/><glyph d="M916 1451q-256 0 -218 249h178q2 -10 0 -31.5t16.5 -43t56.5 -21.5q24 0 42.5 8.5t29 22.5t16.5 26t10 24.5t4 14.5h178q-24 -109 -99.5 -179t-213.5 -70zM1314 746l-92 -516q-106 -121 -254.5 -189t-310.5 -68q-239 0 -383 157.5t-144 412.5q0 343 221.5 576.5 t546.5 233.5q164 0 288.5 -66.5t194.5 -185.5l-253 -183q-39 70 -114 115.5t-173 45.5q-181 0 -293.5 -147t-112.5 -355q0 -148 72.5 -238t211.5 -90q125 0 197 74l26 148h-210l50 275h532z" glyph-name="Gbreve" horiz-adv-x="1402" unicode="Ğ"/><glyph d="M695 1070q-256 0 -219 249h178q2 -10 0 -31.5t16.5 -42.5t56.5 -21q24 0 42.5 8.5t29 22t16.5 25.5t10 25t4 14h178q-24 -109 -99 -179t-213 -70zM956 939h232l-167 -965q-24 -135 -89 -239.5t-194 -175.5t-306.5 -71t-288.5 64t-160 165l241 162q85 -140 215 -140 q61 0 115.5 21.5t106.5 85.5t69 164l18 101q-118 -106 -303 -106q-174 0 -269.5 105t-95.5 281q0 242 149.5 408.5t378.5 166.5q196 0 279 -160zM561 266q84 0 150.5 45.5t94.5 123.5l13 79v8q0 82 -48.5 131.5t-130.5 49.5q-106 0 -182 -71.5t-76 -182.5q0 -82 49.5 -132.5 t129.5 -50.5z" glyph-name="gbreve" horiz-adv-x="1218" unicode="ğ"/><glyph d="M913 1415q-61 0 -97 41t-36 104q0 85 53.5 142.5t135.5 57.5q65 0 102 -38t37 -101q0 -82 -55.5 -144t-139.5 -62zM1314 746l-92 -516q-106 -121 -254.5 -189t-310.5 -68q-239 0 -383 157.5t-144 412.5q0 343 221.5 576.5t546.5 233.5q164 0 288.5 -66.5t194.5 -185.5 l-253 -183q-39 70 -114 115.5t-173 45.5q-181 0 -293.5 -147t-112.5 -355q0 -148 72.5 -238t211.5 -90q125 0 197 74l26 148h-210l50 275h532z" glyph-name="Gdotaccent" horiz-adv-x="1402" unicode="Ġ"/><glyph d="M691 1034q-61 0 -97 41t-36 104q0 85 54 142.5t136 57.5q65 0 101.5 -37.5t36.5 -100.5q0 -82 -55.5 -144.5t-139.5 -62.5zM956 939h232l-167 -965q-24 -135 -89 -239.5t-194 -175.5t-306.5 -71t-288.5 64t-160 165l241 162q85 -140 215 -140q61 0 115.5 21.5t106.5 85.5 t69 164l18 101q-118 -106 -303 -106q-174 0 -269.5 105t-95.5 281q0 242 149.5 408.5t378.5 166.5q196 0 279 -160zM561 266q84 0 150.5 45.5t94.5 123.5l13 79v8q0 82 -48.5 131.5t-130.5 49.5q-106 0 -182 -71.5t-76 -182.5q0 -82 49.5 -132.5t129.5 -50.5z" glyph-name="gdotaccent" horiz-adv-x="1218" unicode="ġ"/><glyph d="M1314 746l-92 -516q-106 -121 -254.5 -189t-310.5 -68q-239 0 -383 157.5t-144 412.5q0 343 221.5 576.5t546.5 233.5q164 0 288.5 -66.5t194.5 -185.5l-253 -183q-39 70 -114 115.5t-173 45.5q-181 0 -293.5 -147t-112.5 -355q0 -148 72.5 -238t211.5 -90q125 0 197 74 l26 148h-210l50 275h532zM643 -121q123 0 123 -142q0 -24 -5 -41q-38 -222 -275 -254l-8 92q102 17 135 65h-17q-51 0 -81 32.5t-30 83.5q0 72 45 118t113 46z" glyph-name="Gcommaaccent" horiz-adv-x="1402" unicode="Ģ"/><glyph d="M693 1062q-118 0 -118 138q0 121 72 202t203 98l15 -94q-108 -19 -140 -65h16q53 0 82 -32t29 -84q0 -73 -43.5 -118t-115.5 -45zM956 939h232l-167 -965q-24 -135 -89 -239.5t-194 -175.5t-306.5 -71t-288.5 64t-160 165l241 162q85 -140 215 -140q61 0 115.5 21.5 t106.5 85.5t69 164l18 101q-118 -106 -303 -106q-174 0 -269.5 105t-95.5 281q0 242 149.5 408.5t378.5 166.5q196 0 279 -160zM561 266q84 0 150.5 45.5t94.5 123.5l13 79v8q0 82 -48.5 131.5t-130.5 49.5q-106 0 -182 -71.5t-76 -182.5q0 -82 49.5 -132.5t129.5 -50.5z " glyph-name="gcommaaccent" horiz-adv-x="1218" unicode="ģ"/><glyph d="M1543 1067l-17 -113h-118l-167 -954h-306l91 519h-461l-91 -519h-303l167 954h-109l17 113h112l45 252h304l-45 -252h461l44 252h306l-45 -252h115zM1075 799l28 155h-461l-28 -155h461z" glyph-name="Hbar" horiz-adv-x="1582" unicode="Ħ"/><glyph d="M864 964q150 0 229 -89.5t45 -290.5l-104 -584h-307l96 551q19 72 2.5 117t-77.5 45q-90 0 -222 -111l-106 -602h-306l195 1111h-84l33 179h83l28 159h305l-27 -159h275l-33 -179h-275l-46 -270q142 123 296 123zM399 650l-5 -10l4 5q2 3 3 5h-2z" glyph-name="hbar" horiz-adv-x="1206" unicode="ħ"/><glyph d="M280 1437h-169q20 121 106.5 195.5t176.5 74.5q63 0 123 -51.5t99 -51.5q55 0 72 96h170q-26 -138 -102.5 -205t-168.5 -67q-43 0 -77 17.5t-52 38t-41 37.5t-47 17q-75 0 -90 -101zM379 0h-300l230 1319h300z" glyph-name="Itilde" horiz-adv-x="616" unicode="Ĩ"/><glyph d="M246 1056h-169q20 121 106.5 195.5t176.5 74.5q63 0 123 -51t99 -51q55 0 72 95h170q-26 -138 -102.5 -204.5t-168.5 -66.5q-43 0 -77 17t-52 37.5t-41 37.5t-47 17q-75 0 -90 -101zM579 246l5 -220q-104 -36 -184.5 -41t-140 22t-82.5 102t-3 195l113 635h288l-102 -601 q-12 -63 13.5 -82.5t92.5 -9.5z" glyph-name="itilde" horiz-adv-x="650" unicode="ĩ"/><glyph d="M200 1478l29 172h597l-29 -172h-597zM379 0h-300l230 1319h300z" glyph-name="Imacron" horiz-adv-x="616" unicode="Ī"/><glyph d="M166 1097l29 173h597l-29 -173h-597zM579 246l5 -220q-104 -36 -184.5 -41t-140 22t-82.5 102t-3 195l113 635h288l-102 -601q-12 -63 13.5 -82.5t92.5 -9.5z" glyph-name="imacron" horiz-adv-x="650" unicode="ī"/><glyph d="M379 0h-184q-61 -67 -84.5 -92.5t-42.5 -57t-19 -57.5q0 -43 43 -42q39 0 82 34l39 -89q-85 -75 -174 -78q-90 -3 -129.5 42t-20.5 120q19 55 74.5 118t115.5 105l230 1316h300z" glyph-name="Iogonek" horiz-adv-x="616" unicode="Į"/><glyph d="M444 1034q-61 0 -97 41t-36 104q0 85 53.5 142.5t135.5 57.5q65 0 101.5 -37.5t36.5 -100.5q0 -82 -55 -144.5t-139 -62.5zM584 26q-128 -44 -224 -43q-73 -80 -99.5 -116t-26.5 -70q0 -43 42 -43q39 0 82 34l40 -88q-85 -75 -174 -79q-90 -3 -129.5 42t-21.5 120 q19 55 73.5 117t114.5 105q-125 65 -87 299l113 635h288l-102 -601q-12 -63 13.5 -82.5t92.5 -9.5z" glyph-name="iogonek" horiz-adv-x="650" unicode="į"/><glyph d="M534 1760q65 0 101.5 -38t36.5 -101q0 -82 -55.5 -144t-138.5 -62q-61 0 -97 41t-36 104q0 85 53.5 142.5t135.5 57.5zM379 0h-300l230 1319h300z" glyph-name="Idotaccent" horiz-adv-x="616" unicode="İ"/><glyph d="M579 246l5 -220q-104 -36 -184.5 -41t-140 22t-82.5 102t-3 195l113 635h288l-102 -601q-12 -63 13.5 -82.5t92.5 -9.5z" glyph-name="dotlessi" horiz-adv-x="650" unicode="ı"/><glyph d="M133 205l232 160q41 -70 80.5 -102.5t104.5 -32.5q84 0 156 61t98 206l143 822h306l-154 -860q-17 -101 -55.5 -183.5t-103 -152.5t-168 -109.5t-236.5 -39.5q-152 0 -257 67t-146 164zM478 568h-301l132 751h300z" glyph-name="IJ" horiz-adv-x="1257" unicode="Ĳ"/><glyph d="M403 1469q60 0 95.5 -36.5t35.5 -94.5q0 -79 -53 -139.5t-133 -60.5q-58 0 -94 39.5t-36 99.5q0 84 52.5 138t132.5 54zM998 1468q63 0 99 -37t36 -96q0 -77 -54.5 -137.5t-134.5 -60.5q-56 0 -91.5 39t-35.5 101q0 80 52 135.5t129 55.5zM469 246l5 -220 q-104 -36 -184 -41t-140 22t-83 102t-2 195l112 635h289l-102 -601q-12 -63 13 -82.5t92 -9.5zM1092 939l-167 -953q-22 -121 -66.5 -215t-109.5 -157t-127 -102t-144 -77l-92 215l10 5q10 3 28 14.5t39.5 27t44.5 39t43.5 52t36.5 67.5t23 82l176 1002h305z" glyph-name="ij" horiz-adv-x="1136" unicode="ĳ"/><glyph d="M1420 1318l-691 -659l491 -659h-382l-348 521h-21l-90 -521h-300l230 1318h300l-92 -523h15l518 523h370zM577 -121q123 0 123 -142q0 -24 -5 -41q-38 -222 -275 -254l-9 92q102 17 135 65h-17q-51 0 -81 32.5t-30 83.5q0 72 45.5 118t113.5 46z" glyph-name="Kcommaaccent" horiz-adv-x="1332" unicode="Ķ"/><glyph d="M744 492q2 -5 18 -37.5t20.5 -40.5t22.5 -34.5t30 -35t35.5 -26.5t48.5 -24.5t60 -12.5t76 -6l-46 -275q-106 0 -182 19.5t-116 52t-66.5 71t-44.5 77t-39.5 71t-60.5 52t-101 19.5h-6l-64 -362h-300l246 1399h300l-133 -762h58q22 0 32 -2l285 304h355zM548 -121 q123 0 123 -142q0 -24 -5 -41q-38 -222 -275 -254l-9 92q102 17 135 65h-17q-51 0 -81 32.5t-30 83.5q0 72 45.5 118t113.5 46z" glyph-name="kcommaaccent" horiz-adv-x="1088" unicode="ķ"/><glyph d="M828 1556l-444 -110l-24 102l428 225zM427 275h529l-45 -275h-832l230 1319h300z" glyph-name="Lacute" horiz-adv-x="1099" unicode="Ĺ"/><glyph d="M352 1577l-24 102l428 226l39 -217zM495 253l5 -229q-104 -36 -186 -41t-143.5 22t-84.5 104t-2 200l196 1119h295l-186 -1085q-12 -63 15.5 -82.5t90.5 -7.5z" glyph-name="lacute" horiz-adv-x="592" unicode="ĺ"/><glyph d="M427 275h529l-45 -275h-832l230 1319h300zM497 -121q123 0 123 -142q0 -24 -6 -41q-38 -222 -274 -254l-9 92q102 17 135 65h-17q-51 0 -81 32.5t-30 83.5q0 72 45.5 118t113.5 46z" glyph-name="Lcommaaccent" horiz-adv-x="1099" unicode="Ļ"/><glyph d="M389 343q-12 -63 15.5 -82.5t90.5 -7.5l5 -229q-104 -36 -186 -41t-143.5 22t-84.5 104t-2 200l196 1119h295zM249 -121q123 0 123 -142q0 -24 -5 -41q-38 -222 -275 -254l-8 92q102 17 134 65h-17q-51 0 -81 32.5t-30 83.5q0 72 45.5 118t113.5 46z" glyph-name="lcommaaccent" horiz-adv-x="592" unicode="ļ"/><glyph d="M686 852l-94 42l185 432l198 -95zM609 1319l-182 -1044h529l-45 -275h-832l230 1319h300z" glyph-name="Lcaron" horiz-adv-x="1099" unicode="Ľ"/><glyph d="M654 983l-94 43l184 431l198 -95zM495 253l5 -229q-104 -36 -186 -41t-143.5 22t-84.5 104t-2 200l196 1119h295l-186 -1085q-12 -63 15.5 -82.5t90.5 -7.5z" glyph-name="lcaron" horiz-adv-x="609" unicode="ľ"/><glyph d="M440 280h528l-52 -280h-834l80 459l-143 -58l42 232l142 56l109 630h306l-86 -495l200 81l-43 -233l-196 -78z" glyph-name="Lslash" horiz-adv-x="1085" unicode="Ł"/><glyph d="M452 705l-61 -347q-10 -63 14.5 -82.5t84.5 -9.5l8 -228q-104 -34 -186.5 -39.5t-144 22t-85.5 104t-2 199.5l43 244l-140 -58l43 231l138 58l116 652h305l-92 -516l152 63l-43 -232z" glyph-name="lslash" horiz-adv-x="588" unicode="ł"/><glyph d="M1292 1556l-444 -110l-24 102l429 225zM1178 1319h305l-230 -1319h-311q14 85 2 159.5t-55.5 144.5t-84.5 119.5t-115 124.5q-113 113 -163 171l-125 -719h-305l230 1319h311q-27 -152 41 -278t218 -275q109 -106 157 -160z" glyph-name="Nacute" horiz-adv-x="1510" unicode="Ń"/><glyph d="M985 1176l-444 -111l-24 102l428 226zM773 964q150 0 229.5 -89.5t43.5 -290.5l-102 -584h-309l95 527q14 77 -2 119t-79 42q-89 0 -217 -109l-103 -579h-305l164 939h235l28 -118q156 143 322 143zM304 650l1 -1z" glyph-name="nacute" horiz-adv-x="1128" unicode="ń"/><glyph d="M1178 1319h305l-230 -1319h-311q14 85 2 159.5t-55.5 144.5t-84.5 119.5t-115 124.5q-113 113 -163 171l-125 -719h-305l230 1319h311q-27 -152 41 -278t218 -275q109 -106 157 -160zM678 -121q123 0 122 -142q0 -24 -5 -41q-38 -222 -274 -254l-9 92q102 17 135 65h-17 q-51 0 -81 32.5t-30 83.5q0 72 45.5 118t113.5 46z" glyph-name="Ncommaaccent" horiz-adv-x="1510" unicode="Ņ"/><glyph d="M773 964q150 0 229.5 -89.5t43.5 -290.5l-102 -584h-309l95 527q14 77 -2 119t-79 42q-89 0 -217 -109l-103 -579h-305l164 939h235l28 -118q156 143 322 143zM304 650l1 -1zM483 -121q123 0 123 -142q0 -24 -5 -41q-38 -222 -275 -254l-9 92q102 17 135 65h-17 q-51 0 -81 32.5t-30 83.5q0 72 45.5 118t113.5 46z" glyph-name="ncommaaccent" horiz-adv-x="1128" unicode="ņ"/><glyph d="M997 1447h-84l-218 226l97 102l194 -111l243 111l60 -102zM1178 1319h305l-230 -1319h-311q14 85 2 159.5t-55.5 144.5t-84.5 119.5t-115 124.5q-113 113 -163 171l-125 -719h-305l230 1319h311q-27 -152 41 -278t218 -275q109 -106 157 -160z" glyph-name="Ncaron" horiz-adv-x="1510" unicode="Ň"/><glyph d="M689 1067h-83l-219 225l98 102l194 -111l243 111l59 -102zM773 964q150 0 229.5 -89.5t43.5 -290.5l-102 -584h-309l95 527q14 77 -2 119t-79 42q-89 0 -217 -109l-103 -579h-305l164 939h235l28 -118q156 143 322 143zM304 650l1 -1z" glyph-name="ncaron" horiz-adv-x="1128" unicode="ň"/><glyph d="M1483 1319l-206 -1184l-26 -149q-22 -121 -66.5 -215t-109.5 -157t-125.5 -102t-142.5 -77l-104 213l19 11q19 12 51.5 37.5t64 61t60.5 95.5t41 127l3 20q14 85 2 159.5t-55.5 144.5t-84.5 119.5t-115 124.5q-113 113 -163 171l-125 -719h-305l230 1319h311 q-27 -152 41 -278t218 -275q109 -106 157 -160l125 713h305z" glyph-name="Eng" horiz-adv-x="1512" unicode="Ŋ"/><glyph d="M773 964q150 0 229.5 -89.5t43.5 -290.5l-78 -444h5l-28 -154q-22 -121 -68 -215.5t-112.5 -158t-126 -101.5t-140.5 -76l-97 215l19 9q17 10 47.5 32t61.5 53t59 82t38 111l12 63h-3l97 551q17 72 1 117t-78 45q-85 0 -220 -109l-106 -604h-305l164 939h235l26 -122 q157 147 324 147zM304 640q3 2 5 10z" glyph-name="eng" horiz-adv-x="1133" unicode="ŋ"/><glyph d="M640 1478l29 172h597l-29 -172h-597zM903 1350q249 0 394 -153.5t145 -408.5q0 -346 -221 -582.5t-557 -236.5q-246 0 -392 158t-146 412q0 343 222 577t555 234zM858 1077q-196 0 -311 -147t-115 -358q0 -147 70.5 -236.5t210.5 -89.5q196 0 310 146t114 361 q0 148 -72 236t-207 88z" glyph-name="Omacron" horiz-adv-x="1503" unicode="Ō"/><glyph d="M365 1097l29 173h598l-29 -173h-598zM659 966q195 0 313.5 -113.5t118.5 -302.5q0 -101 -38 -201t-109.5 -185t-191 -138t-266.5 -53q-198 0 -315.5 110t-117.5 298q0 261 175 423t431 162zM613 708q-108 0 -178 -89.5t-70 -191.5q0 -80 41 -138.5t123 -58.5 q106 0 179.5 87t73.5 190q0 82 -43.5 141.5t-125.5 59.5z" glyph-name="omacron" horiz-adv-x="1145" unicode="ō"/><glyph d="M809 1420l-99 26l94 326l210 -64zM1077 1420l-101 26l94 326l212 -64zM903 1350q249 0 394 -153.5t145 -408.5q0 -346 -221 -582.5t-557 -236.5q-246 0 -392 158t-146 412q0 343 222 577t555 234zM858 1077q-196 0 -311 -147t-115 -358q0 -147 70.5 -236.5t210.5 -89.5 q196 0 310 146t114 361q0 148 -72 236t-207 88z" glyph-name="Ohungarumlaut" horiz-adv-x="1503" unicode="Ő"/><glyph d="M534 1039l-99 26l94 326l210 -63zM802 1039l-101 26l94 326l212 -63zM659 966q195 0 313.5 -113.5t118.5 -302.5q0 -101 -38 -201t-109.5 -185t-191 -138t-266.5 -53q-198 0 -315.5 110t-117.5 298q0 261 175 423t431 162zM613 708q-108 0 -178 -89.5t-70 -191.5 q0 -80 41 -138.5t123 -58.5q106 0 179.5 87t73.5 190q0 82 -43.5 141.5t-125.5 59.5z" glyph-name="ohungarumlaut" horiz-adv-x="1145" unicode="ő"/><glyph d="M2091 1039h-552l-42 -235h344l-47 -282h-347l-42 -242h553l-50 -280h-833l22 126q-195 -157 -450 -157q-232 0 -369.5 157t-137.5 408q0 345 214 580.5t535 235.5q254 0 393 -181l25 150h833zM725 251q196 0 308 143.5t112 358.5q0 147 -70 233t-203 86 q-196 0 -308.5 -145t-112.5 -355q0 -145 68.5 -233t205.5 -88z" glyph-name="OE" horiz-adv-x="2106" unicode="Œ"/><glyph d="M1647 664q-17 -96 -80 -166.5t-159 -111t-189.5 -61t-201.5 -28.5q31 -94 161 -94q111 0 288 82l90 -210q-106 -55 -186 -78.5t-175 -23.5q-253 0 -359 167q-154 -167 -406 -167q-160 0 -268.5 111.5t-108.5 296.5q0 171 81 307t205.5 207t261.5 71q230 0 333 -174 q157 174 373 174q162 0 264 -78.5t76 -223.5zM1391 654q7 38 -22 60t-75 22q-87 0 -165.5 -64t-107.5 -177q344 17 370 159zM529 230q106 0 179.5 87t73.5 190q0 82 -43.5 141.5t-125.5 59.5q-108 0 -178 -89.5t-70 -191.5q0 -80 41 -138.5t123 -58.5z" glyph-name="oe" horiz-adv-x="1686" unicode="œ"/><glyph d="M1135 1556l-444 -110l-24 102l429 225zM1261 945q0 -365 -326 -476l188 -469h-324l-144 423q-22 -2 -66 -1h-137l-73 -422h-300l230 1319h439q261 0 387 -100t126 -274zM631 674q160 0 240.5 48.5t80.5 178.5q0 87 -64.5 121t-184.5 34h-140l-66 -382h134z" glyph-name="Racute" horiz-adv-x="1245" unicode="Ŕ"/><glyph d="M835 1176l-444 -111l-24 102l428 226zM664 966q92 0 193 -61l-183 -272q-58 38 -107 38q-51 0 -94 -44.5t-69 -111.5l-23 -143v-7l-2 2l-65 -367h-290l164 939h220l27 -103q99 130 229 130z" glyph-name="racute" horiz-adv-x="824" unicode="ŕ"/><glyph d="M1261 945q0 -365 -326 -476l188 -469h-324l-144 423q-22 -2 -66 -1h-137l-73 -422h-300l230 1319h439q261 0 387 -100t126 -274zM631 674q160 0 240.5 48.5t80.5 178.5q0 87 -64.5 121t-184.5 34h-140l-66 -382h134zM543 -121q123 0 123 -142q0 -24 -6 -41 q-38 -222 -274 -254l-9 92q102 17 135 65h-17q-51 0 -81 32.5t-30 83.5q0 72 45.5 118t113.5 46z" glyph-name="Rcommaaccent" horiz-adv-x="1245" unicode="Ŗ"/><glyph d="M664 966q92 0 193 -61l-183 -272q-58 38 -107 38q-51 0 -94 -44.5t-69 -111.5l-23 -143v-7l-2 2l-65 -367h-290l164 939h220l27 -103q99 130 229 130zM133 -121q123 0 123 -142q0 -24 -5 -41q-38 -222 -275 -254l-8 92q102 17 134 65h-17q-51 0 -81 32.5t-30 83.5 q0 72 45.5 118t113.5 46z" glyph-name="rcommaaccent" horiz-adv-x="824" unicode="ŗ"/><glyph d="M840 1447h-84l-218 226l97 102l194 -111l243 111l60 -102zM1261 945q0 -365 -326 -476l188 -469h-324l-144 423q-22 -2 -66 -1h-137l-73 -422h-300l230 1319h439q261 0 387 -100t126 -274zM631 674q160 0 240.5 48.5t80.5 178.5q0 87 -64.5 121t-184.5 34h-140l-66 -382 h134z" glyph-name="Rcaron" horiz-adv-x="1245" unicode="Ř"/><glyph d="M539 1067h-83l-219 225l98 102l194 -111l242 111l60 -102zM664 966q92 0 193 -61l-183 -272q-58 38 -107 38q-51 0 -94 -44.5t-69 -111.5l-23 -143v-7l-2 2l-65 -367h-290l164 939h220l27 -103q99 130 229 130z" glyph-name="rcaron" horiz-adv-x="824" unicode="ř"/><glyph d="M722 1444l-24 102l428 226l40 -217zM31 227l256 189q133 -176 356 -175q108 0 162.5 41t54.5 102q0 58 -65 101.5t-157 77t-183 76t-156 124.5t-65 198q0 162 160.5 277t397.5 115q317 0 481 -184l-220 -184q-106 114 -295 114q-89 0 -146 -37.5t-57 -92.5q0 -38 34 -70 t89.5 -57t122 -51t133 -60.5t122 -78t89.5 -111t34 -150.5q0 -183 -152.5 -300t-425.5 -117q-140 0 -308 65t-262 188z" glyph-name="Sacute" horiz-adv-x="1286" unicode="Ś"/><glyph d="M512 1246l-24 102l428 226l40 -217zM17 181l205 169q128 -118 247 -118q96 0 96 53q0 24 -42 46t-101.5 46t-118.5 58t-101 96.5t-42 144.5q0 108 112 199t298 91q241 0 372 -131l-210 -185q-87 75 -188 75q-73 0 -73 -42q0 -22 42 -46t100.5 -51.5t117.5 -63.5t101 -98 t42 -142q0 -128 -105 -214.5t-301 -86.5q-135 0 -258 52t-193 148z" glyph-name="sacute" horiz-adv-x="969" unicode="ś"/><glyph d="M555 969q0 -38 34 -70t89.5 -57t122 -51t133 -60.5t122 -78t89.5 -111t34 -150.5q0 -181 -151 -298t-420 -119l-17 -61q80 -3 140.5 -50t34.5 -145q-73 -258 -414 -124l54 130q27 -19 74 -33.5t93.5 -9.5t54.5 43q7 31 -11 50t-50.5 26t-56.5 9.5t-44 1.5l49 169 q-137 19 -271.5 81t-212.5 166l256 189q133 -176 356 -175q108 0 162.5 41t54.5 102q0 58 -65 101.5t-157 77t-183 76t-156 124.5t-65 198q0 162 160.5 277t397.5 115q317 0 481 -184l-220 -184q-106 114 -295 114q-89 0 -146 -37.5t-57 -92.5z" glyph-name="Scedilla" horiz-adv-x="1286" unicode="Ş"/><glyph d="M471 683q0 -22 42 -46t100.5 -51.5t117.5 -63.5t101 -98t42 -142q0 -128 -105 -214.5t-301 -86.5h-17l-19 -68q75 -3 136.5 -46t49.5 -125q-29 -160 -207 -186q-73 -12 -133.5 3.5t-84.5 34.5l54 130q27 -19 74.5 -33.5t93.5 -9.5t54 43q7 31 -11 50t-50.5 26t-56 9.5 t-44.5 1.5l53 179q-230 38 -343 191l205 169q128 -118 247 -118q96 0 96 53q0 24 -42 46t-101.5 46t-118.5 58t-101 96.5t-42 144.5q0 108 112 199t298 91q241 0 372 -131l-210 -185q-87 75 -188 75q-73 1 -73 -42z" glyph-name="scedilla" horiz-adv-x="969" unicode="ş"/><glyph d="M787 1446l-219 225l98 102l194 -111l243 111l59 -102l-292 -225h-83zM31 227l256 189q133 -176 356 -175q108 0 162.5 41t54.5 102q0 58 -65 101.5t-157 77t-183 76t-156 124.5t-65 198q0 162 160.5 277t397.5 115q317 0 481 -184l-220 -184q-106 114 -295 114 q-89 0 -146 -37.5t-57 -92.5q0 -38 34 -70t89.5 -57t122 -51t133 -60.5t122 -78t89.5 -111t34 -150.5q0 -183 -152.5 -300t-425.5 -117q-140 0 -308 65t-262 188z" glyph-name="Scaron" horiz-adv-x="1286" unicode="Š"/><glyph d="M577 1248l-219 225l98 102l194 -111l243 111l59 -102l-292 -225h-83zM17 181l205 169q128 -118 247 -118q96 0 96 53q0 24 -42 46t-101.5 46t-118.5 58t-101 96.5t-42 144.5q0 108 112 199t298 91q241 0 372 -131l-210 -185q-87 75 -188 75q-73 0 -73 -42q0 -22 42 -46 t100.5 -51.5t117.5 -63.5t101 -98t42 -142q0 -128 -105 -214.5t-301 -86.5q-135 0 -258 52t-193 148z" glyph-name="scaron" horiz-adv-x="969" unicode="š"/><glyph d="M669 0h-99l-24 -87q80 -3 141 -50t35 -145q-73 -258 -415 -124l55 130q27 -19 74 -33.5t93 -9.5t55 43q7 31 -11 50t-50.5 26t-56.5 9.5t-44 1.5l56 189h-104l182 1046h-385l44 273h1072l-45 -273h-389z" glyph-name="Tcommaaccent" horiz-adv-x="1211" unicode="Ţ"/><glyph d="M451 422q-7 -39 -7 -72t3.5 -55t15 -38t21 -25.5t31 -14t33.5 -6t38.5 2t37.5 6t39 8.5t35 8l-61 -236q-111 -32 -205 -27l-17 -60q80 -3 140.5 -50t35.5 -145q-73 -258 -415 -124l54 130q27 -19 74.5 -33.5t93.5 -9.5t54 43q7 31 -11 50t-50.5 26t-56 9.5t-44.5 1.5 l53 175q-251 75 -181 463l45 259h-135l42 231h133l52 293h293l-51 -293h213l-66 -231h-188z" glyph-name="tcommaaccent" horiz-adv-x="762" unicode="ţ"/><glyph d="M823 1447h-84l-218 226l97 102l194 -111l243 111l59 -102zM1287 1319l-45 -273h-389l-184 -1046h-295l182 1046h-385l44 273h1072z" glyph-name="Tcaron" horiz-adv-x="1211" unicode="Ť"/><glyph d="M860 1493l198 -95l-288 -379l-94 43zM500 708l-49 -286q-7 -39 -7 -72t3.5 -55t15 -38t21 -25.5t31 -14t33.5 -6t38.5 2t37.5 6t39 8.5t35 8l-61 -236q-87 -24 -164 -27.5t-147 19.5t-112.5 78.5t-60.5 148.5t9 230l45 259h-135l42 231h133l52 293h293l-51 -293h213 l-66 -231h-188z" glyph-name="tcaron" horiz-adv-x="762" unicode="ť"/><glyph d="M1237 1039h-384l-30 -179h249l-53 -281h-246l-99 -579h-305l99 579h-248l53 281h244l31 179h-382l52 280h1072z" glyph-name="Tbar" horiz-adv-x="1208" unicode="Ŧ"/><glyph d="M451 420q-20 -116 13 -167.5t91.5 -42t118.5 18.5q17 3 26 5l-62 -236q-85 -24 -162 -27t-147.5 18t-116 73t-66 140t1.5 220h-92l33 196h94l15 90h-126l42 231h123l51 293h304l-51 -293h213l-66 -231h-188l-15 -90h177l-49 -196h-162v-2z" glyph-name="tbar" horiz-adv-x="761" unicode="ŧ"/><glyph d="M688 1437h-169q20 121 106.5 195.5t176.5 74.5q51 0 88.5 -26t68.5 -51.5t65 -25.5q55 0 72 96h170q-26 -138 -102.5 -205t-168.5 -67q-43 0 -77 17.5t-52 38t-41 37.5t-47 17q-75 0 -90 -101zM1449 1319l-120 -677q-58 -328 -221 -500.5t-468 -172.5q-309 0 -413 172.5 t-46 500.5l119 677h297l-111 -636q-24 -114 -18.5 -195.5t20 -132t48.5 -79.5t68 -39t79 -10q56 0 104 19t96.5 65.5t87.5 140.5t63 231l111 636h304z" glyph-name="Utilde" horiz-adv-x="1448" unicode="Ũ"/><glyph d="M539 1157q-75 0 -90 -101h-169q20 121 106.5 195.5t176.5 74.5q51 0 88.5 -25.5t68.5 -51t65 -25.5q55 0 72 95h170q-26 -138 -102.5 -204.5t-168.5 -66.5q-43 0 -77 17t-52 37.5t-41 37.5t-47 17zM797 939h306l-161 -939h-237l-27 119q-159 -145 -323 -145 q-150 0 -230.5 89t-44.5 292l103 584h305l-87 -490q-14 -79 3.5 -120t78.5 -41q53 0 101.5 26t115.5 84l3 -2z" glyph-name="utilde" horiz-adv-x="1129" unicode="ũ"/><glyph d="M608 1478l29 172h597l-29 -172h-597zM1449 1319l-120 -677q-58 -328 -221 -500.5t-468 -172.5q-309 0 -413 172.5t-46 500.5l119 677h297l-111 -636q-24 -114 -18.5 -195.5t20 -132t48.5 -79.5t68 -39t79 -10q56 0 104 19t96.5 65.5t87.5 140.5t63 231l111 636h304z" glyph-name="Umacron" horiz-adv-x="1448" unicode="Ū"/><glyph d="M995 1270l-29 -173h-597l29 173h597zM797 939h306l-161 -939h-237l-27 119q-159 -145 -323 -145q-150 0 -230.5 89t-44.5 292l103 584h305l-87 -490q-14 -79 3.5 -120t78.5 -41q53 0 101.5 26t115.5 84l3 -2z" glyph-name="umacron" horiz-adv-x="1129" unicode="ū"/><glyph d="M961 1831q73 0 116.5 -47t43.5 -123q0 -99 -69 -174.5t-168 -75.5q-75 0 -117.5 49t-42.5 127q0 108 66.5 176t170.5 68zM934 1705q-34 0 -61.5 -29t-27.5 -68q0 -29 18 -48t45 -19q39 0 64.5 28t25.5 68q0 29 -17.5 48.5t-46.5 19.5zM1449 1319l-120 -677 q-58 -328 -221 -500.5t-468 -172.5q-309 0 -413 172.5t-46 500.5l119 677h297l-111 -636q-24 -114 -18.5 -195.5t20 -132t48.5 -79.5t68 -39t79 -10q56 0 104 19t96.5 65.5t87.5 140.5t63 231l111 636h304z" glyph-name="Uring" horiz-adv-x="1448" unicode="Ů"/><glyph d="M645 1031q-75 0 -117.5 48.5t-42.5 127.5q0 108 66.5 176t170.5 68q73 0 116.5 -47t43.5 -124q0 -99 -69 -174t-168 -75zM695 1324q-34 0 -61.5 -29t-27.5 -68q0 -29 18 -47.5t45 -18.5q39 0 64.5 28t25.5 67q0 29 -17.5 48.5t-46.5 19.5zM797 939h306l-161 -939h-237 l-27 119q-159 -145 -323 -145q-150 0 -230.5 89t-44.5 292l103 584h305l-87 -490q-14 -79 3.5 -120t78.5 -41q53 0 101.5 26t115.5 84l3 -2z" glyph-name="uring" horiz-adv-x="1129" unicode="ů"/><glyph d="M777 1420l-99 26l93 326l210 -64zM1044 1420l-100 26l94 326l211 -64zM1449 1319l-120 -677q-58 -328 -221 -500.5t-468 -172.5q-309 0 -413 172.5t-46 500.5l119 677h297l-111 -636q-24 -114 -18.5 -195.5t20 -132t48.5 -79.5t68 -39t79 -10q56 0 104 19t96.5 65.5 t87.5 140.5t63 231l111 636h304z" glyph-name="Uhungarumlaut" horiz-adv-x="1448" unicode="Ű"/><glyph d="M742 1328l-204 -289l-99 26l93 326zM806 1039l-101 26l94 326l211 -63zM797 939h306l-161 -939h-237l-27 119q-159 -145 -323 -145q-150 0 -230.5 89t-44.5 292l103 584h305l-87 -490q-14 -79 3.5 -120t78.5 -41q53 0 101.5 26t115.5 84l3 -2z" glyph-name="uhungarumlaut" horiz-adv-x="1129" unicode="ű"/><glyph d="M1145 1319h304l-120 -677q-90 -514 -433 -633q-61 -65 -83.5 -91t-41 -57.5t-18.5 -56.5q0 -43 42 -43q39 0 82 34l39 -89q-85 -75 -174 -78q-90 -3 -129.5 42t-20.5 120q26 84 140 184q-43 -5 -92 -5q-309 0 -413 172.5t-46 500.5l119 677h297l-111 -636 q-24 -114 -18.5 -195.5t20 -132t48.5 -79.5t68 -39t79 -10q56 0 104 19t96.5 65.5t87.5 140.5t63 231z" glyph-name="Uogonek" horiz-adv-x="1448" unicode="Ų"/><glyph d="M942 0h-123q-61 -65 -83.5 -90.5t-41 -57t-18.5 -57.5q0 -43 43 -42q39 0 81 34l40 -89q-85 -75 -174 -79q-90 -3 -129.5 42t-21.5 121q19 55 73.5 117t114.5 104l-25 116q-159 -145 -323 -145q-150 0 -230.5 89t-44.5 292l103 584h305l-87 -490q-14 -79 3.5 -120 t78.5 -41q53 0 101.5 26t115.5 84l3 -2l94 543h306z" glyph-name="uogonek" horiz-adv-x="1129" unicode="ų"/><glyph d="M1063 1550l-239 -111l-59 102l290 225h85l217 -225l-96 -102zM1555 1319h343l-541 -1319h-292l-84 833l-408 -833h-288l-41 1319h323l-16 -817l424 817h197l108 -798z" glyph-name="Wcircumflex" horiz-adv-x="1843" unicode="Ŵ"/><glyph d="M966 1169l-239 -111l-60 103l290 225h86l217 -225l-96 -103zM1341 939h304l-70 -434q-49 -302 -166 -416.5t-353 -114.5q-113 0 -209 43.5t-146 124.5q-140 -167 -337 -168q-68 0 -123 19t-101 63.5t-60.5 117t0.5 181.5l103 584h303l-97 -533q-14 -73 12.5 -116.5 t93.5 -43.5q51 0 99.5 38.5t76.5 97.5l99 557h305l-92 -523q-12 -75 13.5 -125t87.5 -50q145 0 186 245z" glyph-name="wcircumflex" horiz-adv-x="1672" unicode="ŵ"/><glyph d="M788 1538l-238 -111l-60 102l290 225h85l217 -225l-96 -102zM1307 1319l-542 -795h-2l-92 -524h-316l94 531l-265 788h340l121 -568l321 568h341z" glyph-name="Ycircumflex" horiz-adv-x="1196" unicode="Ŷ"/><glyph d="M654 1169l-239 -111l-60 103l290 225h85l217 -225l-95 -103zM845 939h295l-169 -965q-17 -101 -58 -184.5t-111 -153t-181 -109t-254 -39.5q-162 0 -275.5 66.5t-159.5 162.5l242 162q85 -140 212 -140q101 0 184.5 62t110.5 209l14 80q-142 -116 -289 -116 q-150 0 -229.5 90t-45.5 291l105 584h305l-87 -490q-12 -79 4 -120t78 -41q51 0 99 24t114 81z" glyph-name="ycircumflex" horiz-adv-x="1165" unicode="ŷ"/><glyph d="M601 1446q-43 0 -69.5 28t-26.5 74q0 61 38.5 100.5t101.5 39.5q43 0 69.5 -27.5t26.5 -73.5q0 -55 -41 -98t-99 -43zM939 1446q-44 0 -70 28t-26 74q0 61 38.5 100.5t99.5 39.5q44 0 70 -27.5t26 -73.5q0 -56 -40 -98.5t-98 -42.5zM1307 1319l-542 -795h-2l-92 -524 h-316l94 531l-265 788h340l121 -568l321 568h341z" glyph-name="Ydieresis" horiz-adv-x="1196" unicode="Ÿ"/><glyph d="M1191 1556l-443 -110l-24 102l428 225zM1386 1318l-33 -173l-860 -882l714 17l-52 -280h-1121l31 169l862 886l-714 -17l52 280h1121z" glyph-name="Zacute" horiz-adv-x="1344" unicode="Ź"/><glyph d="M949 1176l-444 -111l-24 102l429 226zM464 280q49 0 110 -16.5t102 -26.5t108.5 3t149.5 62l-50 -276q-90 -53 -169.5 -56.5t-140 22t-123 51t-144.5 19.5t-177 -62l-127 222l569 462l-439 -24l50 279h788l-49 -279z" glyph-name="zacute" horiz-adv-x="1008" unicode="ź"/><glyph d="M841 1415q-61 0 -97 41t-36 104q0 85 54 142.5t136 57.5q65 0 101.5 -38t36.5 -101q0 -82 -55.5 -144t-139.5 -62zM1386 1318l-33 -173l-860 -882l714 17l-52 -280h-1121l31 169l862 886l-714 -17l52 280h1121z" glyph-name="Zdotaccent" horiz-adv-x="1344" unicode="Ż"/><glyph d="M599 1034q-61 0 -97 41t-36 104q0 85 53.5 142.5t135.5 57.5q65 0 102 -37.5t37 -100.5q0 -82 -55.5 -144.5t-139.5 -62.5zM464 280q49 0 110 -16.5t102 -26.5t108.5 3t149.5 62l-50 -276q-90 -53 -169.5 -56.5t-140 22t-123 51t-144.5 19.5t-177 -62l-127 222l569 462 l-439 -24l50 279h788l-49 -279z" glyph-name="zdotaccent" horiz-adv-x="1008" unicode="ż"/><glyph d="M896 1447h-84l-218 226l97 102l195 -111l242 111l60 -102zM1386 1318l-33 -173l-860 -882l714 17l-52 -280h-1121l31 169l862 886l-714 -17l52 280h1121z" glyph-name="Zcaron" horiz-adv-x="1344" unicode="Ž"/><glyph d="M654 1067h-84l-218 225l97 102l194 -111l243 111l59 -102zM464 280q49 0 110 -16.5t102 -26.5t108.5 3t149.5 62l-50 -276q-90 -53 -169.5 -56.5t-140 22t-123 51t-144.5 19.5t-177 -62l-127 222l569 462l-439 -24l50 279h788l-49 -279z" glyph-name="zcaron" horiz-adv-x="1008" unicode="ž"/><glyph d="M345 1017q51 288 224 396.5t404 20.5l-43 -234q-48 19 -86 25t-81.5 -3t-74.5 -55t-46 -126l-258 -1454h-288l191 1096h-185l46 256h183z" glyph-name="longs" horiz-adv-x="872" unicode="ſ"/><glyph d="M1640 1468q7 -79 -12 -152.5t-81 -129.5t-158 -56h-39q92 -142 92 -342q0 -346 -221 -582.5t-557 -236.5q-246 0 -392 158t-146 412q0 343 223 578t559 235h2q60 0 124.5 -4.5t144 -11.5t125.5 -10q116 -5 116 142h220zM713 246q196 0 310 146t114 361q0 148 -72 236 t-207 88q-196 0 -311 -147t-115 -358q0 -147 70.5 -236.5t210.5 -89.5z" glyph-name="Ohorn" horiz-adv-x="1510" unicode="Ơ"/><glyph d="M1302 1091q9 -67 -11.5 -132.5t-83 -117t-156.5 -54.5q65 -99 65 -237q0 -101 -37.5 -201t-109 -185t-191 -138t-266.5 -53q-198 0 -315.5 110t-117.5 298q0 261 174.5 423t430.5 162q39 0 285 -15q61 -3 88 33.5t25 106.5h220zM555 230q106 0 179 87t73 190 q0 82 -43.5 141.5t-125.5 59.5q-108 0 -177.5 -89.5t-69.5 -191.5q0 -80 41 -138.5t123 -58.5z" glyph-name="ohorn" horiz-adv-x="1191" unicode="ơ"/><glyph d="M1591 1456h220q-5 -60 -20.5 -113.5t-45.5 -106.5t-83.5 -84.5t-127.5 -31.5l-100 1l-84 -476q-56 -328 -219 -500t-469 -172q-309 0 -413 172t-48 500l116 674h304l-112 -633q-24 -114 -19 -195t19.5 -131.5t48.5 -79.5t68 -39.5t79 -10.5q56 0 104 19t97.5 66t88.5 141 t63 230l111 633h306q58 -3 85.5 32t30.5 105z" glyph-name="Uhorn" horiz-adv-x="1575" unicode="Ư"/><glyph d="M1215 1075h220q-2 -58 -16 -112.5t-44 -107.5t-84.5 -84.5t-128.5 -31.5l-68 2l-126 -741h-238l-27 119q-159 -145 -322 -145q-150 0 -230.5 89t-44.5 292l102 584h306l-87 -490q-14 -79 3 -120t79 -41q53 0 101.5 26t114.5 84l4 -2l94 543h302q95 6 90 136z" glyph-name="uhorn" horiz-adv-x="1373" unicode="ư"/><glyph d="M956 1447h-84l-218 226l97 102l194 -111l243 111l60 -102zM1010 0l-49 270h-529l-144 -270h-317l730 1319h355l273 -1319h-319zM580 550h330l-86 457z" glyph-name="uni01CD" horiz-adv-x="1467" unicode="Ǎ"/><glyph d="M662 1067h-83l-219 225l97 102l195 -111l242 111l60 -102zM1155 246l6 -220q-358 -121 -412 100q-121 -154 -336 -153q-169 0 -265.5 107.5t-96.5 286.5q0 256 147.5 427.5t356 171.5t285.5 -160l24 133h288l-102 -601q-12 -63 13 -82.5t92 -9.5zM531 236q85 0 150 48.5 t90 131.5l14 76v25q0 85 -45 135.5t-129 50.5q-114 0 -185 -79.5t-71 -200.5q0 -87 46 -137t130 -50z" glyph-name="uni01CE" horiz-adv-x="1278" unicode="ǎ"/><glyph d="M449 1447l-219 226l98 102l194 -111l243 111l59 -102l-292 -226h-83zM379 0h-300l230 1319h300z" glyph-name="uni01CF" horiz-adv-x="616" unicode="Ǐ"/><glyph d="M415 1067l-219 225l98 102l194 -111l242 111l60 -102l-292 -225h-83zM579 246l5 -220q-104 -36 -184.5 -41t-140 22t-82.5 102t-3 195l113 635h288l-102 -601q-12 -63 13.5 -82.5t92.5 -9.5z" glyph-name="uni01D0" horiz-adv-x="650" unicode="ǐ"/><glyph d="M889 1447l-218 226l97 102l195 -111l242 111l60 -102l-292 -226h-84zM903 1350q249 0 394 -153.5t145 -408.5q0 -346 -221 -582.5t-557 -236.5q-246 0 -392 158t-146 412q0 343 222 577t555 234zM858 1077q-196 0 -311 -147t-115 -358q0 -147 70.5 -236.5t210.5 -89.5 q196 0 310 146t114 361q0 148 -72 236t-207 88z" glyph-name="uni01D1" horiz-adv-x="1503" unicode="Ǒ"/><glyph d="M614 1067l-218 225l97 102l195 -111l242 111l60 -102l-292 -225h-84zM659 966q195 0 313.5 -113.5t118.5 -302.5q0 -101 -38 -201t-109.5 -185t-191 -138t-266.5 -53q-198 0 -315.5 110t-117.5 298q0 261 175 423t431 162zM613 708q-108 0 -178 -89.5t-70 -191.5 q0 -80 41 -138.5t123 -58.5q106 0 179.5 87t73.5 190q0 82 -43.5 141.5t-125.5 59.5z" glyph-name="uni01D2" horiz-adv-x="1145" unicode="ǒ"/><glyph d="M857 1447l-219 226l98 102l194 -111l242 111l60 -102l-292 -226h-83zM1449 1319l-120 -677q-58 -328 -221 -500.5t-468 -172.5q-309 0 -413 172.5t-46 500.5l119 677h297l-111 -636q-24 -114 -18.5 -195.5t20 -132t48.5 -79.5t68 -39t79 -10q56 0 104 19t96.5 65.5 t87.5 140.5t63 231l111 636h304z" glyph-name="uni01D3" horiz-adv-x="1448" unicode="Ǔ"/><glyph d="M701 1067h-83l-219 225l98 102l194 -111l243 111l59 -102zM797 939h306l-161 -939h-237l-27 119q-159 -145 -323 -145q-150 0 -230.5 89t-44.5 292l103 584h305l-87 -490q-14 -79 3.5 -120t78.5 -41q53 0 101.5 26t115.5 84l3 -2z" glyph-name="uni01D4" horiz-adv-x="1129" unicode="ǔ"/><glyph d="M678 1859l29 172h597l-29 -172h-597zM771 1700q43 0 69.5 -27.5t26.5 -73.5q0 -55 -41 -98.5t-99 -43.5q-43 0 -69.5 28.5t-26.5 74.5q0 61 38.5 100.5t101.5 39.5zM1108 1700q44 0 69.5 -27.5t25.5 -73.5q0 -56 -40 -99t-98 -43q-44 0 -70 28.5t-26 74.5q0 61 39 100.5 t100 39.5zM1449 1319l-120 -677q-58 -328 -221 -500.5t-468 -172.5q-309 0 -413 172.5t-46 500.5l119 677h297l-111 -636q-24 -114 -18.5 -195.5t20 -132t48.5 -79.5t68 -39t79 -10q56 0 104 19t96.5 65.5t87.5 140.5t63 231l111 636h304z" glyph-name="uni01D5" horiz-adv-x="1448" unicode="Ǖ"/><glyph d="M1065 1650l-29 -172h-597l29 172h597zM488 1077q-43 0 -69 28t-26 74q0 61 38 100.5t101 39.5q43 0 69.5 -27t26.5 -73q0 -55 -41 -98.5t-99 -43.5zM730 1179q0 61 38.5 100.5t100.5 39.5q44 0 69.5 -27t25.5 -73q0 -56 -40 -99t-98 -43q-44 0 -70 28t-26 74zM797 939 h306l-161 -939h-237l-27 119q-159 -145 -323 -145q-150 0 -230.5 89t-44.5 292l103 584h305l-87 -490q-14 -79 3.5 -120t78.5 -41q53 0 101.5 26t115.5 84l3 -2z" glyph-name="uni01D6" horiz-adv-x="1129" unicode="ǖ"/><glyph d="M862 1826l-24 103l428 225l40 -217zM771 1700q43 0 69.5 -27.5t26.5 -73.5q0 -55 -41 -98.5t-99 -43.5q-43 0 -69.5 28.5t-26.5 74.5q0 61 38.5 100.5t101.5 39.5zM1108 1700q44 0 69.5 -27.5t25.5 -73.5q0 -56 -40 -99t-98 -43q-44 0 -70 28.5t-26 74.5q0 61 39 100.5 t100 39.5zM1449 1319l-120 -677q-58 -328 -221 -500.5t-468 -172.5q-309 0 -413 172.5t-46 500.5l119 677h297l-111 -636q-24 -114 -18.5 -195.5t20 -132t48.5 -79.5t68 -39t79 -10q56 0 104 19t96.5 65.5t87.5 140.5t63 231l111 636h304z" glyph-name="uni01D7" horiz-adv-x="1448" unicode="Ǘ"/><glyph d="M1067 1556l-444 -110l-24 102l428 225zM488 1077q-43 0 -69 28t-26 74q0 61 38 100.5t101 39.5q43 0 69.5 -27t26.5 -73q0 -55 -41 -98.5t-99 -43.5zM730 1179q0 61 38.5 100.5t100.5 39.5q44 0 69.5 -27t25.5 -73q0 -56 -40 -99t-98 -43q-44 0 -70 28t-26 74zM797 939 h306l-161 -939h-237l-27 119q-159 -145 -323 -145q-150 0 -230.5 89t-44.5 292l103 584h305l-87 -490q-14 -79 3.5 -120t78.5 -41q53 0 101.5 26t115.5 84l3 -2z" glyph-name="uni01D8" horiz-adv-x="1129" unicode="ǘ"/><glyph d="M927 1828l-219 225l98 103l194 -111l242 111l60 -103l-292 -225h-83zM771 1700q43 0 69.5 -27.5t26.5 -73.5q0 -55 -41 -98.5t-99 -43.5q-43 0 -69.5 28.5t-26.5 74.5q0 61 38.5 100.5t101.5 39.5zM1108 1700q44 0 69.5 -27.5t25.5 -73.5q0 -56 -40 -99t-98 -43 q-44 0 -70 28.5t-26 74.5q0 61 39 100.5t100 39.5zM1449 1319l-120 -677q-58 -328 -221 -500.5t-468 -172.5q-309 0 -413 172.5t-46 500.5l119 677h297l-111 -636q-24 -114 -18.5 -195.5t20 -132t48.5 -79.5t68 -39t79 -10q56 0 104 19t96.5 65.5t87.5 140.5t63 231l111 636 h304z" glyph-name="uni01D9" horiz-adv-x="1448" unicode="Ǚ"/><glyph d="M771 1447h-83l-219 226l98 102l194 -111l243 111l59 -102zM488 1077q-43 0 -69 28t-26 74q0 61 38 100.5t101 39.5q43 0 69.5 -27t26.5 -73q0 -55 -41 -98.5t-99 -43.5zM730 1179q0 61 38.5 100.5t100.5 39.5q44 0 69.5 -27t25.5 -73q0 -56 -40 -99t-98 -43q-44 0 -70 28 t-26 74zM797 939h306l-161 -939h-237l-27 119q-159 -145 -323 -145q-150 0 -230.5 89t-44.5 292l103 584h305l-87 -490q-14 -79 3.5 -120t78.5 -41q53 0 101.5 26t115.5 84l3 -2z" glyph-name="uni01DA" horiz-adv-x="1129" unicode="ǚ"/><glyph d="M1041 1826l-399 111l117 217l344 -225zM771 1700q43 0 69.5 -27.5t26.5 -73.5q0 -55 -41 -98.5t-99 -43.5q-43 0 -69.5 28.5t-26.5 74.5q0 61 38.5 100.5t101.5 39.5zM1108 1700q44 0 69.5 -27.5t25.5 -73.5q0 -56 -40 -99t-98 -43q-44 0 -70 28.5t-26 74.5 q0 61 39 100.5t100 39.5zM1449 1319l-120 -677q-58 -328 -221 -500.5t-468 -172.5q-309 0 -413 172.5t-46 500.5l119 677h297l-111 -636q-24 -114 -18.5 -195.5t20 -132t48.5 -79.5t68 -39t79 -10q56 0 104 19t96.5 65.5t87.5 140.5t63 231l111 636h304z" glyph-name="uni01DB" horiz-adv-x="1448" unicode="Ǜ"/><glyph d="M864 1548l-62 -102l-399 110l118 217zM488 1077q-43 0 -69 28t-26 74q0 61 38 100.5t101 39.5q43 0 69.5 -27t26.5 -73q0 -55 -41 -98.5t-99 -43.5zM730 1179q0 61 38.5 100.5t100.5 39.5q44 0 69.5 -27t25.5 -73q0 -56 -40 -99t-98 -43q-44 0 -70 28t-26 74zM797 939 h306l-161 -939h-237l-27 119q-159 -145 -323 -145q-150 0 -230.5 89t-44.5 292l103 584h305l-87 -490q-14 -79 3.5 -120t78.5 -41q53 0 101.5 26t115.5 84l3 -2z" glyph-name="uni01DC" horiz-adv-x="1129" unicode="ǜ"/><glyph d="M1319 2031l-29 -172h-597l29 172h597zM742 1457q-43 0 -69 28.5t-26 74.5q0 61 38.5 100.5t101.5 39.5q43 0 69 -27.5t26 -73.5q0 -55 -41 -98.5t-99 -43.5zM985 1560q0 61 38.5 100.5t99.5 39.5q44 0 70 -27.5t26 -73.5q0 -56 -40.5 -99t-98.5 -43q-44 0 -69.5 28.5 t-25.5 74.5zM1010 0l-49 270h-529l-144 -270h-317l730 1319h355l273 -1319h-319zM580 550h330l-86 457z" glyph-name="uni01DE" horiz-adv-x="1467" unicode="Ǟ"/><glyph d="M1026 1650l-29 -172h-598l29 172h598zM449 1077q-43 0 -69.5 28t-26.5 74q0 61 38.5 100.5t101.5 39.5q43 0 69.5 -27t26.5 -73q0 -55 -41 -98.5t-99 -43.5zM691 1179q0 61 38.5 100.5t99.5 39.5q44 0 70 -27t26 -73q0 -56 -40 -99t-98 -43q-44 0 -70 28t-26 74z M1155 246l6 -220q-358 -121 -412 100q-121 -154 -336 -153q-169 0 -265.5 107.5t-96.5 286.5q0 256 147.5 427.5t356 171.5t285.5 -160l24 133h288l-102 -601q-12 -63 13 -82.5t92 -9.5zM531 236q85 0 150 48.5t90 131.5l14 76v25q0 85 -45 135.5t-129 50.5 q-114 0 -185 -79.5t-71 -200.5q0 -87 46 -137t130 -50z" glyph-name="uni01DF" horiz-adv-x="1278" unicode="ǟ"/><glyph d="M968 1447h-84l-218 226l97 102l194 -111l243 111l60 -102zM1314 746l-92 -516q-106 -121 -254.5 -189t-310.5 -68q-239 0 -383 157.5t-144 412.5q0 343 221.5 576.5t546.5 233.5q164 0 288.5 -66.5t194.5 -185.5l-253 -183q-39 70 -114 115.5t-173 45.5 q-181 0 -293.5 -147t-112.5 -355q0 -148 72.5 -238t211.5 -90q125 0 197 74l26 148h-210l50 275h532z" glyph-name="Gcaron" horiz-adv-x="1402" unicode="Ǧ"/><glyph d="M746 1067h-84l-218 225l97 102l195 -111l242 111l60 -102zM956 939h232l-167 -965q-24 -135 -89 -239.5t-194 -175.5t-306.5 -71t-288.5 64t-160 165l241 162q85 -140 215 -140q61 0 115.5 21.5t106.5 85.5t69 164l18 101q-118 -106 -303 -106q-174 0 -269.5 105 t-95.5 281q0 242 149.5 408.5t378.5 166.5q196 0 279 -160zM561 266q84 0 150.5 45.5t94.5 123.5l13 79v8q0 82 -48.5 131.5t-130.5 49.5q-106 0 -182 -71.5t-76 -182.5q0 -82 49.5 -132.5t129.5 -50.5z" glyph-name="gcaron" horiz-adv-x="1218" unicode="ǧ"/><glyph d="M1234 1176l-444 -111l-24 102l429 226zM1596 664q-17 -96 -81 -166.5t-159.5 -111t-189.5 -61t-202 -28.5q27 -94 159 -94q108 0 292 82l87 -210q-106 -55 -185.5 -78.5t-174.5 -23.5q-155 0 -256 64t-140 176q-65 -109 -175 -176.5t-250 -67.5q-138 0 -218.5 71 t-80.5 192q0 172 120.5 265.5t309.5 93.5q118 0 217 -35q3 70 -48 109.5t-152 39.5q-130 0 -285 -68l-51 247q212 82 386 82q242 0 331 -212q75 99 180 155.5t224 56.5q164 0 266 -78.5t76 -223.5zM1340 654q5 38 -24 60t-77 22q-85 0 -163.5 -64t-107.5 -177 q345 17 372 159zM433 193q67 0 119 40t78 112q-68 24 -150 24q-147 0 -157 -82q-7 -48 24 -71t86 -23z" glyph-name="aeacute" horiz-adv-x="1631" unicode="ǽ"/><glyph d="M1278 1556l-443 -110l-24 102l428 225zM1582 1184l-177 -151q43 -113 42 -245q0 -346 -221 -582.5t-554 -236.5q-220 0 -363 130l-162 -137l-140 175l174 148q-46 113 -46 254q0 225 100 410.5t278 293t400 107.5q220 0 364 -130l162 139zM444 572q0 -22 3 -60l591 505 q-72 55 -173 55q-195 0 -308 -145t-113 -355zM1142 753q0 20 -4 54l-590 -503q67 -53 171 -53q198 0 310.5 143.5t112.5 358.5z" glyph-name="Oslashacute" horiz-adv-x="1513" unicode="Ǿ"/><glyph d="M1015 1176l-443 -111l-24 102l428 226zM1125 879l-104 -87q67 -101 66 -239q0 -102 -38.5 -203t-110 -186t-192 -138t-266.5 -53q-189 0 -306 102l-99 -84l-61 79l95 82q-61 99 -61 230q0 259 175 421.5t434 162.5q181 0 294 -97l104 88zM357 427q0 -32 7 -58l351 300 q-43 39 -107 39q-106 0 -178.5 -89.5t-72.5 -191.5zM777 507q0 32 -9 70l-357 -301q46 -46 111 -46q108 0 181.5 87.5t73.5 189.5z" glyph-name="oslashacute" horiz-adv-x="1134" unicode="ǿ"/><glyph d="M555 969q0 -38 34 -70t89.5 -57t122 -51t133 -60.5t122 -78t89.5 -111t34 -150.5q0 -183 -152.5 -300t-425.5 -117q-140 0 -308 65t-262 188l256 189q133 -176 356 -175q108 0 162.5 41t54.5 102q0 58 -65 101.5t-157 77t-183 76t-156 124.5t-65 198q0 162 160.5 277 t397.5 115q317 0 481 -184l-220 -184q-106 114 -295 114q-89 0 -146 -37.5t-57 -92.5zM544 -121q123 0 123 -142q0 -24 -5 -41q-38 -222 -275 -254l-8 92q102 17 135 65h-17q-51 0 -81 32.5t-30 83.5q0 72 45 118t113 46z" glyph-name="Scommaaccent" horiz-adv-x="1286" unicode="Ș"/><glyph d="M471 683q0 -22 42 -46t100.5 -51.5t117.5 -63.5t101 -98t42 -142q0 -128 -105 -214.5t-301 -86.5q-135 0 -258 52t-193 148l205 169q128 -118 247 -118q96 0 96 53q0 24 -42 46t-101.5 46t-118.5 58t-101 96.5t-42 144.5q0 108 112 199t298 91q241 0 372 -131l-210 -185 q-87 75 -188 75q-73 1 -73 -42zM386 -121q123 0 123 -142q0 -24 -6 -41q-38 -222 -274 -254l-9 92q102 17 135 65h-17q-51 0 -81 32.5t-30 83.5q0 72 45.5 118t113.5 46z" glyph-name="scommaaccent" horiz-adv-x="969" unicode="ș"/><glyph d="M1287 1319l-45 -273h-389l-184 -1046h-295l182 1046h-385l44 273h1072zM500 -121q123 0 123 -142q0 -24 -5 -41q-38 -222 -275 -254l-8 92q102 17 134 65h-17q-51 0 -81 32.5t-30 83.5q0 72 45.5 118t113.5 46z" glyph-name="uni021A" horiz-adv-x="1211" unicode="Ț"/><glyph d="M451 422q-7 -39 -7 -72t3.5 -55t15 -38t21 -25.5t31 -14t33.5 -6t38.5 2t37.5 6t39 8.5t35 8l-61 -236q-87 -24 -164 -27.5t-147 19.5t-112.5 78.5t-60.5 148.5t9 230l45 259h-135l42 231h133l52 293h293l-51 -293h213l-66 -231h-188zM369 -121q123 0 123 -142 q0 -24 -6 -41q-38 -222 -274 -254l-9 92q102 17 135 65h-17q-51 0 -81 32.5t-30 83.5q0 72 45.5 118t113.5 46z" glyph-name="uni021B" horiz-adv-x="762" unicode="ț"/><glyph d="M1140 1053h-587l-44 -254h454l-45 -268h-457l-46 -265h583l-44 -266h-411l-24 -87q75 -3 136.5 -46t49.5 -125q-29 -160 -207 -186q-73 -12 -133.5 3.5t-84.5 34.5l55 130q27 -19 74 -33.5t93 -9.5t54 43q7 31 -11 50t-50 26t-56 9.5t-45 1.5l57 189h-372l230 1319h875z " glyph-name="uni0228" horiz-adv-x="1160" unicode="Ȩ"/><glyph d="M497 -27h-5l-18 -60q75 -3 136.5 -46t49.5 -125q-29 -160 -206 -186q-73 -12 -134 3.5t-84 34.5l54 130q27 -19 74 -33.5t93 -9.5t55 43q7 31 -11 50t-50.5 26t-56.5 9.5t-44 1.5l49 169q-176 22 -263.5 128.5t-87.5 270.5q0 237 178 412t429 175q147 0 248 -65t101 -188 q0 -113 -56.5 -194.5t-155.5 -127t-205.5 -67.5t-234.5 -29q29 -111 179 -111q58 0 146.5 31t143.5 61l87 -201q-193 -102 -411 -102zM652 754q-99 0 -183.5 -70.5t-115.5 -186.5q73 3 140 15t129 31.5t99 52t37 75.5q0 83 -106 83z" glyph-name="uni0229" horiz-adv-x="1035" unicode="ȩ"/><glyph d="M710 1859l29 172h597l-29 -172h-597zM804 1700q43 0 69 -27.5t26 -73.5q0 -55 -41 -98.5t-99 -43.5q-43 0 -69 28.5t-26 74.5q0 61 38.5 100.5t101.5 39.5zM1140 1700q44 0 70 -27.5t26 -73.5q0 -56 -40.5 -99t-98.5 -43q-44 0 -69.5 28.5t-25.5 74.5q0 61 38.5 100.5 t99.5 39.5zM903 1350q249 0 394 -153.5t145 -408.5q0 -346 -221 -582.5t-557 -236.5q-246 0 -392 158t-146 412q0 343 222 577t555 234zM858 1077q-196 0 -311 -147t-115 -358q0 -147 70.5 -236.5t210.5 -89.5q196 0 310 146t114 361q0 148 -72 236t-207 88z" glyph-name="uni022A" horiz-adv-x="1503" unicode="Ȫ"/><glyph d="M435 1478l29 172h598l-29 -172h-598zM529 1319q43 0 69.5 -27t26.5 -73q0 -55 -41 -98.5t-99 -43.5q-43 0 -69.5 28t-26.5 74q0 61 38.5 100.5t101.5 39.5zM865 1319q44 0 70 -27t26 -73q0 -56 -40 -99t-98 -43q-44 0 -70 28t-26 74q0 61 38.5 100.5t99.5 39.5zM659 966 q195 0 313.5 -113.5t118.5 -302.5q0 -101 -38 -201t-109.5 -185t-191 -138t-266.5 -53q-198 0 -315.5 110t-117.5 298q0 261 175 423t431 162zM613 708q-108 0 -178 -89.5t-70 -191.5q0 -80 41 -138.5t123 -58.5q106 0 179.5 87t73.5 190q0 82 -43.5 141.5t-125.5 59.5z" glyph-name="uni022B" horiz-adv-x="1145" unicode="ȫ"/><glyph d="M712 939l-168 -953q-22 -121 -66.5 -215t-109 -157t-127 -102t-144.5 -77l-92 215l10 5q10 3 28 14.5t39.5 27t44.5 39t43.5 52t37 67.5t22.5 82l176 1002h306z" glyph-name="uni0237" horiz-adv-x="877" unicode="ȷ"/><glyph d="M1647 939l-21 -113h-138l-31 -181q-56 -326 -220.5 -499t-470.5 -173q-309 0 -412 172t-45 500l31 183h-135l20 111h135l65 380h304l-69 -380h548l69 380h297l-65 -380h138zM1164 686l26 140l-548 2l-26 -142q-24 -114 -19 -195t20.5 -131.5t49.5 -79.5t69 -39.5 t80 -10.5q121 0 211.5 97.5t136.5 358.5z" glyph-name="uni0244" horiz-adv-x="1706" unicode="Ʉ"/><glyph d="M317 360l-5 -32q-9 -51 43.5 -74.5t146.5 -23.5q119 0 261 46l51 -242q-198 -65 -382 -65q-207 0 -325.5 96.5t-84.5 291.5l103 578h240l22 -116q121 147 318 147q133 0 204.5 -71t71.5 -188q0 -176 -124.5 -279.5t-322.5 -103.5q-118 0 -217 36zM565 742q-63 0 -123 -50 t-87 -142q63 -27 138 -28q72 0 124 39.5t52 93.5q0 41 -29 64t-75 23z" glyph-name="uni0250" horiz-adv-x="1003" unicode="ɐ"/><glyph d="M1155 246l6 -220q-358 -121 -412 100q-121 -154 -336 -153q-169 0 -265.5 107.5t-96.5 286.5q0 256 147.5 427.5t356 171.5t285.5 -160l24 133h288l-102 -601q-12 -63 13 -82.5t92 -9.5zM531 236q85 0 150 48.5t90 131.5l14 76v25q0 85 -45 135.5t-129 50.5 q-114 0 -185 -79.5t-71 -200.5q0 -87 46 -137t130 -50z" glyph-name="uni0251" horiz-adv-x="1278" unicode="ɑ"/><glyph d="M976 555q0 -104 -35 -205t-102.5 -187t-180 -138t-254.5 -52q-246 0 -329.5 159.5t12.5 418.5h584q-7 184 -168 185q-116 0 -293 -82l-73 210q106 53 195.5 77.5t210.5 24.5q201 0 317 -111.5t116 -299.5zM640 386h-333q-7 -41 -5 -85.5t37 -78.5t98 -34q48 0 87 21 t62 55.5t36 64.5t18 57z" glyph-name="uni0259" horiz-adv-x="1025" unicode="ə"/><glyph d="M1219 633l-19 -111h-111l-94 -522h-236l-27 119q-155 -145 -321 -145q-148 0 -227.5 89t-45.5 292l29 167h-109l21 111h109l54 306h304l-54 -306h310l55 306h305l-54 -306h111zM759 394l23 128h-309l-14 -73q-14 -79 2.5 -120t77.5 -41q92 0 220 106z" glyph-name="uni0289" horiz-adv-x="1245" unicode="ʉ"/><glyph d="M522 1386h86l216 -225l-95 -103l-198 111l-239 -111l-60 103z" glyph-name="circumflex" horiz-adv-x="810" unicode="ˆ"/><glyph d="M474 1067l-218 225l97 102l195 -111l242 111l60 -102l-292 -225h-84z" glyph-name="caron" horiz-adv-x="810" unicode="ˇ"/><glyph d="M659 1319h177q-24 -109 -99 -179t-213 -70q-256 0 -219 249h178q2 -10 0 -31.5t17 -42.5t56 -21q24 0 43 8.5t29 22t16 25.5t10.5 24.5t4.5 14.5z" glyph-name="breve" horiz-adv-x="837" unicode="˘"/><glyph d="M614 1379q65 0 102 -37.5t37 -100.5q0 -82 -55.5 -144.5t-139.5 -62.5q-61 0 -97 41t-36 104q0 85 53.5 142.5t135.5 57.5z" glyph-name="dotaccent" horiz-adv-x="918" unicode="˙"/><glyph d="M601 1451q73 0 116.5 -47t43.5 -124q0 -99 -69 -174t-168 -75q-75 0 -117.5 48.5t-42.5 127.5q0 108 66.5 176t170.5 68zM573 1324q-34 0 -61 -29t-27 -68q0 -29 18 -47.5t45 -18.5q39 0 64.5 28t25.5 67q0 29 -18 48.5t-47 19.5z" glyph-name="ring" horiz-adv-x="853" unicode="˚"/><glyph d="M348 17h118q-5 -5 -15 -17q-137 -145 -137 -196q0 -43 43 -43q39 0 82 34l39 -89q-85 -75 -174 -78q-90 -3 -129.5 42t-20.5 120q19 55 76 119t118 108z" glyph-name="ogonek" horiz-adv-x="860" unicode="˛"/><glyph d="M457 1056h-169q20 121 106.5 195.5t177.5 74.5q63 0 122.5 -51t99.5 -51q55 0 71 95h171q-26 -138 -102.5 -204.5t-168.5 -66.5q-43 0 -77 17t-52 37.5t-41 37.5t-47 17q-76 0 -91 -101z" glyph-name="tilde" horiz-adv-x="1073" unicode="˜"/><glyph d="M288 1034l-99 26l94 326l210 -63zM556 1034l-100 26l94 326l211 -63z" glyph-name="hungarumlaut" horiz-adv-x="684" unicode="˝"/><glyph d="M-154 1065l-399 111l118 217l343 -226z" glyph-name="gravecomb" unicode="̀"/><glyph d="M-422 1065l-23 102l428 226l39 -217z" glyph-name="acutecomb" unicode="́"/><glyph d="M-288 1386h85l217 -225l-96 -103l-198 111l-239 -111l-60 103z" glyph-name="uni0302" unicode="̂"/><glyph d="M-616 1056h-169q20 121 106.5 195.5t176.5 74.5q51 0 89 -25.5t68.5 -51t64.5 -25.5q55 0 72 95h170q-26 -138 -102.5 -204.5t-168.5 -66.5q-43 0 -77 17t-52 37.5t-41 37.5t-47 17q-75 0 -90 -101z" glyph-name="tildecomb" unicode="̃"/><glyph d="M-628 1097l29 173h597l-29 -173h-597z" glyph-name="uni0304" unicode="̄"/><glyph d="M-179 1319h177q-24 -109 -99 -179t-213 -70q-256 0 -218 249h177q2 -10 0 -31.5t17 -42.5t56 -21q24 0 43 8.5t29 22t16 25.5t10.5 24.5t4.5 14.5z" glyph-name="uni0306" unicode="̆"/><glyph d="M-304 1379q65 0 101.5 -37.5t36.5 -100.5q0 -82 -55 -144.5t-139 -62.5q-61 0 -97 41t-36 104q0 85 53.5 142.5t135.5 57.5z" glyph-name="uni0307" unicode="̇"/><glyph d="M-485 1319q43 0 69.5 -27t26.5 -73q0 -55 -41 -98.5t-99 -43.5q-43 0 -69.5 28t-26.5 74q0 61 38.5 100.5t101.5 39.5zM-148 1319q44 0 69.5 -27t25.5 -73q0 -56 -40 -99t-98 -43q-44 0 -70 28t-26 74q0 61 39 100.5t100 39.5z" glyph-name="uni0308" unicode="̈"/><glyph d="M-239 1051h-118q17 17 40 42t34.5 36t26 27t21 25.5t13.5 21.5t8.5 22.5t1.5 22.5q0 43 -41 42q-36 0 -83 -34l-33 89q85 75 173 78q92 3 131 -42t19 -121q-36 -100 -193 -209z" glyph-name="hookabovecomb" unicode="̉"/><glyph d="M-253 1451q73 0 117 -47t44 -124q0 -99 -69 -174t-168 -75q-75 0 -118 48.5t-43 127.5q0 108 66.5 176t170.5 68zM-280 1324q-34 0 -61.5 -29t-27.5 -68q0 -29 18 -47.5t46 -18.5q39 0 64.5 28t25.5 67q0 29 -18 48.5t-47 19.5z" glyph-name="uni030A" unicode="̊"/><glyph d="M-396 1034l-99 26l94 326l210 -63zM-128 1034l-101 26l94 326l212 -63z" glyph-name="uni030B" unicode="̋"/><glyph d="M-336 1067l-219 225l98 102l194 -111l243 111l59 -102l-292 -225h-83z" glyph-name="uni030C" unicode="̌"/><glyph d="M-138 1224q0 -73 -43.5 -118.5t-115.5 -45.5q-118 0 -118 138q0 121 72 202t203 98l15 -93q-108 -19 -140 -65h16q53 0 82 -32.5t29 -83.5z" glyph-name="uni0312" unicode="̒"/><glyph d="M-561 -99q65 0 101.5 -37.5t36.5 -100.5q0 -82 -55.5 -144.5t-139.5 -62.5q-60 0 -96.5 41t-36.5 104q0 85 54 142.5t136 57.5z" glyph-name="dotbelowcomb" unicode="̣"/><glyph d="M-399 -263q0 -24 -5 -41q-38 -222 -275 -254l-9 92q102 17 135 65h-17q-51 0 -81 32.5t-30 83.5q0 72 45 118t114 46q123 0 123 -142z" glyph-name="uni0326" unicode="̦"/><glyph d="M-558 19l90 -7l-27 -99q75 -3 136.5 -46t49.5 -125q-29 -160 -206 -186q-73 -12 -134 3.5t-85 34.5l55 130q27 -19 74 -33.5t93 -9.5t55 43q7 31 -11 50t-50.5 26t-56.5 9.5t-45 1.5z" glyph-name="uni0327" unicode="̧"/><glyph d="M-512 17h118q-5 -5 -16 -17q-137 -145 -136 -196q0 -43 43 -43q39 0 81 34l40 -89q-85 -75 -174 -78q-90 -3 -129.5 42t-21.5 120q19 55 76.5 119t118.5 108z" glyph-name="uni0328" unicode="̨"/><glyph d="M-616 -171h85l217 -225l-96 -102l-198 111l-239 -111l-59 102z" glyph-name="uni032D" unicode="̭"/><glyph d="M-881 -343l31 172h597l-30 -172h-598z" glyph-name="uni0331" unicode="̱"/><glyph d="M957 630q56 -32 88 -97t32 -146q0 -166 -109.5 -276.5t-267.5 -110.5h-125l-27 -159h-113l28 159h-386l203 1161h386l27 158h113l-28 -158h77q109 0 175 -69.5t66 -181.5q-1 -174 -139 -280zM625 925h-128l-38 -212h128zM727 713q49 0 90 32t41 95q0 38 -23.5 61.5 t-61.5 23.5h-36l-37 -212h27zM375 236h128l43 237h-130zM707 236q49 0 91.5 39t42.5 99q0 46 -32 72.5t-77 26.5h-73l-43 -237h91z" glyph-name="uni0E3F" horiz-adv-x="1191" unicode="฿"/><glyph d="M1014 713q67 -38 104 -111t37 -165q0 -184 -127 -310.5t-309 -126.5h-640l230 1319h587q128 0 205 -79t77 -206q0 -195 -164 -321zM749 809q63 0 113.5 36t50.5 106q0 48 -30 75t-77 27h-251l-43 -244h237zM720 266q67 0 120 45.5t53 111.5q0 55 -40.5 87.5t-93.5 32.5 h-293l-50 -277h304zM546 -99q65 0 101.5 -37.5t36.5 -100.5q0 -82 -55.5 -144.5t-138.5 -62.5q-60 0 -96.5 41t-36.5 104q0 85 53.5 142.5t135.5 57.5z" glyph-name="uni1E04" horiz-adv-x="1259" unicode="Ḅ"/><glyph d="M777 966q171 0 266 -109t95 -287q0 -254 -152.5 -425.5t-377.5 -171.5q-200 0 -282 167l-79 -140h-216l256 1468h290l-108 -615q122 113 308 113zM579 236q106 0 181.5 78.5t75.5 197.5q0 87 -47.5 139t-126.5 52q-89 0 -159 -53.5t-93 -142.5l-9 -53q-2 -10 -2 -29 q0 -87 48 -138t132 -51zM548 -99q65 0 101.5 -37.5t36.5 -100.5q0 -82 -55.5 -144.5t-138.5 -62.5q-60 0 -97 41t-37 104q0 85 54 142.5t136 57.5z" glyph-name="uni1E05" horiz-adv-x="1192" unicode="ḅ"/><glyph d="M872 1319q244 0 387.5 -149t143.5 -393q0 -335 -220 -556t-541 -221h-563l230 1319h563zM686 275q179 0 290 132t111 330q0 137 -68 222t-191 85h-267l-134 -769h259zM592 -99q65 0 101.5 -37.5t36.5 -100.5q0 -82 -55 -144.5t-139 -62.5q-60 0 -96.5 41t-36.5 104 q0 85 53.5 142.5t135.5 57.5z" glyph-name="uni1E0C" horiz-adv-x="1464" unicode="Ḍ"/><glyph d="M963 1468h290l-258 -1468h-217l-27 126q-135 -154 -343 -153q-166 0 -260.5 110t-94.5 291q0 253 149.5 422.5t386.5 169.5q183 0 261 -135zM532 236q87 0 156.5 55t91.5 144l8 48q2 10 2 29q0 89 -47.5 140t-128.5 51q-108 0 -183.5 -77.5t-75.5 -195.5q0 -90 47.5 -142 t129.5 -52zM422 -99q65 0 101.5 -37.5t36.5 -100.5q0 -82 -55.5 -144.5t-139.5 -62.5q-60 0 -96.5 41t-36.5 104q0 85 54 142.5t136 57.5z" glyph-name="uni1E0D" horiz-adv-x="1203" unicode="ḍ"/><glyph d="M872 1319q244 0 387.5 -149t143.5 -393q0 -335 -220 -556t-541 -221h-563l230 1319h563zM686 275q179 0 290 132t111 330q0 137 -68 222t-191 85h-267l-134 -769h259zM275 -343l30 172h598l-31 -172h-597z" glyph-name="uni1E0E" horiz-adv-x="1464" unicode="Ḏ"/><glyph d="M963 1468h290l-258 -1468h-217l-27 126q-135 -154 -343 -153q-166 0 -260.5 110t-94.5 291q0 253 149.5 422.5t386.5 169.5q183 0 261 -135zM532 236q87 0 156.5 55t91.5 144l8 48q2 10 2 29q0 89 -47.5 140t-128.5 51q-108 0 -183.5 -77.5t-75.5 -195.5q0 -90 47.5 -142 t129.5 -52zM104 -343l31 172h597l-31 -172h-597z" glyph-name="uni1E0F" horiz-adv-x="1203" unicode="ḏ"/><glyph d="M872 1319q244 0 387.5 -149t143.5 -393q0 -335 -220 -556t-541 -221h-563l230 1319h563zM686 275q179 0 290 132t111 330q0 137 -68 222t-191 85h-267l-134 -769h259zM539 -171h86l216 -225l-95 -102l-198 111l-239 -111l-60 102z" glyph-name="uni1E12" horiz-adv-x="1464" unicode="Ḓ"/><glyph d="M963 1468h290l-258 -1468h-217l-27 126q-135 -154 -343 -153q-166 0 -260.5 110t-94.5 291q0 253 149.5 422.5t386.5 169.5q183 0 261 -135zM532 236q87 0 156.5 55t91.5 144l8 48q2 10 2 29q0 89 -47.5 140t-128.5 51q-108 0 -183.5 -77.5t-75.5 -195.5q0 -90 47.5 -142 t129.5 -52zM369 -171h85l217 -225l-96 -102l-198 111l-239 -111l-59 102z" glyph-name="uni1E13" horiz-adv-x="1203" unicode="ḓ"/><glyph d="M1154 1319h300l-230 -1319h-301l91 521h-545l-90 -521h-300l230 1319h300l-92 -524h545zM654 -99q65 0 101.5 -37.5t36.5 -100.5q0 -82 -55.5 -144.5t-139.5 -62.5q-60 0 -96.5 41t-36.5 104q0 85 54 142.5t136 57.5z" glyph-name="uni1E24" horiz-adv-x="1464" unicode="Ḥ"/><glyph d="M778 964q150 0 229.5 -88.5t45.5 -291.5l-104 -584h-307l94 527q14 77 -2.5 119t-78.5 42q-89 0 -216 -109l-2 1l-102 -580h-306l254 1449h306l-106 -604q145 119 295 119zM307 650l2 -1zM471 -99q65 0 101.5 -37.5t36.5 -100.5q0 -82 -55.5 -144.5t-138.5 -62.5 q-60 0 -96.5 41t-36.5 104q0 85 53.5 142.5t135.5 57.5z" glyph-name="uni1E25" horiz-adv-x="1121" unicode="ḥ"/><glyph d="M454 1826l-24 103l428 225l40 -217zM364 1700q43 0 69 -27.5t26 -73.5q0 -55 -41 -98.5t-99 -43.5q-43 0 -69 28.5t-26 74.5q0 61 38.5 100.5t101.5 39.5zM700 1700q44 0 69.5 -27.5t25.5 -73.5q0 -56 -40 -99t-98 -43q-44 0 -70 28.5t-26 74.5q0 61 39 100.5t100 39.5z M379 0h-300l230 1319h300z" glyph-name="uni1E2E" horiz-adv-x="616" unicode="Ḯ"/><glyph d="M420 1446l-24 102l428 225l40 -217zM329 1319q43 0 69.5 -27t26.5 -73q0 -55 -41 -98.5t-99 -43.5q-43 0 -69.5 28t-26.5 74q0 61 38.5 100.5t101.5 39.5zM666 1319q44 0 69.5 -27t25.5 -73q0 -56 -40 -99t-98 -43q-44 0 -70 28t-26 74q0 61 39 100.5t100 39.5zM579 246 l5 -220q-104 -36 -184.5 -41t-140 22t-82.5 102t-3 195l113 635h288l-102 -601q-12 -63 13.5 -82.5t92.5 -9.5z" glyph-name="uni1E2F" horiz-adv-x="650" unicode="ḯ"/><glyph d="M427 275h529l-45 -275h-832l230 1319h300zM500 -99q65 0 101.5 -37.5t36.5 -100.5q0 -82 -55.5 -144.5t-138.5 -62.5q-60 0 -96.5 41t-36.5 104q0 85 53.5 142.5t135.5 57.5z" glyph-name="uni1E36" horiz-adv-x="1099" unicode="Ḷ"/><glyph d="M495 253l5 -229q-104 -36 -186 -41t-143.5 22t-84.5 104t-2 200l196 1119h295l-186 -1085q-12 -63 15.5 -82.5t90.5 -7.5zM253 -99q65 0 101.5 -37.5t36.5 -100.5q0 -82 -55.5 -144.5t-139.5 -62.5q-60 0 -96.5 41t-36.5 104q0 85 54 142.5t136 57.5z" glyph-name="uni1E37" horiz-adv-x="592" unicode="ḷ"/><glyph d="M427 275h529l-45 -275h-832l230 1319h300zM447 -171h85l217 -225l-95 -102l-198 111l-239 -111l-60 102z" glyph-name="uni1E3C" horiz-adv-x="1099" unicode="Ḽ"/><glyph d="M495 253l5 -229q-104 -36 -186 -41t-143.5 22t-84.5 104t-2 200l196 1119h295l-186 -1085q-12 -63 15.5 -82.5t90.5 -7.5zM200 -171h85l217 -225l-96 -102l-198 111l-239 -111l-59 102z" glyph-name="uni1E3D" horiz-adv-x="592" unicode="ḽ"/><glyph d="M1347 1556l-444 -110l-24 102l428 225zM1208 1319h376l-145 -1319h-296l105 872l-393 -872h-239l-85 826l-195 -826h-300l316 1319h375l85 -899z" glyph-name="uni1E3E" horiz-adv-x="1643" unicode="Ḿ"/><glyph d="M1258 1176l-444 -111l-24 102l429 226zM1271 964q140 0 213.5 -88.5t39.5 -291.5l-104 -584h-292l96 551q19 72 5 117t-68 45q-70 0 -178 -87q-3 -27 -7 -42l-102 -584h-294l98 551q17 72 4 117t-68 45q-67 0 -174 -82l-111 -631h-305l164 939h235l22 -96 q137 121 280 121q189 0 243 -143q146 143 303 143zM828 649q-3 -5 -5 -11z" glyph-name="uni1E3F" horiz-adv-x="1604" unicode="ḿ"/><glyph d="M942 1415q-61 0 -97 41t-36 104q0 85 53.5 142.5t135.5 57.5q65 0 102 -38t37 -101q0 -82 -55.5 -144t-139.5 -62zM1178 1319h305l-230 -1319h-311q14 85 2 159.5t-55.5 144.5t-84.5 119.5t-115 124.5q-113 113 -163 171l-125 -719h-305l230 1319h311q-27 -152 41 -278 t218 -275q109 -106 157 -160z" glyph-name="uni1E44" horiz-adv-x="1510" unicode="Ṅ"/><glyph d="M635 1034q-61 0 -97 41t-36 104q0 85 53.5 142.5t135.5 57.5q65 0 101.5 -37.5t36.5 -100.5q0 -82 -55 -144.5t-139 -62.5zM773 964q150 0 229.5 -89.5t43.5 -290.5l-102 -584h-309l95 527q14 77 -2 119t-79 42q-89 0 -217 -109l-103 -579h-305l164 939h235l28 -118 q156 143 322 143zM304 650l1 -1z" glyph-name="uni1E45" horiz-adv-x="1128" unicode="ṅ"/><glyph d="M1178 1319h305l-230 -1319h-311q14 85 2 159.5t-55.5 144.5t-84.5 119.5t-115 124.5q-113 113 -163 171l-125 -719h-305l230 1319h311q-27 -152 41 -278t218 -275q109 -106 157 -160zM681 -99q65 0 101.5 -37.5t36.5 -100.5q0 -82 -55.5 -144.5t-138.5 -62.5 q-60 0 -96.5 41t-36.5 104q0 85 53.5 142.5t135.5 57.5z" glyph-name="uni1E46" horiz-adv-x="1510" unicode="Ṇ"/><glyph d="M773 964q150 0 229.5 -89.5t43.5 -290.5l-102 -584h-309l95 527q14 77 -2 119t-79 42q-89 0 -217 -109l-103 -579h-305l164 939h235l28 -118q156 143 322 143zM304 650l1 -1zM486 -99q65 0 102 -37.5t37 -100.5q0 -82 -55.5 -144.5t-139.5 -62.5q-60 0 -96.5 41 t-36.5 104q0 85 53.5 142.5t135.5 57.5z" glyph-name="uni1E47" horiz-adv-x="1128" unicode="ṇ"/><glyph d="M1178 1319h305l-230 -1319h-311q14 85 2 159.5t-55.5 144.5t-84.5 119.5t-115 124.5q-113 113 -163 171l-125 -719h-305l230 1319h311q-27 -152 41 -278t218 -275q109 -106 157 -160zM628 -171h85l217 -225l-95 -102l-198 111l-239 -111l-60 102z" glyph-name="uni1E4A" horiz-adv-x="1510" unicode="Ṋ"/><glyph d="M773 964q150 0 229.5 -89.5t43.5 -290.5l-102 -584h-309l95 527q14 77 -2 119t-79 42q-89 0 -217 -109l-103 -579h-305l164 939h235l28 -118q156 143 322 143zM304 650l1 -1zM433 -171h86l217 -225l-96 -102l-198 111l-239 -111l-60 102z" glyph-name="uni1E4B" horiz-adv-x="1128" unicode="ṋ"/><glyph d="M925 1826l-24 103l428 225l40 -217zM748 1437h-169q20 121 106 195.5t177 74.5q63 0 122.5 -51.5t99.5 -51.5q55 0 71 96h171q-26 -138 -102.5 -205t-168.5 -67q-43 0 -77 17.5t-52 38t-41 37.5t-47 17q-75 0 -90 -101zM903 1350q249 0 394 -153.5t145 -408.5 q0 -346 -221 -582.5t-557 -236.5q-246 0 -392 158t-146 412q0 343 222 577t555 234zM858 1077q-196 0 -311 -147t-115 -358q0 -147 70.5 -236.5t210.5 -89.5q196 0 310 146t114 361q0 148 -72 236t-207 88z" glyph-name="uni1E4C" horiz-adv-x="1503" unicode="Ṍ"/><glyph d="M650 1446l-24 102l429 225l39 -217zM473 1056h-169q20 121 106.5 195.5t176.5 74.5q51 0 88.5 -25.5t68.5 -51t65 -25.5q55 0 72 95h170q-26 -138 -102.5 -204.5t-168.5 -66.5q-43 0 -77 17t-52 37.5t-41 37.5t-47 17q-75 0 -90 -101zM659 966q195 0 313.5 -113.5 t118.5 -302.5q0 -101 -38 -201t-109.5 -185t-191 -138t-266.5 -53q-198 0 -315.5 110t-117.5 298q0 261 175 423t431 162zM613 708q-108 0 -178 -89.5t-70 -191.5q0 -80 41 -138.5t123 -58.5q106 0 179.5 87t73.5 190q0 82 -43.5 141.5t-125.5 59.5z" glyph-name="uni1E4D" horiz-adv-x="1145" unicode="ṍ"/><glyph d="M1073 1826l-399 111l118 217l343 -225zM640 1478l29 172h597l-29 -172h-597zM903 1350q249 0 394 -153.5t145 -408.5q0 -346 -221 -582.5t-557 -236.5q-246 0 -392 158t-146 412q0 343 222 577t555 234zM858 1077q-196 0 -311 -147t-115 -358q0 -147 70.5 -236.5 t210.5 -89.5q196 0 310 146t114 361q0 148 -72 236t-207 88z" glyph-name="uni1E50" horiz-adv-x="1503" unicode="Ṑ"/><glyph d="M799 1446l-400 110l118 217l343 -225zM365 1097l29 173h598l-29 -173h-598zM659 966q195 0 313.5 -113.5t118.5 -302.5q0 -101 -38 -201t-109.5 -185t-191 -138t-266.5 -53q-198 0 -315.5 110t-117.5 298q0 261 175 423t431 162zM613 708q-108 0 -178 -89.5t-70 -191.5 q0 -80 41 -138.5t123 -58.5q106 0 179.5 87t73.5 190q0 82 -43.5 141.5t-125.5 59.5z" glyph-name="uni1E51" horiz-adv-x="1145" unicode="ṑ"/><glyph d="M894 1826l-24 103l429 225l39 -217zM640 1478l29 172h597l-29 -172h-597zM903 1350q249 0 394 -153.5t145 -408.5q0 -346 -221 -582.5t-557 -236.5q-246 0 -392 158t-146 412q0 343 222 577t555 234zM858 1077q-196 0 -311 -147t-115 -358q0 -147 70.5 -236.5 t210.5 -89.5q196 0 310 146t114 361q0 148 -72 236t-207 88z" glyph-name="uni1E52" horiz-adv-x="1503" unicode="Ṓ"/><glyph d="M620 1446l-24 102l428 225l39 -217zM365 1097l29 173h598l-29 -173h-598zM659 966q195 0 313.5 -113.5t118.5 -302.5q0 -101 -38 -201t-109.5 -185t-191 -138t-266.5 -53q-198 0 -315.5 110t-117.5 298q0 261 175 423t431 162zM613 708q-108 0 -178 -89.5t-70 -191.5 q0 -80 41 -138.5t123 -58.5q106 0 179.5 87t73.5 190q0 82 -43.5 141.5t-125.5 59.5z" glyph-name="uni1E53" horiz-adv-x="1145" unicode="ṓ"/><glyph d="M31 227l256 189q133 -176 356 -175q108 0 162.5 41t54.5 102q0 58 -65 101.5t-157 77t-183 76t-156 124.5t-65 198q0 162 160.5 277t397.5 115q317 0 481 -184l-220 -184q-106 114 -295 114q-89 0 -146 -37.5t-57 -92.5q0 -38 34 -70t89.5 -57t122 -51t133 -60.5t122 -78 t89.5 -111t34 -150.5q0 -183 -152.5 -300t-425.5 -117q-140 0 -308 65t-262 188zM548 -99q65 0 101.5 -37.5t36.5 -100.5q0 -82 -55.5 -144.5t-138.5 -62.5q-60 0 -97 41t-37 104q0 85 54 142.5t136 57.5z" glyph-name="uni1E62" horiz-adv-x="1286" unicode="Ṣ"/><glyph d="M17 181l205 169q128 -118 247 -118q96 0 96 53q0 24 -42 46t-101.5 46t-118.5 58t-101 96.5t-42 144.5q0 108 112 199t298 91q241 0 372 -131l-210 -185q-87 75 -188 75q-73 0 -73 -42q0 -22 42 -46t100.5 -51.5t117.5 -63.5t101 -98t42 -142q0 -128 -105 -214.5 t-301 -86.5q-135 0 -258 52t-193 148zM389 -99q65 0 101.5 -37.5t36.5 -100.5q0 -82 -55.5 -144.5t-138.5 -62.5q-60 0 -96.5 41t-36.5 104q0 85 53.5 142.5t135.5 57.5z" glyph-name="uni1E63" horiz-adv-x="969" unicode="ṣ"/><glyph d="M1287 1319l-45 -273h-389l-184 -1046h-295l182 1046h-385l44 273h1072zM503 -99q65 0 102 -37.5t37 -100.5q0 -82 -55.5 -144.5t-139.5 -62.5q-60 0 -96.5 41t-36.5 104q0 85 53.5 142.5t135.5 57.5z" glyph-name="uni1E6C" horiz-adv-x="1211" unicode="Ṭ"/><glyph d="M451 422q-7 -39 -7 -72t3.5 -55t15 -38t21 -25.5t31 -14t33.5 -6t38.5 2t37.5 6t39 8.5t35 8l-61 -236q-87 -24 -164 -27.5t-147 19.5t-112.5 78.5t-60.5 148.5t9 230l45 259h-135l42 231h133l52 293h293l-51 -293h213l-66 -231h-188zM372 -99q65 0 101.5 -37.5 t36.5 -100.5q0 -82 -55.5 -144.5t-138.5 -62.5q-60 0 -96.5 41t-36.5 104q0 85 53.5 142.5t135.5 57.5z" glyph-name="uni1E6D" horiz-adv-x="762" unicode="ṭ"/><glyph d="M1287 1319l-45 -273h-389l-184 -1046h-295l182 1046h-385l44 273h1072zM186 -343l31 172h597l-31 -172h-597z" glyph-name="uni1E6E" horiz-adv-x="1211" unicode="Ṯ"/><glyph d="M451 422q-7 -39 -7 -72t3.5 -55t15 -38t21 -25.5t31 -14t33.5 -6t38.5 2t37.5 6t39 8.5t35 8l-61 -236q-87 -24 -164 -27.5t-147 19.5t-112.5 78.5t-60.5 148.5t9 230l45 259h-135l42 231h133l52 293h293l-51 -293h213l-66 -231h-188zM55 -343l30 172h598l-31 -172h-597z " glyph-name="uni1E6F" horiz-adv-x="762" unicode="ṯ"/><glyph d="M1287 1319l-45 -273h-389l-184 -1046h-295l182 1046h-385l44 273h1072zM451 -171h85l217 -225l-96 -102l-198 111l-239 -111l-60 102z" glyph-name="uni1E70" horiz-adv-x="1211" unicode="Ṱ"/><glyph d="M451 422q-7 -39 -7 -72t3.5 -55t15 -38t21 -25.5t31 -14t33.5 -6t38.5 2t37.5 6t39 8.5t35 8l-61 -236q-87 -24 -164 -27.5t-147 19.5t-112.5 78.5t-60.5 148.5t9 230l45 259h-135l42 231h133l52 293h293l-51 -293h213l-66 -231h-188zM319 -171h85l217 -225l-95 -102 l-198 111l-239 -111l-60 102z" glyph-name="uni1E71" horiz-adv-x="762" unicode="ṱ"/><glyph d="M1181 1548l-61 -102l-400 110l118 217zM1555 1319h343l-541 -1319h-292l-84 833l-408 -833h-288l-41 1319h323l-16 -817l424 817h197l108 -798z" glyph-name="Wgrave" horiz-adv-x="1843" unicode="Ẁ"/><glyph d="M1084 1167l-62 -102l-399 111l118 217zM1341 939h304l-70 -434q-49 -302 -166 -416.5t-353 -114.5q-113 0 -209 43.5t-146 124.5q-140 -167 -337 -168q-68 0 -123 19t-101 63.5t-60.5 117t0.5 181.5l103 584h303l-97 -533q-14 -73 12.5 -116.5t93.5 -43.5q51 0 99.5 38.5 t76.5 97.5l99 557h305l-92 -523q-12 -75 13.5 -125t87.5 -50q145 0 186 245z" glyph-name="wgrave" horiz-adv-x="1672" unicode="ẁ"/><glyph d="M1384 1556l-444 -110l-24 102l429 225zM1555 1319h343l-541 -1319h-292l-84 833l-408 -833h-288l-41 1319h323l-16 -817l424 817h197l108 -798z" glyph-name="Wacute" horiz-adv-x="1843" unicode="Ẃ"/><glyph d="M1287 1176l-444 -111l-24 102l429 226zM1341 939h304l-70 -434q-49 -302 -166 -416.5t-353 -114.5q-113 0 -209 43.5t-146 124.5q-140 -167 -337 -168q-68 0 -123 19t-101 63.5t-60.5 117t0.5 181.5l103 584h303l-97 -533q-14 -73 12.5 -116.5t93.5 -43.5q51 0 99.5 38.5 t76.5 97.5l99 557h305l-92 -523q-12 -75 13.5 -125t87.5 -50q145 0 186 245z" glyph-name="wacute" horiz-adv-x="1672" unicode="ẃ"/><glyph d="M876 1457q-43 0 -69.5 28.5t-26.5 74.5q0 61 38.5 100.5t101.5 39.5q43 0 69 -27.5t26 -73.5q0 -55 -40.5 -98.5t-98.5 -43.5zM1213 1457q-44 0 -69.5 28.5t-25.5 74.5q0 61 38.5 100.5t99.5 39.5q44 0 70 -27.5t26 -73.5q0 -56 -40.5 -99t-98.5 -43zM1555 1319h343 l-541 -1319h-292l-84 833l-408 -833h-288l-41 1319h323l-16 -817l424 817h197l108 -798z" glyph-name="Wdieresis" horiz-adv-x="1843" unicode="Ẅ"/><glyph d="M778 1077q-43 0 -69 28t-26 74q0 61 38 100.5t102 39.5q43 0 69 -27t26 -73q0 -55 -41 -98.5t-99 -43.5zM1116 1077q-44 0 -69.5 28t-25.5 74q0 61 38 100.5t100 39.5q44 0 69.5 -27t25.5 -73q0 -56 -40 -99t-98 -43zM1341 939h304l-70 -434q-49 -302 -166 -416.5 t-353 -114.5q-113 0 -209 43.5t-146 124.5q-140 -167 -337 -168q-68 0 -123 19t-101 63.5t-60.5 117t0.5 181.5l103 584h303l-97 -533q-14 -73 12.5 -116.5t93.5 -43.5q51 0 99.5 38.5t76.5 97.5l99 557h305l-92 -523q-12 -75 13.5 -125t87.5 -50q145 0 186 245z" glyph-name="wdieresis" horiz-adv-x="1672" unicode="ẅ"/><glyph d="M1386 1318l-33 -173l-860 -882l714 17l-52 -280h-1121l31 169l862 886l-714 -17l52 280h1121zM585 -99q65 0 102 -37.5t37 -100.5q0 -82 -55.5 -144.5t-139.5 -62.5q-60 0 -96.5 41t-36.5 104q0 85 53.5 142.5t135.5 57.5z" glyph-name="uni1E92" horiz-adv-x="1344" unicode="Ẓ"/><glyph d="M464 280q49 0 110 -16.5t102 -26.5t108.5 3t149.5 62l-50 -276q-90 -53 -169.5 -56.5t-140 22t-123 51t-144.5 19.5t-177 -62l-127 222l569 462l-439 -24l50 279h788l-49 -279zM442 -99q65 0 101.5 -37.5t36.5 -100.5q0 -82 -55.5 -144.5t-138.5 -62.5q-60 0 -96.5 41 t-36.5 104q0 85 53.5 142.5t135.5 57.5z" glyph-name="uni1E93" horiz-adv-x="1024" unicode="ẓ"/><glyph d="M1215 1048l4 -2l-301 -275q266 -43 266 -295q0 -60 -11.5 -118.5t-46 -125t-87.5 -117t-142.5 -83t-205.5 -32.5h-174l43 247h153q82 0 119.5 51.5t37.5 117.5q0 56 -36.5 86t-101.5 30q-41 0 -78 -3l-2 -2l-9 222l248 301l-178 1q-68 2 -113 -40t-59 -113l-157 -898 h-305l155 896q38 207 165 315t333 108h531z" glyph-name="uni1E9E" horiz-adv-x="1285" unicode="ẞ"/><glyph d="M1329 0h-319l-49 270h-529l-144 -270h-317l730 1319h355zM580 550h330l-86 457zM642 -99q65 0 101.5 -37.5t36.5 -100.5q0 -82 -55.5 -144.5t-139.5 -62.5q-60 0 -96.5 41t-36.5 104q0 85 54 142.5t136 57.5z" glyph-name="uni1EA0" horiz-adv-x="1467" unicode="Ạ"/><glyph d="M1155 246l6 -220q-358 -121 -412 100q-121 -154 -336 -153q-169 0 -265.5 107.5t-96.5 286.5q0 256 147.5 427.5t356 171.5t285.5 -160l24 133h288l-102 -601q-12 -63 13 -82.5t92 -9.5zM531 236q85 0 150 48.5t90 131.5l14 76v25q0 85 -45 135.5t-129 50.5 q-114 0 -185 -79.5t-71 -200.5q0 -87 46 -137t130 -50zM440 -99q65 0 102 -37.5t37 -100.5q0 -82 -55.5 -144.5t-139.5 -62.5q-60 0 -96.5 41t-36.5 104q0 85 53.5 142.5t135.5 57.5z" glyph-name="uni1EA1" horiz-adv-x="1278" unicode="ạ"/><glyph d="M937 1671q-36 0 -84 -34l-32 88q85 75 172 79q92 3 131.5 -42t18.5 -122q-36 -99 -192 -208h-118q17 17 40 41.5t34 36t25.5 27.5t21.5 25.5t14 21.5t8.5 22t1.5 22q0 43 -41 43zM1010 0l-49 270h-529l-144 -270h-317l730 1319h355l273 -1319h-319zM580 550h330l-86 457z " glyph-name="uni1EA2" horiz-adv-x="1467" unicode="Ả"/><glyph d="M643 1290q-36 0 -83 -34l-33 89q85 75 173 78q92 3 131 -42t19 -121q-36 -99 -193 -209h-118q17 17 40 42t34.5 36t26 27t21 25.5t13.5 21.5t8.5 22.5t1.5 22.5q0 42 -41 42zM1155 246l6 -220q-358 -121 -412 100q-121 -154 -336 -153q-169 0 -265.5 107.5t-96.5 286.5 q0 256 147.5 427.5t356 171.5t285.5 -160l24 133h288l-102 -601q-12 -63 13 -82.5t92 -9.5zM531 236q85 0 150 48.5t90 131.5l14 76v25q0 85 -45 135.5t-129 50.5q-114 0 -185 -79.5t-71 -200.5q0 -87 46 -137t130 -50z" glyph-name="uni1EA3" horiz-adv-x="1278" unicode="ả"/><glyph d="M1321 1937l-444 -111l-24 103l429 225zM930 1550l-239 -111l-60 102l291 225h85l217 -225l-96 -102zM1010 0l-49 270h-529l-144 -270h-317l730 1319h355l273 -1319h-319zM580 550h330l-86 457z" glyph-name="uni1EA4" horiz-adv-x="1467" unicode="Ấ"/><glyph d="M1027 1556l-443 -110l-24 102l428 225zM637 1169l-239 -111l-60 103l290 225h85l217 -225l-95 -103zM1155 246l6 -220q-358 -121 -412 100q-121 -154 -336 -153q-169 0 -265.5 107.5t-96.5 286.5q0 256 147.5 427.5t356 171.5t285.5 -160l24 133h288l-102 -601 q-12 -63 13 -82.5t92 -9.5zM531 236q85 0 150 48.5t90 131.5l14 76v25q0 85 -45 135.5t-129 50.5q-114 0 -185 -79.5t-71 -200.5q0 -87 46 -137t130 -50z" glyph-name="uni1EA5" horiz-adv-x="1278" unicode="ấ"/><glyph d="M1118 1929l-62 -103l-399 111l118 217zM930 1550l-239 -111l-60 102l291 225h85l217 -225l-96 -102zM1010 0l-49 270h-529l-144 -270h-317l730 1319h355l273 -1319h-319zM580 550h330l-86 457z" glyph-name="uni1EA6" horiz-adv-x="1467" unicode="Ầ"/><glyph d="M824 1548l-61 -102l-399 110l117 217zM637 1169l-239 -111l-60 103l290 225h85l217 -225l-95 -103zM1155 246l6 -220q-358 -121 -412 100q-121 -154 -336 -153q-169 0 -265.5 107.5t-96.5 286.5q0 256 147.5 427.5t356 171.5t285.5 -160l24 133h288l-102 -601 q-12 -63 13 -82.5t92 -9.5zM531 236q85 0 150 48.5t90 131.5l14 76v25q0 85 -45 135.5t-129 50.5q-114 0 -185 -79.5t-71 -200.5q0 -87 46 -137t130 -50z" glyph-name="uni1EA7" horiz-adv-x="1278" unicode="ầ"/><glyph d="M1007 2051q-36 0 -84 -34l-32 89q85 75 172 79q92 3 131.5 -42.5t18.5 -121.5q-36 -99 -192 -209h-118q17 17 40 42t34 36t25.5 27.5t21.5 25.5t13.5 21t8.5 22.5t2 22.5q0 42 -41 42zM930 1550l-239 -111l-60 102l291 225h85l217 -225l-96 -102zM1010 0l-49 270h-529 l-144 -270h-317l730 1319h355l273 -1319h-319zM580 550h330l-86 457z" glyph-name="uni1EA8" horiz-adv-x="1467" unicode="Ẩ"/><glyph d="M713 1671q-36 0 -83 -34l-33 88q85 75 173 79q92 3 131 -42t19 -122q-36 -99 -193 -208h-118q17 17 40 41.5t34.5 36t26 27.5t21 25.5t13.5 21.5t8.5 22t1.5 22q0 43 -41 43zM637 1169l-239 -111l-60 103l290 225h85l217 -225l-95 -103zM1155 246l6 -220 q-358 -121 -412 100q-121 -154 -336 -153q-169 0 -265.5 107.5t-96.5 286.5q0 256 147.5 427.5t356 171.5t285.5 -160l24 133h288l-102 -601q-12 -63 13 -82.5t92 -9.5zM531 236q85 0 150 48.5t90 131.5l14 76v25q0 85 -45 135.5t-129 50.5q-114 0 -185 -79.5t-71 -200.5 q0 -87 46 -137t130 -50z" glyph-name="uni1EA9" horiz-adv-x="1278" unicode="ẩ"/><glyph d="M891 1918q-75 0 -91 -100h-169q20 121 106.5 195t177.5 74q51 0 88.5 -25.5t68.5 -51t65 -25.5q55 0 71 95h171q-26 -138 -102.5 -204.5t-168.5 -66.5q-43 0 -77 17t-52 37.5t-41 37.5t-47 17zM930 1550l-239 -111l-60 102l291 225h85l217 -225l-96 -102zM701 1319h355 l273 -1319h-319l-49 270h-529l-144 -270h-317zM580 550h330l-86 457z" glyph-name="uni1EAA" horiz-adv-x="1467" unicode="Ẫ"/><glyph d="M597 1538q-75 0 -90 -101h-169q20 121 106.5 195.5t176.5 74.5q51 0 89 -26t68.5 -51.5t64.5 -25.5q55 0 72 96h170q-26 -138 -102.5 -205t-168.5 -67q-43 0 -77 17.5t-52 38t-41 37.5t-47 17zM637 1169l-239 -111l-60 103l290 225h85l217 -225l-95 -103zM1155 246 l6 -220q-358 -121 -412 100q-121 -154 -336 -153q-169 0 -265.5 107.5t-96.5 286.5q0 256 147.5 427.5t356 171.5t285.5 -160l24 133h288l-102 -601q-12 -63 13 -82.5t92 -9.5zM531 236q85 0 150 48.5t90 131.5l14 76v25q0 85 -45 135.5t-129 50.5q-114 0 -185 -79.5 t-71 -200.5q0 -87 46 -137t130 -50z" glyph-name="uni1EAB" horiz-adv-x="1278" unicode="ẫ"/><glyph d="M930 1550l-239 -111l-60 102l291 225h85l217 -225l-96 -102zM1329 0h-319l-49 270h-529l-144 -270h-317l730 1319h355zM580 550h330l-86 457zM642 -99q65 0 101.5 -37.5t36.5 -100.5q0 -82 -55.5 -144.5t-139.5 -62.5q-60 0 -96.5 41t-36.5 104q0 85 54 142.5t136 57.5z " glyph-name="uni1EAC" horiz-adv-x="1467" unicode="Ậ"/><glyph d="M637 1169l-239 -111l-60 103l290 225h85l217 -225l-95 -103zM1155 246l6 -220q-358 -121 -412 100q-121 -154 -336 -153q-169 0 -265.5 107.5t-96.5 286.5q0 256 147.5 427.5t356 171.5t285.5 -160l24 133h288l-102 -601q-12 -63 13 -82.5t92 -9.5zM531 236 q85 0 150 48.5t90 131.5l14 76v25q0 85 -45 135.5t-129 50.5q-114 0 -185 -79.5t-71 -200.5q0 -87 46 -137t130 -50zM440 -99q65 0 102 -37.5t37 -100.5q0 -82 -55.5 -144.5t-139.5 -62.5q-60 0 -96.5 41t-36.5 104q0 85 53.5 142.5t135.5 57.5z" glyph-name="uni1EAD" horiz-adv-x="1278" unicode="ậ"/><glyph d="M1318 1937l-444 -111l-24 103l428 225zM905 1451q-256 0 -219 249h178q2 -10 0 -31.5t16.5 -43t56.5 -21.5q24 0 42.5 8.5t29 22.5t16.5 26t10 24.5t4 14.5h178q-24 -109 -99 -179t-213 -70zM1010 0l-49 270h-529l-144 -270h-317l730 1319h355l273 -1319h-319zM580 550 h330l-86 457z" glyph-name="uni1EAE" horiz-adv-x="1467" unicode="Ắ"/><glyph d="M1024 1556l-444 -110l-24 102l429 225zM611 1070q-256 0 -218 249h177q2 -10 0 -31.5t17 -42.5t56 -21q24 0 43 8.5t29 22t16 25.5t10.5 25t4.5 14h177q-24 -109 -99 -179t-213 -70zM1155 246l6 -220q-358 -121 -412 100q-121 -154 -336 -153q-169 0 -265.5 107.5 t-96.5 286.5q0 256 147.5 427.5t356 171.5t285.5 -160l24 133h288l-102 -601q-12 -63 13 -82.5t92 -9.5zM531 236q85 0 150 48.5t90 131.5l14 76v25q0 85 -45 135.5t-129 50.5q-114 0 -185 -79.5t-71 -200.5q0 -87 46 -137t130 -50z" glyph-name="uni1EAF" horiz-adv-x="1278" unicode="ắ"/><glyph d="M1114 1929l-61 -103l-399 111l117 217zM686 1700h178q2 -10 0 -31.5t16.5 -43t56.5 -21.5q24 0 42.5 8.5t29 22.5t16.5 26t10 24.5t4 14.5h178q-24 -109 -99 -179t-213 -70q-257 0 -219 249zM1010 0l-49 270h-529l-144 -270h-317l730 1319h355l273 -1319h-319zM580 550 h330l-86 457z" glyph-name="uni1EB0" horiz-adv-x="1467" unicode="Ằ"/><glyph d="M821 1548l-62 -102l-399 110l118 217zM393 1319h177q2 -10 0 -31.5t17 -42.5t56 -21q24 0 43 8.5t29 22t16 25.5t10.5 25t4.5 14h177q-24 -109 -99 -179t-213 -70q-256 0 -218 249zM1155 246l6 -220q-358 -121 -412 100q-121 -154 -336 -153q-169 0 -265.5 107.5 t-96.5 286.5q0 256 147.5 427.5t356 171.5t285.5 -160l24 133h288l-102 -601q-12 -63 13 -82.5t92 -9.5zM531 236q85 0 150 48.5t90 131.5l14 76v25q0 85 -45 135.5t-129 50.5q-114 0 -185 -79.5t-71 -200.5q0 -87 46 -137t130 -50z" glyph-name="uni1EB1" horiz-adv-x="1278" unicode="ằ"/><glyph d="M1004 2051q-36 0 -84 -34l-33 89q85 75 173 79q92 3 131.5 -42.5t18.5 -121.5q-36 -99 -193 -209h-118q17 17 40.5 42t34.5 36t25.5 27.5t21 25.5t13.5 21t8.5 22.5t1.5 22.5q1 42 -40 42zM905 1451q-256 0 -219 249h178q2 -10 0 -31.5t16.5 -43t56.5 -21.5 q24 0 42.5 8.5t29 22.5t16.5 26t10 24.5t4 14.5h178q-24 -109 -99 -179t-213 -70zM1010 0l-49 270h-529l-144 -270h-317l730 1319h355l273 -1319h-319zM580 550h330l-86 457z" glyph-name="uni1EB2" horiz-adv-x="1467" unicode="Ẳ"/><glyph d="M710 1671q-36 0 -84 -34l-32 88q85 75 172 79q92 3 131.5 -42t18.5 -122q-36 -99 -192 -208h-118q17 17 40 41.5t34 36t25.5 27.5t21.5 25.5t14 21.5t8.5 22t1.5 22q0 43 -41 43zM611 1070q-256 0 -218 249h177q2 -10 0 -31.5t17 -42.5t56 -21q24 0 43 8.5t29 22t16 25.5 t10.5 25t4.5 14h177q-24 -109 -99 -179t-213 -70zM1155 246l6 -220q-358 -121 -412 100q-121 -154 -336 -153q-169 0 -265.5 107.5t-96.5 286.5q0 256 147.5 427.5t356 171.5t285.5 -160l24 133h288l-102 -601q-12 -63 13 -82.5t92 -9.5zM531 236q85 0 150 48.5t90 131.5 l14 76v25q0 85 -45 135.5t-129 50.5q-114 0 -185 -79.5t-71 -200.5q0 -87 46 -137t130 -50z" glyph-name="uni1EB3" horiz-adv-x="1278" unicode="ẳ"/><glyph d="M887 1918q-75 0 -90 -100h-169q20 121 106.5 195t176.5 74q51 0 89 -25.5t68.5 -51t64.5 -25.5q55 0 72 95h171q-26 -138 -103 -204.5t-169 -66.5q-43 0 -77 17t-52 37.5t-41 37.5t-47 17zM686 1700h178q2 -10 0 -31.5t16.5 -43t56.5 -21.5q24 0 42.5 8.5t29 22.5 t16.5 26t10 24.5t4 14.5h178q-24 -109 -99 -179t-213 -70q-257 0 -219 249zM701 1319h355l273 -1319h-319l-49 270h-529l-144 -270h-317zM580 550h330l-86 457z" glyph-name="uni1EB4" horiz-adv-x="1467" unicode="Ẵ"/><glyph d="M594 1538q-75 0 -91 -101h-168q20 121 106 195.5t177 74.5q51 0 88.5 -26t68.5 -51.5t65 -25.5q55 0 71 96h171q-26 -138 -102.5 -205t-168.5 -67q-43 0 -77 17.5t-52 38t-41 37.5t-47 17zM393 1319h177q2 -10 0 -31.5t17 -42.5t56 -21q24 0 43 8.5t29 22t16 25.5 t10.5 25t4.5 14h177q-24 -109 -99 -179t-213 -70q-256 0 -218 249zM1155 246l6 -220q-358 -121 -412 100q-121 -154 -336 -153q-169 0 -265.5 107.5t-96.5 286.5q0 256 147.5 427.5t356 171.5t285.5 -160l24 133h288l-102 -601q-12 -63 13 -82.5t92 -9.5zM531 236 q85 0 150 48.5t90 131.5l14 76v25q0 85 -45 135.5t-129 50.5q-114 0 -185 -79.5t-71 -200.5q0 -87 46 -137t130 -50z" glyph-name="uni1EB5" horiz-adv-x="1278" unicode="ẵ"/><glyph d="M905 1451q-256 0 -219 249h178q2 -10 0 -31.5t16.5 -43t56.5 -21.5q24 0 42.5 8.5t29 22.5t16.5 26t10 24.5t4 14.5h178q-24 -109 -99 -179t-213 -70zM1329 0h-319l-49 270h-529l-144 -270h-317l730 1319h355zM580 550h330l-86 457zM642 -99q65 0 101.5 -37.5 t36.5 -100.5q0 -82 -55.5 -144.5t-139.5 -62.5q-60 0 -96.5 41t-36.5 104q0 85 54 142.5t136 57.5z" glyph-name="uni1EB6" horiz-adv-x="1467" unicode="Ặ"/><glyph d="M611 1070q-256 0 -218 249h177q2 -10 0 -31.5t17 -42.5t56 -21q24 0 43 8.5t29 22t16 25.5t10.5 25t4.5 14h177q-24 -109 -99 -179t-213 -70zM1155 246l6 -220q-358 -121 -412 100q-121 -154 -336 -153q-169 0 -265.5 107.5t-96.5 286.5q0 256 147.5 427.5t356 171.5 t285.5 -160l24 133h288l-102 -601q-12 -63 13 -82.5t92 -9.5zM531 236q85 0 150 48.5t90 131.5l14 76v25q0 85 -45 135.5t-129 50.5q-114 0 -185 -79.5t-71 -200.5q0 -87 46 -137t130 -50zM440 -99q65 0 102 -37.5t37 -100.5q0 -82 -55.5 -144.5t-139.5 -62.5 q-60 0 -96.5 41t-36.5 104q0 85 53.5 142.5t135.5 57.5z" glyph-name="uni1EB7" horiz-adv-x="1278" unicode="ặ"/><glyph d="M1140 1053h-587l-44 -254h454l-45 -268h-457l-46 -265h583l-44 -266h-875l230 1319h875zM476 -99q65 0 101.5 -37.5t36.5 -100.5q0 -82 -55.5 -144.5t-138.5 -62.5q-60 0 -96.5 41t-36.5 104q0 85 53.5 142.5t135.5 57.5z" glyph-name="uni1EB8" horiz-adv-x="1160" unicode="Ẹ"/><glyph d="M531 184q58 0 146.5 31t143.5 61l87 -201q-193 -102 -411 -102q-224 0 -336.5 109t-112.5 297q0 237 178 412t429 175q147 0 248 -65t101 -188q0 -113 -56.5 -194.5t-155.5 -127t-205.5 -67.5t-234.5 -29q29 -111 179 -111zM652 754q-99 0 -183.5 -70.5t-115.5 -186.5 q73 3 140 15t129 31.5t99 52t37 75.5q0 83 -106 83zM432 -99q65 0 101.5 -37.5t36.5 -100.5q0 -82 -55.5 -144.5t-139.5 -62.5q-60 0 -96.5 41t-36.5 104q0 85 54 142.5t136 57.5z" glyph-name="uni1EB9" horiz-adv-x="1035" unicode="ẹ"/><glyph d="M802 1671q-36 0 -83 -34l-33 88q85 75 172 79q92 3 131.5 -42t19.5 -122q-36 -99 -193 -208h-118q17 17 40 41.5t34 36t25.5 27.5t21.5 25.5t14 21.5t8.5 22t1.5 22q0 43 -41 43zM1140 1053h-587l-44 -254h454l-45 -268h-457l-46 -265h583l-44 -266h-875l230 1319h875z " glyph-name="uni1EBA" horiz-adv-x="1160" unicode="Ẻ"/><glyph d="M710 1290q-36 0 -84 -34l-32 89q85 75 172 78q92 3 131.5 -42t18.5 -121q-36 -99 -192 -209h-118q17 17 40 42t34 36t25.5 27t21.5 25.5t14 21.5t8.5 22.5t1.5 22.5q0 42 -41 42zM531 184q58 0 146.5 31t143.5 61l87 -201q-193 -102 -411 -102q-224 0 -336.5 109 t-112.5 297q0 237 178 412t429 175q147 0 248 -65t101 -188q0 -113 -56.5 -194.5t-155.5 -127t-205.5 -67.5t-234.5 -29q29 -111 179 -111zM652 754q-99 0 -183.5 -70.5t-115.5 -186.5q73 3 140 15t129 31.5t99 52t37 75.5q0 83 -106 83z" glyph-name="uni1EBB" horiz-adv-x="1035" unicode="ẻ"/><glyph d="M659 1538q-75 0 -91 -101h-169q20 121 106.5 195.5t177.5 74.5q51 0 88.5 -26t68 -51.5t65.5 -25.5q55 0 71 96h171q-26 -138 -102.5 -205t-168.5 -67q-43 0 -77 17.5t-52 38t-41 37.5t-47 17zM1140 1053h-587l-44 -254h454l-45 -268h-457l-46 -265h583l-44 -266h-875 l230 1319h875z" glyph-name="uni1EBC" horiz-adv-x="1160" unicode="Ẽ"/><glyph d="M594 1157q-75 0 -91 -101h-168q20 121 106 195.5t177 74.5q51 0 88.5 -25.5t68.5 -51t65 -25.5q55 0 71 95h171q-26 -138 -102.5 -204.5t-168.5 -66.5q-43 0 -77 17t-52 37.5t-41 37.5t-47 17zM1004 713q0 -113 -56.5 -194.5t-155.5 -127t-205.5 -67.5t-234.5 -29 q29 -111 179 -111q58 0 146.5 31t143.5 61l87 -201q-193 -102 -411 -102q-224 0 -336.5 109t-112.5 297q0 237 178 412t429 175q147 0 248 -65t101 -188zM353 497q73 3 140 15t129 31.5t99 52t37 75.5q0 84 -106 83q-99 0 -183.5 -70.5t-115.5 -186.5z" glyph-name="uni1EBD" horiz-adv-x="1035" unicode="ẽ"/><glyph d="M1186 1937l-444 -111l-23 103l428 225zM795 1550l-239 -111l-59 102l290 225h85l217 -225l-96 -102zM79 0l230 1319h875l-44 -266h-587l-44 -254h454l-45 -268h-457l-46 -265h583l-44 -266h-875z" glyph-name="uni1EBE" horiz-adv-x="1160" unicode="Ế"/><glyph d="M1094 1556l-444 -110l-24 102l429 225zM703 1169l-239 -111l-60 103l291 225h85l217 -225l-96 -103zM1004 713q0 -113 -56.5 -194.5t-155.5 -127t-205.5 -67.5t-234.5 -29q29 -111 179 -111q58 0 146.5 31t143.5 61l87 -201q-193 -102 -411 -102q-224 0 -336.5 109 t-112.5 297q0 237 178 412t429 175q147 0 248 -65t101 -188zM353 497q73 3 140 15t129 31.5t99 52t37 75.5q0 84 -106 83q-99 0 -183.5 -70.5t-115.5 -186.5z" glyph-name="uni1EBF" horiz-adv-x="1035" unicode="ế"/><glyph d="M983 1929l-61 -103l-400 111l118 217zM795 1550l-239 -111l-59 102l290 225h85l217 -225l-96 -102zM1140 1053h-587l-44 -254h454l-45 -268h-457l-46 -265h583l-44 -266h-875l230 1319h875z" glyph-name="uni1EC0" horiz-adv-x="1160" unicode="Ề"/><glyph d="M891 1548l-62 -102l-399 110l118 217zM703 1169l-239 -111l-60 103l291 225h85l217 -225l-96 -103zM531 184q58 0 146.5 31t143.5 61l87 -201q-193 -102 -411 -102q-224 0 -336.5 109t-112.5 297q0 237 178 412t429 175q147 0 248 -65t101 -188q0 -113 -56.5 -194.5 t-155.5 -127t-205.5 -67.5t-234.5 -29q29 -111 179 -111zM652 754q-99 0 -183.5 -70.5t-115.5 -186.5q73 3 140 15t129 31.5t99 52t37 75.5q0 83 -106 83z" glyph-name="uni1EC1" horiz-adv-x="1035" unicode="ề"/><glyph d="M872 2051q-36 0 -84 -34l-32 89q85 75 172 79q92 3 131.5 -42.5t19.5 -121.5q-36 -99 -193 -209h-118q17 17 40 42t34 36t25.5 27.5t21.5 25.5t14 21t8.5 22.5t1.5 22.5q0 42 -41 42zM795 1550l-239 -111l-59 102l290 225h85l217 -225l-96 -102zM1140 1053h-587l-44 -254 h454l-45 -268h-457l-46 -265h583l-44 -266h-875l230 1319h875z" glyph-name="uni1EC2" horiz-adv-x="1160" unicode="Ể"/><glyph d="M780 1671q-36 0 -84 -34l-32 88q85 75 172 79q92 3 131.5 -42t18.5 -122q-36 -99 -192 -208h-118q17 17 40 41.5t34 36t25.5 27.5t21.5 25.5t13.5 21.5t8.5 22t2 22q0 43 -41 43zM703 1169l-239 -111l-60 103l291 225h85l217 -225l-96 -103zM531 184q58 0 146.5 31 t143.5 61l87 -201q-193 -102 -411 -102q-224 0 -336.5 109t-112.5 297q0 237 178 412t429 175q147 0 248 -65t101 -188q0 -113 -56.5 -194.5t-155.5 -127t-205.5 -67.5t-234.5 -29q29 -111 179 -111zM652 754q-99 0 -183.5 -70.5t-115.5 -186.5q73 3 140 15t129 31.5t99 52 t37 75.5q0 83 -106 83z" glyph-name="uni1EC3" horiz-adv-x="1035" unicode="ể"/><glyph d="M756 1918q-75 0 -90 -100h-169q20 121 106 195t177 74q63 0 123 -51t99 -51q55 0 71 95h171q-26 -138 -102.5 -204.5t-168.5 -66.5q-43 0 -77 17t-52 37.5t-41 37.5t-47 17zM795 1550l-239 -111l-59 102l290 225h85l217 -225l-96 -102zM79 0l230 1319h875l-44 -266h-587 l-44 -254h454l-45 -268h-457l-46 -265h583l-44 -266h-875z" glyph-name="uni1EC4" horiz-adv-x="1160" unicode="Ễ"/><glyph d="M981 1700h171q-26 -138 -102.5 -205t-168.5 -67q-43 0 -77 17.5t-52 38t-41 37.5t-47 17q-75 0 -91 -101h-169q20 121 106.5 195.5t177.5 74.5q63 0 122.5 -51.5t99.5 -51.5q54 0 71 96zM901 1058l-198 111l-239 -111l-60 103l291 225h85l217 -225zM1004 713 q0 -113 -56.5 -194.5t-155.5 -127t-205.5 -67.5t-234.5 -29q29 -111 179 -111q58 0 146.5 31t143.5 61l87 -201q-193 -102 -411 -102q-224 0 -336.5 109t-112.5 297q0 237 178 412t429 175q147 0 248 -65t101 -188zM353 497q73 3 140 15t129 31.5t99 52t37 75.5 q0 84 -106 83q-99 0 -183.5 -70.5t-115.5 -186.5z" glyph-name="uni1EC5" horiz-adv-x="1035" unicode="ễ"/><glyph d="M795 1550l-239 -111l-59 102l290 225h85l217 -225l-96 -102zM1140 1053h-587l-44 -254h454l-45 -268h-457l-46 -265h583l-44 -266h-875l230 1319h875zM476 -99q65 0 101.5 -37.5t36.5 -100.5q0 -82 -55.5 -144.5t-138.5 -62.5q-60 0 -96.5 41t-36.5 104q0 85 53.5 142.5 t135.5 57.5z" glyph-name="uni1EC6" horiz-adv-x="1160" unicode="Ệ"/><glyph d="M703 1169l-239 -111l-60 103l291 225h85l217 -225l-96 -103zM531 184q58 0 146.5 31t143.5 61l87 -201q-193 -102 -411 -102q-224 0 -336.5 109t-112.5 297q0 237 178 412t429 175q147 0 248 -65t101 -188q0 -113 -56.5 -194.5t-155.5 -127t-205.5 -67.5t-234.5 -29 q29 -111 179 -111zM652 754q-99 0 -183.5 -70.5t-115.5 -186.5q73 3 140 15t129 31.5t99 52t37 75.5q0 83 -106 83zM432 -99q65 0 101.5 -37.5t36.5 -100.5q0 -82 -55.5 -144.5t-139.5 -62.5q-60 0 -96.5 41t-36.5 104q0 85 54 142.5t136 57.5z" glyph-name="uni1EC7" horiz-adv-x="1035" unicode="ệ"/><glyph d="M527 1432h-117q17 17 40 41.5t34 36t25.5 27.5t21.5 25.5t13.5 21.5t8.5 22t2 22q0 43 -41 43q-36 0 -84 -34l-32 88q85 75 172 79q92 3 131.5 -42t18.5 -122q-36 -99 -193 -208zM379 0h-300l230 1319h300z" glyph-name="uni1EC8" horiz-adv-x="616" unicode="Ỉ"/><glyph d="M493 1051h-118q17 17 40.5 42t34.5 36t25.5 27t21 25.5t13.5 21.5t9 22.5t2 22.5q0 43 -41 42q-36 0 -84 -34l-32 89q85 75 172 78q92 3 131.5 -42t18.5 -121q-36 -100 -193 -209zM579 246l5 -220q-104 -36 -184.5 -41t-140 22t-82.5 102t-3 195l113 635h288l-102 -601 q-12 -63 13.5 -82.5t92.5 -9.5z" glyph-name="uni1EC9" horiz-adv-x="650" unicode="ỉ"/><glyph d="M379 0h-300l230 1319h300zM212 -99q65 0 101.5 -37.5t36.5 -100.5q0 -82 -55.5 -144.5t-139.5 -62.5q-60 0 -96.5 41t-36.5 104q0 85 54 142.5t136 57.5z" glyph-name="uni1ECA" horiz-adv-x="616" unicode="Ị"/><glyph d="M403 1469q60 0 95.5 -36.5t35.5 -94.5q0 -79 -53 -139.5t-133 -60.5q-58 0 -94 39.5t-36 99.5q0 84 52.5 138t132.5 54zM469 246l5 -220q-104 -36 -184 -41t-140 22t-83 102t-2 195l112 635h289l-102 -601q-12 -63 13 -82.5t92 -9.5zM212 -99q65 0 101.5 -37.5 t36.5 -100.5q0 -82 -55.5 -144.5t-139.5 -62.5q-60 0 -96.5 41t-36.5 104q0 85 54 142.5t136 57.5z" glyph-name="uni1ECB" horiz-adv-x="592" unicode="ị"/><glyph d="M903 1350q249 0 394 -153.5t145 -408.5q0 -346 -221 -582.5t-557 -236.5q-246 0 -392 158t-146 412q0 343 222 577t555 234zM858 1077q-196 0 -311 -147t-115 -358q0 -147 70.5 -236.5t210.5 -89.5q196 0 310 146t114 361q0 148 -72 236t-207 88zM647 -99 q65 0 101.5 -37.5t36.5 -100.5q0 -82 -55.5 -144.5t-138.5 -62.5q-60 0 -97 41t-37 104q0 85 54 142.5t136 57.5z" glyph-name="uni1ECC" horiz-adv-x="1503" unicode="Ọ"/><glyph d="M659 966q195 0 313.5 -113.5t118.5 -302.5q0 -101 -38 -201t-109.5 -185t-191 -138t-266.5 -53q-198 0 -315.5 110t-117.5 298q0 261 175 423t431 162zM613 708q-108 0 -178 -89.5t-70 -191.5q0 -80 41 -138.5t123 -58.5q106 0 179.5 87t73.5 190q0 82 -43.5 141.5 t-125.5 59.5zM468 -99q65 0 101.5 -37.5t36.5 -100.5q0 -82 -55.5 -144.5t-139.5 -62.5q-60 0 -96.5 41t-36.5 104q0 85 54 142.5t136 57.5z" glyph-name="uni1ECD" horiz-adv-x="1145" unicode="ọ"/><glyph d="M968 1432h-118q17 17 40 41.5t34 36t25.5 27.5t21.5 25.5t14 21.5t8.5 22t1.5 22q0 43 -41 43q-36 0 -84 -34l-32 88q85 75 172 79q92 3 131.5 -42t19.5 -122q-36 -99 -193 -208zM903 1350q249 0 394 -153.5t145 -408.5q0 -346 -221 -582.5t-557 -236.5q-246 0 -392 158 t-146 412q0 343 222 577t555 234zM858 1077q-196 0 -311 -147t-115 -358q0 -147 70.5 -236.5t210.5 -89.5q196 0 310 146t114 361q0 148 -72 236t-207 88z" glyph-name="uni1ECE" horiz-adv-x="1503" unicode="Ỏ"/><glyph d="M693 1051h-118q17 17 40 42t34 36t25.5 27t21.5 25.5t14 21.5t8.5 22.5t1.5 22.5q0 43 -41 42q-36 0 -83 -34l-33 89q85 75 173 78q92 3 131 -42t19 -121q-36 -100 -193 -209zM659 966q195 0 313.5 -113.5t118.5 -302.5q0 -101 -38 -201t-109.5 -185t-191 -138 t-266.5 -53q-198 0 -315.5 110t-117.5 298q0 261 175 423t431 162zM613 708q-108 0 -178 -89.5t-70 -191.5q0 -80 41 -138.5t123 -58.5q106 0 179.5 87t73.5 190q0 82 -43.5 141.5t-125.5 59.5z" glyph-name="uni1ECF" horiz-adv-x="1145" unicode="ỏ"/><glyph d="M894 1826l-24 103l429 225l39 -217zM939 1766h85l217 -225l-96 -102l-198 111l-239 -111l-59 102zM903 1350q249 0 394 -153.5t145 -408.5q0 -346 -221 -582.5t-557 -236.5q-246 0 -392 158t-146 412q0 343 222 577t555 234zM858 1077q-196 0 -311 -147t-115 -358 q0 -147 70.5 -236.5t210.5 -89.5q196 0 310 146t114 361q0 148 -72 236t-207 88z" glyph-name="uni1ED0" horiz-adv-x="1503" unicode="Ố"/><glyph d="M620 1446l-24 102l428 225l39 -217zM664 1386h85l217 -225l-96 -103l-198 111l-239 -111l-59 103zM659 966q195 0 313.5 -113.5t118.5 -302.5q0 -101 -38 -201t-109.5 -185t-191 -138t-266.5 -53q-198 0 -315.5 110t-117.5 298q0 261 175 423t431 162zM613 708 q-108 0 -178 -89.5t-70 -191.5q0 -80 41 -138.5t123 -58.5q106 0 179.5 87t73.5 190q0 82 -43.5 141.5t-125.5 59.5z" glyph-name="uni1ED1" horiz-adv-x="1145" unicode="ố"/><glyph d="M1073 1826l-399 111l118 217l343 -225zM939 1766h85l217 -225l-96 -102l-198 111l-239 -111l-59 102zM903 1350q249 0 394 -153.5t145 -408.5q0 -346 -221 -582.5t-557 -236.5q-246 0 -392 158t-146 412q0 343 222 577t555 234zM858 1077q-196 0 -311 -147t-115 -358 q0 -147 70.5 -236.5t210.5 -89.5q196 0 310 146t114 361q0 148 -72 236t-207 88z" glyph-name="uni1ED2" horiz-adv-x="1503" unicode="Ồ"/><glyph d="M799 1446l-400 110l118 217l343 -225zM664 1386h85l217 -225l-96 -103l-198 111l-239 -111l-59 103zM659 966q195 0 313.5 -113.5t118.5 -302.5q0 -101 -38 -201t-109.5 -185t-191 -138t-266.5 -53q-198 0 -315.5 110t-117.5 298q0 261 175 423t431 162zM613 708 q-108 0 -178 -89.5t-70 -191.5q0 -80 41 -138.5t123 -58.5q106 0 179.5 87t73.5 190q0 82 -43.5 141.5t-125.5 59.5z" glyph-name="uni1ED3" horiz-adv-x="1145" unicode="ồ"/><glyph d="M1038 1812h-118q17 17 40 42t34 36t25.5 27.5t21.5 25.5t14 21t8.5 22.5t1.5 22.5q0 43 -41 42q-36 0 -84 -34l-32 89q85 75 172 79q92 3 131.5 -42.5t19.5 -121.5q-36 -100 -193 -209zM939 1766h85l217 -225l-96 -102l-198 111l-239 -111l-59 102zM903 1350 q249 0 394 -153.5t145 -408.5q0 -346 -221 -582.5t-557 -236.5q-246 0 -392 158t-146 412q0 343 222 577t555 234zM858 1077q-196 0 -311 -147t-115 -358q0 -147 70.5 -236.5t210.5 -89.5q196 0 310 146t114 361q0 148 -72 236t-207 88z" glyph-name="uni1ED4" horiz-adv-x="1503" unicode="Ổ"/><glyph d="M763 1432h-118q17 17 40 41.5t34 36t25.5 27.5t21.5 25.5t14 21.5t8.5 22t1.5 22q0 43 -41 43q-36 0 -83 -34l-33 88q85 75 173 79q92 3 131 -42t19 -122q-36 -99 -193 -208zM664 1386h85l217 -225l-96 -103l-198 111l-239 -111l-59 103zM659 966q195 0 313.5 -113.5 t118.5 -302.5q0 -101 -38 -201t-109.5 -185t-191 -138t-266.5 -53q-198 0 -315.5 110t-117.5 298q0 261 175 423t431 162zM613 708q-108 0 -178 -89.5t-70 -191.5q0 -80 41 -138.5t123 -58.5q106 0 179.5 87t73.5 190q0 82 -43.5 141.5t-125.5 59.5z" glyph-name="uni1ED5" horiz-adv-x="1145" unicode="ổ"/><glyph d="M817 1818h-168q20 121 106 195t177 74q51 0 88.5 -25.5t68.5 -51t65 -25.5q55 0 71 95h171q-26 -138 -102.5 -204.5t-168.5 -66.5q-43 0 -77 17t-52 37.5t-41 37.5t-47 17q-76 1 -91 -100zM939 1766h85l217 -225l-96 -102l-198 111l-239 -111l-59 102zM903 1350 q249 0 394 -153.5t145 -408.5q0 -346 -221 -582.5t-557 -236.5q-246 0 -392 158t-146 412q0 343 222 577t555 234zM858 1077q-196 0 -311 -147t-115 -358q0 -147 70.5 -236.5t210.5 -89.5q196 0 310 146t114 361q0 148 -72 236t-207 88z" glyph-name="uni1ED6" horiz-adv-x="1503" unicode="Ỗ"/><glyph d="M543 1437h-169q20 121 106.5 195.5t176.5 74.5q63 0 123 -51.5t99 -51.5q55 0 72 96h170q-26 -138 -102.5 -205t-168.5 -67q-43 0 -77 17.5t-52 38t-41 37.5t-47 17q-75 0 -90 -101zM664 1386h85l217 -225l-96 -103l-198 111l-239 -111l-59 103zM659 966 q195 0 313.5 -113.5t118.5 -302.5q0 -101 -38 -201t-109.5 -185t-191 -138t-266.5 -53q-198 0 -315.5 110t-117.5 298q0 261 175 423t431 162zM613 708q-108 0 -178 -89.5t-70 -191.5q0 -80 41 -138.5t123 -58.5q106 0 179.5 87t73.5 190q0 82 -43.5 141.5t-125.5 59.5z" glyph-name="uni1ED7" horiz-adv-x="1145" unicode="ỗ"/><glyph d="M939 1766h85l217 -225l-96 -102l-198 111l-239 -111l-59 102zM903 1350q249 0 394 -153.5t145 -408.5q0 -346 -221 -582.5t-557 -236.5q-246 0 -392 158t-146 412q0 343 222 577t555 234zM858 1077q-196 0 -311 -147t-115 -358q0 -147 70.5 -236.5t210.5 -89.5 q196 0 310 146t114 361q0 148 -72 236t-207 88zM647 -99q65 0 101.5 -37.5t36.5 -100.5q0 -82 -55.5 -144.5t-138.5 -62.5q-60 0 -97 41t-37 104q0 85 54 142.5t136 57.5z" glyph-name="uni1ED8" horiz-adv-x="1503" unicode="Ộ"/><glyph d="M664 1386h85l217 -225l-96 -103l-198 111l-239 -111l-59 103zM659 966q195 0 313.5 -113.5t118.5 -302.5q0 -101 -38 -201t-109.5 -185t-191 -138t-266.5 -53q-198 0 -315.5 110t-117.5 298q0 261 175 423t431 162zM613 708q-108 0 -178 -89.5t-70 -191.5 q0 -80 41 -138.5t123 -58.5q106 0 179.5 87t73.5 190q0 82 -43.5 141.5t-125.5 59.5zM468 -99q65 0 101.5 -37.5t36.5 -100.5q0 -82 -55.5 -144.5t-139.5 -62.5q-60 0 -96.5 41t-36.5 104q0 85 54 142.5t136 57.5z" glyph-name="uni1ED9" horiz-adv-x="1145" unicode="ộ"/><glyph d="M1270 1556l-444 -110l-24 102l429 225zM1640 1468q7 -79 -12 -152.5t-81 -129.5t-158 -56h-39q92 -142 92 -342q0 -346 -221 -582.5t-557 -236.5q-246 0 -392 158t-146 412q0 343 223 578t559 235h2q60 0 124.5 -4.5t144 -11.5t125.5 -10q116 -5 116 142h220zM713 246 q196 0 310 146t114 361q0 148 -72 236t-207 88q-196 0 -311 -147t-115 -358q0 -147 70.5 -236.5t210.5 -89.5z" glyph-name="uni1EDA" horiz-adv-x="1510" unicode="Ớ"/><glyph d="M1048 1176l-444 -111l-24 102l429 226zM1302 1091q9 -67 -11.5 -132.5t-83 -117t-156.5 -54.5q65 -99 65 -237q0 -101 -37.5 -201t-109 -185t-191 -138t-266.5 -53q-198 0 -315.5 110t-117.5 298q0 261 174.5 423t430.5 162q39 0 285 -15q61 -3 88 33.5t25 106.5h220z M555 230q106 0 179 87t73 190q0 82 -43.5 141.5t-125.5 59.5q-108 0 -177.5 -89.5t-69.5 -191.5q0 -80 41 -138.5t123 -58.5z" glyph-name="uni1EDB" horiz-adv-x="1191" unicode="ớ"/><glyph d="M1067 1548l-62 -102l-399 110l118 217zM1640 1468q7 -79 -12 -152.5t-81 -129.5t-158 -56h-39q92 -142 92 -342q0 -346 -221 -582.5t-557 -236.5q-246 0 -392 158t-146 412q0 343 223 578t559 235h2q60 0 124.5 -4.5t144 -11.5t125.5 -10q116 -5 116 142h220zM713 246 q196 0 310 146t114 361q0 148 -72 236t-207 88q-196 0 -311 -147t-115 -358q0 -147 70.5 -236.5t210.5 -89.5z" glyph-name="uni1EDC" horiz-adv-x="1510" unicode="Ờ"/><glyph d="M845 1167l-62 -102l-399 111l118 217zM1302 1091q9 -67 -11.5 -132.5t-83 -117t-156.5 -54.5q65 -99 65 -237q0 -101 -37.5 -201t-109 -185t-191 -138t-266.5 -53q-198 0 -315.5 110t-117.5 298q0 261 174.5 423t430.5 162q39 0 285 -15q61 -3 88 33.5t25 106.5h220z M555 230q106 0 179 87t73 190q0 82 -43.5 141.5t-125.5 59.5q-108 0 -177.5 -89.5t-69.5 -191.5q0 -80 41 -138.5t123 -58.5z" glyph-name="uni1EDD" horiz-adv-x="1191" unicode="ờ"/><glyph d="M956 1671q-36 0 -84 -34l-32 88q85 75 172 79q92 3 131.5 -42t18.5 -122q-36 -99 -193 -208h-117q17 17 40 41.5t34 36t25.5 27.5t21.5 25.5t13.5 21.5t8.5 22t2 22q0 43 -41 43zM1640 1468q7 -79 -12 -152.5t-81 -129.5t-158 -56h-39q92 -142 92 -342 q0 -346 -221 -582.5t-557 -236.5q-246 0 -392 158t-146 412q0 343 223 578t559 235h2q60 0 124.5 -4.5t144 -11.5t125.5 -10q116 -5 116 142h220zM713 246q196 0 310 146t114 361q0 148 -72 236t-207 88q-196 0 -311 -147t-115 -358q0 -147 70.5 -236.5t210.5 -89.5z" glyph-name="uni1EDE" horiz-adv-x="1510" unicode="Ở"/><glyph d="M734 1290q-36 0 -84 -34l-32 89q85 75 172 78q92 3 131.5 -42t18.5 -121q-36 -99 -192 -209h-118q17 17 40 42t34 36t25.5 27t21.5 25.5t13.5 21.5t8.5 22.5t2 22.5q0 42 -41 42zM1302 1091q9 -67 -11.5 -132.5t-83 -117t-156.5 -54.5q65 -99 65 -237q0 -101 -37.5 -201 t-109 -185t-191 -138t-266.5 -53q-198 0 -315.5 110t-117.5 298q0 261 174.5 423t430.5 162q39 0 285 -15q61 -3 88 33.5t25 106.5h220zM555 230q106 0 179 87t73 190q0 82 -43.5 141.5t-125.5 59.5q-108 0 -177.5 -89.5t-69.5 -191.5q0 -80 41 -138.5t123 -58.5z" glyph-name="uni1EDF" horiz-adv-x="1191" unicode="ở"/><glyph d="M840 1538q-75 0 -91 -101h-169q20 121 106.5 195.5t177.5 74.5q51 0 88.5 -26t68 -51.5t64.5 -25.5q55 0 72 96h171q-26 -138 -102.5 -205t-169.5 -67q-43 0 -77 17.5t-51.5 38t-40.5 37.5t-47 17zM1640 1468q7 -79 -12 -152.5t-81 -129.5t-158 -56h-39q92 -142 92 -342 q0 -346 -221 -582.5t-557 -236.5q-246 0 -392 158t-146 412q0 343 223 578t559 235h2q60 0 124.5 -4.5t144 -11.5t125.5 -10q116 -5 116 142h220zM713 246q196 0 310 146t114 361q0 148 -72 236t-207 88q-196 0 -311 -147t-115 -358q0 -147 70.5 -236.5t210.5 -89.5z" glyph-name="uni1EE0" horiz-adv-x="1510" unicode="Ỡ"/><glyph d="M618 1157q-75 0 -91 -101h-169q20 121 106.5 195.5t177.5 74.5q51 0 88.5 -25.5t68 -51t65.5 -25.5q55 0 71 95h171q-26 -138 -102.5 -204.5t-168.5 -66.5q-43 0 -77 17t-52 37.5t-41 37.5t-47 17zM1302 1091q9 -67 -11.5 -132.5t-83 -117t-156.5 -54.5q65 -99 65 -237 q0 -101 -37.5 -201t-109 -185t-191 -138t-266.5 -53q-198 0 -315.5 110t-117.5 298q0 261 174.5 423t430.5 162q39 0 285 -15q61 -3 88 33.5t25 106.5h220zM555 230q106 0 179 87t73 190q0 82 -43.5 141.5t-125.5 59.5q-108 0 -177.5 -89.5t-69.5 -191.5q0 -80 41 -138.5 t123 -58.5z" glyph-name="uni1EE1" horiz-adv-x="1191" unicode="ỡ"/><glyph d="M1640 1468q7 -79 -12 -152.5t-81 -129.5t-158 -56h-39q92 -142 92 -342q0 -346 -221 -582.5t-557 -236.5q-246 0 -392 158t-146 412q0 343 223 578t559 235h2q60 0 124.5 -4.5t144 -11.5t125.5 -10q116 -5 116 142h220zM713 246q196 0 310 146t114 361q0 148 -72 236 t-207 88q-196 0 -311 -147t-115 -358q0 -147 70.5 -236.5t210.5 -89.5zM652 -99q65 0 101.5 -37.5t36.5 -100.5q0 -82 -55.5 -144.5t-138.5 -62.5q-60 0 -96.5 41t-36.5 104q0 85 53.5 142.5t135.5 57.5z" glyph-name="uni1EE2" horiz-adv-x="1510" unicode="Ợ"/><glyph d="M1302 1091q9 -67 -11.5 -132.5t-83 -117t-156.5 -54.5q65 -99 65 -237q0 -101 -37.5 -201t-109 -185t-191 -138t-266.5 -53q-198 0 -315.5 110t-117.5 298q0 261 174.5 423t430.5 162q39 0 285 -15q61 -3 88 33.5t25 106.5h220zM555 230q106 0 179 87t73 190 q0 82 -43.5 141.5t-125.5 59.5q-108 0 -177.5 -89.5t-69.5 -191.5q0 -80 41 -138.5t123 -58.5zM492 -99q65 0 101.5 -37.5t36.5 -100.5q0 -82 -55.5 -144.5t-139.5 -62.5q-60 0 -96.5 41t-36.5 104q0 85 54 142.5t136 57.5z" glyph-name="uni1EE3" horiz-adv-x="1191" unicode="ợ"/><glyph d="M1449 1319l-120 -677q-58 -328 -221 -500.5t-468 -172.5q-309 0 -413 172.5t-46 500.5l119 677h297l-111 -636q-24 -114 -18.5 -195.5t20 -132t48.5 -79.5t68 -39t79 -10q56 0 104 19t96.5 65.5t87.5 140.5t63 231l111 636h304zM623 -99q65 0 101.5 -37.5t36.5 -100.5 q0 -82 -55.5 -144.5t-138.5 -62.5q-60 0 -97 41t-37 104q0 85 54 142.5t136 57.5z" glyph-name="uni1EE4" horiz-adv-x="1448" unicode="Ụ"/><glyph d="M797 939h306l-161 -939h-237l-27 119q-159 -145 -323 -145q-150 0 -230.5 89t-44.5 292l103 584h305l-87 -490q-14 -79 3.5 -120t78.5 -41q53 0 101.5 26t115.5 84l3 -2zM430 -99q65 0 101.5 -37.5t36.5 -100.5q0 -82 -55.5 -144.5t-138.5 -62.5q-60 0 -96.5 41 t-36.5 104q0 85 53.5 142.5t135.5 57.5z" glyph-name="uni1EE5" horiz-adv-x="1129" unicode="ụ"/><glyph d="M935 1432h-118q17 17 40.5 41.5t34.5 36t25.5 27.5t21 25.5t13.5 21.5t9 22t2 22q0 43 -41 43q-36 0 -84 -34l-32 88q85 75 172 79q92 3 131.5 -42t18.5 -122q-36 -99 -193 -208zM1449 1319l-120 -677q-58 -328 -221 -500.5t-468 -172.5q-309 0 -413 172.5t-46 500.5 l119 677h297l-111 -636q-24 -114 -18.5 -195.5t20 -132t48.5 -79.5t68 -39t79 -10q56 0 104 19t96.5 65.5t87.5 140.5t63 231l111 636h304z" glyph-name="uni1EE6" horiz-adv-x="1448" unicode="Ủ"/><glyph d="M683 1290q-36 0 -84 -34l-32 89q85 75 172 78q92 3 131.5 -42t18.5 -121q-36 -99 -193 -209h-117q17 17 40 42t34 36t25.5 27t21.5 25.5t13.5 21.5t8.5 22.5t2 22.5q0 42 -41 42zM797 939h306l-161 -939h-237l-27 119q-159 -145 -323 -145q-150 0 -230.5 89t-44.5 292 l103 584h305l-87 -490q-14 -79 3.5 -120t78.5 -41q53 0 101.5 26t115.5 84l3 -2z" glyph-name="uni1EE7" horiz-adv-x="1129" unicode="ủ"/><glyph d="M1271 1556l-443 -110l-24 102l428 225zM1591 1456h220q-5 -60 -20.5 -113.5t-45.5 -106.5t-83.5 -84.5t-127.5 -31.5l-100 1l-84 -476q-56 -328 -219 -500t-469 -172q-309 0 -413 172t-48 500l116 674h304l-112 -633q-24 -114 -19 -195t19.5 -131.5t48.5 -79.5t68 -39.5 t79 -10.5q56 0 104 19t97.5 66t88.5 141t63 230l111 633h306q58 -3 85.5 32t30.5 105z" glyph-name="uni1EE8" horiz-adv-x="1575" unicode="Ứ"/><glyph d="M1043 1176l-444 -111l-24 102l429 226zM1215 1075h220q-2 -58 -16 -112.5t-44 -107.5t-84.5 -84.5t-128.5 -31.5l-68 2l-126 -741h-238l-27 119q-159 -145 -322 -145q-150 0 -230.5 89t-44.5 292l102 584h306l-87 -490q-14 -79 3 -120t79 -41q53 0 101.5 26t114.5 84 l4 -2l94 543h302q95 6 90 136z" glyph-name="uni1EE9" horiz-adv-x="1373" unicode="ứ"/><glyph d="M1068 1548l-61 -102l-399 110l117 217zM1591 1456h220q-5 -60 -20.5 -113.5t-45.5 -106.5t-83.5 -84.5t-127.5 -31.5l-100 1l-84 -476q-56 -328 -219 -500t-469 -172q-309 0 -413 172t-48 500l116 674h304l-112 -633q-24 -114 -19 -195t19.5 -131.5t48.5 -79.5t68 -39.5 t79 -10.5q56 0 104 19t97.5 66t88.5 141t63 230l111 633h306q58 -3 85.5 32t30.5 105z" glyph-name="uni1EEA" horiz-adv-x="1575" unicode="Ừ"/><glyph d="M840 1167l-62 -102l-399 111l118 217zM1215 1075h220q-2 -58 -16 -112.5t-44 -107.5t-84.5 -84.5t-128.5 -31.5l-68 2l-126 -741h-238l-27 119q-159 -145 -322 -145q-150 0 -230.5 89t-44.5 292l102 584h306l-87 -490q-14 -79 3 -120t79 -41q53 0 101.5 26t114.5 84l4 -2 l94 543h302q95 6 90 136z" glyph-name="uni1EEB" horiz-adv-x="1373" unicode="ừ"/><glyph d="M957 1671q-36 0 -83 -34l-33 88q85 75 173 79q92 3 131 -42t19 -122q-36 -99 -193 -208h-118q17 17 40 41.5t34.5 36t26 27.5t21 25.5t13.5 21.5t8.5 22t1.5 22q0 43 -41 43zM1591 1456h220q-5 -60 -20.5 -113.5t-45.5 -106.5t-83.5 -84.5t-127.5 -31.5l-100 1l-84 -476 q-56 -328 -219 -500t-469 -172q-309 0 -413 172t-48 500l116 674h304l-112 -633q-24 -114 -19 -195t19.5 -131.5t48.5 -79.5t68 -39.5t79 -10.5q56 0 104 19t97.5 66t88.5 141t63 230l111 633h306q58 -3 85.5 32t30.5 105z" glyph-name="uni1EEC" horiz-adv-x="1575" unicode="Ử"/><glyph d="M729 1290q-36 0 -84 -34l-32 89q85 75 172 78q92 3 131.5 -42t18.5 -121q-36 -99 -193 -209h-117q17 17 40 42t34 36t25.5 27t21.5 25.5t13.5 21.5t8.5 22.5t2 22.5q0 42 -41 42zM1215 1075h220q-2 -58 -16 -112.5t-44 -107.5t-84.5 -84.5t-128.5 -31.5l-68 2l-126 -741 h-238l-27 119q-159 -145 -322 -145q-150 0 -230.5 89t-44.5 292l102 584h306l-87 -490q-14 -79 3 -120t79 -41q53 0 101.5 26t114.5 84l4 -2l94 543h302q95 6 90 136z" glyph-name="uni1EED" horiz-adv-x="1373" unicode="ử"/><glyph d="M841 1538q-75 0 -90 -101h-169q20 121 106.5 195.5t176.5 74.5q63 0 123 -51.5t99 -51.5q55 0 72 96h170q-26 -138 -102.5 -205t-168.5 -67q-43 0 -77 17.5t-52 38t-41 37.5t-47 17zM1591 1456h220q-5 -60 -20.5 -113.5t-45.5 -106.5t-83.5 -84.5t-127.5 -31.5l-100 1 l-84 -476q-56 -328 -219 -500t-469 -172q-309 0 -413 172t-48 500l116 674h304l-112 -633q-24 -114 -19 -195t19.5 -131.5t48.5 -79.5t68 -39.5t79 -10.5q56 0 104 19t97.5 66t88.5 141t63 230l111 633h306q58 -3 85.5 32t30.5 105z" glyph-name="uni1EEE" horiz-adv-x="1575" unicode="Ữ"/><glyph d="M613 1157q-75 0 -91 -101h-169q20 121 106.5 195.5t177.5 74.5q63 0 122.5 -51t98.5 -51q55 0 72 95h171q-26 -138 -102.5 -204.5t-169.5 -66.5q-43 0 -76.5 17t-51.5 37.5t-41 37.5t-47 17zM1215 1075h220q-2 -58 -16 -112.5t-44 -107.5t-84.5 -84.5t-128.5 -31.5l-68 2 l-126 -741h-238l-27 119q-159 -145 -322 -145q-150 0 -230.5 89t-44.5 292l102 584h306l-87 -490q-14 -79 3 -120t79 -41q53 0 101.5 26t114.5 84l4 -2l94 543h302q95 6 90 136z" glyph-name="uni1EEF" horiz-adv-x="1373" unicode="ữ"/><glyph d="M1591 1456h220q-5 -60 -20.5 -113.5t-45.5 -106.5t-83.5 -84.5t-127.5 -31.5l-100 1l-84 -476q-56 -328 -219 -500t-469 -172q-309 0 -413 172t-48 500l116 674h304l-112 -633q-24 -114 -19 -195t19.5 -131.5t48.5 -79.5t68 -39.5t79 -10.5q56 0 104 19t97.5 66t88.5 141 t63 230l111 633h306q58 -3 85.5 32t30.5 105zM638 -99q65 0 102 -37.5t37 -100.5q0 -82 -55.5 -144.5t-139.5 -62.5q-60 0 -96.5 41t-36.5 104q0 85 53.5 142.5t135.5 57.5z" glyph-name="uni1EF0" horiz-adv-x="1575" unicode="Ự"/><glyph d="M1215 1075h220q-2 -58 -16 -112.5t-44 -107.5t-84.5 -84.5t-128.5 -31.5l-68 2l-126 -741h-238l-27 119q-159 -145 -322 -145q-150 0 -230.5 89t-44.5 292l102 584h306l-87 -490q-14 -79 3 -120t79 -41q53 0 101.5 26t114.5 84l4 -2l94 543h302q95 6 90 136zM367 -99 q65 0 101.5 -37.5t36.5 -100.5q0 -82 -55.5 -144.5t-138.5 -62.5q-60 0 -97 41t-37 104q0 85 54 142.5t136 57.5z" glyph-name="uni1EF1" horiz-adv-x="1373" unicode="ự"/><glyph d="M906 1536l-61 -102l-400 111l118 216zM1307 1319l-542 -795h-2l-92 -524h-316l94 531l-265 788h340l121 -568l321 568h341z" glyph-name="Ygrave" horiz-adv-x="1196" unicode="Ỳ"/><glyph d="M771 1167l-61 -102l-399 111l117 217zM845 939h295l-169 -965q-17 -101 -58 -184.5t-111 -153t-181 -109t-254 -39.5q-162 0 -275.5 66.5t-159.5 162.5l242 162q85 -140 212 -140q101 0 184.5 62t110.5 209l14 80q-142 -116 -289 -116q-150 0 -229.5 90t-45.5 291 l105 584h305l-87 -490q-12 -79 4 -120t78 -41q51 0 99 24t114 81z" glyph-name="ygrave" horiz-adv-x="1165" unicode="ỳ"/><glyph d="M1307 1319l-542 -795h-2l-92 -524h-316l94 531l-265 788h340l121 -568l321 568h341zM490 -99q65 0 101.5 -37.5t36.5 -100.5q0 -82 -55.5 -144.5t-139.5 -62.5q-60 0 -96.5 41t-36.5 104q0 85 54 142.5t136 57.5z" glyph-name="uni1EF4" horiz-adv-x="1196" unicode="Ỵ"/><glyph d="M845 939h295l-169 -965q-17 -101 -58 -184.5t-111 -153t-181 -109t-254 -39.5q-162 0 -275.5 66.5t-159.5 162.5l242 162q85 -140 212 -140q101 0 184.5 62t110.5 209l14 80q-142 -116 -289 -116q-150 0 -229.5 90t-45.5 291l105 584h305l-87 -490q-12 -79 4 -120t78 -41 q51 0 99 24t114 81zM367 -611q65 0 101.5 -37.5t36.5 -100.5q0 -82 -55.5 -144.5t-138.5 -62.5q-60 0 -97 41t-37 104q0 85 54 142.5t136 57.5z" glyph-name="uni1EF5" horiz-adv-x="1165" unicode="ỵ"/><glyph d="M795 1659q-36 0 -83 -34l-33 88q85 75 173 79q92 3 131 -42t19 -122q-36 -99 -193 -208h-118q17 17 40 42t34.5 36t26 27t21 25.5t13.5 21.5t8.5 22t1.5 22q0 43 -41 43zM1307 1319l-542 -795h-2l-92 -524h-316l94 531l-265 788h340l121 -568l321 568h341z" glyph-name="uni1EF6" horiz-adv-x="1196" unicode="Ỷ"/><glyph d="M660 1290q-36 0 -83 -34l-33 89q85 75 173 78q92 3 131 -42t19 -121q-36 -99 -193 -209h-118q17 17 40.5 42t34.5 36t25.5 27t21 25.5t13.5 21.5t8.5 22.5t1.5 22.5q0 42 -41 42zM845 939h295l-169 -965q-17 -101 -58 -184.5t-111 -153t-181 -109t-254 -39.5 q-162 0 -275.5 66.5t-159.5 162.5l242 162q85 -140 212 -140q101 0 184.5 62t110.5 209l14 80q-142 -116 -289 -116q-150 0 -229.5 90t-45.5 291l105 584h305l-87 -490q-12 -79 4 -120t78 -41q51 0 99 24t114 81z" glyph-name="uni1EF7" horiz-adv-x="1165" unicode="ỷ"/><glyph d="M652 1526q-75 0 -91 -101h-168q20 121 106 195.5t177 74.5q51 0 88.5 -25.5t68.5 -51.5t65 -26q55 0 71 96h171q-26 -138 -102.5 -204.5t-168.5 -66.5q-43 0 -77 17t-52 37.5t-41 37.5t-47 17zM1307 1319l-542 -795h-2l-92 -524h-316l94 531l-265 788h340l121 -568 l321 568h341z" glyph-name="uni1EF8" horiz-adv-x="1196" unicode="Ỹ"/><glyph d="M544 1157q-75 0 -90 -101h-169q20 121 106.5 195.5t176.5 74.5q63 0 123 -51t99 -51q55 0 72 95h171q-26 -138 -103 -204.5t-169 -66.5q-43 0 -77 17t-52 37.5t-41 37.5t-47 17zM845 939h295l-169 -965q-17 -101 -58 -184.5t-111 -153t-181 -109t-254 -39.5 q-162 0 -275.5 66.5t-159.5 162.5l242 162q85 -140 212 -140q101 0 184.5 62t110.5 209l14 80q-142 -116 -289 -116q-150 0 -229.5 90t-45.5 291l105 584h305l-87 -490q-12 -79 4 -120t78 -41q51 0 99 24t114 81z" glyph-name="uni1EF9" horiz-adv-x="1165" unicode="ỹ"/><glyph glyph-name="uni2009" horiz-adv-x="322" unicode=" "/><glyph d="M942 724l-43 -260h-805l43 260h805z" glyph-name="endash" horiz-adv-x="988" unicode="–"/><glyph d="M1650 732l-42 -259h-1512l44 259h1510z" glyph-name="emdash" horiz-adv-x="1696" unicode="—"/><glyph d="M360 983q-49 0 -78 33.5t-29 87.5q0 92 54.5 188t168.5 176q7 -7 23 -26.5t22 -24.5q-135 -108 -147 -190q14 3 27 4q44 0 70.5 -30t26.5 -78q0 -58 -39 -99t-99 -41z" glyph-name="quoteleft" horiz-adv-x="482" unicode="‘"/><glyph d="M340 1468q48 0 75 -32.5t27 -88.5q0 -205 -222 -364q-41 48 -46 53q145 113 147 189q-15 -3 -27 -3q-43 0 -70.5 29t-27.5 77q0 58 42 99t102 41z" glyph-name="quoteright" horiz-adv-x="377" unicode="’"/><glyph d="M249 311q90 -2 127 -67t8 -167q-77 -251 -304 -401q-5 12 -28 41t-33 36q80 55 138 116t56 105l-32 -3q-70 3 -106.5 58.5t-14.5 137.5q20 63 70.5 105t118.5 39z" glyph-name="quotesinglbase" horiz-adv-x="1024" unicode="‚"/><glyph d="M360 983q-49 0 -78 33.5t-29 87.5q0 92 54.5 188t168.5 176q7 -7 23 -26.5t22 -24.5q-135 -108 -147 -190q14 3 27 4q44 0 70.5 -30t26.5 -78q0 -58 -39 -99t-99 -41zM650 983q-49 0 -78 33.5t-29 87.5q0 92 54.5 188t168.5 176q7 -7 23.5 -26.5t21.5 -24.5 q-135 -108 -147 -190q14 3 27 4q44 0 70.5 -30t26.5 -78q0 -58 -39 -99t-99 -41z" glyph-name="quotedblleft" horiz-adv-x="773" unicode="“"/><glyph d="M391 1468q48 0 75 -32.5t27 -88.5q0 -205 -222 -364q-41 48 -46 53q145 113 147 189q-15 -3 -27 -3q-43 0 -70.5 29t-27.5 77q0 58 42 99t102 41zM681 1468q48 0 75 -32.5t27 -88.5q0 -205 -222 -364q-41 48 -46 53q145 113 147 189q-15 -3 -27 -3q-43 0 -70 29t-27 77 q0 58 41.5 99t101.5 41z" glyph-name="quotedblright" horiz-adv-x="769" unicode="”"/><glyph d="M249 311q90 -2 127 -67t8 -167q-77 -251 -304 -401q-5 12 -28 41t-33 36q80 55 138 116t56 105q-9 -2 -15.5 -2.5t-11.5 -0.5h-5q-70 3 -106.5 58.5t-14.5 137.5q20 63 70.5 105t118.5 39zM249 311q-68 3 -118.5 -39t-70.5 -105q-22 -82 14.5 -137.5t106.5 -58.5h5 q5 0 12 1t15 2q2 -44 -56 -105.5t-138 -115.5q10 -7 33 -36t28 -41q227 150 304 401q29 102 -8 167t-127 67z" glyph-name="quotedblbase" horiz-adv-x="380" unicode="„"/><glyph d="M869 1290h85l-55 -305h-85l-125 30l-5 -196l-39 -246h-305l39 246l66 195l-133 -29h-85l55 305h85l118 -29l-9 121l17 86h306l-17 -86l-48 -122z" glyph-name="dagger" horiz-adv-x="947" unicode="†"/><glyph d="M874 836h-86l-121 28l4 -134l-14 -92h-2v-1l-59 -151l136 31h85l-54 -305h-85l-123 30l-4 -175l-27 -171h-306l28 171l63 174l-133 -29h-86l55 305h85l123 -29l-3 149l15 93l53 134l-131 -28h-86l53 306h86l119 -31l-8 123l42 234h306l-43 -234l-49 -125l134 33h86z" glyph-name="daggerdbl" horiz-adv-x="945" unicode="‡"/><glyph d="M391 940q79 0 124.5 -48.5t45.5 -130.5q0 -102 -69 -177t-169 -75q-79 0 -124 51t-45 131q0 109 66.5 179t170.5 70z" glyph-name="bullet" horiz-adv-x="628" unicode="•"/><glyph d="M207 239q48 0 76.5 -31t28.5 -80q0 -63 -44 -111t-109 -48q-48 0 -76 33.5t-28 82.5q0 68 42.5 111t109.5 43zM580 239q48 0 77 -31t29 -80q0 -63 -44.5 -111t-109.5 -48q-48 0 -76 33.5t-28 82.5q0 68 42 111t110 43zM952 239q48 0 77 -31t29 -80q0 -63 -44.5 -111 t-107.5 -48q-48 0 -77 33.5t-29 82.5q0 68 42.5 111t109.5 43z" glyph-name="ellipsis" horiz-adv-x="1239" unicode="…"/><glyph d="M391 -24l-157 104l949 1302l153 -105zM541 1340q111 0 181 -68.5t70 -179.5q0 -126 -92 -238t-263 -112q-113 0 -181 67t-68 177q0 157 104 255.5t249 98.5zM509 1149q-44 0 -67.5 -41t-23.5 -94q0 -79 51 -79q41 0 66 41t25 91q0 82 -51 82zM1118 582q108 0 177.5 -69 t69.5 -180q0 -56 -20.5 -114.5t-59.5 -112t-110.5 -87.5t-164.5 -34q-111 0 -180 66.5t-69 177.5q0 157 105 255t252 98zM1775 582q108 0 177.5 -69t69.5 -180q0 -56 -21 -114.5t-61 -112t-112 -87.5t-161 -34q-111 0 -180 66.5t-69 175.5q0 159 104.5 257t252.5 98z M1082 391q-41 0 -63 -41t-22 -94q0 -79 47 -79q41 0 66 40.5t25 91.5q0 82 -53 82zM1737 391q-39 0 -61 -41t-22 -94q0 -79 48 -79q41 0 65.5 40.5t24.5 91.5q0 82 -55 82z" glyph-name="perthousand" horiz-adv-x="2133" unicode="‰"/><glyph d="M732 707l-280 -233l198 -235l-228 -186l-277 420l423 420z" glyph-name="guilsinglleft" horiz-adv-x="873" unicode="‹"/><glyph d="M456 893l278 -420l-427 -420l-160 186l278 235l-198 233z" glyph-name="guilsinglright" horiz-adv-x="875" unicode="›"/><glyph d="M1169 1104q0 -220 -124.5 -354t-343.5 -175l-41 -159h-182l15 448l31 187h282l-31 -187l-9 -33q147 68 147 232q0 82 -64 124t-151 42q-140 0 -265 -152l-213 150q73 108 211.5 183t305.5 75q203 0 317.5 -107t114.5 -274zM548 297q60 0 92 -36t32 -94q0 -75 -52 -134 t-128 -59q-56 0 -90.5 39.5t-34.5 97.5q0 84 50.5 135t130.5 51z" glyph-name="uni203D" horiz-adv-x="1150" unicode="‽"/><glyph d="M700 1401l150 -90l-1068 -1342l-156 86z" glyph-name="fraction" horiz-adv-x="378" unicode="⁄"/><glyph d="M449 809q-111 0 -174 77.5t-63 200.5q0 140 76.5 235t204.5 95q111 0 174 -77t63 -198q0 -143 -76.5 -238t-204.5 -95zM483 1266q-90 0 -90 -177q0 -126 68 -126q92 0 92 172q0 131 -70 131z" glyph-name="uni2070" horiz-adv-x="715" unicode="⁰"/><glyph d="M730 1075l-11 -155h-77l-7 -99h-162l7 99h-236l-49 155l319 326h162l-24 -331zM348 1050l142 10l10 147z" glyph-name="uni2074" horiz-adv-x="720" unicode="⁴"/><glyph d="M411 1190q85 0 141 -51.5t56 -131.5t-55.5 -138t-182.5 -58q-114 0 -213 78l104 109q53 -43 108 -42q67 0 66 56q0 20 -12.5 35t-35.5 15q-15 0 -37 -14l-123 82l43 271h319l-12 -169l-176 12l-10 -56q6 2 20 2z" glyph-name="uni2075" horiz-adv-x="619" unicode="⁵"/><glyph d="M490 1196q82 0 140 -51t51 -140q-7 -85 -71 -139.5t-173 -54.5q-116 0 -171.5 73t-55.5 188q0 152 77 248.5t205 96.5q113 0 186 -62l-125 -113q-29 22 -77 23q-63 0 -83 -86q30 17 97 17zM445 966q26 0 38 8.5t13 13.5t1 17q2 17 -13.5 27.5t-34.5 10.5q10 0 -5 7 q-36 14 -63 -14q4 -70 64 -70z" glyph-name="uni2076" horiz-adv-x="684" unicode="⁶"/><glyph d="M283 1401h405l-12 -150l-212 -430h-196l235 420l-232 -16z" glyph-name="uni2077" horiz-adv-x="624" unicode="⁷"/><glyph d="M555 1123q77 -46 76 -130q0 -72 -63 -128t-172 -56q-90 0 -147.5 46t-57.5 121q0 97 94 149q-63 39 -63 112q0 82 61.5 131t160.5 49q87 0 140.5 -44t53.5 -117q1 -85 -83 -133zM430 1292q-67 0 -66 -63q0 -22 17 -38.5t42 -16.5q31 0 50 18t19 45q-1 55 -62 55zM408 945 q36 0 54 17.5t18 42.5q0 24 -17.5 40.5t-46.5 16.5q-31 0 -52 -20t-21 -44q0 -53 65 -53z" glyph-name="uni2078" horiz-adv-x="626" unicode="⁸"/><glyph d="M476 1417q118 0 171.5 -72t53.5 -191q0 -150 -75 -246.5t-203 -96.5q-119 0 -184 65l119 110q22 -22 79 -22q60 0 80 84q-32 -17 -94 -17q-82 0 -139 52t-50 142q5 82 69.5 137t172.5 55zM463 1184q-7 0 5 -5q36 -17 63 12q-3 70 -65 70q-15 0 -25.5 -2.5t-15.5 -6.5 t-7 -7.5t-2.5 -10.5t-0.5 -9q-2 -19 13.5 -30t34.5 -11z" glyph-name="uni2079" horiz-adv-x="674" unicode="⁹"/><glyph d="M681 220q130 0 212 125l186 -149q-186 -232 -427 -232q-162 0 -264.5 114.5t-122.5 302.5h-137l56 150h81q2 31 11 89h-105l56 151h92q75 191 222.5 308t327.5 117q116 0 207 -59.5t139 -168.5l-234 -144q-27 58 -64.5 88t-104.5 30q-138 0 -218 -171h287l-57 -151h-280 q-10 -58 -12 -89h263l-56 -150h-200q29 -161 142 -161z" glyph-name="Euro" horiz-adv-x="1239" unicode="€"/><glyph d="M1266 763l-12 -75h-99q-36 -171 -170.5 -275t-344.5 -104h-155l-55 -309h-271l121 688h-82l12 75h84l70 398h426q186 0 281.5 -99t95.5 -260q0 -26 -1 -39h100zM585 879l-20 -116h305q-7 56 -56 86t-121 30h-108zM643 579q73 0 132.5 29t81.5 80h-306l-19 -109h111z" glyph-name="uni20B1" horiz-adv-x="1298" unicode="₱"/><glyph d="M703 360h-165l-14 -84h191l-29 -141h-188l-24 -135h-271l24 135h-126l27 141h125l15 84h-128l46 270h130l94 531h435q186 0 280.5 -90.5t94.5 -244.5q0 -213 -134 -339.5t-383 -126.5zM630 879l-45 -249h116q224 0 224 141q0 108 -179 108h-116z" glyph-name="uni20BD" horiz-adv-x="1247" unicode="₽"/><glyph d="M957 630q56 -32 88 -97t32 -146q0 -166 -109.5 -276.5t-267.5 -110.5h-58l-26 -159h-113l26 159h-72l-25 -159h-116l25 159h-264l203 1161h266l27 158h116l-29 -158h72l29 158h113l-27 -158h8q109 0 175 -69.5t66 -181.5q-1 -174 -139 -280zM727 713q49 0 90 32t41 95 q0 38 -23.5 61.5t-61.5 23.5h-276l-38 -212h268zM707 236q49 0 91.5 39t42.5 99q0 46 -32 72.5t-77 26.5h-316l-41 -237h332z" glyph-name="uni20BF" horiz-adv-x="1191" unicode="₿"/><glyph d="M1934 1353q160 0 258 -93.5t98 -249.5q0 -85 -31.5 -168t-90.5 -153.5t-158 -114t-220 -43.5q-166 0 -263 90.5t-97 247.5q0 217 144.5 350.5t359.5 133.5zM877 517l142 802h288l-230 -1319h-294l-288 797l-140 -797h-292l231 1319h297zM1845 788q70 0 117.5 55.5 t47.5 120.5q0 53 -27 92.5t-80 39.5q-70 0 -115 -59t-45 -122q0 -49 26.5 -88t75.5 -39zM1355 145l44 256h745l-47 -256h-742z" glyph-name="afii61352" horiz-adv-x="2302" unicode="№"/><glyph d="M843 1251q218 0 356.5 -135.5t138.5 -356.5q0 -198 -99 -356.5t-258.5 -243t-342.5 -84.5q-218 0 -356.5 135.5t-138.5 356.5q0 295 209 489.5t491 194.5zM664 224q213 0 368.5 143t155.5 370q0 166 -103.5 266t-265.5 100q-212 0 -369.5 -144.5t-157.5 -367.5 q0 -164 104 -265.5t268 -101.5zM787 922q215 0 215 -151q0 -101 -65 -153.5t-213 -52.5h-31l-29 -171h-137l93 528h167zM748 679q43 0 60.5 2.5t33.5 20t16 52.5q0 31 -23 40.5t-67 9.5h-32l-23 -125h35z" glyph-name="uni2117" horiz-adv-x="1416" unicode="℗"/><glyph d="M630 1176h-138l-64 -384h-158l63 384h-132l28 143h428zM1029 1319h198l-60 -527h-155l34 268l-95 -268h-128l-2 263l-60 -263h-157l130 527h198l-5 -309z" glyph-name="trademark" horiz-adv-x="1220" unicode="™"/><glyph d="M444 631v-339q0 -22 15 -38q160 -160 423 -160q299 0 463 181h82q-92 -113 -236.5 -176t-311.5 -63q-285 0 -488 181q-201 179 -202 438q0 258 201.5 440.5t488.5 182.5q290 0 491 -182q203 -184 204 -441v-17h-1122q-8 0 -8 -7zM452 695h859q7 0 7 12v317q0 24 -16 41 q-159 159 -420 159q-256 0 -421 -166q-17 -12 -17 -41v-310q-1 -12 8 -12z" glyph-name="estimated" horiz-adv-x="1691" unicode="℮"/><glyph d="M1306 1401l150 -90l-1069 -1342l-155 86zM348 1140l-104 -32l-22 150l230 58h109l-104 -580h-181zM1396 302q65 -44 65 -118q0 -75 -70 -135.5t-186 -60.5q-85 0 -137.5 42t-52.5 110q0 108 111 165q-55 36 -54 101q0 84 69 137t171 53q82 0 131.5 -39.5t49.5 -105.5 q0 -98 -97 -149zM1290 469q-73 0 -73 -68q0 -19 14.5 -31.5t36.5 -12.5q32 0 52.5 18t20.5 45q0 49 -51 49zM1231 128q39 0 57 19t18 42q0 20 -15.5 36t-42.5 16q-29 0 -50.5 -21.5t-21.5 -45.5q0 -46 55 -46z" glyph-name="oneeighth" horiz-adv-x="1600" unicode="⅛"/><glyph d="M1394 1401l151 -90l-1069 -1342l-155 86zM592 927q0 -29 -11 -60.5t-38.5 -66t-86 -55.5t-139.5 -21q-111 0 -180 59l134 108q26 -14 70 -14q56 0 69 45q0 36 -53 35q-5 0 -19 3t-27 3l-21 126l89 61l-135 -8l31 174h374l-29 -149l-137 -109q51 -15 80 -51t29 -80z M1485 302q65 -44 65 -118q0 -75 -70 -135.5t-186 -60.5q-85 0 -137.5 42t-52.5 110q0 108 111 165q-55 36 -54 101q0 84 69 137t171 53q82 0 131.5 -39.5t49.5 -105.5q0 -98 -97 -149zM1379 469q-73 0 -73 -68q0 -19 14.5 -31.5t36.5 -12.5q32 0 52.5 18t20.5 45 q0 49 -51 49zM1319 128q39 0 57 19t18 42q0 20 -15 36t-43 16q-29 0 -50 -21.5t-21 -45.5q-1 -46 54 -46z" glyph-name="threeeighths" horiz-adv-x="1689" unicode="⅜"/><glyph d="M1329 1401l151 -90l-1069 -1342l-155 86zM358 870q73 0 74 60q0 46 -43 46q-15 0 -37 -13l-116 81l71 272h319l-29 -169l-174 12l-15 -56q7 2 19 1q82 0 131.5 -46t49.5 -119q0 -82 -62.5 -148t-197.5 -66q-116 0 -206 79l117 109q43 -43 99 -43zM1420 302 q65 -44 65 -118q0 -75 -70 -135.5t-186 -60.5q-85 0 -137.5 42t-52.5 110q0 108 111 165q-55 36 -54 101q0 84 69 137t171 53q82 0 131.5 -39.5t49.5 -105.5q0 -98 -97 -149zM1314 469q-73 0 -73 -68q0 -19 14.5 -31.5t36.5 -12.5q32 0 52.5 18t20.5 45q0 49 -51 49z M1254 128q39 0 57 19t18 42q0 20 -15 36t-43 16q-29 0 -50 -21.5t-21 -45.5q-1 -46 54 -46z" glyph-name="fiveeighths" horiz-adv-x="1624" unicode="⅝"/><glyph d="M1234 1401l150 -90l-1068 -1342l-156 86zM389 736h-196l278 419l-234 -15l33 176h404l-29 -150zM1324 302q65 -44 65 -118q0 -75 -70 -135.5t-186 -60.5q-85 0 -137 42t-52 110q0 108 111 165q-55 36 -55 101q0 84 69 137t172 53q82 0 131.5 -39.5t49.5 -105.5 q-1 -98 -98 -149zM1219 469q-73 0 -74 -68q0 -19 14.5 -31.5t36.5 -12.5q32 0 53 18t21 45q0 49 -51 49zM1159 128q39 0 57 19t18 42q0 20 -15.5 36t-42.5 16q-29 0 -50.5 -21.5t-21.5 -45.5q0 -46 55 -46z" glyph-name="seveneighths" horiz-adv-x="1529" unicode="⅞"/><glyph d="M814 935h-135l-126 -710h136l-39 -225h-573l39 225h137l126 710h-138l41 226h573z" glyph-name="uni2160" horiz-adv-x="889" unicode="Ⅰ"/><glyph d="M1341 935h-136l-126 -710h136l-39 -225h-1099l39 225h137l126 710h-138l41 226h1099zM778 225l127 710h-226l-126 -710h225z" glyph-name="uni2161" horiz-adv-x="1416" unicode="Ⅱ"/><glyph d="M1867 935h-136l-127 -710h137l-39 -225h-1625l39 225h137l126 710h-138l41 226h1624zM553 225h225l127 710h-226zM1304 225l126 710h-225l-126 -710h225z" glyph-name="uni2162" horiz-adv-x="1940" unicode="Ⅲ"/><glyph d="M1690 1161h353l-633 -1161h-372l-181 935h-178l-126 -710h136l-39 -225h-573l39 225h137l126 710h-138l41 226h882l111 -867z" glyph-name="uni2163" horiz-adv-x="1978" unicode="Ⅳ"/><glyph d="M1405 1161l-634 -1161h-370l-227 1161h352l112 -867l413 867h354z" glyph-name="uni2164" horiz-adv-x="1338" unicode="Ⅴ"/><glyph d="M1896 935h-135l-126 -710h137l-40 -225h-573l39 225h137l126 710h-179l-512 -935h-371l-225 1161h353l108 -867l418 867h884z" glyph-name="uni2165" horiz-adv-x="1971" unicode="Ⅵ"/><glyph d="M2423 935h-136l-126 -710h136l-39 -225h-1099l39 225h137l126 710h-179l-512 -935h-371l-225 1161h353l108 -867l418 867h1410zM1860 225l127 710h-226l-126 -710h225z" glyph-name="uni2166" horiz-adv-x="2498" unicode="Ⅶ"/><glyph d="M2946 935h-135l-126 -710h136l-39 -225h-1623l39 225h137l126 710h-179l-512 -935h-371l-225 1161h353l108 -867l418 867h1934zM1635 225h225l127 710h-226zM2384 225l127 710h-224l-126 -710h223z" glyph-name="uni2167" horiz-adv-x="3020" unicode="Ⅷ"/><glyph d="M1789 1161l-465 -593l272 -568h-323l-145 316l-242 -316h-809l39 225h137l126 710h-138l41 226h780l146 -357l261 357h320zM746 225l275 343l-173 367h-169l-126 -710h193z" glyph-name="uni2168" horiz-adv-x="1716" unicode="Ⅸ"/><glyph d="M-27 0l452 568l-280 593h319l149 -357l259 357h319l-461 -593l270 -568h-322l-146 316l-240 -316h-319z" glyph-name="uni2169" horiz-adv-x="1121" unicode="Ⅹ"/><glyph d="M1637 935h-137l-126 -710h136l-39 -225h-811l-129 316l-258 -316h-321l473 568l-256 593h319l135 -357l271 357h782zM1073 225l127 710h-171l-300 -367l152 -343h192z" glyph-name="uni216A" horiz-adv-x="1711" unicode="Ⅺ"/><glyph d="M2220 935h-136l-126 -710h138l-41 -225h-1379l-145 316l-243 -316h-319l453 568l-277 593h319l145 -357l261 357h1390zM889 225h243l126 710h-243l-288 -367zM1657 225l126 710h-225l-126 -710h225z" glyph-name="uni216B" horiz-adv-x="2295" unicode="Ⅻ"/><glyph d="M425 275h529l-44 -275h-833l203 1161h300z" glyph-name="uni216C" horiz-adv-x="1097" unicode="Ⅼ"/><glyph d="M1217 963l-268 -173q-73 128 -195 128q-152 0 -245.5 -119.5t-93.5 -286.5q0 -118 57 -192t165 -74q126 0 237 131l213 -172q-99 -108 -228.5 -168.5t-269.5 -60.5q-213 0 -343 141t-130 364q0 299 199 503t485 204q142 0 251.5 -59.5t165.5 -165.5z" glyph-name="uni216D" horiz-adv-x="1210" unicode="Ⅽ"/><glyph d="M811 1161q234 0 370.5 -132.5t136.5 -354.5q0 -294 -204 -484t-506 -190h-531l203 1161h531zM652 271q160 0 256 101.5t96 264.5q0 113 -64 182.5t-179 69.5h-230l-108 -618h229z" glyph-name="uni216E" horiz-adv-x="1396" unicode="Ⅾ"/><glyph d="M1205 1161h375l-116 -1161h-297l82 746l-380 -746h-239l-120 707l-174 -707h-300l290 1161h375l122 -748z" glyph-name="uni216F" horiz-adv-x="1669" unicode="Ⅿ"/><glyph d="M1451 771l-43 -230h-910l142 -157l-177 -162l-352 437l509 440l116 -154l-209 -174h924z" glyph-name="arrowleft" horiz-adv-x="1472" unicode="←"/><glyph d="M1036 887l-184 -145l-130 168l-164 -910h-230l167 923l-205 -181l-131 145l515 432z" glyph-name="arrowup" horiz-adv-x="1049" unicode="↑"/><glyph d="M1430 659l-160 -140l-2 2l-348 -299l-116 162l196 157h-911l42 230h920l-150 174l176 154z" glyph-name="arrowright" horiz-adv-x="1464" unicode="→"/><glyph d="M995 432l-348 -295l-162 -137l-367 432l177 145l142 -179l167 921h231l-166 -911l186 169z" glyph-name="arrowdown" horiz-adv-x="1129" unicode="↓"/><glyph d="M1693 659l-160 -140l-2 2l-348 -299l-116 162l196 157h-765l142 -157l-177 -162l-352 437l509 440l116 -154l-209 -174h787l-150 174l176 154z" glyph-name="arrowboth" horiz-adv-x="1739" unicode="↔"/><glyph d="M804 447l138 -147l-346 -293l-163 -137l-366 430l177 147l142 -177l141 783l-203 -179l-133 147l521 430l356 -430l-184 -147l-128 167l-138 -763z" glyph-name="arrowupdn" horiz-adv-x="1068" unicode="↕"/><glyph d="M1091 273l-188 -164l-533 647l-34 -244h-217l108 613l618 7l-36 -212l-253 3z" glyph-name="uni2196" horiz-adv-x="1172" unicode="↖"/><glyph d="M567 1132l612 -7l-104 -613h-217l50 241l-758 -644l-135 164l765 650l-254 -3z" glyph-name="uni2197" horiz-adv-x="1174" unicode="↗"/><glyph d="M910 768h213l-114 -614l-613 -4l39 219l243 -9l-535 644l195 163l534 -653z" glyph-name="uni2198" horiz-adv-x="1182" unicode="↘"/><glyph d="M1231 1004l-760 -644l248 9l-41 -219l-613 4l99 614h213l-48 -253l762 652z" glyph-name="uni2199" horiz-adv-x="1191" unicode="↙"/><glyph d="M710 1234q176 0 267 -121t91 -326q0 -118 -24.5 -233t-76.5 -220t-126.5 -184.5t-182 -127.5t-233.5 -48q-191 0 -271.5 114.5t-56.5 290.5q26 184 168.5 291t297.5 107q152 0 217 -117q5 72 5 115q0 215 -130 215q-94 0 -186 -67l-140 183q73 56 176.5 92t204.5 36z M495 220q154 0 230 188q-15 63 -59.5 103t-98.5 40q-65 0 -113 -52t-63 -120q-17 -60 3.5 -109.5t100.5 -49.5z" glyph-name="partialdiff" horiz-adv-x="1140" unicode="∂"/><glyph d="M1172 876l-110 -94q61 -101 61 -232q0 -101 -38.5 -201t-110 -185t-192 -138t-268.5 -53q-181 0 -294 92l-112 -96l-84 104l111 94q-51 89 -51 214q0 261 174.5 423t430.5 162q169 0 282 -87l118 101zM341 416q0 -38 7 -66l434 369q-53 44 -130 44q-137 0 -224 -108 t-87 -239zM862 519q0 43 -10 83l-439 -373q53 -53 138 -53q133 0 222 107.5t89 235.5z" glyph-name="emptyset" horiz-adv-x="1196" unicode="∅"/><glyph d="M1161 1321l-50 -280h-22l-183 -1041h-305l182 1041h-210l-182 -1041h-306l183 1041h-24l50 280h867z" glyph-name="product" horiz-adv-x="1138" unicode="∏"/><glyph d="M1012 1161l-48 -289l-447 24l174 -449l-331 -456l454 24l-51 -288h-746l43 249h1l342 471l-179 464l42 250h746z" glyph-name="summation" horiz-adv-x="988" unicode="∑"/><glyph d="M920 836l-44 -263h-716l45 262z" glyph-name="minus" horiz-adv-x="996" unicode="−"/><glyph d="M1029 893q121 0 193.5 -73.5t72.5 -188.5q0 -148 -105 -251.5t-250 -103.5q-169 0 -254 140q-145 -140 -299 -140q-113 0 -184.5 73t-71.5 185q0 154 110.5 256.5t268.5 102.5q162 0 239 -137q125 137 280 137zM408 464q108 0 208 120q-17 68 -49.5 94.5t-86.5 26.5 q-82 0 -129 -37.5t-47 -104.5q0 -46 29 -72.5t75 -26.5zM975 464q65 0 107.5 38.5t42.5 101.5q0 46 -33.5 73.5t-96.5 27.5q-55 0 -91.5 -27.5t-91.5 -102.5q54 -111 163 -111z" glyph-name="infinity" horiz-adv-x="1387" unicode="∞"/><glyph d="M-205 -512l45 271h51q77 0 127 41t64 118l159 908q87 493 578 493h19l-46 -271h-48q-77 0 -125.5 -41t-60.5 -118l-160 -908q-87 -493 -581 -493h-22z" glyph-name="integral" horiz-adv-x="764" unicode="∫"/><glyph d="M401 744h-184q20 131 113 208t197 77q58 0 101.5 -26.5t80.5 -53.5t78 -27q70 0 87 100h182q-29 -147 -114 -217.5t-189 -70.5q-49 0 -88 18.5t-59.5 40t-47.5 40.5t-56 19q-84 0 -101 -108zM340 404h-185q20 131 113.5 208t197.5 77q58 0 101.5 -27t79.5 -53.5t77 -26.5 q72 0 88 101h183q-29 -148 -112.5 -218.5t-186.5 -70.5q-61 0 -105.5 30t-78.5 59t-70 29q-85 0 -102 -108z" glyph-name="approxequal" horiz-adv-x="1121" unicode="≈"/><glyph d="M969 1145l-111 -157h101l-43 -232h-220l-92 -133h290l-41 -232h-413l-170 -244l-115 70l121 174h-122l42 232h243l93 133h-315l42 230l436 2l158 227z" glyph-name="notequal" horiz-adv-x="1076" unicode="≠"/><glyph d="M838 703l-454 -92l432 -72l-87 -208l-562 133l33 178h1l19 107l611 169zM102 82l31 183l659 -2l-29 -181h-661z" glyph-name="lessequal" horiz-adv-x="940" unicode="≤"/><glyph d="M819 749l-29 -177h-3l-19 -108l-602 -133l-18 208l460 72l-422 92l82 215zM44 82l29 181l659 2l-29 -183h-659z" glyph-name="greaterequal" horiz-adv-x="942" unicode="≥"/><glyph d="M753 1161l320 -591l-523 -570h-84l-321 570l524 591h84zM427 573l124 -273h19l222 273l-128 287h-12z" glyph-name="lozenge" horiz-adv-x="1181" unicode="◊"/><glyph d="M616 362l-321 -116l74 317l-154 246l321 89l220 263l126 -263l292 -89l-246 -246l-35 -317z" glyph-name="uni2605" horiz-adv-x="1269" unicode="★"/><glyph d="M616 362l-321 -116l74 317l-154 246l321 89l220 263l126 -263l292 -89l-246 -246l-35 -317zM650 544l108 -42l20 124l89 101l-109 39l-53 101l-91 -101l-129 -39l59 -101l-22 -124z" glyph-name="uni2606" horiz-adv-x="1269" unicode="☆"/><glyph d="M1370 343q-10 -63 20 -82.5t93 -7.5l4 -229q-113 -39 -199.5 -43.5t-148.5 36.5t-76 130q-177 -177 -478 -178q-210 0 -334.5 153t-124.5 400q0 346 202.5 587t499.5 241q280 0 391 -193l29 162h295zM713 246q147 0 249.5 82t148.5 218l31 173v30q0 148 -73.5 238 t-210.5 90q-196 0 -310.5 -147t-114.5 -358q0 -148 71 -237t209 -89z" glyph-name="uni2C6D" horiz-adv-x="1578" unicode="Ɑ"/><glyph d="M215 1319h1072l-46 -273h-1072zM94 626l46 273h1072l-46 -273h-389l-108 -626h-295l107 626h-387z" glyph-name="uni3012" horiz-adv-x="1208" unicode="〒"/><glyph d="M1063 973q51 -171 51 -398q0 -58 -13 -118q-3 -9 -9 -1q-9 19 -21.5 35t-22.5 24l-9 7q2 -3 5.5 -9t12 -25t12 -36t5 -43.5t-6.5 -48.5q-17 -48 -58 -84q-7 -3 -7 4q-2 17 -8 30.5t-11 20.5l-5 5q0 -5 -1 -12.5t-8.5 -31.5t-18.5 -46t-37 -51t-60 -52q-2 0 -4 -1.5l-4 -3 t-4 -1.5q-5 -3 -8.5 -1t0.5 7q5 12 7.5 23t2.5 17l-2 5q-5 -9 -15 -24.5t-50 -45t-88 -43.5q-48 14 -87.5 42t-54.5 50l-15 21q-5 -19 7 -45q2 -5 0 -7.5t-7 1.5q-2 2 -6 4t-8 2q-55 36 -85.5 84t-35.5 78l-3 31q-19 -19 -24 -56q0 -7 -7 -4q-41 34 -57 84q-10 43 -4 78.5 t20 59.5l12 24q-34 -26 -53 -66q-9 -10 -10 1q-14 60 -14 118q0 101 13 201t25 149l13 48q3 15 12 17q114 31 210 43l14 34q2 2 3 1q44 -15 62 -10q38 9 75 75q3 3 5 0q38 -67 75 -75q22 -5 61 10q3 0 4 -1l13 -34q68 -9 210 -43q9 -3 12 -17zM478 975q-2 0 3 -26.5 t11 -54.5l5 -27q41 39 95 39h4q15 0 27 -5q24 -7 40 -24t20 -30l5 -12q2 3 3.5 7.5t4 18t0.5 23.5q20 12 40 18t36 5t31.5 -4.5t26 -9.5t19 -11.5t11.5 -11.5l5 -3l16 111l-58 -44l-29 87l-58 -58l-57 100l-59 -97l-52 58l-30 -92zM413 823q20 -2 31 -21q15 15 41 26 q-5 10 -16.5 17.5t-21.5 11.5l-8 1l22 14q-56 14 -86 -39q-14 -29 -9.5 -53t16.5 -39l12 -14q3 17 16 36q9 15 9.5 29.5t-3.5 23.5zM966 727q5 5 11 14.5t15.5 38.5t-7.5 53q-14 24 -35.5 33.5t-34.5 7.5l-16 -2l23 -14q-34 -9 -46 -30q24 -10 42 -26q5 9 12 14t12 7h5 q-15 -24 4 -58zM879 561q9 0 17.5 -5t11.5 -10l5 -5q0 58 -39 82q2 7 4.5 17t1.5 39t-9.5 51.5t-36.5 43.5t-73 26l16 21q-63 7 -98 -46q-15 24 -40 35t-42 11h-15q15 -14 15 -21q-70 -9 -98 -53t-21 -85l7 -39q-17 -10 -27.5 -30.5t-10.5 -36.5l-2 -15q15 20 35 20 q-3 -5 -7.5 -13.5t-9 -39t10.5 -61.5l21 -37q20 24 44 42q-19 31 -18 58q0 48 42 87q-24 -41 -19 -82q12 -39 33 -39q10 0 46 25.5t41 39.5q10 27 2 50q-12 10 -28.5 17.5t-26.5 9.5l-10 3q7 20 22 29q7 3 28 -2.5t28 -5.5t28.5 6t28 2.5t12 -11.5t6.5 -13l2 -5 q-39 -7 -63 -30q-3 -5 -2.5 -21.5t5.5 -28.5q3 -14 39 -39.5t48 -25.5q7 0 17.5 13t13.5 26q5 41 -19 82q41 -38 41 -87q0 -12 -4 -26.5t-9 -22.5l-4 -9l45 -42q10 14 18 37q12 36 12 61.5t-7 39.5zM543 707l-26 15q60 -3 94 -15q-3 -17 -13.5 -36t-17.5 -29l-8 -12l3 30 h-10q-12 0 -21.5 9t-9.5 19t9 19zM787 630q-27 32 -38 77q15 5 38.5 9t38.5 4l17 2l-24 -14q5 -10 5 -17q0 -29 -30 -29q-2 0 -5.5 1t-5.5 1zM737 369q14 12 22.5 29t8.5 27l2 10q-17 24 -48 48t-43 24t-42.5 -24t-45.5 -48q-5 -39 27 -60v14q31 -24 61 -24q14 0 34 7 q22 10 23 27q3 -7 4 -14.5t-1 -12.5z" glyph-name="uniF8FF" horiz-adv-x="1315" unicode=""/><glyph d="M903 1350q249 0 394 -154.5t145 -407.5q0 -346 -221 -582.5t-557 -236.5q-246 0 -392 158t-146 412q0 343 222 577t555 234zM548 952l138 -99q75 87 147 87q31 0 58 -20.5t27 -61.5q0 -138 -229 -138l-8 -234h150l34 98q259 65 260 300q0 99 -69.5 163t-191.5 64 q-102 0 -187 -46t-129 -113zM734 377q-44 0 -70.5 -28t-26.5 -76q0 -31 17.5 -51.5t50.5 -20.5q39 0 67 32.5t28 73.5q0 31 -17.5 50.5t-48.5 19.5z" glyph-name="uniFFFD" horiz-adv-x="1503" unicode="�"/><glyph d="M1183 0h-316q2 140 -5 280h-476q-31 -82 -99 -280h-316q102 253 172 413t202.5 414.5t284.5 491.5h355q89 -333 131.5 -624.5t66.5 -694.5zM503 560h335q-27 229 -80 479q-154 -257 -255 -479z" glyph-name="A.salt" horiz-adv-x="1320"/><glyph d="M1178 1556l-444 -110l-24 102l428 225zM1183 0h-316q2 140 -5 280h-476q-31 -82 -99 -280h-316q102 253 172 413t202.5 414.5t284.5 491.5h355q89 -333 131.5 -624.5t66.5 -694.5zM503 560h335q-27 229 -80 479q-154 -257 -255 -479z" glyph-name="Aacute.salt" horiz-adv-x="1320"/><glyph d="M831 1451q-256 0 -218 249h177q2 -10 0 -31.5t17 -43t57 -21.5q24 0 42.5 8.5t28.5 22.5t16 26t10.5 24.5t4.5 14.5h177q-24 -109 -99 -179t-213 -70zM1183 0h-316q2 140 -5 280h-476q-31 -82 -99 -280h-316q102 253 172 413t202.5 414.5t284.5 491.5h355 q89 -333 131.5 -624.5t66.5 -694.5zM503 560h335q-27 229 -80 479q-154 -257 -255 -479z" glyph-name="Abreve.salt" horiz-adv-x="1320"/><glyph d="M882 1447h-83l-219 226l98 102l194 -111l242 111l60 -102zM1183 0h-316q2 140 -5 280h-476q-31 -82 -99 -280h-316q102 253 172 413t202.5 414.5t284.5 491.5h355q89 -333 131.5 -624.5t66.5 -694.5zM503 560h335q-27 229 -80 479q-154 -257 -255 -479z" glyph-name="uni01CD.salt" horiz-adv-x="1320"/><glyph d="M857 1550l-239 -111l-60 102l290 225h86l216 -225l-95 -102zM1183 0h-316q2 140 -5 280h-476q-31 -82 -99 -280h-316q102 253 172 413t202.5 414.5t284.5 491.5h355q89 -333 131.5 -624.5t66.5 -694.5zM503 560h335q-27 229 -80 479q-154 -257 -255 -479z" glyph-name="Acircumflex.salt" horiz-adv-x="1320"/><glyph d="M669 1457q-43 0 -69.5 28.5t-26.5 74.5q0 61 38.5 100.5t101.5 39.5q43 0 69.5 -27.5t26.5 -73.5q0 -55 -41 -98.5t-99 -43.5zM1007 1457q-44 0 -70 28.5t-26 74.5q0 61 38.5 100.5t100.5 39.5q44 0 69.5 -27.5t25.5 -73.5q0 -56 -40 -99t-98 -43zM1183 0h-316 q2 140 -5 280h-476q-31 -82 -99 -280h-316q102 253 172 413t202.5 414.5t284.5 491.5h355q89 -333 131.5 -624.5t66.5 -694.5zM503 560h335q-27 229 -80 479q-154 -257 -255 -479z" glyph-name="Adieresis.salt" horiz-adv-x="1320"/><glyph d="M975 1548l-62 -102l-399 110l117 217zM1183 0h-316q2 140 -5 280h-476q-31 -82 -99 -280h-316q102 253 172 413t202.5 414.5t284.5 491.5h355q89 -333 131.5 -624.5t66.5 -694.5zM503 560h335q-27 229 -80 479q-154 -257 -255 -479z" glyph-name="Agrave.salt" horiz-adv-x="1320"/><glyph d="M1176 1650l-29 -172h-597l29 172h597zM1183 0h-316q2 140 -5 280h-476q-31 -82 -99 -280h-316q102 253 172 413t202.5 414.5t284.5 491.5h355q89 -333 131.5 -624.5t66.5 -694.5zM503 560h335q-27 229 -80 479q-154 -257 -255 -479z" glyph-name="Amacron.salt" horiz-adv-x="1320"/><glyph d="M877 -254q39 0 82 34l39 -89q-85 -75 -174 -78q-90 -3 -129.5 42t-20.5 120q19 55 75.5 118t117.5 107q2 140 -5 280h-476q-31 -82 -99 -280h-316q102 253 172 413t202.5 414.5t284.5 491.5h355q89 -333 131.5 -624.5t66.5 -694.5h-198q-116 -125 -137 -160 q-14 -26 -13 -52q-1 -42 42 -42zM503 560h335q-27 229 -80 479q-154 -257 -255 -479z" glyph-name="Aogonek.salt" horiz-adv-x="1320"/><glyph d="M826 1411q-75 0 -117.5 49t-42.5 127q0 108 66.5 176t170.5 68q73 0 116.5 -47t43.5 -123q0 -99 -69 -174.5t-168 -75.5zM876 1705q-34 0 -61.5 -29t-27.5 -68q0 -29 18 -48t45 -19q39 0 64.5 28t25.5 68q0 29 -17.5 48.5t-46.5 19.5zM1183 0h-316q2 140 -5 280h-476 q-31 -82 -99 -280h-316q102 253 172 413t202.5 414.5t284.5 491.5h355q89 -333 131.5 -624.5t66.5 -694.5zM503 560h335q-27 229 -80 479q-154 -257 -255 -479z" glyph-name="Aring.salt" horiz-adv-x="1320"/><glyph d="M720 1538q-75 0 -90 -101h-169q20 121 106.5 195.5t176.5 74.5q51 0 88.5 -26t68.5 -51.5t65 -25.5q55 0 72 96h170q-26 -138 -102.5 -205t-168.5 -67q-43 0 -77 17.5t-52 38t-41 37.5t-47 17zM630 1319h355q89 -333 131.5 -624.5t66.5 -694.5h-316q2 140 -5 280h-476 q-31 -82 -99 -280h-316q102 253 172 413t202.5 414.5t284.5 491.5zM503 560h335q-27 229 -80 479q-154 -257 -255 -479z" glyph-name="Atilde.salt" horiz-adv-x="1320"/><glyph d="M1447 748l-12 -65q-61 -321 -263.5 -515t-500.5 -194q-256 0 -398.5 152t-142.5 406q0 370 226 595.5t562 225.5q213 0 344 -96t156 -235l-295 -114q-31 92 -87 145t-166 53q-191 0 -313 -158t-122 -397q0 -148 66.5 -237t205.5 -89q256 0 370 275h-374l46 248h698z" glyph-name="G.salt" horiz-adv-x="1500"/><glyph d="M916 1451q-256 0 -218 249h178q2 -10 0 -31.5t16.5 -43t56.5 -21.5q24 0 42.5 8.5t29 22.5t16.5 26t10 24.5t4 14.5h178q-24 -109 -99.5 -179t-213.5 -70zM1447 748l-12 -65q-61 -321 -263.5 -515t-500.5 -194q-256 0 -398.5 152t-142.5 406q0 370 226 595.5t562 225.5 q213 0 344 -96t156 -235l-295 -114q-31 92 -87 145t-166 53q-191 0 -313 -158t-122 -397q0 -148 66.5 -237t205.5 -89q256 0 370 275h-374l46 248h698z" glyph-name="Gbreve.salt" horiz-adv-x="1500"/><glyph d="M968 1447h-84l-218 226l97 102l194 -111l243 111l60 -102zM1447 748l-12 -65q-61 -321 -263.5 -515t-500.5 -194q-256 0 -398.5 152t-142.5 406q0 370 226 595.5t562 225.5q213 0 344 -96t156 -235l-295 -114q-31 92 -87 145t-166 53q-191 0 -313 -158t-122 -397 q0 -148 66.5 -237t205.5 -89q256 0 370 275h-374l46 248h698z" glyph-name="Gcaron.salt" horiz-adv-x="1500"/><glyph d="M1447 748l-12 -65q-61 -321 -263.5 -515t-500.5 -194q-256 0 -398.5 152t-142.5 406q0 370 226 595.5t562 225.5q213 0 344 -96t156 -235l-295 -114q-31 92 -87 145t-166 53q-191 0 -313 -158t-122 -397q0 -148 66.5 -237t205.5 -89q256 0 370 275h-374l46 248h698z M643 -121q123 0 123 -142q0 -24 -5 -41q-38 -222 -275 -254l-8 92q102 17 135 65h-17q-51 0 -81 32.5t-30 83.5q0 72 45 118t113 46z" glyph-name="Gcommaaccent.salt" horiz-adv-x="1500"/></font>
</defs>
</svg>
