<svg xmlns="http://www.w3.org/2000/svg">
<defs>
<font horiz-adv-x="0" id="ywftsvg"><font-face ascent="1638" bbox="-995 -990 3048 2181.2" cap-height="1319" descent="-410" font-family="" font-stretch="normal" font-weight="900" panose-1="2 11 0 3 5 4 1 2 5 4" underline-position="0" underline-thickness="0" unicode-range="U+0020-FFFD" units-per-em="2048" x-height="939"/><missing-glyph d="M1027 973q51 -171 52 -398q0 -58 -14 -118q-3 -9 -9 -1q-9 19 -21.5 35t-20.5 24l-10 7q2 -3 5 -9t11.5 -25t12 -36t5 -43.5t-6.5 -48.5q-17 -48 -58 -84q-7 -3 -7 4q-2 17 -8 30.5t-11 20.5l-5 5q0 -5 -1 -12.5t-8.5 -31.5t-18.5 -46t-36.5 -51t-60.5 -52q-2 0 -4 -1.5 l-4 -3t-3 -1.5q-5 -3 -8.5 -1t-0.5 7q5 12 7.5 23t1.5 17v5q-5 -9 -15.5 -24.5t-50.5 -45t-88 -43.5q-48 14 -87 42t-55 50l-15 21q-5 -19 7 -45q2 -5 0 -7.5t-7 1.5q-3 2 -6.5 4t-7.5 2q-55 36 -85.5 84t-33.5 78l-5 31q-19 -19 -24 -56q0 -7 -7 -4q-41 34 -56 84 q-10 43 -4.5 78.5t17.5 59.5l14 24q-34 -26 -53 -66q-9 -10 -10 1q-14 60 -14 118q0 101 13 201t26 149l12 48q3 15 12 17q114 31 210 43l14 34q2 2 3 1q44 -15 62 -10q38 9 75 75q2 3 5 0q38 -67 75 -75q22 -5 61 10q3 0 4 -1l14 -34q68 -9 209 -43q9 -3 12 -17zM442 975 q-2 0 3.5 -26.5t10.5 -54.5l5 -27q41 39 95 39h4q14 0 27 -5q24 -7 40 -24t22 -30l3 -12q2 3 3.5 7.5t4 18t0.5 23.5q20 12 40 18t36.5 5t31.5 -4.5t25.5 -9.5t19 -11.5t13.5 -11.5l3 -3l16 111l-58 -44l-29 87l-58 -58l-57 100l-59 -97l-52 58l-30 -92zM377 823 q20 -2 31 -21q15 15 41 26q-5 10 -16 17.5t-20 11.5l-10 1l22 14q-56 14 -85 -39q-14 -29 -9.5 -53t15.5 -39l12 -14q3 17 16 36q9 15 9.5 29.5t-2.5 23.5zM930 727q5 5 11 14.5t15.5 38.5t-7.5 53q-14 24 -35 33.5t-37 7.5l-13 -2l22 -14q-34 -9 -46 -30q24 -10 42 -26 q5 9 12 14t12 7h5q-15 -24 4 -58zM843 561q9 0 17.5 -5t13.5 -10l3 -5q0 58 -39 82q2 7 4.5 17t1.5 39t-9.5 51.5t-36.5 43.5t-73 26l16 21q-63 7 -98 -46q-15 24 -39.5 35t-40.5 11h-17q15 -14 15 -21q-70 -9 -98 -53t-21 -85l7 -39q-17 -10 -27.5 -30.5t-11.5 -36.5v-15 q15 20 34 20q-3 -5 -7.5 -13.5t-9 -39t11.5 -61.5l20 -37q20 24 44 42q-19 31 -18 58q0 48 42 87q-24 -41 -18 -82q12 -39 32 -39q10 0 46 25.5t41 39.5q10 27 2 50q-12 10 -28
<glyph d="M1398 1155q-34 12 -49.5 16.5t-49 10.5t-50.5 -2t-37.5 -24t-30 -52t-9.5 -89v-76h195v-304h-195v-635h-358v635h-317v-635h-359v635h-112v304h112v1q0 154 54 266.5t139 166.5t188.5 72t208.5 -7t190 -81q154 191 483 77zM497 939h317v47q0 60 9 123q-70 60 -144.5 68.5 t-128 -52t-53.5 -186.5z" glyph-name="f_f.liga" horiz-adv-x="1445" unicode="ff"/><glyph d="M1780 939v-939h-369v635h-239v-635h-358v635h-317v-635h-359v635h-112v304h112v1q0 133 41 236.5t107.5 161.5t152 88t175 25.5t176.5 -33.5t157 -82q97 87 253.5 110t304 -6t268.5 -90l-121 -292q-80 32 -157.5 50t-153.5 20t-122.5 -34t-46.5 -109v-46h608zM497 939 h317v49q0 67 10 120q-51 44 -108 60t-106.5 1t-81 -74t-31.5 -156z" glyph-name="f_f_i.liga" horiz-adv-x="1911" unicode="ffi"/><glyph d="M1963 302l53 -273q-84 -29 -155.5 -41t-141.5 -1t-119.5 50.5t-79.5 120.5t-30 200v821q-154 41 -235 3.5t-81 -167.5v-76h181v-304h-181v-635h-358v635h-318v-635h-360v635h-112v304h112v1q0 130 38.5 230.5t101.5 159.5t145 90.5t169 31.5t172.5 -24.5t157.5 -72.5 q80 80 224 106.5t312 11t387 -64.5l-2 -12h2v-997q0 -116 118 -97zM498 939h318v111q0 24 3 64q-51 43 -107.5 56.5t-104 -2.5t-78.5 -74.5t-31 -154.5z" glyph-name="f_f_l.liga" horiz-adv-x="2080" unicode="ffl"/><glyph d="M1027 973q51 -171 52 -398q0 -58 -14 -118q-3 -9 -9 -1q-9 19 -21.5 35t-20.5 24l-10 7q2 -3 5 -9t11.5 -25t12 -36t5 -43.5t-6.5 -48.5q-17 -48 -58 -84q-7 -3 -7 4q-2 17 -8 30.5t-11 20.5l-5 5q0 -5 -1 -12.5t-8.5 -31.5t-18.5 -46t-36.5 -51t-60.5 -52q-2 0 -4 -1.5 l-4 -3t-3 -1.5q-5 -3 -8.5 -1t-0.5 7q5 12 7.5 23t1.5 17v5q-5 -9 -15.5 -24.5t-50.5 -45t-88 -43.5q-48 14 -87 42t-55 50l-15 21q-5 -19 7 -45q2 -5 0 -7.5t-7 1.5q-3 2 -6.5 4t-7.5 2q-55 36 -85.5 84t-33.5 78l-5 31q-19 -19 -24 -56q0 -7 -7 -4q-41 34 -56 84 q-10 43 -4.5 78.5t17.5 59.5l14 24q-34 -26 -53 -66q-9 -10 -10 1q-14 60 -14 118q0 101 13 201t26 149l12 48q3 15 12 17q114 31 210 43l14 34q2 2 3 1q44 -15 62 -10q38 9 75 75q2 3 5 0q38 -67 75 -75q22 -5 61 10q3 0 4 -1l14 -34q68 -9 209 -43q9 -3 12 -17zM442 975 q-2 0 3.5 -26.5t10.5 -54.5l5 -27q41 39 95 39h4q14 0 27 -5q24 -7 40 -24t22 -30l3 -12q2 3 3.5 7.5t4 18t0.5 23.5q20 12 40 18t36.5 5t31.5 -4.5t25.5 -9.5t19 -11.5t13.5 -11.5l3 -3l16 111l-58 -44l-29 87l-58 -58l-57 100l-59 -97l-52 58l-30 -92zM377 823 q20 -2 31 -21q15 15 41 26q-5 10 -16 17.5t-20 11.5l-10 1l22 14q-56 14 -85 -39q-14 -29 -9.5 -53t15.5 -39l12 -14q3 17 16 36q9 15 9.5 29.5t-2.5 23.5zM930 727q5 5 11 14.5t15.5 38.5t-7.5 53q-14 24 -35 33.5t-37 7.5l-13 -2l22 -14q-34 -9 -46 -30q24 -10 42 -26 q5 9 12 14t12 7h5q-15 -24 4 -58zM843 561q9 0 17.5 -5t13.5 -10l3 -5q0 58 -39 82q2 7 4.5 17t1.5 39t-9.5 51.5t-36.5 43.5t-73 26l16 21q-63 7 -98 -46q-15 24 -39.5 35t-40.5 11h-17q15 -14 15 -21q-70 -9 -98 -53t-21 -85l7 -39q-17 -10 -27.5 -30.5t-11.5 -36.5v-15 q15 20 34 20q-3 -5 -7.5 -13.5t-9 -39t11.5 -61.5l20 -37q20 24 44 42q-19 31 -18 58q0 48 42 87q-24 -41 -18 -82q12 -39 32 -39q10 0 46 25.5t41 39.5q10 27 2 50q-12 10 -28.5 17.5t-26.5 9.5l-10 3q7 20 22 29q7 3 28.5 -2.5t28 -5.5t28 6t28.5 2.5t12 -11.5t7 -13l1 -5 q-39 -7 -63 -30q-3 -5 -2.5 -21.5t5.5 -28.5q3 -14 39.5 -39.5t48.5 -25.5q7 0 17 13t13 26q5 41 -19 82q41 -38 41 -87q0 -12 -4 -26.5t-8 -22.5l-5 -9l45 -42q10 14 19 37q12 36 11.5 61.5t-8.5 39.5zM507 707l-26 15q60 -3 94 -15q-3 -17 -13.5 -36t-18.5 -29l-7 -12 l3 30h-10q-12 0 -21.5 9t-9.5 19t9 19zM751 630q-27 32 -38 77q15 5 38.5 9t40.5 4l15 2l-24 -14q5 -10 5 -17q0 -29 -30 -29q-2 0 -5.5 1t-4.5 1zM701 369q14 12 22.5 29t10.5 27v10q-17 24 -48 48t-43 24t-42.5 -24t-45.5 -48q-5 -39 27 -60v14q31 -24 61 -24q14 0 35 7 q22 10 22 27q3 -7 4 -14.5t-1 -12.5z" glyph-name=".notdef" horiz-adv-x="1298"/><glyph glyph-name="glyph1"/><glyph glyph-name="glyph2" horiz-adv-x="682"/><glyph glyph-name="space" horiz-adv-x="488" unicode=" "/><glyph d="M428 391h-220l-53 706l-24 371h379l-18 -371zM316 242q56 0 92 -37.5t36 -98.5q0 -55 -36 -97.5t-92 -42.5q-58 0 -94 40t-36 100q0 63 35 99.5t95 36.5z" glyph-name="exclam" horiz-adv-x="633" unicode="!"/><glyph d="M297 1056h-191l-55 412h294zM671 1056h-190l-54 412h293z" glyph-name="quotedbl" horiz-adv-x="773" unicode="&quot;"/><glyph d="M1190 666h-204l-44 -192h166v-225h-219l-60 -249h-247l58 249l-189 -2l-58 -247h-250l58 247h-121l-1 227h177l46 193h-145l-2 229h200l63 265h248l-62 -265h188l61 265h251l-63 -265h149v-230zM693 474l44 192l-187 1l-47 -193h190z" glyph-name="numbersign" horiz-adv-x="1268" unicode="#"/><glyph d="M877 408q0 -111 -79 -192t-206 -102l14 -114h-212l17 118q-155 32 -298 184l170 205q56 -65 126.5 -107.5t111.5 -42.5q22 0 40.5 12.5t18.5 21.5q0 31 -42.5 55.5t-103 48.5t-121 56.5t-103.5 92t-43 141.5q0 89 69 160.5t191 92.5l-17 123h210l-16 -120 q142 -20 261 -119l-176 -193q-109 85 -174 85q-41 -3 -42 -41q0 -24 41.5 -44.5t101.5 -42.5t119 -53t100.5 -88.5t41.5 -136.5z" glyph-name="dollar" horiz-adv-x="1006" unicode="$"/><glyph d="M476 -17l-205 114l726 1154l201 -118zM353.5 1195q124.5 0 210 -73.5t85.5 -196.5q0 -41 -14.5 -83t-46.5 -84.5t-92.5 -69t-142.5 -26.5q-125 0 -206.5 70t-81.5 193q0 125 82 197.5t206.5 72.5zM353 976q-24 0 -24 -51q0 -44 24 -44t24 44q0 51 -24 51zM1090.5 524 q122.5 0 207 -74.5t84.5 -193.5q0 -41 -14.5 -83t-45 -84.5t-91 -70t-140.5 -27.5q-123 0 -206 71t-83 194q0 125 83 196.5t205.5 71.5zM1091 305q-20 0 -21 -49q0 -44 21 -44q27 0 27 44q0 49 -27 49z" glyph-name="percent" horiz-adv-x="1442" unicode="%"/><glyph d="M1282 812q-12 -236 -149 -460l144 -159l-241 -236l-126 142q-167 -126 -371 -126q-198 0 -326.5 122.5t-128.5 319.5q0 90 26.5 154t67 103.5t126.5 102.5q-70 80 -94 135.5t-24 130.5q0 123 114.5 217.5t264.5 94.5q172 0 270.5 -101.5t96.5 -217.5q-2 -172 -155 -288 l116 -128q39 114 59 266zM565 1097q-26 0 -41 -17.5t-15 -38.5q0 -39 68 -89q41 44 41 82q0 26 -16.5 44.5t-36.5 18.5zM572 309q70 0 123 31l-188 210q-60 -68 -55 -135q0 -34 31 -70t89 -36z" glyph-name="ampersand" horiz-adv-x="1356" unicode="&amp;"/><glyph d="M297 1056h-191l-55 412h294z" glyph-name="quotesingle" horiz-adv-x="394" unicode="'"/><glyph d="M725 1377q-154 -160 -228.5 -351t-74.5 -439q0 -464 307 -782l-195 -134q-227 218 -342 432t-115 489q0 283 115 495t344 427z" glyph-name="parenleft" horiz-adv-x="822" unicode="("/><glyph d="M79 1377l191 137q150 -142 244 -266.5t153.5 -292.5t59.5 -363q0 -275 -115 -489t-342 -432l-193 134q307 317 307 782q0 246 -75.5 438t-229.5 352z" glyph-name="parenright" horiz-adv-x="764" unicode=")"/><glyph d="M181 814l164 155l-215 41l92 236l174 -106l-41 208h263l-38 -208l171 106l94 -236l-215 -41l162 -155l-207 -150l-99 189l-100 -189z" glyph-name="asterisk" horiz-adv-x="972" unicode="*"/><glyph d="M1009 689v-310h-265v-295h-343v295h-259l1 309h258v280h343v-279h265z" glyph-name="plus" horiz-adv-x="1152" unicode="+"/><glyph d="M241 348q96 -5 147.5 -72.5t43.5 -169.5q-20 -273 -263 -454q-58 73 -82 87q77 58 130 123t41 111l-33 -4q-75 5 -124.5 64t-45.5 146q5 73 53.5 122.5t132.5 46.5zM227 -31h-2h2z" glyph-name="comma" horiz-adv-x="462" unicode=","/><glyph d="M768 626v-310h-657v310h657z" glyph-name="hyphen" horiz-adv-x="885" unicode="-"/><glyph d="M230 364q80 0 131.5 -55t51.5 -138q0 -80 -51 -139t-132 -59q-82 0 -133 56t-51 142q0 87 50 140t134 53z" glyph-name="period" horiz-adv-x="455" unicode="."/><glyph d="M546 -142h-350l594 1446h347z" glyph-name="slash" horiz-adv-x="1283" unicode="/"/><glyph d="M623 -24q-242 0 -380.5 172.5t-138.5 436.5q0 263 140 434t382 171q237 0 377 -168.5t140 -432.5q0 -270 -140.5 -441.5t-379.5 -171.5zM626 889q-38 0 -66 -13.5t-44 -39t-25.5 -52t-13 -61.5t-4 -57.5t1 -50.5t1.5 -30v-45t2.5 -51.5t8 -60t16.5 -55t25.5 -50.5 t39 -31.5t55.5 -13.5q51 0 83.5 26.5t46 76t18 91.5t4.5 103v42.5t-2 46t-5 55t-9 49.5t-18 48.5t-26.5 36t-38 28t-50.5 8.5z" glyph-name="zero" horiz-adv-x="1245" unicode="0"/><glyph d="M524 1161h230v-1161h-380v814l-193 -68l-97 293z" glyph-name="one" horiz-adv-x="938" unicode="1"/><glyph d="M647 321l319 19v-340h-841v288l348 292q119 106 119 212q0 92 -109 92q-26 0 -53 -14.5t-46 -30.5t-49 -45t-41 -41l-229 227q191 210 450 210q184 0 310 -93t126 -273q0 -242 -238 -449z" glyph-name="two" horiz-adv-x="1090" unicode="2"/><glyph d="M672 645q125 -34 193.5 -116t68.5 -184q0 -65 -20.5 -124t-70 -117t-151 -93t-243.5 -35q-208 0 -372 118l228 217q3 -2 18 -13t23.5 -15.5t24.5 -12t35 -10t43 -2.5q49 0 81.5 32.5t32.5 67.5q0 43 -36.5 67t-77.5 24q-34 0 -64 -3.5t-46 -7t-23 -1.5l-38 229l241 172 l-359 -24v347h748v-296z" glyph-name="three" horiz-adv-x="1042" unicode="3"/><glyph d="M1046 483v-307h-148v-176h-337v176h-423l-75 307l498 678h337v-678h148zM403 483h158v220z" glyph-name="four" horiz-adv-x="1119" unicode="4"/><glyph d="M563 734q171 0 290.5 -89.5t119.5 -265.5q0 -75 -22.5 -142.5t-72 -128t-140.5 -96.5t-216 -36q-82 0 -148.5 13.5t-127 45.5t-84.5 47t-78 56l189 222q125 -97 222 -97q118 0 118 112q0 44 -21.5 80.5t-62.5 36.5q-24 0 -41 -9t-29 -20t-14 -12l-262 162l54 548h642 v-347l-358 29l-12 -113q37 4 54 4z" glyph-name="five" horiz-adv-x="1085" unicode="5"/><glyph d="M691 770q148 0 257.5 -106t109.5 -278q0 -159 -117.5 -281t-329.5 -122q-118 0 -210 42.5t-146 106t-89 144.5t-47.5 151t-12.5 133q0 118 29 226t87 201t158.5 148.5t232.5 55.5q230 0 384 -121l-157 -227q-2 0 -15 7.5t-25 13.5t-32 14.5t-40 15.5t-44 11.5t-46 4.5 q-147 0 -167 -226q83 86 220 86zM601 256q32 0 60 33.5t28 99.5q0 77 -29 117t-68 40q-27 0 -65.5 -19.5t-57.5 -65.5q15 -179 108 -203q9 -2 24 -2z" glyph-name="six" horiz-adv-x="1172" unicode="6"/><glyph d="M89 1161h819v-311l-374 -850h-401l410 828l-454 -29v362z" glyph-name="seven" horiz-adv-x="1039" unicode="7"/><glyph d="M795 606q177 -85 178 -266q0 -150 -116 -257t-319 -107q-198 0 -322 97.5t-124 255.5q0 193 174 277q-150 79 -150 249q0 145 114.5 240t296.5 95q186 0 304 -94t118 -232q0 -178 -154 -258zM531 932q-36 0 -58 -36t-22 -73q0 -44 21 -77t59 -33q36 0 59 33.5t23 76.5 q0 38 -23 73.5t-59 35.5zM531 270q34 0 57 31.5t23 60.5q0 38 -21.5 68.5t-59 30.5t-57 -31t-19.5 -68q0 -29 21.5 -60.5t55.5 -31.5z" glyph-name="eight" horiz-adv-x="1066" unicode="8"/><glyph d="M555 1191q118 0 210 -42.5t145.5 -105.5t88.5 -144.5t47 -150.5t12 -134q0 -94 -17 -181.5t-56.5 -170.5t-96.5 -144.5t-143 -98t-192 -36.5q-237 0 -384 121l157 227q123 -68 201 -68q145 0 166 225q-84 -85 -219 -85q-148 0 -258 105.5t-110 278.5q0 160 118.5 282 t330.5 122zM572 628q29 0 66.5 19.5t56.5 67.5q-5 61 -20.5 105t-29.5 61.5t-37.5 27t-26 9.5h-14.5q-38 0 -72 -34t-34 -99q0 -79 31 -118t80 -39z" glyph-name="nine" horiz-adv-x="1153" unicode="9"/><glyph d="M236 874q84 0 135 -53t51 -142q0 -79 -52.5 -137.5t-137.5 -58.5q-82 0 -129.5 55.5t-47.5 140.5q0 92 47 143.5t134 51.5zM236 364q82 0 134 -55t52 -140q0 -79 -52.5 -137.5t-137.5 -58.5q-82 0 -129.5 55.5t-47.5 140.5q0 90 48 142.5t133 52.5z" glyph-name="colon" horiz-adv-x="460" unicode=":"/><glyph d="M220 483q-82 0 -129.5 55.5t-47.5 140.5q0 92 47 143.5t134 51.5q84 0 135 -53t51 -142q0 -79 -52.5 -137.5t-137.5 -58.5zM256 357q96 -3 148 -71t45 -170q-20 -273 -265 -454q-58 73 -82 87q77 58 131 123t40 111l-31 -3q-75 5 -125 63.5t-45 144.5q5 73 52.5 123.5 t131.5 45.5zM244 -20h-2h2z" glyph-name="semicolon" horiz-adv-x="486" unicode=";"/><glyph d="M534 524l393 -108l-118 -291l-620 221v355l620 222l116 -292z" glyph-name="less" horiz-adv-x="1035" unicode="&lt;"/><glyph d="M867 848v-273h-700l2 272zM867 461v-273h-700l2 271z" glyph-name="equal" horiz-adv-x="1035" unicode="="/><glyph d="M224 923l619 -222v-355l-619 -221l-118 291l392 108l-390 107z" glyph-name="greater" horiz-adv-x="1035" unicode=">"/><glyph d="M563 1485q236 0 376.5 -128t140.5 -326q0 -340 -355 -425l-24 -174h-266l-60 413q184 0 261 47t77 141q0 79 -50 112.5t-98 33.5q-27 0 -53 -8.5t-43.5 -19.5t-38 -29.5t-29 -29t-25 -31t-16.5 -22.5l-283 178q58 113 186 190.5t300 77.5zM565 316q73 0 117.5 -46 t44.5 -123q0 -70 -45 -122t-117 -52q-70 0 -115.5 50t-45.5 124q0 79 44 124t117 45z" glyph-name="question" horiz-adv-x="1198" unicode="?"/><glyph d="M717 1186q270 0 442 -170.5t172 -431.5q0 -130 -66.5 -202.5t-179.5 -72.5q-55 0 -111 25.5t-87 78.5q-72 -116 -228 -116q-118 0 -195.5 85.5t-77.5 211.5q0 128 76.5 214t196.5 86q159 0 227 -116l30 50h88v-307q0 -20 22 -36.5t54 -16.5q34 0 59 32t25 84 q0 215 -128 326.5t-319 111.5q-212 0 -333 -112.5t-121 -325.5q0 -222 128 -329.5t326 -107.5q137 0 232 51l82 -143q-142 -80 -314 -81q-154 0 -275 52.5t-195.5 140t-112.5 194.5t-38 223q0 162 65.5 296t210 220t345.5 86zM712 457q60 0 91.5 37.5t31.5 99.5 q0 65 -32 102.5t-91 37.5q-56 0 -91.5 -38.5t-35.5 -101.5q0 -60 35.5 -98.5t91.5 -38.5z" glyph-name="at" horiz-adv-x="1428" unicode="@"/><glyph d="M1068 0l-80 239h-474l-79 -239h-386l485 1319h432l486 -1319h-384zM625 573h252l-128 381z" glyph-name="A" horiz-adv-x="1506" unicode="A"/><glyph d="M1051 717q85 -49 133 -139t48 -204q0 -164 -102.5 -269t-264.5 -105h-717v1319h663q150 0 244.5 -97t94.5 -249q0 -89 -25.5 -144.5t-73.5 -111.5zM749 1002h-247v-185h220q46 0 85.5 23.5t39.5 69.5q0 41 -27.5 66.5t-70.5 25.5zM812 317q39 0 72.5 31t33.5 74 q0 49 -39 77t-87 28h-290v-210h310z" glyph-name="B" horiz-adv-x="1314" unicode="B"/><glyph d="M1326 1094l-293 -210q-113 140 -255 140q-150 0 -235.5 -104t-85.5 -256q0 -155 86.5 -258.5t234.5 -103.5q150 0 255 142l296 -210q-94 -123 -238 -192t-313 -69q-294 0 -488 195.5t-194 495.5q0 299 191 492.5t491 193.5q171 0 313.5 -67.5t234.5 -188.5z" glyph-name="C" horiz-adv-x="1389" unicode="C"/><glyph d="M761 1319q292 0 472 -183.5t180 -483.5q0 -292 -181.5 -472t-470.5 -180h-613v1319h613zM761 329q133 0 204 87t71 236q0 150 -74.5 244t-200.5 94h-251v-661h251z" glyph-name="D" horiz-adv-x="1510" unicode="D"/><glyph d="M1080 1002h-582v-178l473 -3v-304h-473v-200h582v-317h-932v1319h932v-317z" glyph-name="E" horiz-adv-x="1194" unicode="E"/><glyph d="M1080 990h-570v-234h458v-309h-458v-447h-362v1319h932v-329z" glyph-name="F" horiz-adv-x="1175" unicode="F"/><glyph d="M1256 780v-551q-87 -119 -223.5 -187t-298.5 -68q-276 0 -457 194t-181 499q0 302 176.5 494t463.5 192q324 0 524 -249l-262 -222q-46 60 -119 101t-159 41q-128 0 -195.5 -102.5t-67.5 -255.5q0 -159 74.5 -260.5t214.5 -101.5q77 0 119 34v113h-172v329h563z" glyph-name="G" horiz-adv-x="1385" unicode="G"/><glyph d="M954 1319h362v-1319h-362v493h-444v-493h-362v1319h362v-496h444v496z" glyph-name="H" horiz-adv-x="1466" unicode="H"/><glyph d="M510 0h-362v1319h362v-1319z" glyph-name="I" horiz-adv-x="658" unicode="I"/><glyph d="M89 218l237 193q43 -53 58 -70.5t49.5 -38t73.5 -20.5q162 0 162 206v831h362v-879q0 -463 -488 -462q-160 0 -280.5 71.5t-173.5 168.5z" glyph-name="J" horiz-adv-x="1177" unicode="J"/><glyph d="M1347 0h-460l-377 454v-454h-362v1316h362v-447l364 447h445l-585 -659z" glyph-name="K" horiz-adv-x="1375" unicode="K"/><glyph d="M510 329h570v-329h-932v1319h362v-990z" glyph-name="L" horiz-adv-x="1198" unicode="L"/><glyph d="M1516 0h-355l-41 751l-161 -751h-292l-153 701l-40 -701h-361l85 1321h454l162 -819l161 819h455z" glyph-name="M" horiz-adv-x="1634" unicode="M"/><glyph d="M1058 1319h348v-1319h-356l-548 746v-746h-354v1319h361l549 -754v754z" glyph-name="N" horiz-adv-x="1553" unicode="N"/><glyph d="M744 1348q287 0 465.5 -190t178.5 -496q0 -302 -175 -496.5t-469 -194.5q-285 0 -466.5 194.5t-181.5 496.5t177 494t471 192zM744 1022q-145 0 -216 -101.5t-71 -258.5q0 -160 72 -261t215 -101t214 100t71 262q0 164 -74 262t-211 98z" glyph-name="O" horiz-adv-x="1484" unicode="O"/><glyph d="M546 1318q323 0 471.5 -128t148.5 -354q0 -227 -149.5 -355t-470.5 -128h-36v-353h-362v1318h398zM546 689q126 0 187 36t61 116q0 162 -248 163h-36v-315h36z" glyph-name="P" horiz-adv-x="1281" unicode="P"/><glyph d="M1393 0l-270 -234l-183 229q-96 -27 -196 -27q-285 0 -466.5 194.5t-181.5 496.5q0 300 179 494t469 194q288 0 466.5 -191.5t178.5 -496.5q0 -278 -152 -468zM457 659q0 -157 73.5 -259.5t213.5 -102.5q137 0 212 103t75 259q0 159 -77 260.5t-210 101.5 q-142 0 -214.5 -102.5t-72.5 -259.5z" glyph-name="Q" horiz-adv-x="1488" unicode="Q"/><glyph d="M1278 0h-387l-186 394q-22 -2 -70 -1h-125v-393h-362v1319h519q171 0 288.5 -34t181.5 -99t90.5 -145t26.5 -188q0 -292 -232 -396zM510 691h125q128 0 187.5 31t59.5 128q0 96 -53.5 125.5t-161.5 29.5h-157v-314z" glyph-name="R" horiz-adv-x="1348" unicode="R"/><glyph d="M61 244l267 225q152 -176 314 -175q58 0 99.5 27t41.5 58q0 32 -35.5 60.5t-92 52t-125.5 51t-137.5 64t-124.5 82t-92 115.5t-36 155q0 172 135.5 283t369.5 111q280 0 488 -186l-254 -223q-15 9 -58.5 37t-61 37t-52.5 19.5t-72 10.5q-53 0 -83 -28t-30 -49 q0 -27 35 -51t91.5 -45.5t124 -46t135 -61.5t123.5 -83t91 -118.5t35 -159.5q0 -193 -151 -313t-378 -120q-313 0 -567 271z" glyph-name="S" horiz-adv-x="1235" unicode="S"/><glyph d="M1135 1319v-326h-357v-993h-355v993h-360v326h1072z" glyph-name="T" horiz-adv-x="1203" unicode="T"/><glyph d="M1312 1319v-647q0 -172 -27 -295.5t-93 -218.5t-181 -142t-282 -47q-171 0 -288 47t-181.5 142.5t-92 218.5t-27.5 295v647h362v-594q0 -119 15 -206t36.5 -132.5t55 -71t60 -31.5t60.5 -6q44 0 77.5 13.5t69 55.5t55.5 137.5t20 240.5v594h361z" glyph-name="U" horiz-adv-x="1450" unicode="U"/><glyph d="M1324 1318l-411 -1318h-450l-414 1318h429l210 -966l206 966h430z" glyph-name="V" horiz-adv-x="1378" unicode="V"/><glyph d="M1359 1319h418l-309 -1319h-350l-193 732l-234 -732h-346l-263 1319h391l94 -706l250 706h229l214 -676z" glyph-name="W" horiz-adv-x="1861" unicode="W"/><glyph d="M53 0l372 638l-420 681h413l198 -372l183 372h413l-393 -681l403 -638h-416l-181 309l-159 -309h-413z" glyph-name="X" horiz-adv-x="1254" unicode="X"/><glyph d="M1150 1319l-368 -771h-5v-548h-381v548l-369 771h412l150 -508l150 508h411z" glyph-name="Y" horiz-adv-x="1184" unicode="Y"/><glyph d="M1249 1318v-212l-640 -792l640 22v-336h-1136v207l641 797l-641 -23v337h1136z" glyph-name="Z" horiz-adv-x="1353" unicode="Z"/><glyph d="M678 1405v-272h-219v-1099h219v-271h-521v1642h521z" glyph-name="bracketleft" horiz-adv-x="808" unicode="["/><glyph d="M1130 61l-335 -158l-766 1635l333 158z" glyph-name="backslash" horiz-adv-x="1240" unicode="\"/><glyph d="M114 1405h521v-1642h-521v271h222v1099h-222v272z" glyph-name="bracketright" horiz-adv-x="808" unicode="]"/><glyph d="M1125 732l-292 -118l-203 483l-205 -481l-292 116l318 587h355z" glyph-name="asciicircum" horiz-adv-x="1257" unicode="^"/><glyph d="M1004 -68v-285h-912v285h912z" glyph-name="underscore" horiz-adv-x="1097" unicode="_"/><glyph d="M514 1068l-451 94l89 253l409 -231z" glyph-name="grave" horiz-adv-x="771" unicode="`"/><glyph d="M739 939h340v-939h-256l-48 133q-87 -160 -297 -160q-200 0 -318.5 134.5t-118.5 358.5q0 225 117.5 362.5t309.5 137.5q177 0 271 -130v103zM566.5 287q76.5 0 122 48.5t45.5 133.5q0 84 -44.5 133.5t-122.5 49.5q-77 0 -122.5 -50.5t-45.5 -132.5q0 -84 45.5 -133 t122 -49z" glyph-name="a" horiz-adv-x="1199" unicode="a"/><glyph d="M707 966q201 0 318.5 -139t117.5 -354q0 -222 -118.5 -361t-307.5 -139q-205 0 -314 165l-60 -138h-253v1468h349v-608q97 106 268 106zM613 287q70 0 122.5 51t52.5 131.5t-52.5 131.5t-122.5 51t-122 -50.5t-52 -132.5q0 -80 52 -131t122 -51z" glyph-name="b" horiz-adv-x="1189" unicode="b"/><glyph d="M44 466q0 239 141 369.5t368 130.5q285 0 428 -205l-244 -169q-70 73 -172 74q-82 0 -126.5 -55.5t-44.5 -144.5q0 -84 44.5 -138.5t122.5 -54.5q111 0 178 75l244 -169q-142 -207 -430 -206q-225 0 -367 131.5t-142 361.5z" glyph-name="c" horiz-adv-x="1018" unicode="c"/><glyph d="M746 1468h350v-1468h-253l-61 140q-108 -167 -314 -167q-189 0 -308 139t-119 361q0 215 117.5 354t319.5 139q169 0 268 -104v606zM572 287q70 0 122 51t52 131q0 82 -52 132.5t-122 50.5t-123 -51t-53 -131.5t53 -131.5t123 -51z" glyph-name="d" horiz-adv-x="1189" unicode="d"/><glyph d="M41 471q0 70 14.5 135.5t50.5 132.5t89.5 116.5t138 80t190.5 30.5q256 0 368.5 -164t54.5 -425h-573l44 -2q20 -61 52.5 -96t101.5 -35q46 0 86 8.5t99.5 28t78.5 24.5l121 -254q-75 -29 -116.5 -42.5t-112.5 -24.5t-156 -11q-241 0 -386 136.5t-145 361.5zM420 563h232 q3 26 -2 56.5t-35 62t-81 31.5q-39 0 -64.5 -20.5t-35 -52t-12 -47.5t-2.5 -30z" glyph-name="e" horiz-adv-x="1056" unicode="e"/><glyph d="M722 1155q-34 12 -49.5 16.5t-48.5 10.5t-50.5 -2t-38 -24t-29.5 -52t-9 -89v-76h192v-304h-192v-635h-350v635h-121v304h121v47q0 304 153.5 422.5t424.5 25.5z" glyph-name="f" horiz-adv-x="769" unicode="f"/><glyph d="M824 939h277v-985q0 -94 -26.5 -173.5t-84.5 -147.5t-163 -106.5t-247 -38.5q-360 0 -515 241l251 194q3 -2 18.5 -20.5t33.5 -36.5t44.5 -37.5t63 -31.5t75.5 -12q27 0 53.5 7t61.5 25.5t57.5 65.5t22.5 117v130q-97 -97 -268 -98q-198 0 -317.5 129t-119.5 336 q0 203 117 336t310 133q198 0 307 -149zM572 335q70 0 122 44t52 116q0 68 -51.5 112.5t-122.5 44.5q-70 0 -123 -44.5t-53 -112.5q0 -70 53 -115t123 -45z" glyph-name="g" horiz-adv-x="1192" unicode="g"/><glyph d="M713 963q68 0 125.5 -18t107 -59t77.5 -115.5t28 -176.5v-594h-372l4 515q0 39 -2 59t-17 39.5t-44 19.5q-77 0 -161 -53v-580h-369v1449h369v-584q117 98 254 98zM290 660q-3 -12 -8 -27v-3q7 15 13 29z" glyph-name="h" horiz-adv-x="1117" unicode="h"/><glyph d="M273 1471q79 0 127.5 -50.5t48.5 -133.5q0 -75 -48.5 -131.5t-127.5 -56.5q-77 0 -125.5 53t-48.5 135q0 84 47 134t127 50zM447 0h-357v939h357v-939z" glyph-name="i" horiz-adv-x="580" unicode="i"/><glyph d="M259 1468q77 0 125.5 -51.5t48.5 -133.5q0 -75 -48.5 -131t-125 -56t-125.5 53.5t-49 133.5q0 84 47 134.5t127 50.5zM447 939v-944q0 -108 -22 -195t-53.5 -143t-84.5 -104t-95 -74.5t-105 -57.5l-160 253l5 2q3 3 12.5 8t20.5 13t24 20t25.5 26.5t24.5 35t21.5 41.5 t14.5 50t5 60v1009h367z" glyph-name="j" horiz-adv-x="564" unicode="j"/><glyph d="M1155 -3h-479l-224 307v-304h-362v1399h362v-715l200 255h457l-373 -436z" glyph-name="k" horiz-adv-x="1141" unicode="k"/><glyph d="M546 302l53 -273q-82 -29 -153.5 -41t-141.5 -1t-119.5 50.5t-79.5 120.5t-30 200v1072h355v-1031q0 -116 116 -97z" glyph-name="l" horiz-adv-x="663" unicode="l"/><glyph d="M1152 963q133 0 221 -86.5t88 -282.5v-594h-352l4 548v10q0 27 -1 41.5t-5 32.5t-14.5 26t-27.5 8q-48 0 -111 -35q2 -12 2 -37v-594h-352l4 548v10q0 27 -1 41.5t-5.5 32.5t-14.5 26t-27 8q-46 0 -106 -33v-633h-369v939h282l39 -79q109 102 241 103q167 0 247 -120 q116 120 258 120z" glyph-name="m" horiz-adv-x="1544" unicode="m"/><glyph d="M708 963q68 0 125.5 -18t107 -59t77.5 -115.5t28 -176.5v-594h-372l4 515q0 39 -2 59t-17.5 39.5t-44.5 19.5q-77 0 -160 -53v-580h-369v939h282l53 -106q129 130 288 130zM292 660l-12 -35q3 10 15 34z" glyph-name="n" horiz-adv-x="1129" unicode="n"/><glyph d="M560 966q225 0 373.5 -137.5t148.5 -362.5q0 -85 -29 -168t-87 -158t-164 -121t-242 -46q-227 0 -373 133t-146 360q0 230 146 365t373 135zM559.5 659q-83.5 0 -117.5 -59t-34 -134q0 -43 11 -81.5t47 -71.5t94 -33q56 0 92.5 33t48.5 71.5t12 81.5q0 75 -35 134 t-118.5 59z" glyph-name="o" horiz-adv-x="1122" unicode="o"/><glyph d="M712 966q189 0 308.5 -139t119.5 -361q0 -215 -117.5 -354t-321.5 -139q-167 0 -266 102v-587h-350v1451h253l61 -139q110 166 313 166zM608 287q70 0 122.5 51t52.5 131.5t-52.5 131.5t-122.5 51t-121.5 -51t-51.5 -132q0 -82 52.5 -132t120.5 -50z" glyph-name="p" horiz-adv-x="1179" unicode="p"/><glyph d="M841 939h253v-1451h-348v589q-99 -104 -268 -104q-201 0 -319 139t-118 354q0 222 118.5 361t308.5 139q207 0 314 -167zM572 287q70 0 122 50t52 132q0 80 -52 131.5t-122 51.5t-123 -51t-53 -131.5t53 -131.5t123 -51z" glyph-name="q" horiz-adv-x="1175" unicode="q"/><glyph d="M580 966q111 0 222 -72l-160 -326q-5 3 -18 10t-19 10.5t-17 8.5t-19.5 8t-20.5 4.5t-24 1.5q-58 0 -91 -75v-225v-2l2 -2l-2 2v-309h-348v939h263l41 -79q75 106 191 106z" glyph-name="r" horiz-adv-x="812" unicode="r"/><glyph d="M485 -27q-121 0 -263.5 37.5t-192.5 79.5l135 260q46 -27 159.5 -65.5t183.5 -38.5q80 0 73 34q0 27 -54.5 41t-132 25.5t-154.5 36.5t-131.5 90.5t-54.5 171.5q0 123 106.5 222t311.5 99q118 0 201.5 -20.5t204.5 -68.5l-109 -252q-7 2 -39.5 13t-47 16t-46 13.5 t-53 12.5t-52 7.5t-57.5 3.5q-80 0 -80 -24q0 -27 54.5 -39t131 -23t154.5 -36t132.5 -95.5t54.5 -183.5q0 -135 -110 -226t-325 -91z" glyph-name="s" horiz-adv-x="962" unicode="s"/><glyph d="M493 466q0 -73 14.5 -121t36 -67t52 -24t56.5 1t55.5 12t43.5 6l-38 -283q-85 -19 -159 -20t-153.5 24.5t-135 82t-91.5 165t-36 260.5v165h-124v272h124v292h355v-292h173l-33 -272h-140v-201z" glyph-name="t" horiz-adv-x="740" unicode="t"/><glyph d="M674 939h369v-939h-282l-53 108q-128 -131 -288 -132q-68 0 -125.5 18t-107 59t-77.5 115t-28 177v594h370l-1 -466q0 -39 1.5 -59.5t17 -40.5t44.5 -20q72 0 160 53v533z" glyph-name="u" horiz-adv-x="1129" unicode="u"/><glyph d="M720 939h406l-361 -939h-374l-362 939h408l142 -586z" glyph-name="v" horiz-adv-x="1158" unicode="v"/><glyph d="M1224 939h391l-318 -939h-352l-122 579l-125 -579h-353l-318 939h366l114 -471l160 474h311l148 -447z" glyph-name="w" horiz-adv-x="1646" unicode="w"/><glyph d="M-44 939h425l116 -250l121 250h391l-292 -478l285 -461h-427l-89 208l-80 -208h-413l275 442z" glyph-name="x" horiz-adv-x="986" unicode="x"/><glyph d="M539 939h354l-314 -1062q-14 -55 -26 -95t-34 -88.5t-49.5 -80t-72 -61.5t-98 -42t-130.5 -9.5t-169 23.5l26 336q53 -22 91 -26.5t59.5 1t37 27.5t20.5 40t13.5 53t13.5 52l-288 932h362l104 -454z" glyph-name="y" horiz-adv-x="892" unicode="y"/><glyph d="M872 939v-333l-374 -301l374 28v-333h-838v335l364 298l-364 -27v333h838z" glyph-name="z" horiz-adv-x="904" unicode="z"/><glyph d="M550 -254q-171 0 -265 89.5t-94 241.5v269q0 51 -20.5 72.5t-78.5 21.5h-39v248h39q56 0 77.5 23t21.5 74v271q0 152 94 242.5t265 90.5v-280q-55 0 -65.5 -21t-10.5 -103v-198q0 -96 -29.5 -143.5t-130.5 -78.5q101 -31 130.5 -78t29.5 -144v-193q0 -85 10.5 -105.5 t65.5 -20.5v-278z" glyph-name="braceleft" horiz-adv-x="732" unicode="{"/><glyph d="M544 -375h-368v1694h368v-1694z" glyph-name="bar" horiz-adv-x="723" unicode="|"/><glyph d="M108 1389q171 0 264.5 -90.5t93.5 -242.5v-271q0 -51 21.5 -74t77.5 -23h39v-248h-39q-58 0 -78.5 -21t-20.5 -73v-269q0 -152 -94 -241.5t-264 -89.5v278q55 0 66.5 21.5t11.5 104.5v193q0 97 30 144t130 78q-101 31 -130.5 78.5t-29.5 143.5v198q0 82 -11 103t-67 21 v280z" glyph-name="braceright" horiz-adv-x="715" unicode="}"/><glyph d="M375 541h-206q0 142 86 224t192 82q72 0 147 -51.5t119 -51.5q32 0 45 23t13 73h205q0 -162 -76 -235.5t-185 -73.5q-48 0 -89 18t-64.5 39t-52.5 39t-57 18q-44 0 -60.5 -25.5t-16.5 -78.5z" glyph-name="asciitilde" horiz-adv-x="1141" unicode="~"/><glyph d="M319 777q-61 0 -101.5 40.5t-40.5 107.5q0 60 39.5 107t102.5 47q61 0 100.5 -44.5t39.5 -109.5q0 -68 -37.5 -108t-102.5 -40zM225 691h181l86 -870l29 -244h-410l27 244z" glyph-name="exclamdown" horiz-adv-x="633" unicode="¡"/><glyph d="M949 305q-119 -172 -340 -189l7 -116h-167l7 121q-172 29 -266 147.5t-94 313.5q0 201 95.5 320.5t269.5 143.5v115h155l-7 -111q227 -22 338 -186l-230 -149q-84 75 -159 75q-72 0 -106 -63t-34 -147q0 -79 34 -142t106 -63q20 0 40 5.5t39.5 16.5t29 18t29 24t21.5 17z " glyph-name="cent" horiz-adv-x="1010" unicode="¢"/><glyph d="M591 481v-167h373v-314h-843v205l118 65v211h-118v234h118v43q0 198 126.5 314t318.5 116q196 0 335 -118l-179 -215q-73 44 -132 44q-61 0 -89 -46.5t-28 -94.5v-43h208v-234h-208z" glyph-name="sterling" horiz-adv-x="1059" unicode="£"/><glyph d="M916 609q0 -109 -40 -187l139 -108l-165 -164l-111 137q-75 -38 -172 -38q-106 0 -188 43l-111 -145l-166 164l142 114q-43 82 -43 186q0 102 41 179l-140 113l166 165l107 -143q77 41 183 41q102 0 181 -39l111 138l165 -164l-139 -107q40 -83 40 -185zM560 476 q58 0 76.5 33.5t18.5 96.5q0 133 -97 133q-56 0 -73 -35t-17 -95q0 -133 92 -133z" glyph-name="currency" horiz-adv-x="1107" unicode="¤"/><glyph d="M1183 1161l-326 -541h131v-181h-770v181h140l-331 541h401l174 -431l180 431h401zM218 177v185h770v-185h-208v-177h-353v177h-209z" glyph-name="yen" horiz-adv-x="1216" unicode="¥"/><glyph d="M544 616h-368v703h368v-703zM544 -375h-368v739h368v-739z" glyph-name="brokenbar" horiz-adv-x="723" unicode="¦"/><glyph d="M788 297q133 -99 134 -263q0 -171 -122 -258t-303 -87q-275 0 -436 176l164 208q49 -60 122 -95.5t145 -35.5q38 0 61.5 7.5t33 22t11 25t1.5 29.5q0 55 -52 91.5t-127 61t-149.5 57t-126.5 99t-52 165.5q0 164 144 239q-143 99 -144 258q0 154 118.5 255t311.5 101 q210 0 367 -136l-131 -202q-39 31 -103 59.5t-128 28.5q-49 0 -79 -21.5t-30 -60.5q0 -49 52 -87t125.5 -68.5t147.5 -68.5t126.5 -107.5t52.5 -167.5q-1 -157 -134 -225zM597 478q0 43 -34 74.5t-99 65.5q-46 -7 -46 -72q0 -44 37 -75t108 -61q34 8 34 68z" glyph-name="section" horiz-adv-x="1001" unicode="§"/><glyph d="M309 1319q55 0 89.5 -35.5t34.5 -95.5q0 -53 -34.5 -94t-89.5 -41q-56 0 -90.5 38.5t-34.5 96.5q0 61 33.5 96t91.5 35zM642 1319q56 0 91 -35.5t35 -95.5q0 -53 -35 -94t-91.5 -41t-90.5 38.5t-34 96.5q0 61 33.5 96t91.5 35z" glyph-name="dieresis" horiz-adv-x="950" unicode="¨"/><glyph d="M700 1251q249 0 418 -164t169 -423q0 -263 -169 -426t-418 -163t-419 164t-170 425q0 259 170 423t419 164zM700 1084q-177 0 -298.5 -116t-121.5 -304q0 -189 121 -305.5t298.5 -116.5t299 116t121.5 306q0 191 -120.5 305.5t-299.5 114.5zM432 664q0 138 80 220t212 82 q79 0 144.5 -35t100.5 -91l-138 -86q-29 51 -104 52q-56 0 -87 -39.5t-31 -102.5q0 -61 31 -100.5t87 -39.5q68 0 106 56l136 -90q-80 -121 -245 -121q-131 0 -211.5 81t-80.5 214z" glyph-name="copyright" horiz-adv-x="1438" unicode="©"/><glyph d="M370 1353q150 0 252 -66.5t102 -204.5v-404h-205l-39 85q-61 -108 -195 -108q-99 0 -155.5 57.5t-56.5 139.5q0 109 72.5 171t195.5 62q73 0 125 -10q0 73 -120 74q-73 0 -170 -33l-72 198q75 39 266 39zM384 845q14 0 37.5 23t35.5 66q-27 3 -44 3q-27 0 -50 -13.5 t-23 -34.5q0 -22 12.5 -33t31.5 -11z" glyph-name="ordfeminine" horiz-adv-x="849" unicode="ª"/><glyph d="M751 671l-219 -197l219 -199l-239 -229l-358 427l358 426zM1280 671l-218 -197l218 -199l-239 -229l-358 427l358 426z" glyph-name="guillemotleft" horiz-adv-x="1448" unicode="«"/><glyph d="M1099 814v-536h-271v297h-661l2 239l659 2z" glyph-name="logicalnot" horiz-adv-x="1264" unicode="¬"/><glyph d="M461 1353q155 0 252.5 -100.5t97.5 -262.5q0 -157 -96.5 -260.5t-253.5 -101.5q-159 0 -255.5 100.5t-96.5 261t97.5 262t254.5 101.5zM461 688q128 0 204.5 84.5t76.5 217.5t-76.5 216.5t-204.5 83.5q-130 0 -207 -83.5t-77 -216.5t77 -217.5t207 -84.5zM623 1048 q0 -96 -84 -125l87 -135h-107l-67 123h-13h-33v-123h-95v396h128q184 1 184 -136zM406 1099v-107h33q46 0 66.5 11t20.5 41q0 34 -20.5 44.5t-66.5 10.5h-33z" glyph-name="registered" horiz-adv-x="923" unicode="®"/><glyph d="M135 1068v198h597v-198h-597z" glyph-name="macron" horiz-adv-x="866" unicode="¯"/><glyph d="M285 1357q90 0 147.5 -55.5t57.5 -147.5q0 -82 -57.5 -143.5t-147.5 -61.5t-146.5 58t-56.5 147q0 96 54.5 149.5t148.5 53.5zM285 1208q-26 0 -40.5 -15t-14.5 -39q0 -22 14.5 -39.5t40.5 -17.5q24 0 41 18t17 39q0 22 -17 38t-41 16z" glyph-name="degree" horiz-adv-x="566" unicode="°"/><glyph d="M662 841h217v-280h-217v-143h-309v143h-211l1 279h210v128h309v-127zM142 84l1 278l736 2v-280h-737z" glyph-name="plusminus" horiz-adv-x="1088" unicode="±"/><glyph d="M398 1004l128 8v-191h-424v162l166 140q39 36 44 61q2 10 2 23q0 41 -32 42q-9 0 -11 -1l7 -2q-14 0 -27.5 -11t-29.5 -28t-26 -26l-128 131q101 104 228 105q94 0 157 -47t63 -141q0 -123 -109 -219z" glyph-name="uni00B2" horiz-adv-x="628" unicode="²"/><glyph d="M406 1135q55 -19 84 -57.5t29 -82.5q0 -73 -53 -129.5t-195 -56.5q-31 0 -64 7t-51.5 13.5t-44.5 17t-27 11.5l128 123h25t21.5 1t12.5 1q32 0 38 19q2 2 2 3l-2 2q-5 19 -38 19q-3 0 -13.5 3.5t-25.5 4.5l-49 144l3 3l39 29l-90 -7v198h375v-169zM309 1007l2 -2 q-2 0 -2 -3v2v3z" glyph-name="uni00B3" horiz-adv-x="621" unicode="³"/><glyph d="M261 1068l-46 116l408 231l89 -253z" glyph-name="acute" horiz-adv-x="771" unicode="´"/><glyph d="M674 939h369v-939h-282l-53 108q-128 -131 -288 -132q-34 0 -67 5v-493h-271v1451h370l-1 -466q0 -39 1.5 -59.5t17 -40.5t44.5 -20q72 0 160 53v533z" glyph-name="uni00B5" horiz-adv-x="1129" unicode="µ"/><glyph d="M1273 1318v-1625h-271v1305h-161v-1305h-271v730q-263 20 -380.5 130.5t-117.5 315.5q0 186 119.5 303t378.5 140v6h703z" glyph-name="paragraph" horiz-adv-x="1433" unicode="¶"/><glyph d="M268 800q61 0 101.5 -40.5t40.5 -107.5q0 -60 -39.5 -107t-102.5 -47q-61 0 -101.5 44.5t-40.5 109.5q0 68 38.5 108t103.5 40z" glyph-name="periodcentered" horiz-adv-x="532" unicode="·"/><glyph d="M398 15l99 -3l-9 -101q84 -3 152 -49t63 -142q-5 -51 -22 -87.5t-40 -57t-59 -29.5t-66 -9t-75 9t-72.5 16.5t-71.5 21.5l31 145q32 -19 81.5 -33.5t91.5 -10.5t42 37q0 27 -20.5 46t-51.5 25t-53 7.5t-41 -0.5z" glyph-name="cedilla" horiz-adv-x="890" unicode="¸"/><glyph d="M323 1401h122v-580h-206v380l-92 -30l-57 170z" glyph-name="uni00B9" horiz-adv-x="590" unicode="¹"/><glyph d="M425 1353q157 0 263 -95.5t106 -252.5q0 -58 -20 -116t-61 -111t-116 -86t-172 -33q-164 0 -267 93t-103 253.5t103 254t267 93.5zM425 1114q-82 0 -82 -109q0 -108 82 -107q80 0 80 107q0 109 -80 109z" glyph-name="ordmasculine" horiz-adv-x="848" unicode="º"/><glyph d="M422 899l358 -426l-358 -427l-239 229l218 199l-218 197zM940 899l359 -426l-359 -427l-239 229l221 199l-221 197z" glyph-name="guillemotright" horiz-adv-x="1448" unicode="»"/><glyph d="M1150 1420l191 -106l-814 -1355l-192 99zM445 736h-206v380l-92 -31l-57 171l233 60h122v-580zM1618 261v-176h-79v-85h-186v85h-220l-70 176l290 319h186v-326zM1237 232l116 9v117z" glyph-name="onequarter" horiz-adv-x="1703" unicode="¼"/><glyph d="M1150 1420l191 -106l-814 -1355l-192 99zM445 736h-206v380l-92 -31l-57 171l233 60h122v-580zM1420 183l128 8v-191h-423v162l165 140q39 36 45 62q2 10 1 22q0 41 -32 42q-9 0 -10 -1l6 -2q-14 0 -27 -11t-29.5 -28t-26.5 -26l-128 132q101 104 229 104q94 0 157 -47 t63 -141q0 -123 -110 -219z" glyph-name="onehalf" horiz-adv-x="1650" unicode="½"/><glyph d="M1256 1420l191 -106l-814 -1355l-193 99zM519 910q0 -73 -53 -129.5t-195 -56.5q-31 0 -64 6.5t-51.5 13.5t-44.5 17t-27 12l128 123h25t21.5 1t12.5 1q32 0 38 18q2 2 2 4l-2 2q-5 19 -38 18q-3 0 -13.5 3.5t-25.5 5.5l-49 143l3 4l39 29l-90 -7v198h375v-169l-104 -97 q55 -19 84 -57.5t29 -82.5zM309 922l2 -2q-2 0 -2 -4v2v4zM1724 261v-176h-79v-85h-186v85h-220l-70 176l290 319h186v-326zM1343 232l116 9v117z" glyph-name="threequarters" horiz-adv-x="1809" unicode="¾"/><glyph d="M635 708q-79 0 -127.5 49t-48.5 127q0 80 48 136.5t124.5 56.5t125.5 -54.5t49 -136.5q0 -80 -47 -129t-124 -49zM836 7l285 -178q-58 -113 -186.5 -190.5t-301.5 -77.5q-236 0 -376.5 128t-140.5 326q0 346 369 429l32 174h224l78 -417q-184 0 -259 -46.5t-75 -140.5 q0 -79 49.5 -113t96.5 -34q20 0 41 5t36.5 12t31.5 19t27 21t24 23.5t19 22.5t15 21.5t11 15.5z" glyph-name="questiondown" horiz-adv-x="1198" unicode="¿"/><glyph d="M884 1565l-48 -116l-450 94l88 252zM1068 0l-80 239h-474l-79 -239h-386l485 1319h432l486 -1319h-384zM625 573h252l-128 381z" glyph-name="Agrave" horiz-adv-x="1506" unicode="À"/><glyph d="M1109 1543l-450 -94l-46 116l408 230zM1068 0l-80 239h-474l-79 -239h-386l485 1319h432l486 -1319h-384zM625 573h252l-128 381z" glyph-name="Aacute" horiz-adv-x="1506" unicode="Á"/><glyph d="M756 1519l-241 -94l-83 118l285 234h82l285 -234l-80 -118zM1068 0l-80 239h-474l-79 -239h-386l485 1319h432l486 -1319h-384zM625 573h252l-128 381z" glyph-name="Acircumflex" horiz-adv-x="1506" unicode="Â"/><glyph d="M626 1514q-72 0 -71 -104h-191q0 135 79 215t177 80q65 0 130.5 -51t102.5 -51q29 0 38.5 23.5t9.5 73.5h193q0 -155 -69 -227t-168 -72q-55 0 -98.5 28t-74.5 56.5t-58 28.5zM1068 0l-80 239h-474l-79 -239h-386l485 1319h432l486 -1319h-384zM625 573h252l-128 381z " glyph-name="Atilde" horiz-adv-x="1506" unicode="Ã"/><glyph d="M597 1434q-56 0 -90 38t-34 96q0 61 33 96.5t91 35.5q55 0 90 -36t35 -96q0 -53 -35 -93.5t-90 -40.5zM930 1434q-56 0 -90 38t-34 96q0 61 33 96.5t91 35.5q56 0 91 -36t35 -96q0 -53 -35 -93.5t-91 -40.5zM1068 0l-80 239h-474l-79 -239h-386l485 1319h432l486 -1319 h-384zM625 573h252l-128 381z" glyph-name="Adieresis" horiz-adv-x="1506" unicode="Ä"/><glyph d="M756 1406q-90 0 -146.5 62.5t-56.5 157.5q0 101 54.5 158t148.5 57q90 0 145.5 -59.5t55.5 -155.5q0 -90 -56 -155t-145 -65zM756 1702q-31 0 -49.5 -21.5t-18.5 -54t18.5 -54.5t49.5 -22t49 22t18 54q0 31 -20 53.5t-47 22.5zM1068 0l-80 239h-474l-79 -239h-386 l485 1319h432l486 -1319h-384zM625 573h252l-128 381z" glyph-name="Aring" horiz-adv-x="1506" unicode="Å"/><glyph d="M1790 983h-498v-159h292v-336h-292v-152h498v-336h-834v230h-367l-140 -230h-400l896 1319h845v-336zM753 502h203v336z" glyph-name="AE" horiz-adv-x="1906" unicode="Æ"/><glyph d="M1329 234q-87 -114 -218 -182.5t-288 -77.5l-6 -63q84 -3 152.5 -49t63.5 -142q-5 -51 -22.5 -87.5t-40.5 -57t-58.5 -29.5t-65.5 -9t-75.5 9t-72.5 16.5t-72 21.5l31 145q56 -34 130.5 -43.5t84.5 36.5q0 27 -20.5 46t-51 25t-53 7.5t-40.5 -0.5l17 174 q-275 19 -451.5 212t-176.5 478q0 299 191 492.5t491 193.5q171 0 313.5 -67.5t234.5 -188.5l-293 -210q-113 140 -255 140q-150 0 -235.5 -104t-85.5 -256q0 -155 86.5 -258.5t234.5 -103.5q150 0 255 142z" glyph-name="Ccedilla" horiz-adv-x="1389" unicode="Ç"/><glyph d="M724 1565l-48 -116l-451 94l89 252zM1080 1002h-582v-178l473 -3v-304h-473v-200h582v-317h-932v1319h932v-317z" glyph-name="Egrave" horiz-adv-x="1194" unicode="È"/><glyph d="M949 1543l-451 -94l-46 116l408 230zM1080 1002h-582v-178l473 -3v-304h-473v-200h582v-317h-932v1319h932v-317z" glyph-name="Eacute" horiz-adv-x="1194" unicode="É"/><glyph d="M596 1519l-241 -94l-84 118l285 234h82l285 -234l-80 -118zM1080 1002h-582v-178l473 -3v-304h-473v-200h582v-317h-932v1319h932v-317z" glyph-name="Ecircumflex" horiz-adv-x="1194" unicode="Ê"/><glyph d="M437 1434q-56 0 -90.5 38t-34.5 96q0 61 33.5 96.5t91.5 35.5q55 0 89.5 -36t34.5 -96q0 -53 -34.5 -93.5t-89.5 -40.5zM769.5 1434q-56.5 0 -90.5 38t-34 96q0 61 33.5 96.5t91.5 35.5q56 0 91 -36t35 -96q0 -53 -35 -93.5t-91.5 -40.5zM1080 1002h-582v-178l473 -3 v-304h-473v-200h582v-317h-932v1319h932v-317z" glyph-name="Edieresis" horiz-adv-x="1194" unicode="Ë"/><glyph d="M415 1449l-451 94l89 252l410 -230zM510 0h-362v1319h362v-1319z" glyph-name="Igrave" horiz-adv-x="658" unicode="Ì"/><glyph d="M237 1449l-46 116l408 230l89 -252zM510 0h-362v1319h362v-1319z" glyph-name="Iacute" horiz-adv-x="658" unicode="Í"/><glyph d="M295 1777h82l285 -234l-80 -118l-247 94l-241 -94l-84 118zM510 0h-362v1319h362v-1319z" glyph-name="Icircumflex" horiz-adv-x="658" unicode="Î"/><glyph d="M176 1700q55 0 89.5 -36t34.5 -96q0 -53 -35 -93.5t-89 -40.5q-56 0 -90.5 38t-34.5 96q0 61 33.5 96.5t91.5 35.5zM509 1700q56 0 91 -36t35 -96q0 -53 -35 -93.5t-91.5 -40.5t-90.5 38t-34 96q0 61 33.5 96.5t91.5 35.5zM510 0h-362v1319h362v-1319z" glyph-name="Idieresis" horiz-adv-x="658" unicode="Ï"/><glyph d="M631 1319q292 0 474 -183.5t182 -483.5q0 -292 -182.5 -472t-473.5 -180h-469v476h-99v336h99v507h469zM631 336q131 0 201.5 84.5t70.5 231.5q0 148 -73.5 239.5t-198.5 91.5h-100v-171h230v-336h-230v-140h100z" glyph-name="Eth" horiz-adv-x="1384" unicode="Ð"/><glyph d="M626 1514q-72 0 -71 -104h-191q0 135 79 215t177 80q65 0 130.5 -51t102.5 -51q29 0 38.5 23.5t9.5 73.5h193q0 -155 -69 -227t-168 -72q-55 0 -98.5 28t-74.5 56.5t-58 28.5zM1058 1319h348v-1319h-356l-548 746v-746h-354v1319h361l549 -754v754z" glyph-name="Ntilde" horiz-adv-x="1553" unicode="Ñ"/><glyph d="M824 1449l-450 94l89 252l409 -230zM744 1348q287 0 465.5 -190t178.5 -496q0 -302 -175 -496.5t-469 -194.5q-285 0 -466.5 194.5t-181.5 496.5t177 494t471 192zM744 1022q-145 0 -216 -101.5t-71 -258.5q0 -160 72 -261t215 -101t214 100t71 262q0 164 -74 262 t-211 98z" glyph-name="Ograve" horiz-adv-x="1484" unicode="Ò"/><glyph d="M647 1449l-46 116l408 230l88 -252zM744 1348q287 0 465.5 -190t178.5 -496q0 -302 -175 -496.5t-469 -194.5q-285 0 -466.5 194.5t-181.5 496.5t177 494t471 192zM744 1022q-145 0 -216 -101.5t-71 -258.5q0 -160 72 -261t215 -101t214 100t71 262q0 164 -74 262 t-211 98z" glyph-name="Oacute" horiz-adv-x="1484" unicode="Ó"/><glyph d="M705 1777h82l285 -234l-80 -118l-248 94l-241 -94l-83 118zM744 1348q287 0 465.5 -190t178.5 -496q0 -302 -175 -496.5t-469 -194.5q-285 0 -466.5 194.5t-181.5 496.5t177 494t471 192zM744 1022q-145 0 -216 -101.5t-71 -258.5q0 -160 72 -261t215 -101t214 100 t71 262q0 164 -74 262t-211 98z" glyph-name="Ocircumflex" horiz-adv-x="1484" unicode="Ô"/><glyph d="M543 1410h-191q0 135 79 215t177 80q65 0 130.5 -51t102.5 -51q29 0 38.5 23.5t9.5 73.5h193q0 -155 -69 -227t-168 -72q-55 0 -98.5 28t-74 56.5t-58.5 28.5q-71 0 -71 -104zM744 1348q287 0 465.5 -190t178.5 -496q0 -302 -175 -496.5t-469 -194.5q-285 0 -466.5 194.5 t-181.5 496.5t177 494t471 192zM744 1022q-145 0 -216 -101.5t-71 -258.5q0 -160 72 -261t215 -101t214 100t71 262q0 164 -74 262t-211 98z" glyph-name="Otilde" horiz-adv-x="1484" unicode="Õ"/><glyph d="M585 1700q55 0 90 -36t35 -96q0 -53 -35 -93.5t-90 -40.5q-56 0 -90 38t-34 96q0 61 33 96.5t91 35.5zM918 1700q56 0 91 -36t35 -96q0 -53 -34.5 -93.5t-91 -40.5t-90.5 38t-34 96q0 61 33 96.5t91 35.5zM744 1348q287 0 465.5 -190t178.5 -496q0 -302 -175 -496.5 t-469 -194.5q-285 0 -466.5 194.5t-181.5 496.5t177 494t471 192zM744 1022q-145 0 -216 -101.5t-71 -258.5q0 -160 72 -261t215 -101t214 100t71 262q0 164 -74 262t-211 98z" glyph-name="Odieresis" horiz-adv-x="1484" unicode="Ö"/><glyph d="M961 526l-244 -241l-183 183l-160 -161l-219 224l159 158l-171 171l241 244l171 -172l164 164l223 -220l-165 -166z" glyph-name="multiply" horiz-adv-x="1109" unicode="×"/><glyph d="M1519 1167l-150 -150q80 -157 80 -355q0 -304 -175 -497.5t-468 -193.5q-212 0 -371 111l-135 -137l-204 207l146 148q-85 160 -85 362q0 302 177.5 494t471.5 192q215 0 373 -111l135 137zM526 662q0 -39 5 -75l399 401q-58 27 -124 27q-143 0 -211.5 -99t-68.5 -254z M1084 662q0 24 -4 65l-394 -396q53 -24 120 -24q142 0 210 97.5t68 257.5z" glyph-name="Oslash" horiz-adv-x="1616" unicode="Ø"/><glyph d="M794 1449l-451 94l89 252l409 -230zM1312 1319v-647q0 -172 -27 -295.5t-93 -218.5t-181 -142t-282 -47q-171 0 -288 47t-181.5 142.5t-92 218.5t-27.5 295v647h362v-594q0 -119 15 -206t36.5 -132.5t55 -71t60 -31.5t60.5 -6q44 0 77.5 13.5t69 55.5t55.5 137.5 t20 240.5v594h361z" glyph-name="Ugrave" horiz-adv-x="1450" unicode="Ù"/><glyph d="M616 1449l-46 116l408 230l89 -252zM1312 1319v-647q0 -172 -27 -295.5t-93 -218.5t-181 -142t-282 -47q-171 0 -288 47t-181.5 142.5t-92 218.5t-27.5 295v647h362v-594q0 -119 15 -206t36.5 -132.5t55 -71t60 -31.5t60.5 -6q44 0 77.5 13.5t69 55.5t55.5 137.5 t20 240.5v594h361z" glyph-name="Uacute" horiz-adv-x="1450" unicode="Ú"/><glyph d="M674 1777h82l285 -234l-80 -118l-248 94l-240 -94l-84 118zM1312 1319v-647q0 -172 -27 -295.5t-93 -218.5t-181 -142t-282 -47q-171 0 -288 47t-181.5 142.5t-92 218.5t-27.5 295v647h362v-594q0 -119 15 -206t36.5 -132.5t55 -71t60 -31.5t60.5 -6q44 0 77.5 13.5 t69 55.5t55.5 137.5t20 240.5v594h361z" glyph-name="Ucircumflex" horiz-adv-x="1450" unicode="Û"/><glyph d="M555 1700q55 0 89.5 -36t34.5 -96q0 -53 -35 -93.5t-89 -40.5q-56 0 -90.5 38t-34.5 96q0 61 33.5 96.5t91.5 35.5zM887 1700q56 0 91.5 -36t35.5 -96q0 -53 -35 -93.5t-91.5 -40.5t-90.5 38t-34 96q0 61 33 96.5t91 35.5zM1312 1319v-647q0 -172 -27 -295.5t-93 -218.5 t-181 -142t-282 -47q-171 0 -288 47t-181.5 142.5t-92 218.5t-27.5 295v647h362v-594q0 -119 15 -206t36.5 -132.5t55 -71t60 -31.5t60.5 -6q44 0 77.5 13.5t69 55.5t55.5 137.5t20 240.5v594h361z" glyph-name="Udieresis" horiz-adv-x="1450" unicode="Ü"/><glyph d="M942 1527l-450 -93l-47 116l408 230zM1150 1319l-368 -771h-5v-548h-381v548l-369 771h412l150 -508l150 508h411z" glyph-name="Yacute" horiz-adv-x="1184" unicode="Ý"/><glyph d="M1108 695q0 -222 -138.5 -333t-452.5 -118v-244h-369v1318h369v-175q307 -7 449 -127t142 -321zM517 551q49 0 73 1t56.5 8t47 21.5t25.5 41t11 65.5t-11.5 65.5t-28 40t-48 20.5t-56.5 8.5t-69 1.5v-273z" glyph-name="Thorn" horiz-adv-x="1225" unicode="Þ"/><glyph d="M148 -159q43 186 43 482v341q0 655 509 655q189 0 320.5 -99t131.5 -252q0 -51 -13.5 -94t-44.5 -77t-49 -51t-60.5 -45.5t-47.5 -31.5q-29 -22 -38.5 -30t-20.5 -22.5t-11 -27.5q0 -26 46 -43t112 -34t131.5 -42.5t111.5 -81t46 -137.5q0 -135 -100.5 -205t-285.5 -70 q-111 0 -213 31t-147 68l111 215q39 -27 117 -57t143 -30q96 0 95 51q0 34 -70 57.5t-152.5 39.5t-152.5 72.5t-70 149.5q0 116 147 227q84 61 110 92t26 71q0 49 -48.5 74.5t-103.5 25.5q-236 0 -235 -397v-343q0 -338 -41 -547z" glyph-name="germandbls" horiz-adv-x="1396" unicode="ß"/><glyph d="M611 1184l-48 -116l-450 94l88 253zM739 939h340v-939h-256l-48 133q-87 -160 -297 -160q-200 0 -318.5 134.5t-118.5 358.5q0 225 117.5 362.5t309.5 137.5q177 0 271 -130v103zM566.5 287q76.5 0 122 48.5t45.5 133.5q0 84 -44.5 133.5t-122.5 49.5q-77 0 -122.5 -50.5 t-45.5 -132.5q0 -84 45.5 -133t122 -49z" glyph-name="agrave" horiz-adv-x="1199" unicode="à"/><glyph d="M836 1162l-450 -94l-46 116l408 231zM739 939h340v-939h-256l-48 133q-87 -160 -297 -160q-200 0 -318.5 134.5t-118.5 358.5q0 225 117.5 362.5t309.5 137.5q177 0 271 -130v103zM566.5 287q76.5 0 122 48.5t45.5 133.5q0 84 -44.5 133.5t-122.5 49.5 q-77 0 -122.5 -50.5t-45.5 -132.5q0 -84 45.5 -133t122 -49z" glyph-name="aacute" horiz-adv-x="1199" unicode="á"/><glyph d="M483 1138l-241 -94l-83 118l285 234h82l285 -234l-81 -118zM739 939h340v-939h-256l-48 133q-87 -160 -297 -160q-200 0 -318.5 134.5t-118.5 358.5q0 225 117.5 362.5t309.5 137.5q177 0 271 -130v103zM566.5 287q76.5 0 122 48.5t45.5 133.5q0 84 -44.5 133.5 t-122.5 49.5q-77 0 -122.5 -50.5t-45.5 -132.5q0 -84 45.5 -133t122 -49z" glyph-name="acircumflex" horiz-adv-x="1199" unicode="â"/><glyph d="M353 1133q-72 0 -71 -104h-192q0 135 79.5 215t176.5 80q65 0 131 -51t103 -51q29 0 38.5 24t9.5 73h193q0 -155 -69 -226.5t-168 -71.5q-55 0 -98.5 28t-74.5 56t-58 28zM739 939h340v-939h-256l-48 133q-87 -160 -297 -160q-200 0 -318.5 134.5t-118.5 358.5 q0 225 117.5 362.5t309.5 137.5q177 0 271 -130v103zM566.5 287q76.5 0 122 48.5t45.5 133.5q0 84 -44.5 133.5t-122.5 49.5q-77 0 -122.5 -50.5t-45.5 -132.5q0 -84 45.5 -133t122 -49z" glyph-name="atilde" horiz-adv-x="1199" unicode="ã"/><glyph d="M324 1053q-56 0 -90 38.5t-34 96.5q0 61 33 96t91 35q55 0 90 -35.5t35 -95.5q0 -53 -35 -94t-90 -41zM657 1053q-56 0 -90.5 38.5t-34.5 96.5q0 61 33.5 96t91.5 35q56 0 91 -35.5t35 -95.5q0 -53 -35 -94t-91 -41zM739 939h340v-939h-256l-48 133q-87 -160 -297 -160 q-200 0 -318.5 134.5t-118.5 358.5q0 225 117.5 362.5t309.5 137.5q177 0 271 -130v103zM566.5 287q76.5 0 122 48.5t45.5 133.5q0 84 -44.5 133.5t-122.5 49.5q-77 0 -122.5 -50.5t-45.5 -132.5q0 -84 45.5 -133t122 -49z" glyph-name="adieresis" horiz-adv-x="1199" unicode="ä"/><glyph d="M483 1026q-90 0 -146.5 62t-56.5 158q0 101 54.5 158t148.5 57q90 0 145.5 -60t55.5 -155q0 -90 -56 -155t-145 -65zM483 1321q-31 0 -49.5 -21.5t-18.5 -54t18.5 -54.5t49.5 -22t49 22t18 55q0 31 -20 53t-47 22zM739 939h340v-939h-256l-48 133q-87 -160 -297 -160 q-200 0 -318.5 134.5t-118.5 358.5q0 225 117.5 362.5t309.5 137.5q177 0 271 -130v103zM566.5 287q76.5 0 122 48.5t45.5 133.5q0 84 -44.5 133.5t-122.5 49.5q-77 0 -122.5 -50.5t-45.5 -132.5q0 -84 45.5 -133t122 -49z" glyph-name="aring" horiz-adv-x="1199" unicode="å"/><glyph d="M1126 244q46 0 86.5 8.5t98.5 27.5t80 25l140 -254q-106 -41 -193 -59.5t-212 -18.5q-280 0 -396 193q-51 -90 -141.5 -145t-213.5 -55q-150 0 -242 85.5t-92 231.5q0 154 100 232.5t258 78.5q99 0 188 -24q-36 84 -188 84q-131 0 -261 -63l-109 296q203 79 377 79 q203 0 330 -159q101 159 343 159q273 0 379.5 -159.5t58.5 -429.5h-589l45 -2q20 -61 52.5 -96t100.5 -35zM1079 695q-39 0 -59 -15.5t-31 -49.5t-14 -39h225q17 31 -14.5 67.5t-106.5 36.5zM425 294q3 -36 44 -33q20 0 53.5 15.5t54.5 46.5q-46 9 -92 8q-60 1 -60 -37z" glyph-name="ae" horiz-adv-x="1623" unicode="æ"/><glyph d="M983 179q-130 -189 -386 -205l-5 -63q84 -3 152 -49t63 -142q-5 -51 -22 -87.5t-40 -57t-59 -29.5t-65.5 -9t-75 9t-73 16.5t-71.5 21.5l31 145q56 -34 130.5 -43.5t84.5 36.5q0 27 -20.5 46t-51.5 25t-53 7.5t-41 -0.5l17 174q-203 17 -328.5 147t-125.5 345 q0 239 141 369.5t368 130.5q285 0 428 -205l-244 -169q-70 73 -172 74q-82 0 -126.5 -55.5t-44.5 -144.5q0 -84 44.5 -138.5t122.5 -54.5q111 0 178 75z" glyph-name="ccedilla" horiz-adv-x="1018" unicode="ç"/><glyph d="M582 1068l-451 94l89 253l410 -231zM41 471q0 70 14.5 135.5t50.5 132.5t89.5 116.5t138 80t190.5 30.5q256 0 368.5 -164t54.5 -425h-573l44 -2q20 -61 52.5 -96t101.5 -35q46 0 86 8.5t99.5 28t78.5 24.5l121 -254q-75 -29 -116.5 -42.5t-112.5 -24.5t-156 -11 q-241 0 -386 136.5t-145 361.5zM420 563h232q3 26 -2 56.5t-35 62t-81 31.5q-39 0 -64.5 -20.5t-35 -52t-12 -47.5t-2.5 -30z" glyph-name="egrave" horiz-adv-x="1056" unicode="è"/><glyph d="M404 1068l-46 116l408 231l89 -253zM41 471q0 70 14.5 135.5t50.5 132.5t89.5 116.5t138 80t190.5 30.5q256 0 368.5 -164t54.5 -425h-573l44 -2q20 -61 52.5 -96t101.5 -35q46 0 86 8.5t99.5 28t78.5 24.5l121 -254q-75 -29 -116.5 -42.5t-112.5 -24.5t-156 -11 q-241 0 -386 136.5t-145 361.5zM420 563h232q3 26 -2 56.5t-35 62t-81 31.5q-39 0 -64.5 -20.5t-35 -52t-12 -47.5t-2.5 -30z" glyph-name="eacute" horiz-adv-x="1056" unicode="é"/><glyph d="M463 1396h81l285 -234l-80 -118l-247 94l-241 -94l-84 118zM41 471q0 70 14.5 135.5t50.5 132.5t89.5 116.5t138 80t190.5 30.5q256 0 368.5 -164t54.5 -425h-573l44 -2q20 -61 52.5 -96t101.5 -35q46 0 86 8.5t99.5 28t78.5 24.5l121 -254q-75 -29 -116.5 -42.5 t-112.5 -24.5t-156 -11q-241 0 -386 136.5t-145 361.5zM420 563h232q3 26 -2 56.5t-35 62t-81 31.5q-39 0 -64.5 -20.5t-35 -52t-12 -47.5t-2.5 -30z" glyph-name="ecircumflex" horiz-adv-x="1056" unicode="ê"/><glyph d="M343 1319q55 0 90 -35.5t35 -95.5q0 -53 -35 -94t-90 -41q-56 0 -90.5 38.5t-34.5 96.5q0 61 33.5 96t91.5 35zM676 1319q56 0 91 -35.5t35 -95.5q0 -53 -35 -94t-91 -41t-90.5 38.5t-34.5 96.5q0 61 33.5 96t91.5 35zM41 471q0 70 14.5 135.5t50.5 132.5t89.5 116.5 t138 80t190.5 30.5q256 0 368.5 -164t54.5 -425h-573l44 -2q20 -61 52.5 -96t101.5 -35q46 0 86 8.5t99.5 28t78.5 24.5l121 -254q-75 -29 -116.5 -42.5t-112.5 -24.5t-156 -11q-241 0 -386 136.5t-145 361.5zM420 563h232q3 26 -2 56.5t-35 62t-81 31.5q-39 0 -64.5 -20.5 t-35 -52t-12 -47.5t-2.5 -30z" glyph-name="edieresis" horiz-adv-x="1056" unicode="ë"/><glyph d="M382 1068l-450 94l88 253l410 -231zM483 0h-357v939h357v-939z" glyph-name="igrave" horiz-adv-x="609" unicode="ì"/><glyph d="M205 1068l-46 116l408 231l88 -253zM483 0h-357v939h357v-939z" glyph-name="iacute" horiz-adv-x="609" unicode="í"/><glyph d="M263 1396h82l285 -234l-80 -118l-248 94l-241 -94l-83 118zM483 0h-357v939h357v-939z" glyph-name="icircumflex" horiz-adv-x="609" unicode="î"/><glyph d="M143 1319q55 0 90 -35.5t35 -95.5q0 -53 -35 -94t-90 -41q-56 0 -90 38.5t-34 96.5q0 61 33 96t91 35zM476 1319q56 0 91 -35.5t35 -95.5q0 -53 -35 -94t-91 -41t-90 38.5t-34 96.5q0 61 33 96t91 35zM483 0h-357v939h357v-939z" glyph-name="idieresis" horiz-adv-x="609" unicode="ï"/><glyph d="M876 1120q155 -222 155 -482q0 -184 -51.5 -331t-171 -241.5t-291.5 -94.5q-212 0 -344 129t-132 316q-2 207 120 323t288 116q137 0 234 -102q-26 109 -94 206l-176 -97l-97 196l109 62q-73 53 -138 80l117 292q65 -20 152 -73.5t171 -129.5l169 95l97 -200zM527 265 q130 0 159 223q-36 46 -85.5 71.5t-78.5 25.5q-63 0 -98 -52t-31 -117q-3 -51 29 -101t105 -50z" glyph-name="eth" horiz-adv-x="1095" unicode="ð"/><glyph d="M401 1133q-72 0 -72 -104h-191q0 135 79.5 215t176.5 80q65 0 131 -51t103 -51q29 0 38.5 24t9.5 73h193q0 -155 -69.5 -226.5t-168.5 -71.5q-55 0 -98 28t-74 56t-58 28zM708 963q68 0 125.5 -18t107 -59t77.5 -115.5t28 -176.5v-594h-372l4 515q0 39 -2 59t-17.5 39.5 t-44.5 19.5q-77 0 -160 -53v-580h-369v939h282l53 -106q129 130 288 130zM292 660l-12 -35q3 10 15 34z" glyph-name="ntilde" horiz-adv-x="1129" unicode="ñ"/><glyph d="M602 1068l-450 94l89 253l409 -231zM560 966q225 0 373.5 -137.5t148.5 -362.5q0 -85 -29 -168t-87 -158t-164 -121t-242 -46q-227 0 -373 133t-146 360q0 230 146 365t373 135zM559.5 659q-83.5 0 -117.5 -59t-34 -134q0 -43 11 -81.5t47 -71.5t94 -33q56 0 92.5 33 t48.5 71.5t12 81.5q0 75 -35 134t-118.5 59z" glyph-name="ograve" horiz-adv-x="1122" unicode="ò"/><glyph d="M425 1068l-46 116l408 231l89 -253zM560 966q225 0 373.5 -137.5t148.5 -362.5q0 -85 -29 -168t-87 -158t-164 -121t-242 -46q-227 0 -373 133t-146 360q0 230 146 365t373 135zM559.5 659q-83.5 0 -117.5 -59t-34 -134q0 -43 11 -81.5t47 -71.5t94 -33q56 0 92.5 33 t48.5 71.5t12 81.5q0 75 -35 134t-118.5 59z" glyph-name="oacute" horiz-adv-x="1122" unicode="ó"/><glyph d="M483 1396h82l285 -234l-80 -118l-248 94l-240 -94l-84 118zM560 966q225 0 373.5 -137.5t148.5 -362.5q0 -85 -29 -168t-87 -158t-164 -121t-242 -46q-227 0 -373 133t-146 360q0 230 146 365t373 135zM559.5 659q-83.5 0 -117.5 -59t-34 -134q0 -43 11 -81.5t47 -71.5 t94 -33q56 0 92.5 33t48.5 71.5t12 81.5q0 75 -35 134t-118.5 59z" glyph-name="ocircumflex" horiz-adv-x="1122" unicode="ô"/><glyph d="M321 1029h-191q0 135 79 215t177 80q65 0 130.5 -51t103.5 -51q29 0 38 24t9 73h193q0 -155 -69 -226.5t-168 -71.5q-55 0 -98.5 28t-74 56t-57.5 28q-72 0 -72 -104zM560 966q225 0 373.5 -137.5t148.5 -362.5q0 -85 -29 -168t-87 -158t-164 -121t-242 -46 q-227 0 -373 133t-146 360q0 230 146 365t373 135zM559.5 659q-83.5 0 -117.5 -59t-34 -134q0 -43 11 -81.5t47 -71.5t94 -33q56 0 92.5 33t48.5 71.5t12 81.5q0 75 -35 134t-118.5 59z" glyph-name="otilde" horiz-adv-x="1122" unicode="õ"/><glyph d="M364 1319q55 0 89.5 -35.5t34.5 -95.5q0 -53 -35 -94t-89 -41q-56 0 -90.5 38.5t-34.5 96.5q0 61 33.5 96t91.5 35zM696 1319q56 0 91.5 -35.5t35.5 -95.5q0 -53 -35 -94t-91.5 -41t-90.5 38.5t-34 96.5q0 61 33 96t91 35zM560 966q225 0 373.5 -137.5t148.5 -362.5 q0 -85 -29 -168t-87 -158t-164 -121t-242 -46q-227 0 -373 133t-146 360q0 230 146 365t373 135zM559.5 659q-83.5 0 -117.5 -59t-34 -134q0 -43 11 -81.5t47 -71.5t94 -33q56 0 92.5 33t48.5 71.5t12 81.5q0 75 -35 134t-118.5 59z" glyph-name="odieresis" horiz-adv-x="1122" unicode="ö"/><glyph d="M543 1201q61 0 101 -40.5t40 -107.5q0 -60 -39 -106t-102 -46t-102.5 43.5t-39.5 108.5q0 70 37.5 109t104.5 39zM940 828v-246h-798l1 246h797zM543 509q61 0 101 -40.5t40 -106.5q0 -61 -39 -107.5t-102 -46.5t-102.5 44.5t-39.5 109.5q0 68 37.5 107.5t104.5 39.5z " glyph-name="divide" horiz-adv-x="1083" unicode="÷"/><glyph d="M949 800q119 -137 119 -334q0 -85 -29 -168t-87 -158t-163.5 -121t-242.5 -46q-195 0 -329 97l-69 -68l-81 82l64 64q-104 128 -104 318q0 230 145 365t374 135q177 0 314 -90l85 85l82 -82zM394 466q0 -27 7 -50l219 221q-32 22 -74 22q-72 0 -112 -61.5t-40 -131.5z M546 280q70 0 112 61.5t42 124.5q0 38 -12 73l-229 -227q38 -32 87 -32z" glyph-name="oslash" horiz-adv-x="1095" unicode="ø"/><glyph d="M667 1184l-47 -116l-451 94l89 253zM674 939h369v-939h-282l-53 108q-128 -131 -288 -132q-68 0 -125.5 18t-107 59t-77.5 115t-28 177v594h370l-1 -466q0 -39 1.5 -59.5t17 -40.5t44.5 -20q72 0 160 53v533z" glyph-name="ugrave" horiz-adv-x="1129" unicode="ù"/><glyph d="M893 1162l-451 -94l-46 116l408 231zM674 939h369v-939h-282l-53 108q-128 -131 -288 -132q-68 0 -125.5 18t-107 59t-77.5 115t-28 177v594h370l-1 -466q0 -39 1.5 -59.5t17 -40.5t44.5 -20q72 0 160 53v533z" glyph-name="uacute" horiz-adv-x="1129" unicode="ú"/><glyph d="M539 1138l-240 -94l-84 118l285 234h82l285 -234l-80 -118zM674 939h369v-939h-282l-53 108q-128 -131 -288 -132q-68 0 -125.5 18t-107 59t-77.5 115t-28 177v594h370l-1 -466q0 -39 1.5 -59.5t17 -40.5t44.5 -20q72 0 160 53v533z" glyph-name="ucircumflex" horiz-adv-x="1129" unicode="û"/><glyph d="M381 1053q-56 0 -90.5 38.5t-34.5 96.5q0 61 33.5 96t91.5 35q55 0 89.5 -35.5t34.5 -95.5q0 -53 -34.5 -94t-89.5 -41zM713.5 1053q-56.5 0 -90.5 38.5t-34 96.5q0 61 33 96t91 35q56 0 91.5 -35.5t35.5 -95.5q0 -53 -35 -94t-91.5 -41zM674 939h369v-939h-282l-53 108 q-128 -131 -288 -132q-68 0 -125.5 18t-107 59t-77.5 115t-28 177v594h370l-1 -466q0 -39 1.5 -59.5t17 -40.5t44.5 -20q72 0 160 53v533z" glyph-name="udieresis" horiz-adv-x="1129" unicode="ü"/><glyph d="M806 1162l-451 -94l-46 116l408 231zM539 939h354l-314 -1062q-14 -55 -26 -95t-34 -88.5t-49.5 -80t-72 -61.5t-98 -42t-130.5 -9.5t-169 23.5l26 336q53 -22 91 -26.5t59.5 1t37 27.5t20.5 40t13.5 53t13.5 52l-288 932h362l104 -454z" glyph-name="yacute" horiz-adv-x="892" unicode="ý"/><glyph d="M701 966q191 0 324.5 -141t133.5 -359q0 -212 -132.5 -352.5t-337.5 -140.5q-137 0 -235 68v-553h-369v1963h369v-564q105 79 247 79zM628 287q70 0 123 51t53 131.5t-53 131.5t-123 51q-72 0 -123 -51t-51 -132q0 -82 52 -132t122 -50z" glyph-name="thorn" horiz-adv-x="1198" unicode="þ"/><glyph d="M294 1053q-56 0 -90.5 38.5t-34.5 96.5q0 61 33.5 96t91.5 35q55 0 89.5 -35.5t34.5 -95.5q0 -53 -34.5 -94t-89.5 -41zM626.5 1053q-56.5 0 -90.5 38.5t-34 96.5q0 61 33 96t91 35q56 0 91.5 -35.5t35.5 -95.5q0 -53 -35 -94t-91.5 -41zM539 939h354l-314 -1062 q-14 -55 -26 -95t-34 -88.5t-49.5 -80t-72 -61.5t-98 -42t-130.5 -9.5t-169 23.5l26 336q53 -22 91 -26.5t59.5 1t37 27.5t20.5 40t13.5 53t13.5 52l-288 932h362l104 -454z" glyph-name="ydieresis" horiz-adv-x="892" unicode="ÿ"/><glyph d="M1063 1647v-198h-597v198h597zM1068 0l-80 239h-474l-79 -239h-386l485 1319h432l486 -1319h-384zM625 573h252l-128 381z" glyph-name="Amacron" horiz-adv-x="1506" unicode="Ā"/><glyph d="M790 1266v-198h-597v198h597zM739 939h340v-939h-256l-48 133q-87 -160 -297 -160q-200 0 -318.5 134.5t-118.5 358.5q0 225 117.5 362.5t309.5 137.5q177 0 271 -130v103zM566.5 287q76.5 0 122 48.5t45.5 133.5q0 84 -44.5 133.5t-122.5 49.5q-77 0 -122.5 -50.5 t-45.5 -132.5q0 -84 45.5 -133t122 -49z" glyph-name="amacron" horiz-adv-x="1199" unicode="ā"/><glyph d="M756 1440q-131 0 -200.5 64t-67.5 196h203q0 -5 -2.5 -24t14.5 -40t53 -21t54 21t15.5 40t-1.5 24h203q2 -113 -58.5 -186.5t-212.5 -73.5zM1068 0l-80 239h-474l-79 -239h-386l485 1319h432l486 -1319h-384zM625 573h252l-128 381z" glyph-name="Abreve" horiz-adv-x="1506" unicode="Ă"/><glyph d="M483 1060q-131 0 -200.5 64t-67.5 195h203q0 -5 -2.5 -23.5t14.5 -40t53 -21.5t54 21.5t15.5 40t-1.5 23.5h203q2 -113 -58.5 -186t-212.5 -73zM739 939h340v-939h-256l-48 133q-87 -160 -297 -160q-200 0 -318.5 134.5t-118.5 358.5q0 225 117.5 362.5t309.5 137.5 q177 0 271 -130v103zM566.5 287q76.5 0 122 48.5t45.5 133.5q0 84 -44.5 133.5t-122.5 49.5q-77 0 -122.5 -50.5t-45.5 -132.5q0 -84 45.5 -133t122 -49z" glyph-name="abreve" horiz-adv-x="1199" unicode="ă"/><glyph d="M1145 -236q32 0 68 28l50 -99q-63 -68 -157 -77q-89 -5 -137.5 37.5t-45.5 116.5q0 53 43.5 118.5t103.5 111.5h-2l-80 239h-474l-79 -239h-386l485 1319h432l486 -1319h-254q-61 -84 -81 -119.5t-20 -68.5q0 -48 48 -48zM625 573h252l-128 381z" glyph-name="Aogonek" horiz-adv-x="1506" unicode="Ą"/><glyph d="M1079 0h-137q-63 -85 -82.5 -121t-19.5 -68q0 -48 47 -48q32 0 69 27l49 -99q-63 -68 -157 -77q-89 -5 -137.5 38t-44.5 116q0 53 44 118.5t104 113.5h9l-48 133q-87 -160 -297 -160q-200 0 -318.5 134.5t-118.5 358.5q0 225 117.5 362.5t309.5 137.5q177 0 271 -130v103 h340v-939zM566.5 287q76.5 0 122 48.5t45.5 133.5q0 84 -44.5 133.5t-122.5 49.5q-77 0 -122.5 -50.5t-45.5 -132.5q0 -84 45.5 -133t122 -49z" glyph-name="aogonek" horiz-adv-x="1199" unicode="ą"/><glyph d="M672 1449l-46 116l408 230l89 -252zM1326 1094l-293 -210q-113 140 -255 140q-150 0 -235.5 -104t-85.5 -256q0 -155 86.5 -258.5t234.5 -103.5q150 0 255 142l296 -210q-94 -123 -238 -192t-313 -69q-294 0 -488 195.5t-194 495.5q0 299 191 492.5t491 193.5 q171 0 313.5 -67.5t234.5 -188.5z" glyph-name="Cacute" horiz-adv-x="1389" unicode="Ć"/><glyph d="M428 1068l-46 116l408 231l89 -253zM44 466q0 239 141 369.5t368 130.5q285 0 428 -205l-244 -169q-70 73 -172 74q-82 0 -126.5 -55.5t-44.5 -144.5q0 -84 44.5 -138.5t122.5 -54.5q111 0 178 75l244 -169q-142 -207 -430 -206q-225 0 -367 131.5t-142 361.5z" glyph-name="cacute" horiz-adv-x="1018" unicode="ć"/><glyph d="M771 1777q84 0 135 -54t51 -143q0 -80 -51 -140.5t-135 -60.5q-82 0 -134 57t-52 144q0 90 50.5 143.5t135.5 53.5zM1326 1094l-293 -210q-113 140 -255 140q-150 0 -235.5 -104t-85.5 -256q0 -155 86.5 -258.5t234.5 -103.5q150 0 255 142l296 -210q-94 -123 -238 -192 t-313 -69q-294 0 -488 195.5t-194 495.5q0 299 191 492.5t491 193.5q171 0 313.5 -67.5t234.5 -188.5z" glyph-name="Cdotaccent" horiz-adv-x="1389" unicode="Ċ"/><glyph d="M527 1396q84 0 135 -53.5t51 -142.5q0 -80 -51 -141t-135 -61q-82 0 -134 57.5t-52 144.5q0 90 50.5 143t135.5 53zM44 466q0 239 141 369.5t368 130.5q285 0 428 -205l-244 -169q-70 73 -172 74q-82 0 -126.5 -55.5t-44.5 -144.5q0 -84 44.5 -138.5t122.5 -54.5 q111 0 178 75l244 -169q-142 -207 -430 -206q-225 0 -367 131.5t-142 361.5z" glyph-name="cdotaccent" horiz-adv-x="1018" unicode="ċ"/><glyph d="M734 1440l-285 234l83 118l241 -96l248 96l80 -118l-285 -234h-82zM1326 1094l-293 -210q-113 140 -255 140q-150 0 -235.5 -104t-85.5 -256q0 -155 86.5 -258.5t234.5 -103.5q150 0 255 142l296 -210q-94 -123 -238 -192t-313 -69q-294 0 -488 195.5t-194 495.5 q0 299 191 492.5t491 193.5q171 0 313.5 -67.5t234.5 -188.5z" glyph-name="Ccaron" horiz-adv-x="1389" unicode="Č"/><glyph d="M490 1060l-285 234l83 117l241 -95l248 95l80 -117l-285 -234h-82zM44 466q0 239 141 369.5t368 130.5q285 0 428 -205l-244 -169q-70 73 -172 74q-82 0 -126.5 -55.5t-44.5 -144.5q0 -84 44.5 -138.5t122.5 -54.5q111 0 178 75l244 -169q-142 -207 -430 -206 q-225 0 -367 131.5t-142 361.5z" glyph-name="ccaron" horiz-adv-x="1018" unicode="č"/><glyph d="M814 1440h-82l-285 234l84 118l240 -96l248 96l80 -118zM761 1319q292 0 472 -183.5t180 -483.5q0 -292 -181.5 -472t-470.5 -180h-613v1319h613zM761 329q133 0 204 87t71 236q0 150 -74.5 244t-200.5 94h-251v-661h251z" glyph-name="Dcaron" horiz-adv-x="1510" unicode="Ď"/><glyph d="M1280 1473l241 -114l-251 -388l-115 51zM746 862v606h350v-1468h-253l-61 140q-108 -167 -314 -167q-189 0 -308 139t-119 361q0 215 117.5 354t319.5 139q169 0 268 -104zM572 287q70 0 122 51t52 131q0 82 -52 132.5t-122 50.5t-123 -51t-53 -131.5t53 -131.5t123 -51z " glyph-name="dcaron" horiz-adv-x="1206" unicode="ď"/><glyph d="M631 1319q292 0 474 -183.5t182 -483.5q0 -292 -182.5 -472t-473.5 -180h-469v476h-99v336h99v507h469zM631 336q131 0 201.5 84.5t70.5 231.5q0 148 -73.5 239.5t-198.5 91.5h-100v-171h230v-336h-230v-140h100z" glyph-name="Dcroat" horiz-adv-x="1384" unicode="Đ"/><glyph d="M1273 1311v-210h-95v-1101h-241l-60 135q-126 -162 -331 -162q-208 0 -327.5 135.5t-119.5 357.5q0 224 131.5 362t334.5 138q135 0 244 -90v225h-191v210h191v157h369v-157h95zM637 302q70 0 118.5 43.5t48.5 120.5q0 82 -47 126.5t-120 44.5q-169 0 -169 -171 q0 -77 48.5 -120.5t120.5 -43.5z" glyph-name="dcroat" horiz-adv-x="1344" unicode="đ"/><glyph d="M903 1647v-198h-598v198h598zM1080 1002h-582v-178l473 -3v-304h-473v-200h582v-317h-932v1319h932v-317z" glyph-name="Emacron" horiz-adv-x="1194" unicode="Ē"/><glyph d="M212 1068v198h597v-198h-597zM41 471q0 70 14.5 135.5t50.5 132.5t89.5 116.5t138 80t190.5 30.5q256 0 368.5 -164t54.5 -425h-573l44 -2q20 -61 52.5 -96t101.5 -35q46 0 86 8.5t99.5 28t78.5 24.5l121 -254q-75 -29 -116.5 -42.5t-112.5 -24.5t-156 -11 q-241 0 -386 136.5t-145 361.5zM420 563h232q3 26 -2 56.5t-35 62t-81 31.5q-39 0 -64.5 -20.5t-35 -52t-12 -47.5t-2.5 -30z" glyph-name="emacron" horiz-adv-x="1056" unicode="ē"/><glyph d="M597 1379q-82 0 -134 57t-52 144q0 90 50.5 143.5t135.5 53.5q84 0 135 -54t51 -143q0 -80 -51 -140.5t-135 -60.5zM1080 1002h-582v-178l473 -3v-304h-473v-200h582v-317h-932v1319h932v-317z" glyph-name="Edotaccent" horiz-adv-x="1194" unicode="Ė"/><glyph d="M503 1396q84 0 135 -53.5t51 -142.5q0 -80 -51 -141t-135 -61q-82 0 -134 57.5t-52 144.5q0 90 50.5 143t135.5 53zM41 471q0 70 14.5 135.5t50.5 132.5t89.5 116.5t138 80t190.5 30.5q256 0 368.5 -164t54.5 -425h-573l44 -2q20 -61 52.5 -96t101.5 -35q46 0 86 8.5 t99.5 28t78.5 24.5l121 -254q-75 -29 -116.5 -42.5t-112.5 -24.5t-156 -11q-241 0 -386 136.5t-145 361.5zM420 563h232q3 26 -2 56.5t-35 62t-81 31.5q-39 0 -64.5 -20.5t-35 -52t-12 -47.5t-2.5 -30z" glyph-name="edotaccent" horiz-adv-x="1056" unicode="ė"/><glyph d="M1080 1002h-582v-178l473 -3v-304h-473v-200h582v-317h-167q-61 -82 -81 -118t-20 -68q0 -48 48 -48q32 0 68 27l50 -98q-63 -68 -157 -77q-89 -5 -137.5 37.5t-45.5 115.5q0 53 43.5 118t101.5 111h-635v1319h932v-317z" glyph-name="Eogonek" horiz-adv-x="1194" unicode="Ę"/><glyph d="M966 -164l49 -99q-63 -68 -157 -77q-89 -5 -137.5 38t-44.5 116q0 79 89 176q-75 -17 -193 -17q-241 0 -386 136.5t-145 361.5q0 70 14.5 135.5t50.5 132.5t89.5 116.5t138 80t190.5 30.5q256 0 368.5 -164t54.5 -425h-573l44 -2q20 -61 52.5 -96t101.5 -35q46 0 86 8.5 t99.5 28t78.5 24.5l121 -254l-13 -5h8q-63 -85 -82.5 -121t-19.5 -68q0 -48 48 -48q32 0 68 27zM534 713q-39 0 -64.5 -20.5t-35 -52t-12 -47.5t-2.5 -30h232q3 26 -2 56.5t-35 62t-81 31.5z" glyph-name="eogonek" horiz-adv-x="1056" unicode="ę"/><glyph d="M642 1440h-82l-285 234l83 118l241 -96l248 96l80 -118zM1080 1002h-582v-178l473 -3v-304h-473v-200h582v-317h-932v1319h932v-317z" glyph-name="Ecaron" horiz-adv-x="1194" unicode="Ě"/><glyph d="M466 1060l-285 234l84 117l240 -95l248 95l80 -117l-285 -234h-82zM41 471q0 70 14.5 135.5t50.5 132.5t89.5 116.5t138 80t190.5 30.5q256 0 368.5 -164t54.5 -425h-573l44 -2q20 -61 52.5 -96t101.5 -35q46 0 86 8.5t99.5 28t78.5 24.5l121 -254q-75 -29 -116.5 -42.5 t-112.5 -24.5t-156 -11q-241 0 -386 136.5t-145 361.5zM420 563h232q3 26 -2 56.5t-35 62t-81 31.5q-39 0 -64.5 -20.5t-35 -52t-12 -47.5t-2.5 -30z" glyph-name="ecaron" horiz-adv-x="1056" unicode="ě"/><glyph d="M739 1440q-131 0 -200.5 64t-67.5 196h203q0 -5 -2.5 -24t14.5 -40t53 -21t54 21t15.5 40t-1.5 24h203q2 -113 -58.5 -186.5t-212.5 -73.5zM1256 780v-551q-87 -119 -223.5 -187t-298.5 -68q-276 0 -457 194t-181 499q0 302 176.5 494t463.5 192q324 0 524 -249 l-262 -222q-46 60 -119 101t-159 41q-128 0 -195.5 -102.5t-67.5 -255.5q0 -159 74.5 -260.5t214.5 -101.5q77 0 119 34v113h-172v329h563z" glyph-name="Gbreve" horiz-adv-x="1385" unicode="Ğ"/><glyph d="M565 1060q-131 0 -200.5 64t-67.5 195h203q0 -5 -2.5 -23.5t14.5 -40t53 -21.5t54 21.5t15 40t-1 23.5h203q2 -113 -58.5 -186t-212.5 -73zM824 939h277v-985q0 -94 -26.5 -173.5t-84.5 -147.5t-163 -106.5t-247 -38.5q-360 0 -515 241l251 194q3 -2 18.5 -20.5 t33.5 -36.5t44.5 -37.5t63 -31.5t75.5 -12q27 0 53.5 7t61.5 25.5t57.5 65.5t22.5 117v130q-97 -97 -268 -98q-198 0 -317.5 129t-119.5 336q0 203 117 336t310 133q198 0 307 -149zM572 335q70 0 122 44t52 116q0 68 -51.5 112.5t-122.5 44.5q-70 0 -123 -44.5t-53 -112.5 q0 -70 53 -115t123 -45z" glyph-name="gbreve" horiz-adv-x="1192" unicode="ğ"/><glyph d="M741 1379q-82 0 -134 57t-52 144q0 90 50 143.5t136 53.5q84 0 135 -54t51 -143q0 -80 -51 -140.5t-135 -60.5zM1256 780v-551q-87 -119 -223.5 -187t-298.5 -68q-276 0 -457 194t-181 499q0 302 176.5 494t463.5 192q324 0 524 -249l-262 -222q-46 60 -119 101t-159 41 q-128 0 -195.5 -102.5t-67.5 -255.5q0 -159 74.5 -260.5t214.5 -101.5q77 0 119 34v113h-172v329h563z" glyph-name="Gdotaccent" horiz-adv-x="1385" unicode="Ġ"/><glyph d="M567 998q-82 0 -134 57.5t-52 144.5q0 90 50 143t136 53q84 0 135 -53.5t51 -142.5q0 -80 -51 -141t-135 -61zM824 939h277v-985q0 -94 -26.5 -173.5t-84.5 -147.5t-163 -106.5t-247 -38.5q-360 0 -515 241l251 194q3 -2 18.5 -20.5t33.5 -36.5t44.5 -37.5t63 -31.5 t75.5 -12q27 0 53.5 7t61.5 25.5t57.5 65.5t22.5 117v130q-97 -97 -268 -98q-198 0 -317.5 129t-119.5 336q0 203 117 336t310 133q198 0 307 -149zM572 335q70 0 122 44t52 116q0 68 -51.5 112.5t-122.5 44.5q-70 0 -123 -44.5t-53 -112.5q0 -70 53 -115t123 -45z" glyph-name="gdotaccent" horiz-adv-x="1192" unicode="ġ"/><glyph d="M1256 780v-551q-87 -119 -223.5 -187t-298.5 -68q-276 0 -457 194t-181 499q0 302 176.5 494t463.5 192q324 0 524 -249l-262 -222q-46 60 -119 101t-159 41q-128 0 -195.5 -102.5t-67.5 -255.5q0 -159 74.5 -260.5t214.5 -101.5q77 0 119 34v113h-172v329h563zM741 -116 q82 0 125.5 -57t43.5 -151q0 -113 -63.5 -187t-194.5 -91l-32 105q65 10 95.5 23t43.5 44h-18q-67 0 -107 43.5t-40 111.5q0 73 40 116t107 43z" glyph-name="Gcommaaccent" horiz-adv-x="1385" unicode="Ģ"/><glyph d="M556 1038q-82 0 -122.5 56t-40.5 152q0 118 65.5 190.5t191.5 89.5l31 -108q-61 -10 -93 -23.5t-47 -42.5h20q65 0 106 -44.5t41 -114.5t-42 -112.5t-110 -42.5zM824 939h277v-985q0 -94 -26.5 -173.5t-84.5 -147.5t-163 -106.5t-247 -38.5q-360 0 -515 241l251 194 q3 -2 18.5 -20.5t33.5 -36.5t44.5 -37.5t63 -31.5t75.5 -12q27 0 53.5 7t61.5 25.5t57.5 65.5t22.5 117v130q-97 -97 -268 -98q-198 0 -317.5 129t-119.5 336q0 203 117 336t310 133q198 0 307 -149zM572 335q70 0 122 44t52 116q0 68 -51.5 112.5t-122.5 44.5 q-70 0 -123 -44.5t-53 -112.5q0 -70 53 -115t123 -45z" glyph-name="gcommaaccent" horiz-adv-x="1192" unicode="ģ"/><glyph d="M1411 1082v-118h-107v-964h-369v490h-334v-490h-367v964h-103v118h103v237h367v-237h334v237h369v-237h107zM935 826v138h-334v-138h334z" glyph-name="Hbar" horiz-adv-x="1542" unicode="Ħ"/><glyph d="M783 963q68 0 125.5 -18t107 -59t77.5 -115.5t28 -176.5v-594h-372l4 548q0 39 -2 58.5t-17 39.5t-45 20q-75 0 -160 -53v-613h-369v1097h-70v195h70v157h369v-157h258v-195h-258v-235q116 101 254 101zM367 635l8 25h2q-2 -7 -6 -14.5t-4 -10.5z" glyph-name="hbar" horiz-adv-x="1186" unicode="ħ"/><glyph d="M133 1410h-191q0 135 79.5 215t176.5 80q65 0 130.5 -51t103.5 -51q29 0 38.5 23.5t9.5 73.5h192q0 -155 -69 -227t-168 -72q-55 0 -98 28t-74 56.5t-58 28.5q-72 0 -72 -104zM510 0h-362v1319h362v-1319z" glyph-name="Itilde" horiz-adv-x="658" unicode="Ĩ"/><glyph d="M101 1029h-191q0 135 79 215t177 80q65 0 130.5 -51t102.5 -51q29 0 38.5 24t9.5 73h193q0 -155 -69 -226.5t-168 -71.5q-55 0 -98.5 28t-74 56t-58.5 28q-71 0 -71 -104zM483 0h-357v939h357v-939z" glyph-name="itilde" horiz-adv-x="609" unicode="ĩ"/><glyph d="M44 1449v198h598v-198h-598zM510 0h-362v1319h362v-1319z" glyph-name="Imacron" horiz-adv-x="658" unicode="Ī"/><glyph d="M12 1068v198h597v-198h-597zM483 0h-357v939h357v-939z" glyph-name="imacron" horiz-adv-x="609" unicode="ī"/><glyph d="M510 0h-232q-58 -80 -77.5 -116t-19.5 -67q0 -48 48 -47q32 0 68 27l49 -99q-63 -68 -157 -77q-89 -5 -137.5 37.5t-44.5 116.5q0 51 41.5 115t99.5 112v1317h362v-1319z" glyph-name="Iogonek" horiz-adv-x="658" unicode="Į"/><glyph d="M304 998q-82 0 -134 57.5t-52 144.5q0 90 50 143t136 53q84 0 135 -53.5t51 -142.5q0 -80 -51 -141t-135 -61zM126 10v929h357v-939h-236q-56 -77 -74 -111t-18 -65q0 -48 48 -48q32 0 68 28l50 -99q-63 -68 -157 -77q-89 -5 -137.5 37.5t-45.5 116.5q0 51 43.5 115.5 t101.5 112.5z" glyph-name="iogonek" horiz-adv-x="609" unicode="į"/><glyph d="M336 1777q84 0 135 -54t51 -143q0 -80 -51 -140.5t-135 -60.5q-82 0 -134 57t-52 144q0 90 50.5 143.5t135.5 53.5zM510 0h-362v1319h362v-1319z" glyph-name="Idotaccent" horiz-adv-x="658" unicode="İ"/><glyph d="M483 0h-357v939h357v-939z" glyph-name="dotlessi" horiz-adv-x="609" unicode="ı"/><glyph d="M505 594h-362v725h362v-725zM188 218l239 193q39 -51 55 -69.5t50.5 -39t75.5 -20.5q160 0 160 206v831h362v-879q0 -463 -487 -462q-162 0 -281 70.5t-174 169.5z" glyph-name="IJ" horiz-adv-x="1276" unicode="Ĳ"/><glyph d="M273 1471q79 0 127.5 -50.5t48.5 -133.5q0 -75 -48.5 -131.5t-127.5 -56.5q-77 0 -125.5 53t-48.5 135q0 84 47 134t127 50zM840 1468q77 0 125.5 -51.5t48.5 -133.5q0 -75 -49 -131t-125.5 -56t-125 53.5t-48.5 133.5q0 84 47 134.5t127 50.5zM447 0h-357v939h357v-939z M1027 939v-944q0 -108 -22 -195t-53.5 -143t-84.5 -104t-95 -74.5t-105 -57.5l-160 253l5 2q3 3 12.5 8t20.5 13t24 20t26 26.5t24.5 35t21 41.5t14.5 50t5 60v1009h367z" glyph-name="ij" horiz-adv-x="1145" unicode="ĳ"/><glyph d="M734 657l613 -657h-460l-377 454v-454h-362v1316h362v-447l364 447h445zM696 -116q82 0 125.5 -57t43.5 -151q0 -113 -63 -187t-194 -91l-33 105q65 10 95.5 23t44.5 44h-19q-67 0 -106.5 43.5t-39.5 111.5q0 73 39.5 116t106.5 43z" glyph-name="Kcommaaccent" horiz-adv-x="1375" unicode="Ķ"/><glyph d="M452 304v-304h-362v1399h362v-715l200 255h457l-373 -436l419 -506h-479zM580 -116q82 0 125.5 -57t43.5 -151q0 -113 -63 -187t-194 -91l-33 105q65 10 95.5 23t44.5 44h-19q-67 0 -107 43.5t-40 111.5q0 73 40 116t107 43z" glyph-name="kcommaaccent" horiz-adv-x="1141" unicode="ķ"/><glyph d="M686 1543l-450 -94l-47 116l408 230zM510 329h570v-329h-932v1319h362v-990z" glyph-name="Lacute" horiz-adv-x="1198" unicode="Ĺ"/><glyph d="M154 1580l-46 116l407 231l89 -253zM546 302l53 -273q-82 -29 -153.5 -41t-141.5 -1t-119.5 50.5t-79.5 120.5t-30 200v1072h355v-1031q0 -116 116 -97z" glyph-name="lacute" horiz-adv-x="663" unicode="ĺ"/><glyph d="M510 329h570v-329h-932v1319h362v-990zM645 -116q82 0 125.5 -57t43.5 -151q0 -113 -63 -187t-195 -91l-32 105q65 10 95.5 23t44.5 44h-19q-67 0 -107 43.5t-40 111.5q0 73 40 116t107 43z" glyph-name="Lcommaaccent" horiz-adv-x="1198" unicode="Ļ"/><glyph d="M599 29q-82 -29 -153.5 -41t-141.5 -1t-119.5 50.5t-79.5 120.5t-30 200v1072h355v-1031q0 -116 116 -97zM348 -116q82 0 125.5 -57t43.5 -151q0 -113 -63 -187t-195 -91l-32 105q65 10 95.5 23t44.5 44h-19q-67 0 -107 43.5t-40 111.5q0 73 40 116t107 43z" glyph-name="lcommaaccent" horiz-adv-x="663" unicode="ļ"/><glyph d="M915 1210l-251 -387l-114 51l124 450zM510 329h570v-329h-932v1319h362v-990z" glyph-name="Lcaron" horiz-adv-x="1198" unicode="Ľ"/><glyph d="M582 954l-114 51l124 451l241 -115zM546 302l53 -273q-82 -29 -153.5 -41t-141.5 -1t-119.5 50.5t-79.5 120.5t-30 200v1072h355v-1031q0 -116 116 -97z" glyph-name="lcaron" horiz-adv-x="680" unicode="ľ"/><glyph d="M532 336h466v-336h-834v442l-137 -58v273l137 58v604h368v-447l151 65v-271l-151 -65v-265z" glyph-name="Lslash" horiz-adv-x="1082" unicode="Ł"/><glyph d="M686 314l51 -273q-82 -29 -153.5 -41t-141.5 0t-119.5 50.5t-79.5 119.5t-30 200v168l-129 -58v271l129 58v642h369v-478l133 60v-272l-133 -60v-290q0 -63 26.5 -84.5t77.5 -12.5z" glyph-name="lslash" horiz-adv-x="786" unicode="ł"/><glyph d="M1109 1543l-450 -94l-46 116l408 230zM1058 1319h348v-1319h-356l-548 746v-746h-354v1319h361l549 -754v754z" glyph-name="Nacute" horiz-adv-x="1553" unicode="Ń"/><glyph d="M884 1162l-451 -94l-46 116l408 231zM708 963q68 0 125.5 -18t107 -59t77.5 -115.5t28 -176.5v-594h-372l4 515q0 39 -2 59t-17.5 39.5t-44.5 19.5q-77 0 -160 -53v-580h-369v939h282l53 -106q129 130 288 130zM292 660l-12 -35q3 10 15 34z" glyph-name="nacute" horiz-adv-x="1129" unicode="ń"/><glyph d="M1058 1319h348v-1319h-356l-548 746v-746h-354v1319h361l549 -754v754zM800 -116q82 0 125.5 -57t43.5 -151q0 -113 -63 -187t-194 -91l-33 105q65 10 96 23t44 44h-19q-67 0 -106.5 43.5t-39.5 111.5q0 73 39.5 116t106.5 43z" glyph-name="Ncommaaccent" horiz-adv-x="1553" unicode="Ņ"/><glyph d="M708 963q68 0 125.5 -18t107 -59t77.5 -115.5t28 -176.5v-594h-372l4 515q0 39 -2 59t-17.5 39.5t-44.5 19.5q-77 0 -160 -53v-580h-369v939h282l53 -106q129 130 288 130zM292 660l-12 -35q3 10 15 34zM594 -116q82 0 125.5 -57t43.5 -151q0 -113 -63 -187t-195 -91 l-32 105q65 10 95.5 23t44.5 44h-19q-67 0 -107 43.5t-40 111.5q0 73 40 116t107 43z" glyph-name="ncommaaccent" horiz-adv-x="1129" unicode="ņ"/><glyph d="M802 1440h-82l-285 234l84 118l240 -96l248 96l80 -118zM1058 1319h348v-1319h-356l-548 746v-746h-354v1319h361l549 -754v754z" glyph-name="Ncaron" horiz-adv-x="1553" unicode="Ň"/><glyph d="M577 1060h-82l-285 234l84 117l240 -95l248 95l80 -117zM708 963q68 0 125.5 -18t107 -59t77.5 -115.5t28 -176.5v-594h-372l4 515q0 39 -2 59t-17.5 39.5t-44.5 19.5q-77 0 -160 -53v-580h-369v939h282l53 -106q129 130 288 130zM292 660l-12 -35q3 10 15 34z" glyph-name="ncaron" horiz-adv-x="1129" unicode="ň"/><glyph d="M944 1319h365v-1324q0 -108 -21.5 -195t-53 -143t-83.5 -104t-94.5 -74.5t-105.5 -57.5l-169 253l13 9q15 7 39 26.5t46.5 46.5t38.5 73t16 101v70h-1l-417 698v-698h-369v1319h379l417 -699v699z" glyph-name="Eng" horiz-adv-x="1457" unicode="Ŋ"/><glyph d="M708 963q68 0 125.5 -18t107 -59t77.5 -115.5t28 -176.5v-599q0 -108 -22 -195.5t-54.5 -144t-85.5 -105t-95.5 -74.5t-104.5 -55l-160 253l3 2q3 3 13 8t21 13t23.5 20t24.5 26.5t24 35t21.5 41.5t14.5 50t5 60v213h2l2 405q0 39 -2 58.5t-17.5 39.5t-44.5 20 q-75 0 -160 -53v-613h-369v939h282l51 -111q128 135 290 135zM292 635l8 25h2q-2 -7 -6 -14.5t-4 -10.5z" glyph-name="eng" horiz-adv-x="1129" unicode="ŋ"/><glyph d="M454 1449v198h597v-198h-597zM744 1348q287 0 465.5 -190t178.5 -496q0 -302 -175 -496.5t-469 -194.5q-285 0 -466.5 194.5t-181.5 496.5t177 494t471 192zM744 1022q-145 0 -216 -101.5t-71 -258.5q0 -160 72 -261t215 -101t214 100t71 262q0 164 -74 262t-211 98z" glyph-name="Omacron" horiz-adv-x="1484" unicode="Ō"/><glyph d="M232 1068v198h597v-198h-597zM560 966q225 0 373.5 -137.5t148.5 -362.5q0 -85 -29 -168t-87 -158t-164 -121t-242 -46q-227 0 -373 133t-146 360q0 230 146 365t373 135zM559.5 659q-83.5 0 -117.5 -59t-34 -134q0 -43 11 -81.5t47 -71.5t94 -33q56 0 92.5 33t48.5 71.5 t12 81.5q0 75 -35 134t-118.5 59z" glyph-name="omacron" horiz-adv-x="1122" unicode="ō"/><glyph d="M626 1411l-126 29l27 347l258 -70zM927 1411l-125 29l24 347l261 -70zM744 1348q287 0 465.5 -190t178.5 -496q0 -302 -175 -496.5t-469 -194.5q-285 0 -466.5 194.5t-181.5 496.5t177 494t471 192zM744 1022q-145 0 -216 -101.5t-71 -258.5q0 -160 72 -261t215 -101 t214 100t71 262q0 164 -74 262t-211 98z" glyph-name="Ohungarumlaut" horiz-adv-x="1484" unicode="Ő"/><glyph d="M404 1031l-126 29l27 346l258 -70zM705 1031l-125 29l24 346l261 -70zM560 966q225 0 373.5 -137.5t148.5 -362.5q0 -85 -29 -168t-87 -158t-164 -121t-242 -46q-227 0 -373 133t-146 360q0 230 146 365t373 135zM559.5 659q-83.5 0 -117.5 -59t-34 -134q0 -43 11 -81.5 t47 -71.5t94 -33q56 0 92.5 33t48.5 71.5t12 81.5q0 75 -35 134t-118.5 59z" glyph-name="ohungarumlaut" horiz-adv-x="1122" unicode="ő"/><glyph d="M1925 983h-498v-159h292v-336h-292v-152h498v-336h-834v109q-154 -138 -386 -138q-268 0 -438.5 194.5t-170.5 496.5t166 494t443 192q229 0 386 -138v109h834v-336zM744 307q142 0 210 97.5t68 258t-71.5 256.5t-206.5 96q-143 0 -211.5 -99t-68.5 -254q0 -157 70 -256 t210 -99z" glyph-name="OE" horiz-adv-x="2041" unicode="Œ"/><glyph d="M1244 244q48 0 88 8.5t98 28t79 24.5l141 -254q-108 -41 -194.5 -59.5t-211.5 -18.5q-239 0 -360 145q-116 -145 -357 -145q-207 0 -346.5 134t-139.5 359q0 227 141 363.5t345 136.5q222 0 342 -138q104 138 329 138q271 0 378 -159.5t61 -429.5h-589l43 -2 q15 -41 28 -64.5t45 -45t80 -21.5zM1198 695q-39 0 -59.5 -15.5t-32.5 -50.5t-14 -38h226q17 31 -15 67.5t-105 36.5zM560 280q70 0 111.5 61.5t41.5 124.5q0 70 -40 131.5t-113 61.5q-72 0 -112 -61.5t-40 -131.5q0 -65 40 -125.5t112 -60.5z" glyph-name="oe" horiz-adv-x="1742" unicode="œ"/><glyph d="M998 1543l-450 -94l-46 116l408 230zM1278 0h-387l-186 394q-22 -2 -70 -1h-125v-393h-362v1319h519q171 0 288.5 -34t181.5 -99t90.5 -145t26.5 -188q0 -292 -232 -396zM510 691h125q128 0 187.5 31t59.5 128q0 96 -53.5 125.5t-161.5 29.5h-157v-314z" glyph-name="Racute" horiz-adv-x="1348" unicode="Ŕ"/><glyph d="M730 1162l-450 -94l-46 116l408 231zM580 966q111 0 222 -72l-160 -326q-5 3 -18 10t-19 10.5t-17 8.5t-19.5 8t-20.5 4.5t-24 1.5q-58 0 -91 -75v-225v-2l2 -2l-2 2v-309h-348v939h263l41 -79q75 106 191 106z" glyph-name="racute" horiz-adv-x="812" unicode="ŕ"/><glyph d="M1022 457l256 -457h-387l-186 394q-22 -2 -70 -1h-125v-393h-362v1319h519q171 0 288.5 -34t181.5 -99t90.5 -145t26.5 -188q0 -292 -232 -396zM510 691h125q128 0 187.5 31t59.5 128q0 96 -53.5 125.5t-161.5 29.5h-157v-314zM676 -116q82 0 125.5 -57t43.5 -151 q0 -113 -63 -187t-195 -91l-32 105q65 10 95.5 23t44.5 44h-19q-67 0 -107 43.5t-40 111.5q0 73 40 116t107 43z" glyph-name="Rcommaaccent" horiz-adv-x="1348" unicode="Ŗ"/><glyph d="M580 966q111 0 222 -72l-160 -326q-5 3 -18 10t-19 10.5t-17 8.5t-19.5 8t-20.5 4.5t-24 1.5q-58 0 -91 -75v-225v-2l2 -2l-2 2v-309h-348v939h263l41 -79q75 106 191 106zM244 -116q82 0 125.5 -57t43.5 -151q0 -113 -63 -187t-195 -91l-32 105q65 10 95.5 23t44.5 44 h-19q-67 0 -107 43.5t-40 111.5q0 73 40 116t107 43z" glyph-name="rcommaaccent" horiz-adv-x="812" unicode="ŗ"/><glyph d="M691 1440h-82l-285 234l84 118l241 -96l247 96l80 -118zM1278 0h-387l-186 394q-22 -2 -70 -1h-125v-393h-362v1319h519q171 0 288.5 -34t181.5 -99t90.5 -145t26.5 -188q0 -292 -232 -396zM510 691h125q128 0 187.5 31t59.5 128q0 96 -53.5 125.5t-161.5 29.5h-157v-314 z" glyph-name="Rcaron" horiz-adv-x="1348" unicode="Ř"/><glyph d="M423 1060h-82l-285 234l84 117l241 -95l247 95l80 -117zM580 966q111 0 222 -72l-160 -326q-5 3 -18 10t-19 10.5t-17 8.5t-19.5 8t-20.5 4.5t-24 1.5q-58 0 -91 -75v-225v-2l2 -2l-2 2v-309h-348v939h263l41 -79q75 106 191 106z" glyph-name="rcaron" horiz-adv-x="812" unicode="ř"/><glyph d="M534 1449l-46 116l408 230l89 -252zM61 244l267 225q152 -176 314 -175q58 0 99.5 27t41.5 58q0 32 -35.5 60.5t-92 52t-125.5 51t-137.5 64t-124.5 82t-92 115.5t-36 155q0 172 135.5 283t369.5 111q280 0 488 -186l-254 -223q-15 9 -58.5 37t-61 37t-52.5 19.5 t-72 10.5q-53 0 -83 -28t-30 -49q0 -27 35 -51t91.5 -45.5t124 -46t135 -61.5t123.5 -83t91 -118.5t35 -159.5q0 -193 -151 -313t-378 -120q-313 0 -567 271z" glyph-name="Sacute" horiz-adv-x="1235" unicode="Ś"/><glyph d="M372 1304l-46 116l408 230l89 -252zM485 -27q-121 0 -263.5 37.5t-192.5 79.5l135 260q46 -27 159.5 -65.5t183.5 -38.5q80 0 73 34q0 27 -54.5 41t-132 25.5t-154.5 36.5t-131.5 90.5t-54.5 171.5q0 123 106.5 222t311.5 99q118 0 201.5 -20.5t204.5 -68.5l-109 -252 q-7 2 -39.5 13t-47 16t-46 13.5t-53 12.5t-52 7.5t-57.5 3.5q-80 0 -80 -24q0 -27 54.5 -39t131 -23t154.5 -36t132.5 -95.5t54.5 -183.5q0 -135 -110 -226t-325 -91z" glyph-name="sacute" horiz-adv-x="962" unicode="ś"/><glyph d="M1157 406q0 -179 -132 -297t-339 -135l-5 -63q84 -3 152 -49t63 -142q-5 -51 -22 -87.5t-40 -57t-59 -29.5t-66 -9t-75 9t-72.5 16.5t-71.5 21.5l31 145q56 -34 130 -43.5t85 36.5q0 27 -20.5 46t-51.5 25t-53 7.5t-41 -0.5l17 174q-288 17 -526 270l267 225 q152 -176 314 -175q58 0 99.5 27t41.5 58q0 32 -35.5 60.5t-92 52t-125.5 51t-137.5 64t-124.5 82t-92 115.5t-36 155q0 172 135.5 283t369.5 111q280 0 488 -186l-254 -223q-15 9 -58.5 37t-61 37t-52.5 19.5t-72 10.5q-53 0 -83 -28t-30 -49q0 -27 35 -51t91.5 -45.5 t124 -46t135 -61.5t123.5 -83t91 -118.5t35 -159.5z" glyph-name="Scedilla" horiz-adv-x="1235" unicode="Ş"/><glyph d="M920 290q0 -126 -97.5 -215.5t-288.5 -100.5l-5 -63q77 -3 142.5 -43t76.5 -115q2 -92 -38.5 -142t-137.5 -65q-79 -14 -143.5 1.5t-90.5 36.5l31 145q56 -34 130 -43.5t85 36.5q0 27 -20.5 46t-51.5 25t-53 7.5t-41 -0.5l17 174q-118 7 -240 43t-166 73l135 260 q46 -27 159.5 -65.5t183.5 -38.5q80 0 73 34q0 27 -54.5 41t-132 25.5t-154.5 36.5t-131.5 90.5t-54.5 171.5q0 123 106.5 222t311.5 99q118 0 201.5 -20.5t204.5 -68.5l-109 -252q-7 2 -39.5 13t-47 16t-46 13.5t-53 12.5t-52 7.5t-57.5 3.5q-80 0 -80 -24q0 -27 54.5 -39 t131 -23t154.5 -36t132.5 -95.5t54.5 -183.5z" glyph-name="scedilla" horiz-adv-x="962" unicode="ş"/><glyph d="M596 1440l-285 234l83 118l241 -96l247 96l81 -118l-285 -234h-82zM61 244l267 225q152 -176 314 -175q58 0 99.5 27t41.5 58q0 32 -35.5 60.5t-92 52t-125.5 51t-137.5 64t-124.5 82t-92 115.5t-36 155q0 172 135.5 283t369.5 111q280 0 488 -186l-254 -223 q-15 9 -58.5 37t-61 37t-52.5 19.5t-72 10.5q-53 0 -83 -28t-30 -49q0 -27 35 -51t91.5 -45.5t124 -46t135 -61.5t123.5 -83t91 -118.5t35 -159.5q0 -193 -151 -313t-378 -120q-313 0 -567 271z" glyph-name="Scaron" horiz-adv-x="1235" unicode="Š"/><glyph d="M433 1295l-285 234l84 118l241 -96l247 96l80 -118l-285 -234h-82zM485 -27q-121 0 -263.5 37.5t-192.5 79.5l135 260q46 -27 159.5 -65.5t183.5 -38.5q80 0 73 34q0 27 -54.5 41t-132 25.5t-154.5 36.5t-131.5 90.5t-54.5 171.5q0 123 106.5 222t311.5 99 q118 0 201.5 -20.5t204.5 -68.5l-109 -252q-7 2 -39.5 13t-47 16t-46 13.5t-53 12.5t-52 7.5t-57.5 3.5q-80 0 -80 -24q0 -27 54.5 -39t131 -23t154.5 -36t132.5 -95.5t54.5 -183.5q0 -135 -110 -226t-325 -91z" glyph-name="scaron" horiz-adv-x="962" unicode="š"/><glyph d="M778 0h-126l-7 -89q84 -3 152 -49t63 -142q-5 -51 -22 -87.5t-40 -57t-59 -29.5t-66 -9t-75 9t-72.5 16.5t-71.5 21.5l31 145q56 -34 130 -43.5t85 36.5q0 27 -20.5 46t-51.5 25t-53 7.5t-41 -0.5l19 200h-130v993h-360v326h1072v-326h-357v-993z" glyph-name="Tcommaaccent" horiz-adv-x="1203" unicode="Ţ"/><glyph d="M507 -89q84 -3 152 -49t63 -142q-5 -51 -22 -87.5t-40 -57t-59 -29.5t-66 -9t-75 9t-72.5 16.5t-71.5 21.5l30 145q56 -34 130.5 -43.5t84.5 36.5q0 27 -20 46t-51 25t-53 7.5t-41 -0.5l19 190q-276 79 -277 512v165h-124v272h124v292h355v-292h173l-33 -272h-140v-201 q0 -73 14.5 -121t36 -67t52 -24t56.5 1t55.5 12t43.5 6l-38 -283q-113 -24 -201 -17z" glyph-name="tcommaaccent" horiz-adv-x="740" unicode="ţ"/><glyph d="M643 1440h-82l-285 234l84 118l241 -96l247 96l80 -118zM1135 1319v-326h-357v-993h-355v993h-360v326h1072z" glyph-name="Tcaron" horiz-adv-x="1203" unicode="Ť"/><glyph d="M966 1388l-251 -388l-114 51l124 451zM493 466q0 -73 14.5 -121t36 -67t52 -24t56.5 1t55.5 12t43.5 6l-38 -283q-85 -19 -159 -20t-153.5 24.5t-135 82t-91.5 165t-36 260.5v165h-124v272h124v292h355v-292h173l-33 -272h-140v-201z" glyph-name="tcaron" horiz-adv-x="740" unicode="ť"/><glyph d="M1135 983h-350v-101h213v-336h-213v-546h-369v546h-216v336h216v101h-353v336h1072v-336z" glyph-name="Tbar" horiz-adv-x="1203" unicode="Ŧ"/><glyph d="M497 398q9 -61 31 -96.5t52.5 -41.5t59.5 -3.5t63 11t48 7.5l-38 -282q-79 -17 -149.5 -19.5t-146.5 17t-133 64t-99.5 132.5t-54.5 211h-82v225h77v44h-111v272h111v292h368v-292h173l-33 -272h-140v-44h144l-23 -225h-117z" glyph-name="tbar" horiz-adv-x="740" unicode="ŧ"/><glyph d="M512 1410h-191q0 135 79.5 215t176.5 80q65 0 130.5 -51t103.5 -51q29 0 38 23.5t9 73.5h193q0 -155 -69 -227t-168 -72q-55 0 -98.5 28t-74 56.5t-57.5 28.5q-72 0 -72 -104zM1312 1319v-647q0 -172 -27 -295.5t-93 -218.5t-181 -142t-282 -47q-171 0 -288 47 t-181.5 142.5t-92 218.5t-27.5 295v647h362v-594q0 -119 15 -206t36.5 -132.5t55 -71t60 -31.5t60.5 -6q44 0 77.5 13.5t69 55.5t55.5 137.5t20 240.5v594h361z" glyph-name="Utilde" horiz-adv-x="1450" unicode="Ũ"/><glyph d="M410 1133q-72 0 -72 -104h-191q0 135 79 215t177 80q65 0 130.5 -51t103.5 -51q29 0 38 24t9 73h193q0 -155 -69 -226.5t-168 -71.5q-55 0 -98.5 28t-74 56t-57.5 28zM674 939h369v-939h-282l-53 108q-128 -131 -288 -132q-68 0 -125.5 18t-107 59t-77.5 115t-28 177v594 h370l-1 -466q0 -39 1.5 -59.5t17 -40.5t44.5 -20q72 0 160 53v533z" glyph-name="utilde" horiz-adv-x="1129" unicode="ũ"/><glyph d="M423 1449v198h598v-198h-598zM1312 1319v-647q0 -172 -27 -295.5t-93 -218.5t-181 -142t-282 -47q-171 0 -288 47t-181.5 142.5t-92 218.5t-27.5 295v647h362v-594q0 -119 15 -206t36.5 -132.5t55 -71t60 -31.5t60.5 -6q44 0 77.5 13.5t69 55.5t55.5 137.5t20 240.5v594 h361z" glyph-name="Umacron" horiz-adv-x="1450" unicode="Ū"/><glyph d="M847 1266v-198h-598v198h598zM674 939h369v-939h-282l-53 108q-128 -131 -288 -132q-68 0 -125.5 18t-107 59t-77.5 115t-28 177v594h370l-1 -466q0 -39 1.5 -59.5t17 -40.5t44.5 -20q72 0 160 53v533z" glyph-name="umacron" horiz-adv-x="1129" unicode="ū"/><glyph d="M713 1841q90 0 146 -59.5t56 -155.5q0 -90 -56.5 -155t-145.5 -65q-90 0 -146.5 62.5t-56.5 157.5q0 101 54.5 158t148.5 57zM713 1702q-31 0 -49.5 -21.5t-18.5 -54t19 -54.5t49.5 -22t48.5 22t18 54q0 31 -20 53.5t-47 22.5zM1312 1319v-647q0 -172 -27 -295.5 t-93 -218.5t-181 -142t-282 -47q-171 0 -288 47t-181.5 142.5t-92 218.5t-27.5 295v647h362v-594q0 -119 15 -206t36.5 -132.5t55 -71t60 -31.5t60.5 -6q44 0 77.5 13.5t69 55.5t55.5 137.5t20 240.5v594h361z" glyph-name="Uring" horiz-adv-x="1450" unicode="Ů"/><glyph d="M539 1026q-90 0 -146.5 62t-56.5 158q0 101 54.5 158t148.5 57q90 0 146 -60t56 -155q0 -90 -56.5 -155t-145.5 -65zM539 1321q-31 0 -49.5 -21.5t-18.5 -54t19 -54.5t49.5 -22t48.5 22t18 55q0 31 -20 53t-47 22zM674 939h369v-939h-282l-53 108q-128 -131 -288 -132 q-68 0 -125.5 18t-107 59t-77.5 115t-28 177v594h370l-1 -466q0 -39 1.5 -59.5t17 -40.5t44.5 -20q72 0 160 53v533z" glyph-name="uring" horiz-adv-x="1129" unicode="ů"/><glyph d="M596 1411l-127 29l28 347l257 -70zM896 1411l-125 29l24 347l261 -70zM1312 1319v-647q0 -172 -27 -295.5t-93 -218.5t-181 -142t-282 -47q-171 0 -288 47t-181.5 142.5t-92 218.5t-27.5 295v647h362v-594q0 -119 15 -206t36.5 -132.5t55 -71t60 -31.5t60.5 -6 q44 0 77.5 13.5t69 55.5t55.5 137.5t20 240.5v594h361z" glyph-name="Uhungarumlaut" horiz-adv-x="1450" unicode="Ű"/><glyph d="M580 1336l-158 -305l-127 29l28 346zM882 1336l-160 -305l-125 29l24 346zM674 939h369v-939h-282l-53 108q-128 -131 -288 -132q-68 0 -125.5 18t-107 59t-77.5 115t-28 177v594h370l-1 -466q0 -39 1.5 -59.5t17 -40.5t44.5 -20q72 0 160 53v533z" glyph-name="uhungarumlaut" horiz-adv-x="1129" unicode="ű"/><glyph d="M951 1319h361v-647q0 -270 -73 -434.5t-247 -227.5q-58 -79 -77 -114.5t-19 -66.5q0 -48 48 -47q32 0 68 27l50 -99q-63 -68 -157 -77q-89 -5 -137.5 37.5t-45.5 116.5q0 84 99 186q-58 -3 -92 -4q-171 0 -288 47t-181.5 142.5t-92 218.5t-27.5 295v647h362v-594 q0 -119 15 -206t36.5 -132.5t55 -71t60 -31.5t60.5 -6q44 0 77.5 13.5t69 55.5t55.5 137.5t20 240.5v594z" glyph-name="Uogonek" horiz-adv-x="1450" unicode="Ų"/><glyph d="M1043 0h-149q-58 -77 -76.5 -112.5t-18.5 -66.5q0 -48 48 -48q32 0 68 27l49 -99q-63 -68 -157 -76q-89 -5 -137.5 37.5t-44.5 115.5q0 51 40 113.5t96 108.5l-53 108q-128 -131 -288 -132q-68 0 -125.5 18t-107 59t-77.5 115t-28 177v594h370l-1 -466q0 -39 1.5 -59.5 t17 -40.5t44.5 -20q72 0 160 53v533h369v-939z" glyph-name="uogonek" horiz-adv-x="1129" unicode="ų"/><glyph d="M860 1519l-240 -94l-84 118l285 234h82l285 -234l-80 -118zM1359 1319h418l-309 -1319h-350l-193 732l-234 -732h-346l-263 1319h391l94 -706l250 706h229l214 -676z" glyph-name="Wcircumflex" horiz-adv-x="1861" unicode="Ŵ"/><glyph d="M821 1138l-241 -94l-83 118l285 234h82l285 -234l-81 -118zM1224 939h391l-318 -939h-352l-122 579l-125 -579h-353l-318 939h366l114 -471l160 474h311l148 -447z" glyph-name="wcircumflex" horiz-adv-x="1646" unicode="ŵ"/><glyph d="M589 1504l-241 -94l-83 117l285 234h81l285 -234l-80 -117zM1150 1319l-368 -771h-5v-548h-381v548l-369 771h412l150 -508l150 508h411z" glyph-name="Ycircumflex" horiz-adv-x="1184" unicode="Ŷ"/><glyph d="M452 1138l-240 -94l-84 118l285 234h82l285 -234l-80 -118zM539 939h354l-314 -1062q-14 -55 -26 -95t-34 -88.5t-49.5 -80t-72 -61.5t-98 -42t-130.5 -9.5t-169 23.5l26 336q53 -22 91 -26.5t59.5 1t37 27.5t20.5 40t13.5 53t13.5 52l-288 932h362l104 -454z" glyph-name="ycircumflex" horiz-adv-x="892" unicode="ŷ"/><glyph d="M430 1418q-56 0 -90.5 38.5t-34.5 96.5q0 61 33.5 96t91.5 35q55 0 90 -35.5t35 -95.5q0 -53 -35 -94t-90 -41zM763 1418q-56 0 -90.5 38.5t-34.5 96.5q0 61 33.5 96t91.5 35q56 0 91 -35.5t35 -95.5q0 -53 -35 -94t-91 -41zM1150 1319l-368 -771h-5v-548h-381v548 l-369 771h412l150 -508l150 508h411z" glyph-name="Ydieresis" horiz-adv-x="1184" unicode="Ÿ"/><glyph d="M1034 1543l-450 -94l-46 116l407 230zM1249 1318v-212l-640 -792l640 22v-336h-1136v207l641 797l-641 -23v337h1136z" glyph-name="Zacute" horiz-adv-x="1353" unicode="Ź"/><glyph d="M800 1162l-450 -94l-46 116l408 231zM872 939v-333l-374 -301l374 28v-333h-838v335l364 298l-364 -27v333h838z" glyph-name="zacute" horiz-adv-x="904" unicode="ź"/><glyph d="M683 1379q-82 0 -134 57t-52 144q0 90 50 143.5t136 53.5q84 0 135 -54t51 -143q0 -80 -51 -140.5t-135 -60.5zM1249 1318v-212l-640 -792l640 22v-336h-1136v207l641 797l-641 -23v337h1136z" glyph-name="Zdotaccent" horiz-adv-x="1353" unicode="Ż"/><glyph d="M449 998q-82 0 -134 57.5t-52 144.5q0 90 50.5 143t135.5 53q84 0 135 -53.5t51 -142.5q0 -80 -51 -141t-135 -61zM872 939v-333l-374 -301l374 28v-333h-838v335l364 298l-364 -27v333h838z" glyph-name="zdotaccent" horiz-adv-x="904" unicode="ż"/><glyph d="M727 1440h-82l-285 234l84 118l240 -96l248 96l80 -118zM1249 1318v-212l-640 -792l640 22v-336h-1136v207l641 797l-641 -23v337h1136z" glyph-name="Zcaron" horiz-adv-x="1353" unicode="Ž"/><glyph d="M493 1060h-82l-285 234l84 117l241 -95l247 95l80 -117zM872 939v-333l-374 -301l374 28v-333h-838v335l364 298l-364 -27v333h838z" glyph-name="zcaron" horiz-adv-x="904" unicode="ž"/><glyph d="M147 986q0 304 153.5 422.5t424.5 25.5l-3 -279q-34 12 -49.5 16.5t-48.5 10.5t-50.5 -2t-38 -24t-29.5 -52t-9 -89v-1015h-350v635h-121v304h121v47z" glyph-name="longs" horiz-adv-x="749" unicode="ſ"/><glyph d="M1504 1468q19 -56 19.5 -119.5t-18 -121.5t-70 -96.5t-129.5 -38.5h-43q125 -177 125 -430q0 -302 -175 -496.5t-469 -194.5q-285 0 -466.5 194.5t-181.5 496.5t177.5 496t470.5 194h2q60 0 129.5 -6t151.5 -14.5t128 -12.5q60 -5 81.5 37t9.5 112h258zM744 300 q143 0 214 100t71 262q0 164 -74 262t-211 98q-145 0 -216 -101.5t-71 -258.5q0 -160 72 -261t215 -101z" glyph-name="Ohorn" horiz-adv-x="1510" unicode="Ơ"/><glyph d="M1225 1092q36 -106 -11.5 -211.5t-187.5 -119.5q90 -123 90 -295q0 -85 -28 -168t-87 -158t-164 -121t-241 -46q-229 0 -375 133t-146 360q0 230 146 365t375 135q60 0 98 -2.5t85 -7.5t98 -9q61 -5 82 35t9 110h257zM596 280q68 0 110 61.5t42 124.5q0 68 -40.5 130.5 t-111.5 62.5q-73 0 -112.5 -61.5t-39.5 -131.5q0 -65 39.5 -125.5t112.5 -60.5z" glyph-name="ohorn" horiz-adv-x="1192" unicode="ơ"/><glyph d="M1686 1459q10 -53 1.5 -117.5t-28 -121t-72.5 -94t-131 -37.5l-115 2v-415q0 -172 -27 -296t-93 -218.5t-181 -141.5t-284 -47q-171 0 -287 47t-180.5 142.5t-92 218t-27.5 295.5v643h362v-590q0 -119 15 -206.5t36.5 -132.5t55 -70.5t59 -31.5t59.5 -6q46 0 79.5 13.5 t69 55.5t55.5 137.5t20 240.5v590h361q58 -3 78.5 34.5t8.5 105.5h258z" glyph-name="Uhorn" horiz-adv-x="1621" unicode="Ư"/><glyph d="M1393 1079q10 -53 1.5 -118t-28 -121.5t-72.5 -94t-132 -37.5l-85 2v-710h-282l-53 108q-131 -131 -286 -132q-147 0 -243.5 86t-96.5 283v594h372l-3 -466q0 -39 2.5 -59.5t17 -40.5t45.5 -20q72 0 160 53v533h360q89 10 67 140h256z" glyph-name="uhorn" horiz-adv-x="1445" unicode="ư"/><glyph d="M802 1440h-82l-285 234l84 118l240 -96l248 96l80 -118zM1068 0l-80 239h-474l-79 -239h-386l485 1319h432l486 -1319h-384zM625 573h252l-128 381z" glyph-name="uni01CD" horiz-adv-x="1506" unicode="Ǎ"/><glyph d="M529 1060h-82l-285 234l84 117l240 -95l248 95l80 -117zM739 939h340v-939h-256l-48 133q-87 -160 -297 -160q-200 0 -318.5 134.5t-118.5 358.5q0 225 117.5 362.5t309.5 137.5q177 0 271 -130v103zM566.5 287q76.5 0 122 48.5t45.5 133.5q0 84 -44.5 133.5t-122.5 49.5 q-77 0 -122.5 -50.5t-45.5 -132.5q0 -84 45.5 -133t122 -49z" glyph-name="uni01CE" horiz-adv-x="1199" unicode="ǎ"/><glyph d="M299 1440l-285 234l83 118l241 -96l247 96l81 -118l-285 -234h-82zM510 0h-362v1319h362v-1319z" glyph-name="uni01CF" horiz-adv-x="658" unicode="Ǐ"/><glyph d="M266 1060l-285 234l84 117l240 -95l248 95l80 -117l-285 -234h-82zM483 0h-357v939h357v-939z" glyph-name="uni01D0" horiz-adv-x="609" unicode="ǐ"/><glyph d="M708 1440l-285 234l84 118l241 -96l247 96l80 -118l-285 -234h-82zM744 1348q287 0 465.5 -190t178.5 -496q0 -302 -175 -496.5t-469 -194.5q-285 0 -466.5 194.5t-181.5 496.5t177 494t471 192zM744 1022q-145 0 -216 -101.5t-71 -258.5q0 -160 72 -261t215 -101 t214 100t71 262q0 164 -74 262t-211 98z" glyph-name="uni01D1" horiz-adv-x="1484" unicode="Ǒ"/><glyph d="M486 1060l-285 234l84 117l241 -95l247 95l80 -117l-285 -234h-82zM560 966q225 0 373.5 -137.5t148.5 -362.5q0 -85 -29 -168t-87 -158t-164 -121t-242 -46q-227 0 -373 133t-146 360q0 230 146 365t373 135zM559.5 659q-83.5 0 -117.5 -59t-34 -134q0 -43 11 -81.5 t47 -71.5t94 -33q56 0 92.5 33t48.5 71.5t12 81.5q0 75 -35 134t-118.5 59z" glyph-name="uni01D2" horiz-adv-x="1122" unicode="ǒ"/><glyph d="M678 1440l-285 234l83 118l241 -96l247 96l80 -118l-285 -234h-81zM1312 1319v-647q0 -172 -27 -295.5t-93 -218.5t-181 -142t-282 -47q-171 0 -288 47t-181.5 142.5t-92 218.5t-27.5 295v647h362v-594q0 -119 15 -206t36.5 -132.5t55 -71t60 -31.5t60.5 -6 q44 0 77.5 13.5t69 55.5t55.5 137.5t20 240.5v594h361z" glyph-name="uni01D3" horiz-adv-x="1450" unicode="Ǔ"/><glyph d="M585 1060h-82l-285 234l84 117l241 -95l247 95l80 -117zM674 939h369v-939h-282l-53 108q-128 -131 -288 -132q-68 0 -125.5 18t-107 59t-77.5 115t-28 177v594h370l-1 -466q0 -39 1.5 -59.5t17 -40.5t44.5 -20q72 0 160 53v533z" glyph-name="uni01D4" horiz-adv-x="1129" unicode="ǔ"/><glyph d="M430 1830v198h597v-198h-597zM555 1700q55 0 89.5 -36t34.5 -96q0 -53 -35 -93.5t-89 -40.5q-56 0 -90.5 38t-34.5 96q0 61 33.5 96.5t91.5 35.5zM887 1700q56 0 91.5 -36t35.5 -96q0 -53 -35 -93.5t-91.5 -40.5t-90.5 38t-34 96q0 61 33 96.5t91 35.5zM1312 1319v-647 q0 -172 -27 -295.5t-93 -218.5t-181 -142t-282 -47q-171 0 -288 47t-181.5 142.5t-92 218.5t-27.5 295v647h362v-594q0 -119 15 -206t36.5 -132.5t55 -71t60 -31.5t60.5 -6q44 0 77.5 13.5t69 55.5t55.5 137.5t20 240.5v594h361z" glyph-name="uni01D5" horiz-adv-x="1450" unicode="Ǖ"/><glyph d="M853 1647v-198h-597v198h597zM381 1053q-56 0 -90.5 38.5t-34.5 96.5q0 61 33.5 96t91.5 35q55 0 89.5 -35.5t34.5 -95.5q0 -53 -34.5 -94t-89.5 -41zM589 1188q0 61 33 96t91 35q56 0 91.5 -35.5t35.5 -95.5q0 -53 -35 -94t-91.5 -41t-90.5 38.5t-34 96.5zM674 939h369 v-939h-282l-53 108q-128 -131 -288 -132q-68 0 -125.5 18t-107 59t-77.5 115t-28 177v594h370l-1 -466q0 -39 1.5 -59.5t17 -40.5t44.5 -20q72 0 160 53v533z" glyph-name="uni01D6" horiz-adv-x="1129" unicode="ǖ"/><glyph d="M623 1830l-46 116l408 230l88 -253zM555 1700q55 0 89.5 -36t34.5 -96q0 -53 -35 -93.5t-89 -40.5q-56 0 -90.5 38t-34.5 96q0 61 33.5 96.5t91.5 35.5zM887 1700q56 0 91.5 -36t35.5 -96q0 -53 -35 -93.5t-91.5 -40.5t-90.5 38t-34 96q0 61 33 96.5t91 35.5zM1312 1319 v-647q0 -172 -27 -295.5t-93 -218.5t-181 -142t-282 -47q-171 0 -288 47t-181.5 142.5t-92 218.5t-27.5 295v647h362v-594q0 -119 15 -206t36.5 -132.5t55 -71t60 -31.5t60.5 -6q44 0 77.5 13.5t69 55.5t55.5 137.5t20 240.5v594h361z" glyph-name="uni01D7" horiz-adv-x="1450" unicode="Ǘ"/><glyph d="M899 1543l-450 -94l-46 116l408 230zM381 1053q-56 0 -90.5 38.5t-34.5 96.5q0 61 33.5 96t91.5 35q55 0 89.5 -35.5t34.5 -95.5q0 -53 -34.5 -94t-89.5 -41zM589 1188q0 61 33 96t91 35q56 0 91.5 -35.5t35.5 -95.5q0 -53 -35 -94t-91.5 -41t-90.5 38.5t-34 96.5z M674 939h369v-939h-282l-53 108q-128 -131 -288 -132q-68 0 -125.5 18t-107 59t-77.5 115t-28 177v594h370l-1 -466q0 -39 1.5 -59.5t17 -40.5t44.5 -20q72 0 160 53v533z" glyph-name="uni01D8" horiz-adv-x="1129" unicode="ǘ"/><glyph d="M684 1821l-285 234l84 118l241 -96l247 96l80 -118l-285 -234h-82zM555 1700q55 0 89.5 -36t34.5 -96q0 -53 -35 -93.5t-89 -40.5q-56 0 -90.5 38t-34.5 96q0 61 33.5 96.5t91.5 35.5zM887 1700q56 0 91.5 -36t35.5 -96q0 -53 -35 -93.5t-91.5 -40.5t-90.5 38t-34 96 q0 61 33 96.5t91 35.5zM1312 1319v-647q0 -172 -27 -295.5t-93 -218.5t-181 -142t-282 -47q-171 0 -288 47t-181.5 142.5t-92 218.5t-27.5 295v647h362v-594q0 -119 15 -206t36.5 -132.5t55 -71t60 -31.5t60.5 -6q44 0 77.5 13.5t69 55.5t55.5 137.5t20 240.5v594h361z" glyph-name="uni01D9" horiz-adv-x="1450" unicode="Ǚ"/><glyph d="M592 1440h-82l-285 234l84 118l241 -96l247 96l80 -118zM256 1188q0 61 33.5 96t91.5 35q55 0 89.5 -35.5t34.5 -95.5q0 -53 -35 -94t-89 -41q-56 0 -90.5 38.5t-34.5 96.5zM589 1188q0 61 33 96t91 35q56 0 91.5 -35.5t35.5 -95.5q0 -53 -35 -94t-91.5 -41t-90.5 38.5 t-34 96.5zM674 939h369v-939h-282l-53 108q-128 -131 -288 -132q-68 0 -125.5 18t-107 59t-77.5 115t-28 177v594h370l-1 -466q0 -39 1.5 -59.5t17 -40.5t44.5 -20q72 0 160 53v533z" glyph-name="uni01DA" horiz-adv-x="1129" unicode="ǚ"/><glyph d="M800 1830l-450 93l89 253l409 -230zM555 1700q55 0 89.5 -36t34.5 -96q0 -53 -35 -93.5t-89 -40.5q-56 0 -90.5 38t-34.5 96q0 61 33.5 96.5t91.5 35.5zM887 1700q56 0 91.5 -36t35.5 -96q0 -53 -35 -93.5t-91.5 -40.5t-90.5 38t-34 96q0 61 33 96.5t91 35.5zM1312 1319 v-647q0 -172 -27 -295.5t-93 -218.5t-181 -142t-282 -47q-171 0 -288 47t-181.5 142.5t-92 218.5t-27.5 295v647h362v-594q0 -119 15 -206t36.5 -132.5t55 -71t60 -31.5t60.5 -6q44 0 77.5 13.5t69 55.5t55.5 137.5t20 240.5v594h361z" glyph-name="uni01DB" horiz-adv-x="1450" unicode="Ǜ"/><glyph d="M674 1565l-48 -116l-450 94l89 252zM256 1188q0 61 33.5 96t91.5 35q55 0 89.5 -35.5t34.5 -95.5q0 -53 -35 -94t-89 -41q-56 0 -90.5 38.5t-34.5 96.5zM589 1188q0 61 33 96t91 35q56 0 91.5 -35.5t35.5 -95.5q0 -53 -35 -94t-91.5 -41t-90.5 38.5t-34 96.5zM674 939 h369v-939h-282l-53 108q-128 -131 -288 -132q-68 0 -125.5 18t-107 59t-77.5 115t-28 177v594h370l-1 -466q0 -39 1.5 -59.5t17 -40.5t44.5 -20q72 0 160 53v533z" glyph-name="uni01DC" horiz-adv-x="1129" unicode="ǜ"/><glyph d="M1070 2028v-198h-597v198h597zM597 1434q-56 0 -90 38t-34 96q0 61 33 96.5t91 35.5q55 0 90 -36t35 -96q0 -53 -35 -93.5t-90 -40.5zM806 1568q0 61 33 96.5t91 35.5q56 0 91 -36t35 -96q0 -53 -35 -93.5t-91 -40.5t-90 38t-34 96zM1068 0l-80 239h-474l-79 -239h-386 l485 1319h432l486 -1319h-384zM625 573h252l-128 381z" glyph-name="uni01DE" horiz-adv-x="1506" unicode="Ǟ"/><glyph d="M797 1647v-198h-597v198h597zM324 1053q-56 0 -90 38.5t-34 96.5q0 61 33 96t91 35q55 0 90 -35.5t35 -95.5q0 -53 -35 -94t-90 -41zM532 1188q0 61 33.5 96t91.5 35q56 0 91 -35.5t35 -95.5q0 -53 -35 -94t-91 -41t-90.5 38.5t-34.5 96.5zM739 939h340v-939h-256 l-48 133q-87 -160 -297 -160q-200 0 -318.5 134.5t-118.5 358.5q0 225 117.5 362.5t309.5 137.5q177 0 271 -130v103zM566.5 287q76.5 0 122 48.5t45.5 133.5q0 84 -44.5 133.5t-122.5 49.5q-77 0 -122.5 -50.5t-45.5 -132.5q0 -84 45.5 -133t122 -49z" glyph-name="uni01DF" horiz-adv-x="1199" unicode="ǟ"/><glyph d="M785 1440h-82l-285 234l84 118l240 -96l248 96l80 -118zM1256 780v-551q-87 -119 -223.5 -187t-298.5 -68q-276 0 -457 194t-181 499q0 302 176.5 494t463.5 192q324 0 524 -249l-262 -222q-46 60 -119 101t-159 41q-128 0 -195.5 -102.5t-67.5 -255.5 q0 -159 74.5 -260.5t214.5 -101.5q77 0 119 34v113h-172v329h563z" glyph-name="Gcaron" horiz-adv-x="1385" unicode="Ǧ"/><glyph d="M611 1060h-82l-285 234l84 117l240 -95l248 95l80 -117zM824 939h277v-985q0 -94 -26.5 -173.5t-84.5 -147.5t-163 -106.5t-247 -38.5q-360 0 -515 241l251 194q3 -2 18.5 -20.5t33.5 -36.5t44.5 -37.5t63 -31.5t75.5 -12q27 0 53.5 7t61.5 25.5t57.5 65.5t22.5 117v130 q-97 -97 -268 -98q-198 0 -317.5 129t-119.5 336q0 203 117 336t310 133q198 0 307 -149zM572 335q70 0 122 44t52 116q0 68 -51.5 112.5t-122.5 44.5q-70 0 -123 -44.5t-53 -112.5q0 -70 53 -115t123 -45z" glyph-name="gcaron" horiz-adv-x="1192" unicode="ǧ"/><glyph d="M1108 1162l-451 -94l-46 116l408 231zM1126 244q46 0 86.5 8.5t98.5 27.5t80 25l140 -254q-106 -41 -193 -59.5t-212 -18.5q-280 0 -396 193q-51 -90 -141.5 -145t-213.5 -55q-150 0 -242 85.5t-92 231.5q0 154 100 232.5t258 78.5q99 0 188 -24q-36 84 -188 84 q-131 0 -261 -63l-109 296q203 79 377 79q203 0 330 -159q101 159 343 159q273 0 379.5 -159.5t58.5 -429.5h-589l45 -2q20 -61 52.5 -96t100.5 -35zM1079 695q-39 0 -59 -15.5t-31 -49.5t-14 -39h225q17 31 -14.5 67.5t-106.5 36.5zM425 294q3 -36 44 -33q20 0 53.5 15.5 t54.5 46.5q-46 9 -92 8q-60 1 -60 -37z" glyph-name="aeacute" horiz-adv-x="1623" unicode="ǽ"/><glyph d="M1159 1543l-451 -94l-46 116l408 230zM1519 1167l-150 -150q80 -157 80 -355q0 -304 -175 -497.5t-468 -193.5q-212 0 -371 111l-135 -137l-204 207l146 148q-85 160 -85 362q0 302 177.5 494t471.5 192q215 0 373 -111l135 137zM526 662q0 -39 5 -75l399 401 q-58 27 -124 27q-143 0 -211.5 -99t-68.5 -254zM1084 662q0 24 -4 65l-394 -396q53 -24 120 -24q142 0 210 97.5t68 257.5z" glyph-name="Oslashacute" horiz-adv-x="1616" unicode="Ǿ"/><glyph d="M899 1162l-450 -94l-46 116l408 231zM949 800q119 -137 119 -334q0 -85 -29 -168t-87 -158t-163.5 -121t-242.5 -46q-195 0 -329 97l-69 -68l-81 82l64 64q-104 128 -104 318q0 230 145 365t374 135q177 0 314 -90l85 85l82 -82zM394 466q0 -27 7 -50l219 221 q-32 22 -74 22q-72 0 -112 -61.5t-40 -131.5zM546 280q70 0 112 61.5t42 124.5q0 38 -12 73l-229 -227q38 -32 87 -32z" glyph-name="oslashacute" horiz-adv-x="1095" unicode="ǿ"/><glyph d="M522 971q0 -27 35 -51t91.5 -45.5t124 -46t135 -61.5t123.5 -83t91 -118.5t35 -159.5q0 -193 -151 -313t-378 -120q-312 0 -567 271l267 225q152 -176 314 -175q58 0 99.5 27t41.5 58q0 32 -35.5 60.5t-92 52t-125.5 51t-137.5 64t-124.5 82t-92 115.5t-36 155 q0 172 135.5 283t369.5 111q280 0 488 -186l-254 -223q-15 9 -58.5 37t-61 37t-52.5 19.5t-72 10.5q-53 0 -83 -28.5t-30 -48.5zM642 -116q82 0 125.5 -57t43.5 -151q0 -113 -63.5 -187t-194.5 -91l-32 105q65 10 95.5 23t43.5 44h-18q-67 0 -107 43.5t-40 111.5 q0 73 40 116t107 43z" glyph-name="Scommaaccent" horiz-adv-x="1235" unicode="Ș"/><glyph d="M485 -27q-121 0 -263.5 37.5t-192.5 79.5l135 260q46 -27 159.5 -65.5t183.5 -38.5q80 0 73 34q0 27 -54.5 41t-132 25.5t-154.5 36.5t-131.5 90.5t-54.5 171.5q0 123 106.5 222t311.5 99q118 0 201.5 -20.5t204.5 -68.5l-109 -252q-7 2 -39.5 13t-47 16t-46 13.5 t-53 12.5t-52 7.5t-57.5 3.5q-80 0 -80 -24q0 -27 54.5 -39t131 -23t154.5 -36t132.5 -95.5t54.5 -183.5q0 -135 -110 -226t-325 -91zM490 -116q82 0 125.5 -57t43.5 -151q0 -113 -63.5 -187t-194.5 -91l-32 105q65 10 95.5 23t44.5 44h-19q-67 0 -107 43.5t-40 111.5 q0 73 40 116t107 43z" glyph-name="scommaaccent" horiz-adv-x="962" unicode="ș"/><glyph d="M1135 1319v-326h-357v-993h-355v993h-360v326h1072zM606 -116q82 0 125.5 -57t43.5 -151q0 -113 -63 -187t-195 -91l-32 105q65 10 95.5 23t44.5 44h-19q-67 0 -107 43.5t-40 111.5q0 73 40 116t107 43z" glyph-name="uni021A" horiz-adv-x="1203" unicode="Ț"/><glyph d="M493 466q0 -73 14.5 -121t36 -67t52 -24t56.5 1t55.5 12t43.5 6l-38 -283q-85 -19 -159 -20t-153.5 24.5t-135 82t-91.5 165t-36 260.5v165h-124v272h124v292h355v-292h173l-33 -272h-140v-201zM468 -116q82 0 125.5 -57t43.5 -151q0 -113 -63.5 -187t-194.5 -91l-33 105 q65 10 96 23t44 44h-18q-67 0 -107 43.5t-40 111.5q0 73 40 116t107 43z" glyph-name="uni021B" horiz-adv-x="740" unicode="ț"/><glyph d="M1080 1002h-582v-178l473 -3v-304h-473v-200h582v-317h-466l-6 -89q77 -3 142.5 -43t75.5 -115q2 -92 -38 -142t-138 -65q-79 -14 -143.5 1.5t-90.5 36.5l31 145q56 -34 130.5 -43.5t84.5 36.5q0 27 -20.5 46t-51 25t-53 7.5t-40.5 -0.5l18 200h-367v1319h932v-317z" glyph-name="uni0228" horiz-adv-x="1194" unicode="Ȩ"/><glyph d="M957 51q-75 -29 -114 -41.5t-106.5 -24.5t-147.5 -12l-5 -62q77 -3 142.5 -43t75.5 -115q2 -92 -38 -142t-138 -65q-79 -14 -143.5 1.5t-89.5 36.5l30 145q56 -34 130.5 -43.5t84.5 36.5q0 27 -20.5 46t-51 25t-52.5 7.5t-41 -0.5l17 178q-207 24 -328 156t-121 337 q0 70 14.5 135.5t50.5 132.5t89.5 116.5t138 80t190.5 30.5q256 0 368.5 -164t54.5 -425h-573l44 -2q20 -61 52.5 -96t101.5 -35q46 0 86 8.5t99.5 28t78.5 24.5zM534 713q-39 0 -64.5 -20.5t-35 -52t-12 -47.5t-2.5 -30h232q3 26 -2 56.5t-35 62t-81 31.5z" glyph-name="uni0229" horiz-adv-x="1056" unicode="ȩ"/><glyph d="M461 1830v198h597v-198h-597zM585 1700q55 0 90 -36t35 -96q0 -53 -35 -93.5t-90 -40.5q-56 0 -90 38t-34 96q0 61 33 96.5t91 35.5zM918 1700q56 0 91 -36t35 -96q0 -53 -34.5 -93.5t-91 -40.5t-90.5 38t-34 96q0 61 33 96.5t91 35.5zM744 1348q287 0 465.5 -190 t178.5 -496q0 -302 -175 -496.5t-469 -194.5q-285 0 -466.5 194.5t-181.5 496.5t177 494t471 192zM744 1022q-145 0 -216 -101.5t-71 -258.5q0 -160 72 -261t215 -101t214 100t71 262q0 164 -74 262t-211 98z" glyph-name="uni022A" horiz-adv-x="1484" unicode="Ȫ"/><glyph d="M239 1449v198h597v-198h-597zM364 1319q55 0 89.5 -35.5t34.5 -95.5q0 -53 -35 -94t-89 -41q-56 0 -90.5 38.5t-34.5 96.5q0 61 33.5 96t91.5 35zM696 1319q56 0 91.5 -35.5t35.5 -95.5q0 -53 -35 -94t-91.5 -41t-90.5 38.5t-34 96.5q0 61 33 96t91 35zM560 966 q225 0 373.5 -137.5t148.5 -362.5q0 -85 -29 -168t-87 -158t-164 -121t-242 -46q-227 0 -373 133t-146 360q0 230 146 365t373 135zM559.5 659q-83.5 0 -117.5 -59t-34 -134q0 -43 11 -81.5t47 -71.5t94 -33q56 0 92.5 33t48.5 71.5t12 81.5q0 75 -35 134t-118.5 59z" glyph-name="uni022B" horiz-adv-x="1122" unicode="ȫ"/><glyph d="M529 939v-944q0 -108 -22 -195t-53.5 -143t-84.5 -104t-95 -74.5t-105 -57.5l-160 253l5 2q3 3 12.5 8t20.5 13t24 20t25.5 26.5t24.5 35t21.5 41.5t14.5 50t5 60v1009h367z" glyph-name="uni0237" horiz-adv-x="694" unicode="ȷ"/><glyph d="M1577 937v-116h-137v-145q0 -172 -27 -296t-93 -218.5t-181 -141.5t-282 -47q-171 0 -288 47t-181.5 142.5t-92 218t-27.5 295.5v147h-137v116h137v380h362v-380l449 -2v382h361v-382h137zM1079 729v92l-449 2v-94q0 -119 15 -206.5t36.5 -132.5t55 -70.5t60 -31.5 t60.5 -6q44 0 77.5 13.5t69 55.5t55.5 137.5t20 240.5z" glyph-name="uni0244" horiz-adv-x="1708" unicode="Ʉ"/><glyph d="M654 278q116 0 242 31l106 -290q-215 -53 -379 -53q-137 0 -246 36.5t-182.5 127t-73.5 225.5v577h285l55 -123q87 157 278 157q147 0 227 -89t80 -232q0 -159 -104 -248.5t-280 -89.5q-96 0 -186 24v-14q1 -39 178 -39zM606 705q-31 0 -69.5 -41t-53.5 -116 q36 -10 80.5 -10t80 28t35.5 60q0 36 -23 57.5t-50 21.5z" glyph-name="uni0250" horiz-adv-x="1087" unicode="ɐ"/><glyph d="M739 939h340v-939h-256l-48 133q-87 -160 -297 -160q-200 0 -318.5 134.5t-118.5 358.5q0 225 117.5 362.5t309.5 137.5q177 0 271 -130v103zM566.5 287q76.5 0 122 48.5t45.5 133.5q0 84 -44.5 133.5t-122.5 49.5q-77 0 -122.5 -50.5t-45.5 -132.5q0 -84 45.5 -133 t122 -49z" glyph-name="uni0251" horiz-adv-x="1199" unicode="ɑ"/><glyph d="M1015 468q0 -70 -14.5 -136t-50 -132.5t-89.5 -116t-139 -80t-191 -30.5q-254 0 -367 163.5t-55 424.5h572l-43 2q-24 63 -54.5 97.5t-98.5 34.5q-48 0 -88 -8.5t-98 -28.5t-79 -25l-121 254q75 29 117 43t112.5 25t156.5 11q239 0 384.5 -136.5t145.5 -361.5zM637 375 h-233q-5 -24 1 -55.5t36 -63t81 -31.5q39 0 65 20.5t35 52t12 47.5t3 30z" glyph-name="uni0259" horiz-adv-x="1056" unicode="ə"/><glyph d="M1207 637v-116h-104v-521h-282l-53 108q-128 -131 -288 -132q-68 0 -125.5 18t-107 59t-77.5 115t-28 177v177h-101v116h101v301h370l-2 -301l224 -1v302h369v-302h104zM734 406v115l-224 1v-49q0 -39 2 -59.5t17 -40.5t44 -20q72 0 161 53z" glyph-name="uni0289" horiz-adv-x="1249" unicode="ʉ"/><glyph d="M360 1396h82l285 -234l-80 -118l-248 94l-240 -94l-84 118z" glyph-name="circumflex" horiz-adv-x="798" unicode="ˆ"/><glyph d="M360 1060l-285 234l84 117l240 -95l248 95l80 -117l-285 -234h-82z" glyph-name="caron" horiz-adv-x="798" unicode="ˇ"/><glyph d="M681 1319q2 -113 -59 -186t-212 -73q-131 0 -200.5 64t-67.5 195h203q0 -5 -2.5 -23.5t14.5 -40t52.5 -21.5t53.5 21.5t15.5 40t-0.5 23.5h203z" glyph-name="breve" horiz-adv-x="817" unicode="˘"/><glyph d="M466 1396q84 0 135 -53.5t51 -142.5q0 -80 -51 -141t-135 -61q-82 0 -134 57.5t-52 144.5q0 90 50.5 143t135.5 53z" glyph-name="dotaccent" horiz-adv-x="931" unicode="˙"/><glyph d="M427 1461q90 0 145.5 -60t55.5 -155q0 -90 -56.5 -155t-144.5 -65q-90 0 -146.5 62t-56.5 158q0 101 54.5 158t148.5 57zM427 1321q-31 0 -50 -21.5t-19 -54t19 -54.5t49.5 -22t48.5 22t18 55q0 31 -19.5 53t-46.5 22z" glyph-name="ring" horiz-adv-x="856" unicode="˚"/><glyph d="M425 19h128q-63 -85 -82.5 -121t-19.5 -69q0 -48 47 -47q32 0 69 27l49 -99q-63 -68 -157 -77q-89 -5 -137.5 37.5t-45.5 116.5q0 53 44.5 118.5t104.5 113.5z" glyph-name="ogonek" horiz-adv-x="877" unicode="˛"/><glyph d="M381 1029h-192q0 135 79.5 215t176.5 80q65 0 131 -51t103 -51q29 0 38.5 24t9.5 73h193q0 -155 -69 -226.5t-168 -71.5q-55 0 -98.5 28t-74 56t-58.5 28q-71 0 -71 -104z" glyph-name="tilde" horiz-adv-x="1088" unicode="˜"/><glyph d="M184 1024l-126 29l27 346l258 -70zM485 1024l-125 29l24 346l261 -70z" glyph-name="hungarumlaut" horiz-adv-x="686" unicode="˝"/><glyph d="M-258 1068l-450 94l88 253l410 -231z" glyph-name="gravecomb" unicode="̀"/><glyph d="M-510 1068l-46 116l408 231l88 -253z" glyph-name="acutecomb" unicode="́"/><glyph d="M-439 1396h82l285 -234l-80 -118l-247 94l-241 -94l-84 118z" glyph-name="uni0302" unicode="̂"/><glyph d="M-708 1029h-191q0 135 79 215t177 80q65 0 130.5 -51t102.5 -51q29 0 38.5 24t9.5 73h193q0 -155 -69 -226.5t-168 -71.5q-55 0 -98.5 28t-74 56t-58.5 28q-71 0 -71 -104z" glyph-name="tildecomb" unicode="̃"/><glyph d="M-732 1068v198h597v-198h-597z" glyph-name="uni0304" unicode="̄"/><glyph d="M-137 1319q2 -113 -58.5 -186t-212.5 -73q-131 0 -200.5 64t-67.5 195h203q0 -5 -2.5 -23.5t14.5 -40t53 -21.5t54 21.5t15.5 40t-1.5 23.5h203z" glyph-name="uni0306" unicode="̆"/><glyph d="M-466 1396q84 0 135 -53.5t51 -142.5q0 -80 -51 -141t-135 -61q-82 0 -134 57.5t-52 144.5q0 90 50.5 143t135.5 53z" glyph-name="uni0307" unicode="̇"/><glyph d="M-642 1319q55 0 90 -35.5t35 -95.5q0 -53 -35 -94t-90 -41q-56 0 -90 38.5t-34 96.5q0 61 33 96t91 35zM-309 1319q56 0 91 -35.5t35 -95.5q0 -53 -35 -94t-91 -41t-90 38.5t-34 96.5q0 61 33 96t91 35z" glyph-name="uni0308" unicode="̈"/><glyph d="M-350 1051h-128q15 20 35 47t27.5 38t18 25.5t13.5 23t6 18t3 21.5q0 48 -48 47q-32 0 -69 -27l-49 99q70 68 157 77q90 3 138 -39.5t45 -114.5q-6 -101 -149 -215z" glyph-name="hookabovecomb" unicode="̉"/><glyph d="M-430 1461q90 0 145.5 -60t55.5 -155q0 -90 -56 -155t-145 -65q-90 0 -146.5 62t-56.5 158q0 101 54.5 158t148.5 57zM-430 1321q-31 0 -49.5 -21.5t-18.5 -54t18.5 -54.5t49.5 -22t48.5 22t17.5 55q0 31 -19.5 53t-46.5 22z" glyph-name="uni030A" unicode="̊"/><glyph d="M-502 1024l-126 29l27 346l258 -70zM-201 1024l-125 29l24 346l261 -70z" glyph-name="uni030B" unicode="̋"/><glyph d="M-439 1060l-285 234l84 117l241 -95l247 95l80 -117l-285 -234h-82z" glyph-name="uni030C" unicode="̌"/><glyph d="M-275 1190q0 -70 -41.5 -113t-110.5 -43q-82 0 -123 56.5t-41 151.5q0 118 66 190.5t192 89.5l31 -107q-61 -10 -93 -24t-47 -43h20q65 0 106 -44t41 -114z" glyph-name="uni0312" unicode="̒"/><glyph d="M-466 -80q84 0 135 -54t51 -142q0 -80 -51 -141t-135 -61q-82 0 -134 57t-52 145q0 90 50.5 143t135.5 53z" glyph-name="dotbelowcomb" unicode="̣"/><glyph d="M-444 -116q82 0 125.5 -57t43.5 -151q0 -113 -63 -187t-194 -91l-33 105q65 10 95.5 23t44.5 44h-19q-67 0 -107 43.5t-40 111.5q0 73 40 116t107 43z" glyph-name="uni0326" unicode="̦"/><glyph d="M-493 15l99 -3l-9 -101q77 -3 142.5 -43t76.5 -115q2 -92 -38.5 -142t-137.5 -65q-79 -14 -143.5 1.5t-90.5 36.5l31 145q32 -19 81.5 -33.5t91.5 -10.5t42 37q0 27 -20.5 46t-51.5 25t-53 7.5t-41 -0.5z" glyph-name="uni0327" unicode="̧"/><glyph d="M-452 19h128q-63 -85 -83 -121t-20 -69q0 -48 48 -47q32 0 68 27l50 -99q-63 -68 -157 -77q-89 -5 -137.5 37.5t-45.5 116.5q0 53 44.5 118.5t104.5 113.5z" glyph-name="uni0328" unicode="̨"/><glyph d="M-507 -171h82l285 -233l-80 -118l-248 95l-242 -95l-82 118z" glyph-name="uni032D" unicode="̭"/><glyph d="M-729 -367v196h598v-196h-598z" glyph-name="uni0331" unicode="̱"/><glyph d="M957 633q72 -43 111.5 -122t39.5 -180q0 -147 -86.5 -239t-224.5 -92h-121v-159h-120v159h-408v1161h408v158h120v-158h73q126 0 207.5 -85.5t81.5 -218.5q-1 -135 -81 -224zM556 881h-99v-149h99v149zM695 881h-19v-149q36 0 65.5 18t29.5 59q0 34 -20 53t-56 19z M457 280h99v167h-99v-167zM754 280q27 0 52 24t25 61q0 43 -30.5 62.5t-68.5 19.5h-56v-167h78z" glyph-name="uni0E3F" horiz-adv-x="1189" unicode="฿"/><glyph d="M1051 717q85 -49 133 -139t48 -204q0 -164 -102.5 -269t-264.5 -105h-717v1319h663q150 0 244.5 -97t94.5 -249q0 -89 -25.5 -144.5t-73.5 -111.5zM749 1002h-247v-185h220q46 0 85.5 23.5t39.5 69.5q0 41 -27.5 66.5t-70.5 25.5zM812 317q39 0 72.5 31t33.5 74 q0 49 -39 77t-87 28h-290v-210h310zM652 -80q84 0 135 -54t51 -142q0 -80 -51 -141t-135 -61q-82 0 -134 57t-52 145q0 90 50.5 143t135.5 53z" glyph-name="uni1E04" horiz-adv-x="1314" unicode="Ḅ"/><glyph d="M707 966q201 0 318.5 -139t117.5 -354q0 -222 -118.5 -361t-307.5 -139q-205 0 -314 165l-60 -138h-253v1468h349v-608q97 106 268 106zM613 287q70 0 122.5 51t52.5 131.5t-52.5 131.5t-122.5 51t-122 -50.5t-52 -132.5q0 -80 52 -131t122 -51zM657 -80q84 0 135 -54 t51 -142q0 -80 -51 -141t-135 -61q-82 0 -134 57t-52 145q0 90 50.5 143t135.5 53z" glyph-name="uni1E05" horiz-adv-x="1189" unicode="ḅ"/><glyph d="M761 1319q292 0 472 -183.5t180 -483.5q0 -292 -181.5 -472t-470.5 -180h-613v1319h613zM761 329q133 0 204 87t71 236q0 150 -74.5 244t-200.5 94h-251v-661h251zM736 -80q84 0 135 -54t51 -142q0 -80 -51.5 -141t-134.5 -61q-82 0 -134 57t-52 145q0 90 50.5 143 t135.5 53z" glyph-name="uni1E0C" horiz-adv-x="1510" unicode="Ḍ"/><glyph d="M746 1468h350v-1468h-253l-61 140q-108 -167 -314 -167q-189 0 -308 139t-119 361q0 215 117.5 354t319.5 139q169 0 268 -104v606zM572 287q70 0 122 51t52 131q0 82 -52 132.5t-122 50.5t-123 -51t-53 -131.5t53 -131.5t123 -51zM502 -80q84 0 135 -54t51 -142 q0 -80 -51.5 -141t-134.5 -61q-82 0 -134 57t-52 145q0 90 50.5 143t135.5 53z" glyph-name="uni1E0D" horiz-adv-x="1189" unicode="ḍ"/><glyph d="M761 1319q292 0 472 -183.5t180 -483.5q0 -292 -181.5 -472t-470.5 -180h-613v1319h613zM761 329q133 0 204 87t71 236q0 150 -74.5 244t-200.5 94h-251v-661h251zM463 -367v196h597v-196h-597z" glyph-name="uni1E0E" horiz-adv-x="1510" unicode="Ḏ"/><glyph d="M746 1468h350v-1468h-253l-61 140q-108 -167 -314 -167q-189 0 -308 139t-119 361q0 215 117.5 354t319.5 139q169 0 268 -104v606zM572 287q70 0 122 51t52 131q0 82 -52 132.5t-122 50.5t-123 -51t-53 -131.5t53 -131.5t123 -51zM229 -367v196h597v-196h-597z" glyph-name="uni1E0F" horiz-adv-x="1189" unicode="ḏ"/><glyph d="M761 1319q292 0 472 -183.5t180 -483.5q0 -292 -181.5 -472t-470.5 -180h-613v1319h613zM761 329q133 0 204 87t71 236q0 150 -74.5 244t-200.5 94h-251v-661h251zM696 -171h82l285 -233l-80 -118l-247 95l-243 -95l-82 118z" glyph-name="uni1E12" horiz-adv-x="1510" unicode="Ḓ"/><glyph d="M746 1468h350v-1468h-253l-61 140q-108 -167 -314 -167q-189 0 -308 139t-119 361q0 215 117.5 354t319.5 139q169 0 268 -104v606zM572 287q70 0 122 51t52 131q0 82 -52 132.5t-122 50.5t-123 -51t-53 -131.5t53 -131.5t123 -51zM463 -171h81l285 -233l-80 -118 l-247 95l-243 -95l-82 118z" glyph-name="uni1E13" horiz-adv-x="1189" unicode="ḓ"/><glyph d="M954 1319h362v-1319h-362v493h-444v-493h-362v1319h362v-496h444v496zM758 -80q84 0 135 -54t51 -142q0 -80 -51.5 -141t-134.5 -61q-82 0 -134 57t-52 145q0 90 50.5 143t135.5 53z" glyph-name="uni1E24" horiz-adv-x="1466" unicode="Ḥ"/><glyph d="M713 963q68 0 125.5 -18t107 -59t77.5 -115.5t28 -176.5v-594h-372l4 515q0 39 -2 59t-17 39.5t-44 19.5q-77 0 -161 -53v-580h-369v1449h369v-584q117 98 254 98zM290 660q-3 -12 -8 -27v-3q7 15 13 29zM570 -80q84 0 135 -54t51 -142q0 -80 -51 -141t-135 -61 q-82 0 -134 57t-52 145q0 90 50.5 143t135.5 53z" glyph-name="uni1E25" horiz-adv-x="1117" unicode="ḥ"/><glyph d="M244 1830l-46 116l408 230l89 -253zM176 1700q55 0 89.5 -36t34.5 -96q0 -53 -35 -93.5t-89 -40.5q-56 0 -90.5 38t-34.5 96q0 61 33.5 96.5t91.5 35.5zM509 1700q56 0 91 -36t35 -96q0 -53 -35 -93.5t-91.5 -40.5t-90.5 38t-34 96q0 61 33.5 96.5t91.5 35.5zM510 0h-362 v1319h362v-1319z" glyph-name="uni1E2E" horiz-adv-x="658" unicode="Ḯ"/><glyph d="M212 1449l-46 116l407 230l89 -252zM143 1319q55 0 90 -35.5t35 -95.5q0 -53 -35 -94t-90 -41q-56 0 -90 38.5t-34 96.5q0 61 33 96t91 35zM476 1319q56 0 91 -35.5t35 -95.5q0 -53 -35 -94t-91 -41t-90 38.5t-34 96.5q0 61 33 96t91 35zM483 0h-357v939h357v-939z" glyph-name="uni1E2F" horiz-adv-x="609" unicode="ḯ"/><glyph d="M510 329h570v-329h-932v1319h362v-990zM645 -80q84 0 135 -54t51 -142q0 -80 -51 -141t-135 -61q-82 0 -134 57t-52 145q0 90 50.5 143t135.5 53z" glyph-name="uni1E36" horiz-adv-x="1198" unicode="Ḷ"/><glyph d="M546 302l53 -273q-82 -29 -153.5 -41t-141.5 -1t-119.5 50.5t-79.5 120.5t-30 200v1072h355v-1031q0 -116 116 -97zM348 -80q84 0 135 -54t51 -142q0 -80 -51 -141t-135 -61q-82 0 -134 57t-52 145q0 90 50.5 143t135.5 53z" glyph-name="uni1E37" horiz-adv-x="663" unicode="ḷ"/><glyph d="M510 329h570v-329h-932v1319h362v-990zM606 -171h82l285 -233l-80 -118l-248 95l-242 -95l-82 118z" glyph-name="uni1E3C" horiz-adv-x="1198" unicode="Ḽ"/><glyph d="M546 302l53 -273q-82 -29 -153.5 -41t-141.5 -1t-119.5 50.5t-79.5 120.5t-30 200v1072h355v-1031q0 -116 116 -97zM309 -171h82l285 -233l-80 -118l-248 95l-242 -95l-82 118z" glyph-name="uni1E3D" horiz-adv-x="663" unicode="ḽ"/><glyph d="M1186 1543l-450 -94l-47 116l408 230zM1516 0h-355l-41 751l-161 -751h-292l-153 701l-40 -701h-361l85 1321h454l162 -819l161 819h455z" glyph-name="uni1E3E" horiz-adv-x="1634" unicode="Ḿ"/><glyph d="M1135 1162l-451 -94l-46 116l408 231zM1152 963q133 0 221 -86.5t88 -282.5v-594h-352l4 548v10q0 27 -1 41.5t-5 32.5t-14.5 26t-27.5 8q-48 0 -111 -35q2 -12 2 -37v-594h-352l4 548v10q0 27 -1 41.5t-5.5 32.5t-14.5 26t-27 8q-46 0 -106 -33v-633h-369v939h282 l39 -79q109 102 241 103q167 0 247 -120q116 120 258 120z" glyph-name="uni1E3F" horiz-adv-x="1544" unicode="ḿ"/><glyph d="M758 1379q-82 0 -134 57t-52 144q0 90 50 143.5t136 53.5q84 0 135 -54t51 -143q0 -80 -51 -140.5t-135 -60.5zM1058 1319h348v-1319h-356l-548 746v-746h-354v1319h361l549 -754v754z" glyph-name="uni1E44" horiz-adv-x="1553" unicode="Ṅ"/><glyph d="M532 998q-82 0 -134 57.5t-52 144.5q0 90 50.5 143t135.5 53q84 0 135.5 -53.5t51.5 -142.5q0 -80 -51.5 -141t-135.5 -61zM708 963q68 0 125.5 -18t107 -59t77.5 -115.5t28 -176.5v-594h-372l4 515q0 39 -2 59t-17.5 39.5t-44.5 19.5q-77 0 -160 -53v-580h-369v939h282 l53 -106q129 130 288 130zM292 660l-12 -35q3 10 15 34z" glyph-name="uni1E45" horiz-adv-x="1129" unicode="ṅ"/><glyph d="M1058 1319h348v-1319h-356l-548 746v-746h-354v1319h361l549 -754v754zM800 -80q84 0 135 -54t51 -142q0 -80 -51 -141t-135 -61q-82 0 -134 57t-52 145q0 90 50.5 143t135.5 53z" glyph-name="uni1E46" horiz-adv-x="1553" unicode="Ṇ"/><glyph d="M708 963q68 0 125.5 -18t107 -59t77.5 -115.5t28 -176.5v-594h-372l4 515q0 39 -2 59t-17.5 39.5t-44.5 19.5q-77 0 -160 -53v-580h-369v939h282l53 -106q129 130 288 130zM292 660l-12 -35q3 10 15 34zM594 -80q84 0 135 -54t51 -142q0 -80 -51 -141t-135 -61 q-82 0 -134 57t-52 145q0 90 50.5 143t135.5 53z" glyph-name="uni1E47" horiz-adv-x="1129" unicode="ṇ"/><glyph d="M1058 1319h348v-1319h-356l-548 746v-746h-354v1319h361l549 -754v754zM761 -171h82l285 -233l-80 -118l-248 95l-242 -95l-82 118z" glyph-name="uni1E4A" horiz-adv-x="1553" unicode="Ṋ"/><glyph d="M708 963q68 0 125.5 -18t107 -59t77.5 -115.5t28 -176.5v-594h-372l4 515q0 39 -2 59t-17.5 39.5t-44.5 19.5q-77 0 -160 -53v-580h-369v939h282l53 -106q129 130 288 130zM292 660l-12 -35q3 10 15 34zM555 -171h82l285 -233l-81 -118l-247 95l-242 -95l-82 118z" glyph-name="uni1E4B" horiz-adv-x="1129" unicode="ṋ"/><glyph d="M684 1830l-46 116l408 230l89 -253zM577 1410h-191q0 135 79 215t177 80q65 0 130.5 -51t103.5 -51q29 0 38 23.5t9 73.5h193q0 -155 -69 -227t-168 -72q-55 0 -98.5 28t-74 56.5t-57.5 28.5q-72 0 -72 -104zM744 1348q287 0 465.5 -190t178.5 -496q0 -302 -175 -496.5 t-469 -194.5q-285 0 -466.5 194.5t-181.5 496.5t177 494t471 192zM744 1022q-145 0 -216 -101.5t-71 -258.5q0 -160 72 -261t215 -101t214 100t71 262q0 164 -74 262t-211 98z" glyph-name="uni1E4C" horiz-adv-x="1484" unicode="Ṍ"/><glyph d="M463 1449l-47 116l408 230l89 -252zM355 1029h-191q0 135 79.5 215t176.5 80q65 0 130.5 -51t103.5 -51q29 0 38 24t9 73h193q0 -155 -69 -226.5t-168 -71.5q-55 0 -98.5 28t-74 56t-57.5 28q-72 0 -72 -104zM560 966q225 0 373.5 -137.5t148.5 -362.5q0 -85 -29 -168 t-87 -158t-164 -121t-242 -46q-227 0 -373 133t-146 360q0 230 146 365t373 135zM559.5 659q-83.5 0 -117.5 -59t-34 -134q0 -43 11 -81.5t47 -71.5t94 -33q56 0 92.5 33t48.5 71.5t12 81.5q0 75 -35 134t-118.5 59z" glyph-name="uni1E4D" horiz-adv-x="1122" unicode="ṍ"/><glyph d="M826 1830l-451 93l89 253l410 -230zM454 1449v198h597v-198h-597zM744 1348q287 0 465.5 -190t178.5 -496q0 -302 -175 -496.5t-469 -194.5q-285 0 -466.5 194.5t-181.5 496.5t177 494t471 192zM744 1022q-145 0 -216 -101.5t-71 -258.5q0 -160 72 -261t215 -101t214 100 t71 262q0 164 -74 262t-211 98z" glyph-name="uni1E50" horiz-adv-x="1484" unicode="Ṑ"/><glyph d="M604 1449l-450 94l88 252l410 -230zM232 1068v198h597v-198h-597zM560 966q225 0 373.5 -137.5t148.5 -362.5q0 -85 -29 -168t-87 -158t-164 -121t-242 -46q-227 0 -373 133t-146 360q0 230 146 365t373 135zM559.5 659q-83.5 0 -117.5 -59t-34 -134q0 -43 11 -81.5 t47 -71.5t94 -33q56 0 92.5 33t48.5 71.5t12 81.5q0 75 -35 134t-118.5 59z" glyph-name="uni1E51" horiz-adv-x="1122" unicode="ṑ"/><glyph d="M649 1830l-47 116l408 230l89 -253zM454 1449v198h597v-198h-597zM744 1348q287 0 465.5 -190t178.5 -496q0 -302 -175 -496.5t-469 -194.5q-285 0 -466.5 194.5t-181.5 496.5t177 494t471 192zM744 1022q-145 0 -216 -101.5t-71 -258.5q0 -160 72 -261t215 -101t214 100 t71 262q0 164 -74 262t-211 98z" glyph-name="uni1E52" horiz-adv-x="1484" unicode="Ṓ"/><glyph d="M427 1449l-46 116l407 230l89 -252zM232 1068v198h597v-198h-597zM560 966q225 0 373.5 -137.5t148.5 -362.5q0 -85 -29 -168t-87 -158t-164 -121t-242 -46q-227 0 -373 133t-146 360q0 230 146 365t373 135zM559.5 659q-83.5 0 -117.5 -59t-34 -134q0 -43 11 -81.5 t47 -71.5t94 -33q56 0 92.5 33t48.5 71.5t12 81.5q0 75 -35 134t-118.5 59z" glyph-name="uni1E53" horiz-adv-x="1122" unicode="ṓ"/><glyph d="M61 244l267 225q152 -176 314 -175q58 0 99.5 27t41.5 58q0 32 -35.5 60.5t-92 52t-125.5 51t-137.5 64t-124.5 82t-92 115.5t-36 155q0 172 135.5 283t369.5 111q280 0 488 -186l-254 -223q-15 9 -58.5 37t-61 37t-52.5 19.5t-72 10.5q-53 0 -83 -28t-30 -49 q0 -27 35 -51t91.5 -45.5t124 -46t135 -61.5t123.5 -83t91 -118.5t35 -159.5q0 -193 -151 -313t-378 -120q-313 0 -567 271zM642 -80q84 0 135 -54t51 -142q0 -80 -51.5 -141t-134.5 -61q-82 0 -134 57t-52 145q0 90 50.5 143t135.5 53z" glyph-name="uni1E62" horiz-adv-x="1235" unicode="Ṣ"/><glyph d="M485 -27q-121 0 -263.5 37.5t-192.5 79.5l135 260q46 -27 159.5 -65.5t183.5 -38.5q80 0 73 34q0 27 -54.5 41t-132 25.5t-154.5 36.5t-131.5 90.5t-54.5 171.5q0 123 106.5 222t311.5 99q118 0 201.5 -20.5t204.5 -68.5l-109 -252q-7 2 -39.5 13t-47 16t-46 13.5 t-53 12.5t-52 7.5t-57.5 3.5q-80 0 -80 -24q0 -27 54.5 -39t131 -23t154.5 -36t132.5 -95.5t54.5 -183.5q0 -135 -110 -226t-325 -91zM490 -80q84 0 135 -54t51 -142q0 -80 -51.5 -141t-134.5 -61q-82 0 -134 57t-52 145q0 90 50.5 143t135.5 53z" glyph-name="uni1E63" horiz-adv-x="962" unicode="ṣ"/><glyph d="M63 1319h1072v-326h-357v-993h-355v993h-360v326zM606 -80q84 0 135 -54t51 -142q0 -80 -51.5 -141t-134.5 -61q-82 0 -134 57t-52 145q0 90 50.5 143t135.5 53z" glyph-name="uni1E6C" horiz-adv-x="1203" unicode="Ṭ"/><glyph d="M493 466q0 -73 14.5 -121t36 -67t52 -24t56.5 1t55.5 12t43.5 6l-38 -283q-85 -19 -159 -20t-153.5 24.5t-135 82t-91.5 165t-36 260.5v165h-124v272h124v292h355v-292h173l-33 -272h-140v-201zM468 -80q84 0 135 -54t51 -142q0 -80 -51.5 -141t-134.5 -61q-82 0 -134 57 t-52 145q0 90 50.5 143t135.5 53z" glyph-name="uni1E6D" horiz-adv-x="740" unicode="ṭ"/><glyph d="M63 1319h1072v-326h-357v-993h-355v993h-360v326zM333 -367v196h597v-196h-597z" glyph-name="uni1E6E" horiz-adv-x="1203" unicode="Ṯ"/><glyph d="M713 -10q-85 -19 -159 -20t-153.5 24.5t-135 82t-91.5 165t-36 260.5v165h-124v272h124v292h355v-292h173l-33 -272h-140v-201q0 -73 14.5 -121t36 -67t52 -24t56.5 1t55.5 12t43.5 6zM195 -171h597v-196h-597v196z" glyph-name="uni1E6F" horiz-adv-x="740" unicode="ṯ"/><glyph d="M63 1319h1072v-326h-357v-993h-355v993h-360v326zM567 -171h82l285 -233l-81 -118l-247 95l-242 -95l-82 118z" glyph-name="uni1E70" horiz-adv-x="1203" unicode="Ṱ"/><glyph d="M713 -10q-85 -19 -159 -20t-153.5 24.5t-135 82t-91.5 165t-36 260.5v165h-124v272h124v292h355v-292h173l-33 -272h-140v-201q0 -73 14.5 -121t36 -67t52 -24t56.5 1t55.5 12t43.5 6zM510 -171l285 -233l-80 -118l-247 95l-243 -95l-82 118l285 233h82z" glyph-name="uni1E71" horiz-adv-x="740" unicode="ṱ"/><glyph d="M988 1565l-48 -116l-450 94l89 252zM1359 1319h418l-309 -1319h-350l-193 732l-234 -732h-346l-263 1319h391l94 -706l250 706h229l214 -676z" glyph-name="Wgrave" horiz-adv-x="1861" unicode="Ẁ"/><glyph d="M949 1184l-48 -116l-450 94l88 253zM1224 939h391l-318 -939h-352l-122 579l-125 -579h-353l-318 939h366l114 -471l160 474h311l148 -447z" glyph-name="wgrave" horiz-adv-x="1646" unicode="ẁ"/><glyph d="M1213 1543l-450 -94l-46 116l408 230zM1359 1319h418l-309 -1319h-350l-193 732l-234 -732h-346l-263 1319h391l94 -706l250 706h229l214 -676z" glyph-name="Wacute" horiz-adv-x="1861" unicode="Ẃ"/><glyph d="M1174 1162l-450 -94l-46 116l407 231zM1224 939h391l-318 -939h-352l-122 579l-125 -579h-353l-318 939h366l114 -471l160 474h311l148 -447z" glyph-name="wacute" horiz-adv-x="1646" unicode="ẃ"/><glyph d="M701 1434q-56 0 -90 38t-34 96q0 61 33 96.5t91 35.5q55 0 90 -36t35 -96q0 -53 -35 -93.5t-90 -40.5zM1034.5 1434q-56.5 0 -90.5 38t-34 96q0 61 33 96.5t91 35.5q56 0 91.5 -36t35.5 -96q0 -53 -35 -93.5t-91.5 -40.5zM1359 1319h418l-309 -1319h-350l-193 732 l-234 -732h-346l-263 1319h391l94 -706l250 706h229l214 -676z" glyph-name="Wdieresis" horiz-adv-x="1861" unicode="Ẅ"/><glyph d="M662 1053q-56 0 -90 38.5t-34 96.5q0 61 33 96t91 35q55 0 90 -35.5t35 -95.5q0 -53 -35 -94t-90 -41zM995 1053q-56 0 -90.5 38.5t-34.5 96.5q0 61 33.5 96t91.5 35q56 0 91 -35.5t35 -95.5q0 -53 -35 -94t-91 -41zM1224 939h391l-318 -939h-352l-122 579l-125 -579 h-353l-318 939h366l114 -471l160 474h311l148 -447z" glyph-name="wdieresis" horiz-adv-x="1646" unicode="ẅ"/><glyph d="M1249 1318v-212l-640 -792l640 22v-336h-1136v207l641 797l-641 -23v337h1136zM691 -80q84 0 135 -54t51 -142q0 -80 -51 -141t-135 -61q-82 0 -134 57t-52 145q0 90 50.5 143t135.5 53z" glyph-name="uni1E92" horiz-adv-x="1353" unicode="Ẓ"/><glyph d="M872 939v-333l-374 -301l374 28v-333h-838v335l364 298l-364 -27v333h838zM466 -80q84 0 135 -54t51 -142q0 -80 -51 -141t-135 -61q-82 0 -134 57t-52 145q0 90 50.5 143t135.5 53z" glyph-name="uni1E93" horiz-adv-x="1024" unicode="ẓ"/><glyph d="M918 763q292 -58 292 -347q0 -56 -9.5 -108t-37.5 -110t-72.5 -100t-120.5 -70t-176 -28h-147v294h121q72 0 72 105q0 41 -34.5 63.5t-90.5 22.5q-20 0 -51 7l-4 -4l-42 265l-2 -2q-3 2 5 7l137 240l-147 2q-43 2 -68.5 -29t-25.5 -78v-893h-369v891q0 208 110.5 318 t320.5 110h556v-326z" glyph-name="uni1E9E" horiz-adv-x="1293" unicode="ẞ"/><glyph d="M1452 0h-384l-80 239h-474l-79 -239h-386l485 1319h432zM625 573h252l-128 381zM765 -80q84 0 135 -54t51 -142q0 -80 -51.5 -141t-134.5 -61q-82 0 -134 57t-52 145q0 90 50.5 143t135.5 53z" glyph-name="uni1EA0" horiz-adv-x="1506" unicode="Ạ"/><glyph d="M739 939h340v-939h-256l-48 133q-87 -160 -297 -160q-200 0 -318.5 134.5t-118.5 358.5q0 225 117.5 362.5t309.5 137.5q177 0 271 -130v103zM566.5 287q76.5 0 122 48.5t45.5 133.5q0 84 -44.5 133.5t-122.5 49.5q-77 0 -122.5 -50.5t-45.5 -132.5q0 -84 45.5 -133 t122 -49zM524 -80q84 0 135 -54t51 -142q0 -80 -51 -141t-135 -61q-82 0 -134 57t-52 145q0 90 50.5 143t135.5 53z" glyph-name="uni1EA1" horiz-adv-x="1199" unicode="ạ"/><glyph d="M730 1652q-32 0 -68 -27l-49 99q70 68 157 77q90 3 138 -39.5t44 -114.5q-5 -101 -148 -215h-128q15 20 34.5 46.5t27.5 37.5t18 25.5t13.5 23.5t6 18t2.5 21q0 48 -48 48zM1068 0l-80 239h-474l-79 -239h-386l485 1319h432l486 -1319h-384zM625 573h252l-128 381z" glyph-name="uni1EA2" horiz-adv-x="1506" unicode="Ả"/><glyph d="M457 1271q-32 0 -68 -27l-49 99q70 68 157 77q90 3 138 -39.5t44 -114.5q-5 -101 -148 -215h-128q15 20 34.5 47t27.5 38t18 25.5t13.5 23t6 18t2.5 21.5q0 47 -48 47zM739 939h340v-939h-256l-48 133q-87 -160 -297 -160q-200 0 -318.5 134.5t-118.5 358.5 q0 225 117.5 362.5t309.5 137.5q177 0 271 -130v103zM566.5 287q76.5 0 122 48.5t45.5 133.5q0 84 -44.5 133.5t-122.5 49.5q-77 0 -122.5 -50.5t-45.5 -132.5q0 -84 45.5 -133t122 -49z" glyph-name="uni1EA3" horiz-adv-x="1199" unicode="ả"/><glyph d="M1109 1923l-450 -93l-46 116l408 230zM756 1519l-241 -94l-83 118l285 234h82l285 -234l-80 -118zM1068 0l-80 239h-474l-79 -239h-386l485 1319h432l486 -1319h-384zM625 573h252l-128 381z" glyph-name="uni1EA4" horiz-adv-x="1506" unicode="Ấ"/><glyph d="M836 1543l-450 -94l-46 116l408 230zM483 1138l-241 -94l-83 118l285 234h82l285 -234l-81 -118zM739 939h340v-939h-256l-48 133q-87 -160 -297 -160q-200 0 -318.5 134.5t-118.5 358.5q0 225 117.5 362.5t309.5 137.5q177 0 271 -130v103zM566.5 287q76.5 0 122 48.5 t45.5 133.5q0 84 -44.5 133.5t-122.5 49.5q-77 0 -122.5 -50.5t-45.5 -132.5q0 -84 45.5 -133t122 -49z" glyph-name="uni1EA5" horiz-adv-x="1199" unicode="ấ"/><glyph d="M884 1946l-48 -116l-450 93l88 253zM717 1777h82l285 -234l-80 -118l-248 94l-241 -94l-83 118zM1068 0l-80 239h-474l-79 -239h-386l485 1319h432l486 -1319h-384zM625 573h252l-128 381z" glyph-name="uni1EA6" horiz-adv-x="1506" unicode="Ầ"/><glyph d="M611 1565l-48 -116l-450 94l88 252zM444 1396h82l285 -234l-81 -118l-247 94l-241 -94l-83 118zM739 939h340v-939h-256l-48 133q-87 -160 -297 -160q-200 0 -318.5 134.5t-118.5 358.5q0 225 117.5 362.5t309.5 137.5q177 0 271 -130v103zM566.5 287q76.5 0 122 48.5 t45.5 133.5q0 84 -44.5 133.5t-122.5 49.5q-77 0 -122.5 -50.5t-45.5 -132.5q0 -84 45.5 -133t122 -49z" glyph-name="uni1EA7" horiz-adv-x="1199" unicode="ầ"/><glyph d="M730 2033q-32 0 -68 -28l-49 99q70 68 157 77q90 3 138 -39.5t44 -113.5q-5 -101 -148 -216h-128q15 20 34.5 47t27.5 38t18 25.5t13.5 23t6 18t2.5 21.5q0 48 -48 48zM756 1519l-241 -94l-83 118l285 234h82l285 -234l-80 -118zM1068 0l-80 239h-474l-79 -239h-386 l485 1319h432l486 -1319h-384zM625 573h252l-128 381z" glyph-name="uni1EA8" horiz-adv-x="1506" unicode="Ẩ"/><glyph d="M457 1652q-32 0 -68 -27l-49 99q70 68 157 77q90 3 138 -39.5t44 -114.5q-5 -101 -148 -215h-128q15 20 34.5 46.5t27.5 37.5t18 25.5t13.5 23.5t6 18t2.5 21q0 48 -48 48zM483 1138l-241 -94l-83 118l285 234h82l285 -234l-81 -118zM739 939h340v-939h-256l-48 133 q-87 -160 -297 -160q-200 0 -318.5 134.5t-118.5 358.5q0 225 117.5 362.5t309.5 137.5q177 0 271 -130v103zM566.5 287q76.5 0 122 48.5t45.5 133.5q0 84 -44.5 133.5t-122.5 49.5q-77 0 -122.5 -50.5t-45.5 -132.5q0 -84 45.5 -133t122 -49z" glyph-name="uni1EA9" horiz-adv-x="1199" unicode="ẩ"/><glyph d="M660 1894q-72 0 -71 -104h-191q0 135 79 215.5t177 80.5q65 0 130.5 -51.5t102.5 -51.5q29 0 38.5 24t9.5 73h193q0 -155 -69 -226.5t-168 -71.5q-55 0 -98.5 28t-74.5 56t-58 28zM717 1777h82l285 -234l-80 -118l-248 94l-241 -94l-83 118zM1068 0l-80 239h-474 l-79 -239h-386l485 1319h432l486 -1319h-384zM625 573h252l-128 381z" glyph-name="uni1EAA" horiz-adv-x="1506" unicode="Ẫ"/><glyph d="M387 1514q-72 0 -71 -104h-191q0 135 79 215t177 80q65 0 130.5 -51t102.5 -51q29 0 38.5 23.5t9.5 73.5h193q0 -155 -69 -227t-168 -72q-55 0 -98.5 28t-74.5 56.5t-58 28.5zM444 1396h82l285 -234l-81 -118l-247 94l-241 -94l-83 118zM739 939h340v-939h-256l-48 133 q-87 -160 -297 -160q-200 0 -318.5 134.5t-118.5 358.5q0 225 117.5 362.5t309.5 137.5q177 0 271 -130v103zM566.5 287q76.5 0 122 48.5t45.5 133.5q0 84 -44.5 133.5t-122.5 49.5q-77 0 -122.5 -50.5t-45.5 -132.5q0 -84 45.5 -133t122 -49z" glyph-name="uni1EAB" horiz-adv-x="1199" unicode="ẫ"/><glyph d="M756 1519l-241 -94l-83 118l285 234h82l285 -234l-80 -118zM1452 0h-384l-80 239h-474l-79 -239h-386l485 1319h432zM625 573h252l-128 381zM765 -80q84 0 135 -54t51 -142q0 -80 -51.5 -141t-134.5 -61q-82 0 -134 57t-52 145q0 90 50.5 143t135.5 53z" glyph-name="uni1EAC" horiz-adv-x="1506" unicode="Ậ"/><glyph d="M483 1138l-241 -94l-83 118l285 234h82l285 -234l-81 -118zM739 939h340v-939h-256l-48 133q-87 -160 -297 -160q-200 0 -318.5 134.5t-118.5 358.5q0 225 117.5 362.5t309.5 137.5q177 0 271 -130v103zM566.5 287q76.5 0 122 48.5t45.5 133.5q0 84 -44.5 133.5 t-122.5 49.5q-77 0 -122.5 -50.5t-45.5 -132.5q0 -84 45.5 -133t122 -49zM524 -80q84 0 135 -54t51 -142q0 -80 -51 -141t-135 -61q-82 0 -134 57t-52 145q0 90 50.5 143t135.5 53z" glyph-name="uni1EAD" horiz-adv-x="1199" unicode="ậ"/><glyph d="M1109 1923l-450 -93l-46 116l408 230zM756 1440q-131 0 -200.5 64t-67.5 196h203q0 -5 -2.5 -24t14.5 -40t53 -21t54 21t15.5 40t-1.5 24h203q2 -113 -58.5 -186.5t-212.5 -73.5zM1068 0l-80 239h-474l-79 -239h-386l485 1319h432l486 -1319h-384zM625 573h252l-128 381z " glyph-name="uni1EAE" horiz-adv-x="1506" unicode="Ắ"/><glyph d="M836 1543l-450 -94l-46 116l408 230zM483 1060q-131 0 -200.5 64t-67.5 195h203q0 -5 -2.5 -23.5t14.5 -40t53 -21.5t54 21.5t15.5 40t-1.5 23.5h203q2 -113 -58.5 -186t-212.5 -73zM739 939h340v-939h-256l-48 133q-87 -160 -297 -160q-200 0 -318.5 134.5t-118.5 358.5 q0 225 117.5 362.5t309.5 137.5q177 0 271 -130v103zM566.5 287q76.5 0 122 48.5t45.5 133.5q0 84 -44.5 133.5t-122.5 49.5q-77 0 -122.5 -50.5t-45.5 -132.5q0 -84 45.5 -133t122 -49z" glyph-name="uni1EAF" horiz-adv-x="1199" unicode="ắ"/><glyph d="M884 1946l-48 -116l-450 93l88 253zM756 1615q36 0 54 21t15.5 40t-1.5 24h203q2 -113 -58.5 -186.5t-212.5 -73.5q-131 0 -200.5 64t-67.5 196h203q0 -5 -2.5 -24t14.5 -40t53 -21zM1068 0l-80 239h-474l-79 -239h-386l485 1319h432l486 -1319h-384zM625 573h252 l-128 381z" glyph-name="uni1EB0" horiz-adv-x="1506" unicode="Ằ"/><glyph d="M611 1565l-48 -116l-450 94l88 252zM483 1234q36 0 54 21.5t15.5 40t-1.5 23.5h203q2 -113 -58.5 -186t-212.5 -73q-131 0 -200.5 64t-67.5 195h203q0 -5 -2.5 -23.5t14.5 -40t53 -21.5zM739 939h340v-939h-256l-48 133q-87 -160 -297 -160q-200 0 -318.5 134.5 t-118.5 358.5q0 225 117.5 362.5t309.5 137.5q177 0 271 -130v103zM566.5 287q76.5 0 122 48.5t45.5 133.5q0 84 -44.5 133.5t-122.5 49.5q-77 0 -122.5 -50.5t-45.5 -132.5q0 -84 45.5 -133t122 -49z" glyph-name="uni1EB1" horiz-adv-x="1199" unicode="ằ"/><glyph d="M730 2033q-32 0 -68 -28l-49 99q70 68 157 77q90 3 138 -39.5t44 -113.5q-5 -101 -148 -216h-128q15 20 34.5 47t27.5 38t18 25.5t13.5 23t6 18t2.5 21.5q0 48 -48 48zM756 1440q-131 0 -200.5 64t-67.5 196h203q0 -5 -2.5 -24t14.5 -40t53 -21t54 21t15.5 40t-1.5 24 h203q2 -113 -58.5 -186.5t-212.5 -73.5zM1068 0l-80 239h-474l-79 -239h-386l485 1319h432l486 -1319h-384zM625 573h252l-128 381z" glyph-name="uni1EB2" horiz-adv-x="1506" unicode="Ẳ"/><glyph d="M457 1652q-32 0 -68 -27l-49 99q70 68 157 77q90 3 138 -39.5t44 -114.5q-5 -101 -148 -215h-128q15 20 34.5 46.5t27.5 37.5t18 25.5t13.5 23.5t6 18t2.5 21q0 48 -48 48zM483 1060q-131 0 -200.5 64t-67.5 195h203q0 -5 -2.5 -23.5t14.5 -40t53 -21.5t54 21.5t15.5 40 t-1.5 23.5h203q2 -113 -58.5 -186t-212.5 -73zM739 939h340v-939h-256l-48 133q-87 -160 -297 -160q-200 0 -318.5 134.5t-118.5 358.5q0 225 117.5 362.5t309.5 137.5q177 0 271 -130v103zM566.5 287q76.5 0 122 48.5t45.5 133.5q0 84 -44.5 133.5t-122.5 49.5 q-77 0 -122.5 -50.5t-45.5 -132.5q0 -84 45.5 -133t122 -49z" glyph-name="uni1EB3" horiz-adv-x="1199" unicode="ẳ"/><glyph d="M660 1894q-72 0 -71 -104h-191q0 135 79 215.5t177 80.5q65 0 130.5 -51.5t102.5 -51.5q29 0 38.5 24t9.5 73h193q0 -155 -69 -226.5t-168 -71.5q-55 0 -98.5 28t-74.5 56t-58 28zM488 1700h203q0 -5 -2.5 -24t14.5 -40t53 -21t54 21t15.5 40t-1.5 24h203 q2 -113 -58.5 -186.5t-212.5 -73.5q-131 0 -200.5 64.5t-67.5 195.5zM1068 0l-80 239h-474l-79 -239h-386l485 1319h432l486 -1319h-384zM625 573h252l-128 381z" glyph-name="uni1EB4" horiz-adv-x="1506" unicode="Ẵ"/><glyph d="M387 1514q-72 0 -71 -104h-191q0 135 79 215t177 80q65 0 130.5 -51t102.5 -51q29 0 38.5 23.5t9.5 73.5h193q0 -155 -69 -227t-168 -72q-55 0 -98.5 28t-74.5 56.5t-58 28.5zM215 1319h203q0 -5 -2.5 -23.5t14.5 -40t53 -21.5t54 21.5t15.5 40t-1.5 23.5h203 q2 -113 -58.5 -186t-212.5 -73q-131 0 -200.5 64t-67.5 195zM739 939h340v-939h-256l-48 133q-87 -160 -297 -160q-200 0 -318.5 134.5t-118.5 358.5q0 225 117.5 362.5t309.5 137.5q177 0 271 -130v103zM566.5 287q76.5 0 122 48.5t45.5 133.5q0 84 -44.5 133.5 t-122.5 49.5q-77 0 -122.5 -50.5t-45.5 -132.5q0 -84 45.5 -133t122 -49z" glyph-name="uni1EB5" horiz-adv-x="1199" unicode="ẵ"/><glyph d="M756 1440q-131 0 -200.5 64t-67.5 196h203q0 -5 -2.5 -24t14.5 -40t53 -21t54 21t15.5 40t-1.5 24h203q2 -113 -58.5 -186.5t-212.5 -73.5zM1452 0h-384l-80 239h-474l-79 -239h-386l485 1319h432zM625 573h252l-128 381zM765 -80q84 0 135 -54t51 -142q0 -80 -51.5 -141 t-134.5 -61q-82 0 -134 57t-52 145q0 90 50.5 143t135.5 53z" glyph-name="uni1EB6" horiz-adv-x="1506" unicode="Ặ"/><glyph d="M483 1060q-131 0 -200.5 64t-67.5 195h203q0 -5 -2.5 -23.5t14.5 -40t53 -21.5t54 21.5t15.5 40t-1.5 23.5h203q2 -113 -58.5 -186t-212.5 -73zM739 939h340v-939h-256l-48 133q-87 -160 -297 -160q-200 0 -318.5 134.5t-118.5 358.5q0 225 117.5 362.5t309.5 137.5 q177 0 271 -130v103zM566.5 287q76.5 0 122 48.5t45.5 133.5q0 84 -44.5 133.5t-122.5 49.5q-77 0 -122.5 -50.5t-45.5 -132.5q0 -84 45.5 -133t122 -49zM524 -80q84 0 135 -54t51 -142q0 -80 -51 -141t-135 -61q-82 0 -134 57t-52 145q0 90 50.5 143t135.5 53z" glyph-name="uni1EB7" horiz-adv-x="1199" unicode="ặ"/><glyph d="M1080 1002h-582v-178l473 -3v-304h-473v-200h582v-317h-932v1319h932v-317zM568 -80q84 0 135 -54t51 -142q0 -80 -51 -141t-135 -61q-82 0 -134 57t-52 145q0 90 50.5 143t135.5 53z" glyph-name="uni1EB8" horiz-adv-x="1194" unicode="Ẹ"/><glyph d="M41 471q0 70 14.5 135.5t50.5 132.5t89.5 116.5t138 80t190.5 30.5q256 0 368.5 -164t54.5 -425h-573l44 -2q20 -61 52.5 -96t101.5 -35q46 0 86 8.5t99.5 28t78.5 24.5l121 -254q-75 -29 -116.5 -42.5t-112.5 -24.5t-156 -11q-241 0 -386 136.5t-145 361.5zM420 563h232 q3 26 -2 56.5t-35 62t-81 31.5q-39 0 -64.5 -20.5t-35 -52t-12 -47.5t-2.5 -30zM544 -80q84 0 135 -54t51 -142q0 -80 -51 -141t-135 -61q-82 0 -134 57t-52 145q0 90 50.5 143t135.5 53z" glyph-name="uni1EB9" horiz-adv-x="1056" unicode="ẹ"/><glyph d="M570 1652q-32 0 -68 -27l-50 99q70 68 157 77q90 3 138 -39.5t45 -114.5q-5 -101 -149 -215h-128q15 20 35 46.5t27.5 37.5t18 25.5t14 23.5t6 18t2.5 21q0 48 -48 48zM1080 1002h-582v-178l473 -3v-304h-473v-200h582v-317h-932v1319h932v-317z" glyph-name="uni1EBA" horiz-adv-x="1194" unicode="Ẻ"/><glyph d="M550 1051h-128q15 20 34.5 47t27.5 38t18 25.5t13.5 23t6 18t2.5 21.5q0 48 -48 47q-32 0 -68 -27l-50 99q70 68 157 77q90 3 138 -39.5t45 -114.5q-5 -101 -148 -215zM41 471q0 70 14.5 135.5t50.5 132.5t89.5 116.5t138 80t190.5 30.5q256 0 368.5 -164t54.5 -425h-573 l44 -2q20 -61 52.5 -96t101.5 -35q46 0 86 8.5t99.5 28t78.5 24.5l121 -254q-75 -29 -116.5 -42.5t-112.5 -24.5t-156 -11q-241 0 -386 136.5t-145 361.5zM420 563h232q3 26 -2 56.5t-35 62t-81 31.5q-39 0 -64.5 -20.5t-35 -52t-12 -47.5t-2.5 -30z" glyph-name="uni1EBB" horiz-adv-x="1056" unicode="ẻ"/><glyph d="M466 1514q-72 0 -72 -104h-191q0 135 79.5 215t176.5 80q65 0 130.5 -51t103.5 -51q29 0 38.5 23.5t9.5 73.5h193q0 -155 -69.5 -227t-168.5 -72q-55 0 -98 28t-74 56.5t-58 28.5zM1080 1002h-582v-178l473 -3v-304h-473v-200h582v-317h-932v1319h932v-317z" glyph-name="uni1EBC" horiz-adv-x="1194" unicode="Ẽ"/><glyph d="M335 1029h-192q0 135 79.5 215t176.5 80q65 0 131 -51t103 -51q29 0 38.5 24t9.5 73h193q0 -155 -69 -226.5t-168 -71.5q-55 0 -98.5 28t-74.5 56t-58 28q-71 0 -71 -104zM41 471q0 70 14.5 135.5t50.5 132.5t89.5 116.5t138 80t190.5 30.5q256 0 368.5 -164t54.5 -425 h-573l44 -2q20 -61 52.5 -96t101.5 -35q46 0 86 8.5t99.5 28t78.5 24.5l121 -254q-75 -29 -116.5 -42.5t-112.5 -24.5t-156 -11q-241 0 -386 136.5t-145 361.5zM420 563h232q3 26 -2 56.5t-35 62t-81 31.5q-39 0 -64.5 -20.5t-35 -52t-12 -47.5t-2.5 -30z" glyph-name="uni1EBD" horiz-adv-x="1056" unicode="ẽ"/><glyph d="M949 1923l-451 -93l-46 116l408 230zM596 1519l-241 -94l-84 118l285 234h82l285 -234l-80 -118zM1080 1002h-582v-178l473 -3v-304h-473v-200h582v-317h-932v1319h932v-317z" glyph-name="uni1EBE" horiz-adv-x="1194" unicode="Ế"/><glyph d="M404 1449l-46 116l408 230l89 -252zM463 1396h81l285 -234l-80 -118l-247 94l-241 -94l-84 118zM41 471q0 70 14.5 135.5t50.5 132.5t89.5 116.5t138 80t190.5 30.5q256 0 368.5 -164t54.5 -425h-573l44 -2q20 -61 52.5 -96t101.5 -35q46 0 86 8.5t99.5 28t78.5 24.5 l121 -254q-75 -29 -116.5 -42.5t-112.5 -24.5t-156 -11q-241 0 -386 136.5t-145 361.5zM420 563h232q3 26 -2 56.5t-35 62t-81 31.5q-39 0 -64.5 -20.5t-35 -52t-12 -47.5t-2.5 -30z" glyph-name="uni1EBF" horiz-adv-x="1056" unicode="ế"/><glyph d="M724 1946l-48 -116l-451 93l89 253zM556 1777h82l285 -234l-80 -118l-247 94l-241 -94l-84 118zM1080 1002h-582v-178l473 -3v-304h-473v-200h582v-317h-932v1319h932v-317z" glyph-name="uni1EC0" horiz-adv-x="1194" unicode="Ề"/><glyph d="M582 1449l-451 94l89 252l410 -230zM463 1396h81l285 -234l-80 -118l-247 94l-241 -94l-84 118zM41 471q0 70 14.5 135.5t50.5 132.5t89.5 116.5t138 80t190.5 30.5q256 0 368.5 -164t54.5 -425h-573l44 -2q20 -61 52.5 -96t101.5 -35q46 0 86 8.5t99.5 28t78.5 24.5 l121 -254q-75 -29 -116.5 -42.5t-112.5 -24.5t-156 -11q-241 0 -386 136.5t-145 361.5zM420 563h232q3 26 -2 56.5t-35 62t-81 31.5q-39 0 -64.5 -20.5t-35 -52t-12 -47.5t-2.5 -30z" glyph-name="uni1EC1" horiz-adv-x="1056" unicode="ề"/><glyph d="M570 2033q-32 0 -68 -28l-50 99q70 68 157 77q90 3 138 -39.5t45 -113.5q-5 -101 -149 -216h-128q15 20 35 47t27.5 38t18 25.5t14 23t6 18t2.5 21.5q0 48 -48 48zM596 1519l-241 -94l-84 118l285 234h82l285 -234l-80 -118zM1080 1002h-582v-178l473 -3v-304h-473v-200 h582v-317h-932v1319h932v-317z" glyph-name="uni1EC2" horiz-adv-x="1194" unicode="Ể"/><glyph d="M550 1432h-128q15 20 34.5 46.5t27.5 37.5t18 25.5t13.5 23.5t6 18t2.5 21q0 48 -48 48q-32 0 -68 -27l-50 99q70 68 157 77q90 3 138 -39.5t45 -114.5q-5 -101 -148 -215zM463 1396h81l285 -234l-80 -118l-247 94l-241 -94l-84 118zM41 471q0 70 14.5 135.5t50.5 132.5 t89.5 116.5t138 80t190.5 30.5q256 0 368.5 -164t54.5 -425h-573l44 -2q20 -61 52.5 -96t101.5 -35q46 0 86 8.5t99.5 28t78.5 24.5l121 -254q-75 -29 -116.5 -42.5t-112.5 -24.5t-156 -11q-241 0 -386 136.5t-145 361.5zM420 563h232q3 26 -2 56.5t-35 62t-81 31.5 q-39 0 -64.5 -20.5t-35 -52t-12 -47.5t-2.5 -30z" glyph-name="uni1EC3" horiz-adv-x="1056" unicode="ể"/><glyph d="M500 1894q-72 0 -72 -104h-191q0 135 79.5 215.5t176.5 80.5q65 0 130.5 -51.5t103.5 -51.5q29 0 38.5 24t9.5 73h193q0 -155 -69.5 -226.5t-168.5 -71.5q-55 0 -98 28t-74 56t-58 28zM556 1777h82l285 -234l-80 -118l-247 94l-241 -94l-84 118zM1080 1002h-582v-178 l473 -3v-304h-473v-200h582v-317h-932v1319h932v-317z" glyph-name="uni1EC4" horiz-adv-x="1194" unicode="Ễ"/><glyph d="M335 1410h-192q0 135 79.5 215t176.5 80q65 0 131 -51t103 -51q29 0 38.5 23.5t9.5 73.5h193q0 -155 -69 -227t-168 -72q-55 0 -98.5 28t-74.5 56.5t-58 28.5q-71 0 -71 -104zM463 1396h81l285 -234l-80 -118l-247 94l-241 -94l-84 118zM41 471q0 70 14.5 135.5 t50.5 132.5t89.5 116.5t138 80t190.5 30.5q256 0 368.5 -164t54.5 -425h-573l44 -2q20 -61 52.5 -96t101.5 -35q46 0 86 8.5t99.5 28t78.5 24.5l121 -254q-75 -29 -116.5 -42.5t-112.5 -24.5t-156 -11q-241 0 -386 136.5t-145 361.5zM420 563h232q3 26 -2 56.5t-35 62 t-81 31.5q-39 0 -64.5 -20.5t-35 -52t-12 -47.5t-2.5 -30z" glyph-name="uni1EC5" horiz-adv-x="1056" unicode="ễ"/><glyph d="M596 1519l-241 -94l-84 118l285 234h82l285 -234l-80 -118zM1080 1002h-582v-178l473 -3v-304h-473v-200h582v-317h-932v1319h932v-317zM568 -80q84 0 135 -54t51 -142q0 -80 -51 -141t-135 -61q-82 0 -134 57t-52 145q0 90 50.5 143t135.5 53z" glyph-name="uni1EC6" horiz-adv-x="1194" unicode="Ệ"/><glyph d="M463 1396h81l285 -234l-80 -118l-247 94l-241 -94l-84 118zM41 471q0 70 14.5 135.5t50.5 132.5t89.5 116.5t138 80t190.5 30.5q256 0 368.5 -164t54.5 -425h-573l44 -2q20 -61 52.5 -96t101.5 -35q46 0 86 8.5t99.5 28t78.5 24.5l121 -254q-75 -29 -116.5 -42.5 t-112.5 -24.5t-156 -11q-241 0 -386 136.5t-145 361.5zM420 563h232q3 26 -2 56.5t-35 62t-81 31.5q-39 0 -64.5 -20.5t-35 -52t-12 -47.5t-2.5 -30zM544 -80q84 0 135 -54t51 -142q0 -80 -51 -141t-135 -61q-82 0 -134 57t-52 145q0 90 50.5 143t135.5 53z" glyph-name="uni1EC7" horiz-adv-x="1056" unicode="ệ"/><glyph d="M382 1432h-128q15 20 35 46.5t27.5 37.5t18 25.5t14 23.5t6 18t2.5 21q0 48 -48 48q-32 0 -68 -27l-50 99q70 68 157 77q90 3 138 -39.5t45 -114.5q-6 -101 -149 -215zM510 0h-362v1319h362v-1319z" glyph-name="uni1EC8" horiz-adv-x="658" unicode="Ỉ"/><glyph d="M350 1051h-128q15 20 34.5 47t27.5 38t18 25.5t13.5 23t6 18t2.5 21.5q0 48 -48 47q-32 0 -68 -27l-49 99q70 68 157 77q90 3 138 -39.5t44 -114.5q-5 -101 -148 -215zM483 0h-357v939h357v-939z" glyph-name="uni1EC9" horiz-adv-x="609" unicode="ỉ"/><glyph d="M510 0h-362v1319h362v-1319zM338 -80q84 0 135 -54t51 -142q0 -80 -51 -141t-135 -61q-82 0 -134 57t-52 145q0 90 50.5 143t135.5 53z" glyph-name="uni1ECA" horiz-adv-x="658" unicode="Ị"/><glyph d="M273 1471q79 0 127.5 -50.5t48.5 -133.5q0 -75 -48.5 -131.5t-127.5 -56.5q-77 0 -125.5 53t-48.5 135q0 84 47 134t127 50zM447 0h-357v939h357v-939zM266 -80q84 0 135 -54t51 -142q0 -80 -51 -141t-135 -61q-82 0 -134 57t-52 145q0 90 50.5 143t135.5 53z" glyph-name="uni1ECB" horiz-adv-x="580" unicode="ị"/><glyph d="M744 1348q287 0 465.5 -190t178.5 -496q0 -302 -175 -496.5t-469 -194.5q-285 0 -466.5 194.5t-181.5 496.5t177 494t471 192zM744 1022q-145 0 -216 -101.5t-71 -258.5q0 -160 72 -261t215 -101t214 100t71 262q0 164 -74 262t-211 98zM744 -80q84 0 135 -54t51 -142 q0 -80 -51 -141t-135 -61q-82 0 -134 57t-52 145q0 90 50.5 143t135.5 53z" glyph-name="uni1ECC" horiz-adv-x="1484" unicode="Ọ"/><glyph d="M560 966q225 0 373.5 -137.5t148.5 -362.5q0 -85 -29 -168t-87 -158t-164 -121t-242 -46q-227 0 -373 133t-146 360q0 230 146 365t373 135zM559.5 659q-83.5 0 -117.5 -59t-34 -134q0 -43 11 -81.5t47 -71.5t94 -33q56 0 92.5 33t48.5 71.5t12 81.5q0 75 -35 134 t-118.5 59zM560 -80q84 0 135 -54t51 -142q0 -80 -51.5 -141t-134.5 -61q-82 0 -134 57t-52 145q0 90 50.5 143t135.5 53z" glyph-name="uni1ECD" horiz-adv-x="1122" unicode="ọ"/><glyph d="M792 1432h-128q15 20 35 46.5t27.5 37.5t17.5 25.5t13.5 23.5t6 18t2.5 21q0 48 -47 48q-32 0 -69 -27l-49 99q70 68 157 77q90 3 138 -39.5t44 -114.5q-5 -101 -148 -215zM744 1348q287 0 465.5 -190t178.5 -496q0 -302 -175 -496.5t-469 -194.5q-285 0 -466.5 194.5 t-181.5 496.5t177 494t471 192zM744 1022q-145 0 -216 -101.5t-71 -258.5q0 -160 72 -261t215 -101t214 100t71 262q0 164 -74 262t-211 98z" glyph-name="uni1ECE" horiz-adv-x="1484" unicode="Ỏ"/><glyph d="M570 1051h-128q15 20 35 47t27.5 38t17.5 25.5t13.5 23t6 18t2.5 21.5q0 48 -47 47q-32 0 -69 -27l-49 99q70 68 157 77q90 3 138 -39.5t45 -114.5q-6 -101 -149 -215zM560 966q225 0 373.5 -137.5t148.5 -362.5q0 -85 -29 -168t-87 -158t-164 -121t-242 -46 q-227 0 -373 133t-146 360q0 230 146 365t373 135zM559.5 659q-83.5 0 -117.5 -59t-34 -134q0 -43 11 -81.5t47 -71.5t94 -33q56 0 92.5 33t48.5 71.5t12 81.5q0 75 -35 134t-118.5 59z" glyph-name="uni1ECF" horiz-adv-x="1122" unicode="ỏ"/><glyph d="M647 1830l-46 116l408 230l88 -253zM705 1777h82l285 -234l-80 -118l-248 94l-241 -94l-83 118zM744 1348q287 0 465.5 -190t178.5 -496q0 -302 -175 -496.5t-469 -194.5q-285 0 -466.5 194.5t-181.5 496.5t177 494t471 192zM744 1022q-145 0 -216 -101.5t-71 -258.5 q0 -160 72 -261t215 -101t214 100t71 262q0 164 -74 262t-211 98z" glyph-name="uni1ED0" horiz-adv-x="1484" unicode="Ố"/><glyph d="M425 1449l-46 116l408 230l89 -252zM483 1396h82l285 -234l-80 -118l-248 94l-240 -94l-84 118zM560 966q225 0 373.5 -137.5t148.5 -362.5q0 -85 -29 -168t-87 -158t-164 -121t-242 -46q-227 0 -373 133t-146 360q0 230 146 365t373 135zM559.5 659q-83.5 0 -117.5 -59 t-34 -134q0 -43 11 -81.5t47 -71.5t94 -33q56 0 92.5 33t48.5 71.5t12 81.5q0 75 -35 134t-118.5 59z" glyph-name="uni1ED1" horiz-adv-x="1122" unicode="ố"/><glyph d="M824 1830l-450 93l89 253l409 -230zM705 1777h82l285 -234l-80 -118l-248 94l-241 -94l-83 118zM744 1348q287 0 465.5 -190t178.5 -496q0 -302 -175 -496.5t-469 -194.5q-285 0 -466.5 194.5t-181.5 496.5t177 494t471 192zM744 1022q-145 0 -216 -101.5t-71 -258.5 q0 -160 72 -261t215 -101t214 100t71 262q0 164 -74 262t-211 98z" glyph-name="uni1ED2" horiz-adv-x="1484" unicode="Ồ"/><glyph d="M602 1449l-450 94l89 252l409 -230zM483 1396h82l285 -234l-80 -118l-248 94l-240 -94l-84 118zM560 966q225 0 373.5 -137.5t148.5 -362.5q0 -85 -29 -168t-87 -158t-164 -121t-242 -46q-227 0 -373 133t-146 360q0 230 146 365t373 135zM559.5 659q-83.5 0 -117.5 -59 t-34 -134q0 -43 11 -81.5t47 -71.5t94 -33q56 0 92.5 33t48.5 71.5t12 81.5q0 75 -35 134t-118.5 59z" glyph-name="uni1ED3" horiz-adv-x="1122" unicode="ồ"/><glyph d="M792 1812h-128q15 20 35 47t27.5 38t17.5 25.5t13.5 23t6 18t2.5 21.5q0 48 -47 48q-32 0 -69 -28l-49 99q70 68 157 77q90 3 138 -39.5t44 -113.5q-5 -102 -148 -216zM705 1777h82l285 -234l-80 -118l-248 94l-241 -94l-83 118zM744 1348q287 0 465.5 -190t178.5 -496 q0 -302 -175 -496.5t-469 -194.5q-285 0 -466.5 194.5t-181.5 496.5t177 494t471 192zM744 1022q-145 0 -216 -101.5t-71 -258.5q0 -160 72 -261t215 -101t214 100t71 262q0 164 -74 262t-211 98z" glyph-name="uni1ED4" horiz-adv-x="1484" unicode="Ổ"/><glyph d="M570 1432h-128q15 20 35 46.5t27.5 37.5t17.5 25.5t13.5 23.5t6 18t2.5 21q0 48 -47 48q-32 0 -69 -27l-49 99q70 68 157 77q90 3 138 -39.5t45 -114.5q-6 -101 -149 -215zM483 1396h82l285 -234l-80 -118l-248 94l-240 -94l-84 118zM560 966q225 0 373.5 -137.5 t148.5 -362.5q0 -85 -29 -168t-87 -158t-164 -121t-242 -46q-227 0 -373 133t-146 360q0 230 146 365t373 135zM559.5 659q-83.5 0 -117.5 -59t-34 -134q0 -43 11 -81.5t47 -71.5t94 -33q56 0 92.5 33t48.5 71.5t12 81.5q0 75 -35 134t-118.5 59z" glyph-name="uni1ED5" horiz-adv-x="1122" unicode="ổ"/><glyph d="M577 1790h-191q0 135 79 215.5t177 80.5q65 0 130.5 -51.5t103.5 -51.5q29 0 38 24t9 73h193q0 -155 -69 -226.5t-168 -71.5q-55 0 -98.5 28t-74 56t-57.5 28q-72 0 -72 -104zM705 1777h82l285 -234l-80 -118l-248 94l-241 -94l-83 118zM744 1348q287 0 465.5 -190 t178.5 -496q0 -302 -175 -496.5t-469 -194.5q-285 0 -466.5 194.5t-181.5 496.5t177 494t471 192zM744 1022q-145 0 -216 -101.5t-71 -258.5q0 -160 72 -261t215 -101t214 100t71 262q0 164 -74 262t-211 98z" glyph-name="uni1ED6" horiz-adv-x="1484" unicode="Ỗ"/><glyph d="M355 1410h-191q0 135 79.5 215t176.5 80q65 0 130.5 -51t103.5 -51q29 0 38 23.5t9 73.5h193q0 -155 -69 -227t-168 -72q-55 0 -98.5 28t-74 56.5t-57.5 28.5q-72 0 -72 -104zM483 1396h82l285 -234l-80 -118l-248 94l-240 -94l-84 118zM560 966q225 0 373.5 -137.5 t148.5 -362.5q0 -85 -29 -168t-87 -158t-164 -121t-242 -46q-227 0 -373 133t-146 360q0 230 146 365t373 135zM559.5 659q-83.5 0 -117.5 -59t-34 -134q0 -43 11 -81.5t47 -71.5t94 -33q56 0 92.5 33t48.5 71.5t12 81.5q0 75 -35 134t-118.5 59z" glyph-name="uni1ED7" horiz-adv-x="1122" unicode="ỗ"/><glyph d="M705 1777h82l285 -234l-80 -118l-248 94l-241 -94l-83 118zM744 1348q287 0 465.5 -190t178.5 -496q0 -302 -175 -496.5t-469 -194.5q-285 0 -466.5 194.5t-181.5 496.5t177 494t471 192zM744 1022q-145 0 -216 -101.5t-71 -258.5q0 -160 72 -261t215 -101t214 100 t71 262q0 164 -74 262t-211 98zM744 -80q84 0 135 -54t51 -142q0 -80 -51 -141t-135 -61q-82 0 -134 57t-52 145q0 90 50.5 143t135.5 53z" glyph-name="uni1ED8" horiz-adv-x="1484" unicode="Ộ"/><glyph d="M483 1396h82l285 -234l-80 -118l-248 94l-240 -94l-84 118zM560 966q225 0 373.5 -137.5t148.5 -362.5q0 -85 -29 -168t-87 -158t-164 -121t-242 -46q-227 0 -373 133t-146 360q0 230 146 365t373 135zM559.5 659q-83.5 0 -117.5 -59t-34 -134q0 -43 11 -81.5t47 -71.5 t94 -33q56 0 92.5 33t48.5 71.5t12 81.5q0 75 -35 134t-118.5 59zM560 -80q84 0 135 -54t51 -142q0 -80 -51.5 -141t-134.5 -61q-82 0 -134 57t-52 145q0 90 50.5 143t135.5 53z" glyph-name="uni1ED9" horiz-adv-x="1122" unicode="ộ"/><glyph d="M1099 1543l-450 -94l-47 116l408 230zM1504 1468q19 -56 19.5 -119.5t-18 -121.5t-70 -96.5t-129.5 -38.5h-43q125 -177 125 -430q0 -302 -175 -496.5t-469 -194.5q-285 0 -466.5 194.5t-181.5 496.5t177.5 496t470.5 194h2q60 0 129.5 -6t151.5 -14.5t128 -12.5 q60 -5 81.5 37t9.5 112h258zM744 300q143 0 214 100t71 262q0 164 -74 262t-211 98q-145 0 -216 -101.5t-71 -258.5q0 -160 72 -261t215 -101z" glyph-name="uni1EDA" horiz-adv-x="1510" unicode="Ớ"/><glyph d="M952 1162l-450 -94l-46 116l408 231zM1225 1092q36 -106 -11.5 -211.5t-187.5 -119.5q90 -123 90 -295q0 -85 -28 -168t-87 -158t-164 -121t-241 -46q-229 0 -375 133t-146 360q0 230 146 365t375 135q60 0 98 -2.5t85 -7.5t98 -9q61 -5 82 35t9 110h257zM596 280 q68 0 110 61.5t42 124.5q0 68 -40.5 130.5t-111.5 62.5q-73 0 -112.5 -61.5t-39.5 -131.5q0 -65 39.5 -125.5t112.5 -60.5z" glyph-name="uni1EDB" horiz-adv-x="1192" unicode="ớ"/><glyph d="M874 1565l-48 -116l-451 94l89 252zM1504 1468q19 -56 19.5 -119.5t-18 -121.5t-70 -96.5t-129.5 -38.5h-43q125 -177 125 -430q0 -302 -175 -496.5t-469 -194.5q-285 0 -466.5 194.5t-181.5 496.5t177.5 496t470.5 194h2q60 0 129.5 -6t151.5 -14.5t128 -12.5 q60 -5 81.5 37t9.5 112h258zM744 300q143 0 214 100t71 262q0 164 -74 262t-211 98q-145 0 -216 -101.5t-71 -258.5q0 -160 72 -261t215 -101z" glyph-name="uni1EDC" horiz-adv-x="1510" unicode="Ờ"/><glyph d="M727 1184l-48 -116l-450 94l88 253zM1225 1092q36 -106 -11.5 -211.5t-187.5 -119.5q90 -123 90 -295q0 -85 -28 -168t-87 -158t-164 -121t-241 -46q-229 0 -375 133t-146 360q0 230 146 365t375 135q60 0 98 -2.5t85 -7.5t98 -9q61 -5 82 35t9 110h257zM596 280 q68 0 110 61.5t42 124.5q0 68 -40.5 130.5t-111.5 62.5q-73 0 -112.5 -61.5t-39.5 -131.5q0 -65 39.5 -125.5t112.5 -60.5z" glyph-name="uni1EDD" horiz-adv-x="1192" unicode="ờ"/><glyph d="M720 1652q-32 0 -68 -27l-50 99q70 68 157 77q90 3 138 -39.5t45 -114.5q-5 -101 -148 -215h-128q15 20 34.5 46.5t27.5 37.5t18 25.5t13.5 23.5t6 18t2.5 21q0 48 -48 48zM1504 1468q19 -56 19.5 -119.5t-18 -121.5t-70 -96.5t-129.5 -38.5h-43q125 -177 125 -430 q0 -302 -175 -496.5t-469 -194.5q-285 0 -466.5 194.5t-181.5 496.5t177.5 496t470.5 194h2q60 0 129.5 -6t151.5 -14.5t128 -12.5q60 -5 81.5 37t9.5 112h258zM744 300q143 0 214 100t71 262q0 164 -74 262t-211 98q-145 0 -216 -101.5t-71 -258.5q0 -160 72 -261t215 -101 z" glyph-name="uni1EDE" horiz-adv-x="1510" unicode="Ở"/><glyph d="M573 1271q-32 0 -68 -27l-49 99q70 68 157 77q90 3 138 -39.5t44 -114.5q-5 -101 -148 -215h-128q15 20 34.5 47t27.5 38t18 25.5t13.5 23t6 18t2.5 21.5q0 47 -48 47zM1225 1092q36 -106 -11.5 -211.5t-187.5 -119.5q90 -123 90 -295q0 -85 -28 -168t-87 -158t-164 -121 t-241 -46q-229 0 -375 133t-146 360q0 230 146 365t375 135q60 0 98 -2.5t85 -7.5t98 -9q61 -5 82 35t9 110h257zM596 280q68 0 110 61.5t42 124.5q0 68 -40.5 130.5t-111.5 62.5q-73 0 -112.5 -61.5t-39.5 -131.5q0 -65 39.5 -125.5t112.5 -60.5z" glyph-name="uni1EDF" horiz-adv-x="1192" unicode="ở"/><glyph d="M650 1514q-72 0 -71 -104h-192q0 135 79.5 215t176.5 80q65 0 131 -51t103 -51q29 0 38.5 23.5t9.5 73.5h193q0 -155 -69 -227t-168 -72q-55 0 -98.5 28t-74.5 56.5t-58 28.5zM1504 1468q19 -56 19.5 -119.5t-18 -121.5t-70 -96.5t-129.5 -38.5h-43q125 -177 125 -430 q0 -302 -175 -496.5t-469 -194.5q-285 0 -466.5 194.5t-181.5 496.5t177.5 496t470.5 194h2q60 0 129.5 -6t151.5 -14.5t128 -12.5q60 -5 81.5 37t9.5 112h258zM744 300q143 0 214 100t71 262q0 164 -74 262t-211 98q-145 0 -216 -101.5t-71 -258.5q0 -160 72 -261t215 -101 z" glyph-name="uni1EE0" horiz-adv-x="1510" unicode="Ỡ"/><glyph d="M503 1133q-72 0 -71 -104h-191q0 135 79 215t177 80q65 0 130.5 -51t102.5 -51q29 0 38.5 24t9.5 73h193q0 -155 -69 -226.5t-168 -71.5q-55 0 -98.5 28t-74.5 56t-58 28zM1225 1092q36 -106 -11.5 -211.5t-187.5 -119.5q90 -123 90 -295q0 -85 -28 -168t-87 -158 t-164 -121t-241 -46q-229 0 -375 133t-146 360q0 230 146 365t375 135q60 0 98 -2.5t85 -7.5t98 -9q61 -5 82 35t9 110h257zM596 280q68 0 110 61.5t42 124.5q0 68 -40.5 130.5t-111.5 62.5q-73 0 -112.5 -61.5t-39.5 -131.5q0 -65 39.5 -125.5t112.5 -60.5z" glyph-name="uni1EE1" horiz-adv-x="1192" unicode="ỡ"/><glyph d="M1504 1468q19 -56 19.5 -119.5t-18 -121.5t-70 -96.5t-129.5 -38.5h-43q125 -177 125 -430q0 -302 -175 -496.5t-469 -194.5q-285 0 -466.5 194.5t-181.5 496.5t177.5 496t470.5 194h2q60 0 129.5 -6t151.5 -14.5t128 -12.5q60 -5 81.5 37t9.5 112h258zM744 300 q143 0 214 100t71 262q0 164 -74 262t-211 98q-145 0 -216 -101.5t-71 -258.5q0 -160 72 -261t215 -101zM749 -80q84 0 135 -54t51 -142q0 -80 -51 -141t-135 -61q-82 0 -134 57t-52 145q0 90 50.5 143t135.5 53z" glyph-name="uni1EE2" horiz-adv-x="1510" unicode="Ợ"/><glyph d="M1225 1092q36 -106 -11.5 -211.5t-187.5 -119.5q90 -123 90 -295q0 -85 -28 -168t-87 -158t-164 -121t-241 -46q-229 0 -375 133t-146 360q0 230 146 365t375 135q60 0 98 -2.5t85 -7.5t98 -9q61 -5 82 35t9 110h257zM596 280q68 0 110 61.5t42 124.5q0 68 -40.5 130.5 t-111.5 62.5q-73 0 -112.5 -61.5t-39.5 -131.5q0 -65 39.5 -125.5t112.5 -60.5zM594 -80q84 0 135 -54t51 -142q0 -80 -51 -141t-135 -61q-82 0 -134 57t-52 145q0 90 50.5 143t135.5 53z" glyph-name="uni1EE3" horiz-adv-x="1192" unicode="ợ"/><glyph d="M1312 1319v-647q0 -172 -27 -295.5t-93 -218.5t-181 -142t-282 -47q-171 0 -288 47t-181.5 142.5t-92 218.5t-27.5 295v647h362v-594q0 -119 15 -206t36.5 -132.5t55 -71t60 -31.5t60.5 -6q44 0 77.5 13.5t69 55.5t55.5 137.5t20 240.5v594h361zM729 -80q84 0 135 -54 t51 -142q0 -80 -51.5 -141t-134.5 -61q-82 0 -134 57t-52 145q0 90 50.5 143t135.5 53z" glyph-name="uni1EE4" horiz-adv-x="1450" unicode="Ụ"/><glyph d="M674 939h369v-939h-282l-53 108q-128 -131 -288 -132q-68 0 -125.5 18t-107 59t-77.5 115t-28 177v594h370l-1 -466q0 -39 1.5 -59.5t17 -40.5t44.5 -20q72 0 160 53v533zM531 -80q84 0 135 -54t51 -142q0 -80 -51.5 -141t-134.5 -61q-82 0 -134 57t-52 145 q0 90 50.5 143t135.5 53z" glyph-name="uni1EE5" horiz-adv-x="1129" unicode="ụ"/><glyph d="M761 1432h-128q15 20 35 46.5t27.5 37.5t18 25.5t13.5 23.5l6 18t3 21q0 48 -48 48q-32 0 -68 -27l-50 99q70 68 157 77q90 3 138 -39.5t45 -114.5q-6 -101 -149 -215zM1312 1319v-647q0 -172 -27 -295.5t-93 -218.5t-181 -142t-282 -47q-171 0 -288 47t-181.5 142.5 t-92 218.5t-27.5 295v647h362v-594q0 -119 15 -206t36.5 -132.5t55 -71t60 -31.5t60.5 -6q44 0 77.5 13.5t69 55.5t55.5 137.5t20 240.5v594h361z" glyph-name="uni1EE6" horiz-adv-x="1450" unicode="Ủ"/><glyph d="M514 1271q-32 0 -69 -27l-49 99q70 68 157 77q90 3 138 -39.5t45 -114.5q-5 -101 -149 -215h-128q15 20 35 47t27.5 38t18 25.5t13.5 23t5.5 18t2.5 21.5q1 47 -47 47zM674 939h369v-939h-282l-53 108q-128 -131 -288 -132q-68 0 -125.5 18t-107 59t-77.5 115t-28 177 v594h370l-1 -466q0 -39 1.5 -59.5t17 -40.5t44.5 -20q72 0 160 53v533z" glyph-name="uni1EE7" horiz-adv-x="1129" unicode="ủ"/><glyph d="M1123 1543l-451 -94l-46 116l408 230zM1686 1459q10 -53 1.5 -117.5t-28 -121t-72.5 -94t-131 -37.5l-115 2v-415q0 -172 -27 -296t-93 -218.5t-181 -141.5t-284 -47q-171 0 -287 47t-180.5 142.5t-92 218t-27.5 295.5v643h362v-590q0 -119 15 -206.5t36.5 -132.5 t55 -70.5t59 -31.5t59.5 -6q46 0 79.5 13.5t69 55.5t55.5 137.5t20 240.5v590h361q58 -3 78.5 34.5t8.5 105.5h258z" glyph-name="uni1EE8" horiz-adv-x="1621" unicode="Ứ"/><glyph d="M952 1162l-450 -94l-46 116l408 231zM1393 1079q10 -53 1.5 -118t-28 -121.5t-72.5 -94t-132 -37.5l-85 2v-710h-282l-53 108q-131 -131 -286 -132q-147 0 -243.5 86t-96.5 283v594h372l-3 -466q0 -39 2.5 -59.5t17 -40.5t45.5 -20q72 0 160 53v533h360q89 10 67 140h256 z" glyph-name="uni1EE9" horiz-adv-x="1445" unicode="ứ"/><glyph d="M898 1565l-48 -116l-451 94l89 252zM1686 1459q10 -53 1.5 -117.5t-28 -121t-72.5 -94t-131 -37.5l-115 2v-415q0 -172 -27 -296t-93 -218.5t-181 -141.5t-284 -47q-171 0 -287 47t-180.5 142.5t-92 218t-27.5 295.5v643h362v-590q0 -119 15 -206.5t36.5 -132.5t55 -70.5 t59 -31.5t59.5 -6q46 0 79.5 13.5t69 55.5t55.5 137.5t20 240.5v590h361q58 -3 78.5 34.5t8.5 105.5h258z" glyph-name="uni1EEA" horiz-adv-x="1621" unicode="Ừ"/><glyph d="M727 1184l-48 -116l-450 94l88 253zM1393 1079q10 -53 1.5 -118t-28 -121.5t-72.5 -94t-132 -37.5l-85 2v-710h-282l-53 108q-131 -131 -286 -132q-147 0 -243.5 86t-96.5 283v594h372l-3 -466q0 -39 2.5 -59.5t17 -40.5t45.5 -20q72 0 160 53v533h360q89 10 67 140h256z " glyph-name="uni1EEB" horiz-adv-x="1445" unicode="ừ"/><glyph d="M744 1652q-32 0 -68 -27l-50 99q70 68 157 77q90 3 138 -39.5t45 -114.5q-5 -101 -149 -215h-128q15 20 35 46.5t27.5 37.5t18 25.5t14 23.5t6 18t2.5 21q0 48 -48 48zM1686 1459q10 -53 1.5 -117.5t-28 -121t-72.5 -94t-131 -37.5l-115 2v-415q0 -172 -27 -296 t-93 -218.5t-181 -141.5t-284 -47q-171 0 -287 47t-180.5 142.5t-92 218t-27.5 295.5v643h362v-590q0 -119 15 -206.5t36.5 -132.5t55 -70.5t59 -31.5t59.5 -6q46 0 79.5 13.5t69 55.5t55.5 137.5t20 240.5v590h361q58 -3 78.5 34.5t8.5 105.5h258z" glyph-name="uni1EEC" horiz-adv-x="1621" unicode="Ử"/><glyph d="M573 1271q-32 0 -68 -27l-49 99q70 68 157 77q90 3 138 -39.5t44 -114.5q-5 -101 -148 -215h-128q15 20 34.5 47t27.5 38t18 25.5t13.5 23t6 18t2.5 21.5q0 47 -48 47zM1393 1079q10 -53 1.5 -118t-28 -121.5t-72.5 -94t-132 -37.5l-85 2v-710h-282l-53 108 q-131 -131 -286 -132q-147 0 -243.5 86t-96.5 283v594h372l-3 -466q0 -39 2.5 -59.5t17 -40.5t45.5 -20q72 0 160 53v533h360q89 10 67 140h256z" glyph-name="uni1EED" horiz-adv-x="1445" unicode="ử"/><glyph d="M674 1514q-72 0 -72 -104h-191q0 135 79.5 215t176.5 80q65 0 131 -51t103 -51q29 0 38.5 23.5t9.5 73.5h193q0 -155 -69 -227t-168 -72q-55 0 -98.5 28t-74.5 56.5t-58 28.5zM1686 1459q10 -53 1.5 -117.5t-28 -121t-72.5 -94t-131 -37.5l-115 2v-415q0 -172 -27 -296 t-93 -218.5t-181 -141.5t-284 -47q-171 0 -287 47t-180.5 142.5t-92 218t-27.5 295.5v643h362v-590q0 -119 15 -206.5t36.5 -132.5t55 -70.5t59 -31.5t59.5 -6q46 0 79.5 13.5t69 55.5t55.5 137.5t20 240.5v590h361q58 -3 78.5 34.5t8.5 105.5h258z" glyph-name="uni1EEE" horiz-adv-x="1621" unicode="Ữ"/><glyph d="M503 1133q-72 0 -71 -104h-191q0 135 79 215t177 80q65 0 130.5 -51t102.5 -51q29 0 38.5 24t9.5 73h193q0 -155 -69 -226.5t-168 -71.5q-55 0 -98.5 28t-74.5 56t-58 28zM1393 1079q10 -53 1.5 -118t-28 -121.5t-72.5 -94t-132 -37.5l-85 2v-710h-282l-53 108 q-131 -131 -286 -132q-147 0 -243.5 86t-96.5 283v594h372l-3 -466q0 -39 2.5 -59.5t17 -40.5t45.5 -20q72 0 160 53v533h360q89 10 67 140h256z" glyph-name="uni1EEF" horiz-adv-x="1445" unicode="ữ"/><glyph d="M1686 1459q10 -53 1.5 -117.5t-28 -121t-72.5 -94t-131 -37.5l-115 2v-415q0 -172 -27 -296t-93 -218.5t-181 -141.5t-284 -47q-171 0 -287 47t-180.5 142.5t-92 218t-27.5 295.5v643h362v-590q0 -119 15 -206.5t36.5 -132.5t55 -70.5t59 -31.5t59.5 -6q46 0 79.5 13.5 t69 55.5t55.5 137.5t20 240.5v590h361q58 -3 78.5 34.5t8.5 105.5h258zM756 -80q84 0 135 -54t51 -142q0 -80 -51 -141t-135 -61q-82 0 -134 57t-52 145q0 90 50.5 143t135.5 53z" glyph-name="uni1EF0" horiz-adv-x="1621" unicode="Ự"/><glyph d="M1393 1079q10 -53 1.5 -118t-28 -121.5t-72.5 -94t-132 -37.5l-85 2v-710h-282l-53 108q-131 -131 -286 -132q-147 0 -243.5 86t-96.5 283v594h372l-3 -466q0 -39 2.5 -59.5t17 -40.5t45.5 -20q72 0 160 53v533h360q89 10 67 140h256zM459 -80q84 0 135 -54t51 -142 q0 -80 -51 -141t-135 -61q-82 0 -134 57t-52 145q0 90 50.5 143t135.5 53z" glyph-name="uni1EF1" horiz-adv-x="1445" unicode="ự"/><glyph d="M717 1550l-48 -116l-451 93l89 253zM1150 1319l-368 -771h-5v-548h-381v548l-369 771h412l150 -508l150 508h411z" glyph-name="Ygrave" horiz-adv-x="1184" unicode="Ỳ"/><glyph d="M580 1184l-48 -116l-450 94l89 253zM539 939h354l-314 -1062q-14 -55 -26 -95t-34 -88.5t-49.5 -80t-72 -61.5t-98 -42t-130.5 -9.5t-169 23.5l26 336q53 -22 91 -26.5t59.5 1t37 27.5t20.5 40t13.5 53t13.5 52l-288 932h362l104 -454z" glyph-name="ygrave" horiz-adv-x="892" unicode="ỳ"/><glyph d="M1150 1319l-368 -771h-5v-548h-381v548l-369 771h412l150 -508l150 508h411zM585 -80q84 0 135 -54t51 -142q0 -80 -51 -141t-135 -61q-82 0 -134 57t-52 145q0 90 50.5 143t135.5 53z" glyph-name="uni1EF4" horiz-adv-x="1184" unicode="Ỵ"/><glyph d="M539 939h354l-314 -1062q-14 -55 -26 -95t-34 -88.5t-49.5 -80t-72 -61.5t-98 -42t-130.5 -9.5t-169 23.5l26 336q53 -22 91 -26.5t59.5 1t37 27.5t20.5 40t13.5 53t13.5 52l-288 932h362l104 -454zM391 -592q84 0 135 -54t51 -142q0 -80 -51.5 -141t-134.5 -61 q-82 0 -134 57t-52 145q0 90 50.5 143t135.5 53z" glyph-name="uni1EF5" horiz-adv-x="892" unicode="ỵ"/><glyph d="M563 1637q-32 0 -68 -28l-50 99q70 68 157 77q90 3 138 -39.5t45 -113.5q-5 -101 -148 -215h-128q15 20 34.5 46.5t27.5 37.5t18 25.5t13.5 23t6 18t2.5 21.5q0 48 -48 48zM1150 1319l-368 -771h-5v-548h-381v548l-369 771h412l150 -508l150 508h411z" glyph-name="uni1EF6" horiz-adv-x="1184" unicode="Ỷ"/><glyph d="M427 1271q-32 0 -69 -27l-49 99q70 68 157 77q90 3 138 -39.5t45 -114.5q-5 -101 -149 -215h-128q15 20 35 47t27.5 38t18 25.5t13.5 23t5.5 18t2.5 21.5q1 47 -47 47zM539 939h354l-314 -1062q-14 -55 -26 -95t-34 -88.5t-49.5 -80t-72 -61.5t-98 -42t-130.5 -9.5 t-169 23.5l26 336q53 -22 91 -26.5t59.5 1t37 27.5t20.5 40t13.5 53t13.5 52l-288 932h362l104 -454z" glyph-name="uni1EF7" horiz-adv-x="892" unicode="ỷ"/><glyph d="M459 1498q-72 0 -72 -104h-191q0 135 79.5 215.5t176.5 80.5q65 0 131 -51.5t103 -51.5q29 0 38.5 24t9.5 73h193q0 -155 -69.5 -226.5t-168.5 -71.5q-55 0 -98 28t-74 56t-58 28zM1150 1319l-368 -771h-5v-548h-381v548l-369 771h412l150 -508l150 508h411z" glyph-name="uni1EF8" horiz-adv-x="1184" unicode="Ỹ"/><glyph d="M323 1133q-72 0 -72 -104h-191q0 135 79 215t177 80q65 0 130.5 -51t103.5 -51q29 0 38 24t9 73h193q0 -155 -69 -226.5t-168 -71.5q-55 0 -98.5 28t-74 56t-57.5 28zM539 939h354l-314 -1062q-14 -55 -26 -95t-34 -88.5t-49.5 -80t-72 -61.5t-98 -42t-130.5 -9.5 t-169 23.5l26 336q53 -22 91 -26.5t59.5 1t37 27.5t20.5 40t13.5 53t13.5 52l-288 932h362l104 -454z" glyph-name="uni1EF9" horiz-adv-x="892" unicode="ỹ"/><glyph glyph-name="uni2009" horiz-adv-x="337" unicode=" "/><glyph d="M905 748v-318h-818v318h818z" glyph-name="endash" horiz-adv-x="988" unicode="–"/><glyph d="M1609 754v-312h-1522v312h1522z" glyph-name="emdash" horiz-adv-x="1696" unicode="—"/><glyph d="M145 969q-61 0 -97 43t-36 118q0 198 172 338q44 -44 57 -55q-126 -111 -120 -191q15 3 27 3q51 0 86.5 -37.5t35.5 -93.5q0 -53 -34.5 -89t-90.5 -36z" glyph-name="quoteleft" horiz-adv-x="300" unicode="‘"/><glyph d="M155 1468q61 0 97 -43t36 -118q0 -198 -172 -338q-44 44 -56 55q126 111 119 191q-15 -3 -27 -3q-51 0 -85.5 37.5t-34.5 95.5q0 51 34 87t89 36z" glyph-name="quoteright" horiz-adv-x="300" unicode="’"/><glyph d="M241 348q96 -5 147.5 -72.5t43.5 -169.5q-20 -273 -263 -454q-58 73 -82 87q77 58 130 123t41 111l-33 -4q-75 5 -124.5 64t-45.5 146q5 73 53.5 122.5t132.5 46.5zM227 -31h-2h2z" glyph-name="quotesinglbase" horiz-adv-x="1024" unicode="‚"/><glyph d="M273 969q-61 0 -97 43t-36 118q0 198 172 338q44 -44 57 -55q-126 -111 -120 -191q15 3 27 3q51 0 85.5 -36.5t34.5 -94.5q0 -53 -34 -89t-89 -36zM563 969q-61 0 -97 43t-36 118q0 198 172 338q44 -44 57 -55q-126 -111 -120 -191q15 3 28 3q51 0 85 -36.5t34 -94.5 q0 -53 -34 -89t-89 -36z" glyph-name="quotedblleft" horiz-adv-x="786" unicode="“"/><glyph d="M222 1468q61 0 97 -43t36 -118q0 -198 -172 -338q-44 44 -57 55q126 111 120 191q-15 -3 -28 -3q-51 0 -85 37.5t-34 95.5q0 51 33.5 87t89.5 36zM512 1468q61 0 97 -43t36 -118q0 -198 -172 -338q-44 44 -57 55q126 111 120 191q-15 -3 -27 -3q-51 0 -85.5 37.5 t-34.5 95.5q0 51 33.5 87t89.5 36z" glyph-name="quotedblright" horiz-adv-x="786" unicode="”"/><glyph d="M241 348q96 -5 147.5 -72.5t43.5 -169.5q-20 -273 -263 -454q-58 73 -82 87q77 58 130 123t41 111q-10 -2 -21.5 -3t-9.5 -1q-77 5 -126.5 64t-45.5 146q5 73 53.5 122.5t132.5 46.5zM241 348q-84 3 -132.5 -46t-53.5 -123q-3 -87 46 -146t126 -64q-2 0 9 1t22 3 q12 -46 -41 -111t-130 -123q24 -14 82 -87q242 181 263 454q9 102 -43 169.5t-148 72.5z" glyph-name="quotedblbase" horiz-adv-x="380" unicode="„"/><glyph d="M737 1321h86v-367h-86l-100 31l32 -142v-268h-369v268l35 142l-99 -31h-86v367h86l93 -31l-29 92v86h369v-86l-31 -93z" glyph-name="dagger" horiz-adv-x="974" unicode="†"/><glyph d="M823 759h-86l-94 29l26 -88v-94l-29 -84l97 33h86v-367h-86l-102 32l34 -153v-171h-369v171l36 151l-100 -30h-86v367h86l92 -29l-28 80v94l28 88l-92 -29h-86v369h86l93 -31l-29 93v278h369v-278l-31 -96l99 34h86v-369z" glyph-name="daggerdbl" horiz-adv-x="974" unicode="‡"/><glyph d="M319 940q90 0 146 -59.5t56 -155.5q0 -89 -56.5 -152.5t-145.5 -63.5q-90 0 -145.5 61t-55.5 155q0 97 54.5 156t146.5 59z" glyph-name="bullet" horiz-adv-x="641" unicode="•"/><glyph d="M256 270q61 0 101.5 -40.5t40.5 -106.5q0 -61 -39.5 -107.5t-102.5 -46.5q-61 0 -100.5 44.5t-39.5 109.5q0 68 37.5 107.5t102.5 39.5zM645 270q61 0 101.5 -40.5t40.5 -106.5q0 -61 -39.5 -107.5t-102.5 -46.5q-61 0 -101.5 44.5t-40.5 109.5q0 68 38.5 107.5 t103.5 39.5zM1033 270q61 0 101 -40.5t40 -106.5q0 -61 -39 -107.5t-102.5 -46.5t-102.5 44.5t-39 109.5q0 68 37.5 107.5t104.5 39.5z" glyph-name="ellipsis" horiz-adv-x="1288" unicode="…"/><glyph d="M459 -26l-200 123l724 1154l200 -125zM353.5 1195q124.5 0 210 -73.5t85.5 -196.5q0 -41 -14.5 -83t-46.5 -84.5t-92.5 -69t-142.5 -26.5q-125 0 -206.5 70t-81.5 193q0 125 82 197.5t206.5 72.5zM353 976q-24 0 -24 -51q0 -44 24 -44t24 44q0 51 -24 51zM1065 524 q125 0 209.5 -74.5t84.5 -193.5q0 -41 -15 -83t-45.5 -84.5t-91 -70t-142.5 -27.5q-123 0 -205 71t-82 194q0 125 82 196.5t205 71.5zM1693 524q123 0 207.5 -74.5t84.5 -193.5q0 -41 -14.5 -83t-45.5 -84.5t-91.5 -70t-140.5 -27.5q-123 0 -205.5 71t-82.5 194 q0 125 82.5 196.5t205.5 71.5zM1065 305q-19 0 -19 -49q0 -44 19 -44q27 0 27 44q0 49 -27 49zM1693 305q-20 0 -20 -49q0 -44 20 -44q27 0 27 44q0 49 -27 49z" glyph-name="perthousand" horiz-adv-x="2044" unicode="‰"/><glyph d="M744 679l-220 -205l220 -208l-232 -220l-358 427l358 426z" glyph-name="guilsinglleft" horiz-adv-x="931" unicode="‹"/><glyph d="M422 899l358 -426l-358 -427l-233 220l221 208l-221 205z" glyph-name="guilsinglright" horiz-adv-x="931" unicode="›"/><glyph d="M563 1485q236 0 376.5 -128t140.5 -326q0 -384 -385 -464l-17 -134h-217l-60 432v149h333v-113q43 48 43 132q0 147 -212 146q-27 0 -53 -8.5t-43.5 -19.5t-38 -29.5t-29 -29t-25 -31t-16.5 -22.5l-283 178q58 113 186 190.5t300 77.5zM565 345q79 0 126.5 -49.5 t47.5 -129.5q0 -75 -48.5 -132.5t-125.5 -57.5t-125.5 54t-48.5 134q0 84 47 132.5t127 48.5z" glyph-name="uni203D" horiz-adv-x="1198" unicode="‽"/><glyph d="M522 1420l191 -106l-814 -1355l-193 99z" glyph-name="fraction" horiz-adv-x="394" unicode="⁄"/><glyph d="M362 809q-121 0 -191 86t-70 218q0 133 70.5 218.5t192 85.5t190.5 -84t69 -217q0 -135 -70 -221t-191 -86zM364 1246q-63 0 -64 -85l7 -48v-16q-2 -15 -2 -27t3 -29t9 -29t17 -20.5t28 -8.5q12 0 22 4.5t16 9.5t10.5 15t7 17t3.5 20.5t1 19.5v20.5v18.5q0 2 0.5 18.5 t0.5 28.5t-3.5 31t-8.5 31t-17.5 20.5t-29.5 8.5z" glyph-name="uni2070" horiz-adv-x="725" unicode="⁰"/><glyph d="M650 1082v-176h-78v-85h-186v85h-220l-70 176l290 319h186v-326zM270 1053l116 9v117z" glyph-name="uni2074" horiz-adv-x="735" unicode="⁴"/><glyph d="M328 1188q89 0 150 -54.5t61 -138.5q0 -75 -52 -129t-176 -54q-34 0 -62.5 4.5t-55 14t-39 15.5t-38.5 20.5t-29 15.5l108 127q51 -32 97 -33q51 0 51 31q0 15 -10 26t-26 11h-2q-2 -2 -5 -3.5t-6 -4.5l-151 92l28 273h321v-193l-161 12z" glyph-name="uni2075" horiz-adv-x="648" unicode="⁵"/><glyph d="M384 1196q82 0 143.5 -50t61.5 -141q0 -85 -61.5 -139t-175.5 -54q-133 0 -192 82t-59 212q0 135 70.5 223t192.5 88q118 0 197 -62l-131 -128q-27 17 -70 17t-55 -54q23 6 79 6zM350 988q36 3 29 16v1q0 17 -31 17q20 0 7 14q-19 22 -46 8q-9 -5 -15 -13q7 -43 56 -43z " glyph-name="uni2076" horiz-adv-x="691" unicode="⁶"/><glyph d="M130 1401h406v-170l-166 -410h-223l191 396l-208 -16v200z" glyph-name="uni2077" horiz-adv-x="629" unicode="⁷"/><glyph d="M447 1123q80 -49 80 -131q0 -73 -58.5 -128t-163.5 -55q-96 0 -157 49.5t-61 131.5q0 84 79 135q-67 41 -67 119.5t58 125.5t152 47q90 0 149 -48t59 -127q0 -75 -70 -119zM305 1280q-48 0 -47 -53q0 -20 13.5 -34t33.5 -14q24 0 38 14t14 34q-1 53 -52 53zM305 961 q55 0 55 46q0 17 -15.5 33t-39.5 16q-22 0 -35.5 -16t-13.5 -33q0 -46 49 -46z" glyph-name="uni2078" horiz-adv-x="617" unicode="⁸"/><glyph d="M340 1417q131 0 191 -82t60 -212q0 -135 -71 -223t-194 -88q-121 0 -193 65l126 125q22 -15 74 -16q41 0 53 53q-22 -7 -79 -6q-80 0 -142.5 52t-62.5 142q0 84 62.5 137t175.5 53zM340 1207q-19 0 -7 -14q22 -22 48 -7q9 5 15 14q-7 41 -56 41q-32 0 -33 -9l4 -5 q0 -20 29 -20z" glyph-name="uni2079" horiz-adv-x="679" unicode="⁹"/><glyph d="M865 372l239 -171q-152 -236 -384 -235q-167 0 -292.5 113.5t-173.5 299.5h-119l31 160h64q-2 14 -1 43v32h-94l31 161h85q46 189 171.5 306t297.5 117q114 0 214 -59.5t169 -169.5l-234 -169q-56 104 -161 105q-96 0 -143 -130h242l-30 -161h-245v-29q0 -31 2 -46h232 l-30 -160h-168q46 -119 132 -120q116 0 165 113z" glyph-name="Euro" horiz-adv-x="1206" unicode="€"/><glyph d="M1195 739v-72h-87q-10 -174 -128 -285t-331 -111h-98v-271h-324v667h-79v72h79v422h422q212 0 330 -120.5t129 -301.5h87zM551 823v-84h202q-15 39 -64 61.5t-102 22.5h-36zM589 594q55 0 97.5 20.5t61.5 52.5h-197v-73h38z" glyph-name="uni20B1" horiz-adv-x="1310" unicode="₱"/><glyph d="M710 336h-114v-63h155v-159h-155v-114h-323v114h-125v159h125v63h-125v324h125v501h437q224 0 338 -118t114 -307q0 -184 -114 -292t-338 -108zM596 823v-163h51q166 0 165 82q0 80 -165 81h-51z" glyph-name="uni20BD" horiz-adv-x="1278" unicode="₽"/><glyph d="M957 633q72 -43 111.5 -122t39.5 -180q0 -147 -86.5 -239t-224.5 -92h-56v-159h-120v159h-70v-159h-123v159h-280v1161h280v158h123v-158h70v158h120v-158h8q126 0 207.5 -85.5t81.5 -218.5q-1 -135 -81 -224zM771 809q0 34 -20.5 53t-55.5 19h-238v-149h217 q36 0 66.5 17t30.5 60zM754 280q27 0 52 24t25 61q0 43 -30.5 62.5t-68.5 19.5h-275v-167h297z" glyph-name="uni20BF" horiz-adv-x="1189" unicode="₿"/><glyph d="M1780 531q-191 0 -310.5 109t-119.5 299q0 191 119.5 302.5t310.5 111.5q188 0 309 -113.5t121 -300.5q0 -56 -13.5 -112t-46 -109.5t-80.5 -94.5t-123 -66.5t-167 -25.5zM809 621v698h345v-1319h-355l-331 691v-691h-349v1319h359zM1795 1046q-38 0 -58 -35.5t-20 -71.5 q0 -32 20.5 -66.5t58 -34.5t59.5 35t22 66q0 36 -21.5 71.5t-60.5 35.5zM1410 0v307h757v-307h-757z" glyph-name="afii61352" horiz-adv-x="2314" unicode="№"/><glyph d="M700 1251q249 0 418 -164t169 -423q0 -263 -169 -426t-418 -163t-419 164t-170 425q0 259 170 423t419 164zM699.5 242q177.5 0 299 116t121.5 306q0 191 -120.5 305.5t-299.5 114.5q-177 0 -298.5 -116t-121.5 -304q0 -189 121 -305.5t298.5 -116.5zM698 923 q128 0 188.5 -49.5t60.5 -131.5q0 -90 -58 -134.5t-191 -44.5h-19v-167h-148v527h167zM698 689h17h17t14.5 1t14 2t11 3.5t9 6t7 9.5t5.5 12.5t1 17.5q0 26 -14 37.5t-28.5 13.5t-44.5 2h-9h-19v-105h19z" glyph-name="uni2117" horiz-adv-x="1438" unicode="℗"/><glyph d="M84 1159v160h428v-160h-125v-367h-179v367h-124zM1113 792h-174l-9 205l-27 -205h-144l-25 200l-10 -200h-174l34 527h222l27 -285l22 285h224z" glyph-name="trademark" horiz-adv-x="1228" unicode="™"/><glyph d="M350 631v-339q0 -22 15 -38q160 -160 423 -160q299 0 463 181h82q-92 -113 -236.5 -176t-311.5 -63q-285 0 -488 181q-201 179 -201 438q0 258 201 440.5t488 182.5q290 0 492 -182q203 -184 203 -441v-17h-1122q-8 0 -8 -7zM358 695h859q7 0 7 12v317q0 24 -16 41 q-159 159 -420 159q-256 0 -421 -166q-17 -12 -17 -41v-310q-1 -12 8 -12z" glyph-name="estimated" horiz-adv-x="1576" unicode="℮"/><glyph d="M1150 1420l191 -106l-814 -1355l-192 99zM445 736h-206v380l-92 -31l-57 171l233 60h122v-580zM1469 302q80 -49 81 -131q0 -73 -59 -128t-163 -55q-96 0 -157.5 49.5t-61.5 131.5q0 84 79 135q-67 41 -67 119.5t58 125.5t152 47q90 0 149 -48t59 -126q0 -76 -70 -120z M1328 459q-48 0 -48 -53q0 -20 13.5 -34t34.5 -14q24 0 37.5 14t13.5 34q0 53 -51 53zM1328 140q55 0 54 46q0 17 -15 33.5t-39 16.5q-22 0 -36 -16.5t-14 -33.5q1 -46 50 -46z" glyph-name="oneeighth" horiz-adv-x="1640" unicode="⅛"/><glyph d="M1256 1420l191 -106l-814 -1355l-193 99zM519 910q0 -73 -53 -129.5t-195 -56.5q-31 0 -64 6.5t-51.5 13.5t-44.5 17t-27 12l128 123h25t21.5 1t12.5 1q32 0 38 18q2 2 2 4l-2 2q-5 19 -38 18q-3 0 -13.5 3.5t-25.5 5.5l-49 143l3 4l39 29l-90 -7v198h375v-169l-104 -97 q55 -19 84 -57.5t29 -82.5zM309 922l2 -2q-2 0 -2 -4v2v4zM1575 302q80 -49 80 -131q0 -73 -58.5 -128t-162.5 -55q-96 0 -157.5 49.5t-61.5 131.5q0 84 79 135q-67 41 -67 119.5t58 125.5t152 47q90 0 149 -48t59 -126q0 -76 -70 -120zM1434 459q-48 0 -48 -53 q0 -20 13.5 -34t34.5 -14q24 0 37.5 14t13.5 34q0 53 -51 53zM1434 140q55 0 54 46q0 17 -15.5 33.5t-38.5 16.5q-22 0 -36 -16.5t-14 -33.5q1 -46 50 -46z" glyph-name="threeeighths" horiz-adv-x="1745" unicode="⅜"/><glyph d="M1171 1420l191 -106l-814 -1355l-193 99zM539 910q0 -75 -52 -129t-176 -54q-34 0 -62.5 4.5t-55 13.5t-39 15t-38.5 20.5t-29 16.5l108 126q51 -32 97 -32q51 0 51 31q0 15 -10 26t-26 11h-2q-2 -2 -5 -3.5t-6 -4.5l-151 92l28 273h321v-193l-161 12l-3 -32 q89 0 150 -54.5t61 -138.5zM1490 302q80 -49 80 -131q0 -73 -59 -128t-163 -55q-96 0 -157 49.5t-61 131.5q0 84 78 135q-67 41 -66.5 119.5t58.5 125.5t152 47q90 0 149 -48t59 -126q0 -76 -70 -120zM1348 459q-48 0 -48 -53q0 -20 14 -34t34 -14q24 0 37.5 14t13.5 34 q0 53 -51 53zM1348 140q55 0 55 46q0 17 -15.5 33.5t-39.5 16.5q-22 0 -35.5 -16.5t-13.5 -33.5q0 -46 49 -46z" glyph-name="fiveeighths" horiz-adv-x="1660" unicode="⅝"/><glyph d="M1068 1420l192 -106l-815 -1355l-192 99zM370 736h-223l191 396l-208 -16v200h406v-171zM1388 302q80 -49 80 -131q0 -73 -59 -128t-163 -55q-96 0 -157.5 49.5t-61.5 131.5q0 84 79 135q-67 41 -67 119.5t58 125.5t152 47q90 0 149 -48t59 -126q1 -76 -69 -120z M1246 459q-48 0 -48 -53q0 -20 13.5 -34t34.5 -14q24 0 37.5 14t13.5 34q0 53 -51 53zM1246 140q55 0 54 46q0 17 -15 33.5t-39 16.5q-22 0 -36 -16.5t-14 -33.5q1 -46 50 -46z" glyph-name="seveneighths" horiz-adv-x="1558" unicode="⅞"/><glyph d="M783 896h-136v-631h136v-265h-635v265h137v631h-137v265h635v-265z" glyph-name="uni2160" horiz-adv-x="931" unicode="Ⅰ"/><glyph d="M1352 896h-139v-631h139v-265h-1204v265h137v631h-137v265h1204v-265zM852 265v631h-205v-631h205z" glyph-name="uni2161" horiz-adv-x="1500" unicode="Ⅱ"/><glyph d="M1917 896h-137v-631h137v-265h-1769v265h137v631h-137v265h1769v-265zM647 265h205v631h-205v-631zM1418 265v631h-205v-631h205z" glyph-name="uni2162" horiz-adv-x="2065" unicode="Ⅲ"/><glyph d="M1589 1161h430l-423 -1161h-453l-326 896h-170v-631h136v-265h-635v265h137v631h-137v265h1001l221 -809z" glyph-name="uni2163" horiz-adv-x="2073" unicode="Ⅳ"/><glyph d="M1348 1161l-423 -1161h-452l-424 1161h429l220 -809l220 809h430z" glyph-name="uni2164" horiz-adv-x="1402" unicode="Ⅴ"/><glyph d="M1920 896h-137v-631h137v-265h-635v265h137v631h-171l-326 -896h-452l-424 1161h431l218 -809l222 809h1000v-265z" glyph-name="uni2165" horiz-adv-x="2066" unicode="Ⅵ"/><glyph d="M2488 896h-138v-631h138v-265h-1203v265h137v631h-171l-326 -896h-452l-424 1161h431l218 -809l222 809h1568v-265zM1988 265v631h-205v-631h205z" glyph-name="uni2166" horiz-adv-x="2635" unicode="Ⅶ"/><glyph d="M3048 896h-136v-631h136v-265h-1763v265h137v631h-171l-326 -896h-452l-424 1161h431l218 -809l222 809h2128v-265zM1783 265h205v631h-205v-631zM2550 265v631h-200v-631h200z" glyph-name="uni2167" horiz-adv-x="3194" unicode="Ⅷ"/><glyph d="M1372 560l360 -560h-384l-157 258l-135 -258h-908v265h137v631h-137v265h864l172 -320l159 320h381zM835 265l175 295l-211 336h-152v-631h188z" glyph-name="uni2168" horiz-adv-x="1766" unicode="Ⅸ"/><glyph d="M53 0l334 560l-378 601h380l172 -320l159 320h381l-352 -601l360 -560h-384l-157 258l-135 -258h-380z" glyph-name="uni2169" horiz-adv-x="1143" unicode="Ⅹ"/><glyph d="M1611 896h-136v-631h136v-265h-908l-136 258l-156 -258h-384l360 560l-351 601h380l159 -320l173 320h863v-265zM1113 265v631h-152l-212 -336l176 -295h188z" glyph-name="uni216A" horiz-adv-x="1757" unicode="Ⅺ"/><glyph d="M2256 896h-138v-631h138v-265h-1531l-157 258l-135 -258h-380l334 560l-378 601h380l172 -320l159 320h1536v-265zM939 265h251v631h-245l-196 -336zM1756 265v631h-205v-631h205z" glyph-name="uni216B" horiz-adv-x="2402" unicode="Ⅻ"/><glyph d="M510 329h473v-329h-835v1161h362v-832z" glyph-name="uni216C" horiz-adv-x="1100" unicode="Ⅼ"/><glyph d="M1123 963l-288 -209q-80 111 -168 111q-104 0 -158.5 -81t-54.5 -199q0 -121 55.5 -202t157.5 -81q96 0 166 114l295 -208q-80 -108 -199.5 -169t-261.5 -61q-242 0 -406.5 172.5t-164.5 434.5q0 261 159.5 432t411.5 171q142 0 261.5 -59.5t194.5 -165.5z" glyph-name="uni216D" horiz-adv-x="1189" unicode="Ⅽ"/><glyph d="M686 1161q276 0 447 -161.5t171 -429.5q0 -258 -172.5 -414t-445.5 -156h-538v1161h538zM686 326q118 0 180 64t62 180q0 118 -64.5 191.5t-177.5 73.5h-177v-509h177z" glyph-name="uni216E" horiz-adv-x="1401" unicode="Ⅾ"/><glyph d="M1565 0h-357l-42 654l-183 -654h-292l-172 597l-43 -597h-363l88 1162h454l183 -667l184 667h454z" glyph-name="uni216F" horiz-adv-x="1686" unicode="Ⅿ"/><glyph d="M1403 792v-271h-835l133 -123l-170 -193l-287 290l-160 164l447 457l170 -181l-148 -143h850z" glyph-name="arrowleft" horiz-adv-x="1486" unicode="←"/><glyph d="M997 872l-193 -171l-123 135v-836h-271v850l-142 -149l-183 171l458 447l164 -160z" glyph-name="arrowup" horiz-adv-x="1085" unicode="↑"/><glyph d="M1403 659l-161 -164l-286 -290l-171 193l133 123h-834v271h850l-149 143l171 181z" glyph-name="arrowright" horiz-adv-x="1471" unicode="→"/><glyph d="M1060 447l-290 -287l-164 -160l-458 447l183 171l142 -149v850h271v-834l123 133z" glyph-name="arrowdown" horiz-adv-x="1210" unicode="↓"/><glyph d="M1683 659l-159 -164l-2 2l-285 -292l-172 193l135 123h-632l133 -123l-170 -193l-287 290l-160 164l447 457l170 -181l-148 -143h662l-150 143l172 181z" glyph-name="arrowboth" horiz-adv-x="1771" unicode="↔"/><glyph d="M819 478l193 -171l-290 -287l-164 -160l-457 447l182 171l142 -149v663l-142 -149l-182 171l457 447l164 -161l290 -286l-193 -171l-123 135v-635z" glyph-name="arrowupdn" horiz-adv-x="1116" unicode="↕"/><glyph d="M1135 287l-193 -193l-592 592l10 -198h-256l4 637l638 8v-251l-214 5z" glyph-name="uni2196" horiz-adv-x="1179" unicode="↖"/><glyph d="M1082 488h-256l10 198l-592 -592l-193 193l603 600l-214 -5v251l639 -8z" glyph-name="uni2197" horiz-adv-x="1179" unicode="↗"/><glyph d="M840 785h251l-9 -638l-637 -4v256l198 -10l-592 592l193 193l601 -602z" glyph-name="uni2198" horiz-adv-x="1196" unicode="↘"/><glyph d="M1143 981l-592 -592l198 10v-256l-636 4l-9 638h251l-5 -213l601 602z" glyph-name="uni2199" horiz-adv-x="1196" unicode="↙"/><glyph d="M577 1234q217 0 336.5 -161.5t119.5 -422.5q0 -138 -29 -256t-89 -213.5t-163 -151t-238 -55.5q-195 0 -298 113t-114 292q-9 125 55.5 218.5t155 136.5t182.5 43q119 0 198 -76q-7 244 -128 244q-84 0 -155 -54l-202 215q67 56 166 92t203 36zM546 265q108 0 137 177 q-56 70 -128 70q-41 0 -69.5 -42.5t-29.5 -90.5q-12 -114 90 -114z" glyph-name="partialdiff" horiz-adv-x="1134" unicode="∂"/><glyph d="M975 782q104 -131 104 -316q0 -85 -29 -168t-87 -158t-163 -121t-242 -46q-177 0 -309 83l-94 -94l-114 117l89 88q-92 125 -92 299q0 230 145.5 365t374.5 135q167 0 294 -79l97 98l114 -115zM341 466q0 -39 11 -77l312 311q-48 31 -106 30q-102 0 -159.5 -82.5 t-57.5 -181.5zM558 208q99 0 158 82t59 176q0 49 -16 101l-319 -320q51 -39 118 -39z" glyph-name="emptyset" horiz-adv-x="1105" unicode="∅"/><glyph d="M1017 1319h33v-1319h-369v986h-181v-986h-369v1319h35v4h851v-4z" glyph-name="product" horiz-adv-x="1153" unicode="∏"/><glyph d="M903 1161v-347l-398 27l207 -394l-209 -403l400 29v-348h-748v295h2l218 425l-220 420v296h748z" glyph-name="summation" horiz-adv-x="993" unicode="∑"/><glyph d="M872 860v-310h-730l1 308z" glyph-name="minus" horiz-adv-x="1015" unicode="−"/><glyph d="M968 898q145 0 237 -91.5t92 -233.5q0 -137 -86 -225.5t-221 -88.5q-166 0 -280 132q-123 -131 -277 -132q-131 0 -220.5 90.5t-89.5 229t93 229t238 90.5q162 0 261 -125q101 125 253 125zM422 480q96 0 174 102q-29 56 -61.5 76t-78.5 20q-63 0 -99 -26t-36 -73 q0 -46 29 -72.5t72 -26.5zM995 480q48 0 76 26t28 71q0 48 -35 74.5t-98 26.5q-48 0 -74.5 -21.5t-62.5 -84.5q67 -92 166 -92z" glyph-name="infinity" horiz-adv-x="1421" unicode="∞"/><glyph d="M742 1319h4h-4zM179 754q0 285 138.5 424.5t424.5 140.5v-322h-37q-75 0 -116 -41t-41 -118v-785q0 -287 -138.5 -426t-426.5 -139v323h39q75 0 116 40.5t41 117.5v785z" glyph-name="integral" horiz-adv-x="824" unicode="∫"/><glyph d="M375 746h-206q0 142 86 223.5t192 81.5q72 0 147 -51t119 -51q58 0 58 97h205q0 -164 -76 -237t-185 -73q-61 0 -110 28t-84.5 57t-68.5 29q-44 0 -60.5 -25.5t-16.5 -78.5zM375 391h-206q0 142 86 223.5t192 81.5q72 0 147 -51t119 -51q58 0 58 97h205q0 -164 -76 -237 t-185 -73q-48 0 -89 17.5t-64.5 39t-52.5 39.5t-57 18q-44 0 -60.5 -25.5t-16.5 -78.5z" glyph-name="approxequal" horiz-adv-x="1141" unicode="≈"/><glyph d="M867 746h-224l-56 -115h280v-273h-410l-109 -227l-141 76l73 151h-113l2 272h241l54 116h-297l2 271l427 2l102 213l142 -75l-67 -138h94v-273z" glyph-name="notequal" horiz-adv-x="1088" unicode="≠"/><glyph d="M826 579l-58 -244l-579 98v340l579 143l48 -250l-371 -55zM860 273l2 -206h-673v208z" glyph-name="lessequal" horiz-adv-x="962" unicode="≤"/><glyph d="M195 916l576 -143v-340l-576 -98l-60 244l380 32l-368 55zM99 67l2 206l670 2v-208h-672z" glyph-name="greaterequal" horiz-adv-x="962" unicode="≥"/><glyph d="M633 1161l430 -591l-430 -570h-68l-430 570l430 591h68zM604 362l130 213l-133 224h-4l-133 -226l130 -211h10z" glyph-name="lozenge" horiz-adv-x="1196" unicode="◊"/><glyph d="M642 331l-299 -85l-14 307l-167 256l289 118l191 234l191 -234l288 -118l-170 -256l-11 -307z" glyph-name="uni2605" horiz-adv-x="1285" unicode="★"/><glyph d="M642 331l-299 -85l-14 307l-167 256l289 118l191 234l191 -234l288 -118l-170 -256l-11 -307zM642 541l104 -17l17 104l48 96l-96 49l-73 72l-75 -72l-94 -49l46 -96l19 -104z" glyph-name="uni2606" horiz-adv-x="1285" unicode="☆"/><glyph d="M1502 302l53 -273q-389 -137 -492 114q-135 -172 -418 -172q-237 0 -393 195.5t-156 496t151.5 493t397.5 192.5q249 0 384 -135v106h355v-920q0 -116 118 -97zM744 300q143 0 214 100t71 262q0 164 -74 262t-211 98q-145 0 -216 -101.5t-71 -258.5q0 -160 72 -261 t215 -101z" glyph-name="uni2C6D" horiz-adv-x="1619" unicode="Ɑ"/><glyph d="M63 1319h1072v-326h-1072v326zM63 536v326h1072v-326h-357v-536h-355v536h-360z" glyph-name="uni3012" horiz-adv-x="1203" unicode="〒"/><glyph d="M1027 973q51 -171 52 -398q0 -58 -14 -118q-3 -9 -9 -1q-9 19 -21.5 35t-20.5 24l-10 7q2 -3 5 -9t11.5 -25t12 -36t5 -43.5t-6.5 -48.5q-17 -48 -58 -84q-7 -3 -7 4q-2 17 -8 30.5t-11 20.5l-5 5q0 -5 -1 -12.5t-8.5 -31.5t-18.5 -46t-36.5 -51t-60.5 -52q-2 0 -4 -1.5 l-4 -3t-3 -1.5q-5 -3 -8.5 -1t-0.5 7q5 12 7.5 23t1.5 17v5q-5 -9 -15.5 -24.5t-50.5 -45t-88 -43.5q-48 14 -87 42t-55 50l-15 21q-5 -19 7 -45q2 -5 0 -7.5t-7 1.5q-3 2 -6.5 4t-7.5 2q-55 36 -85.5 84t-33.5 78l-5 31q-19 -19 -24 -56q0 -7 -7 -4q-41 34 -56 84 q-10 43 -4.5 78.5t17.5 59.5l14 24q-34 -26 -53 -66q-9 -10 -10 1q-14 60 -14 118q0 101 13 201t26 149l12 48q3 15 12 17q114 31 210 43l14 34q2 2 3 1q44 -15 62 -10q38 9 75 75q2 3 5 0q38 -67 75 -75q22 -5 61 10q3 0 4 -1l14 -34q68 -9 209 -43q9 -3 12 -17zM442 975 q-2 0 3.5 -26.5t10.5 -54.5l5 -27q41 39 95 39h4q14 0 27 -5q24 -7 40 -24t22 -30l3 -12q2 3 3.5 7.5t4 18t0.5 23.5q20 12 40 18t36.5 5t31.5 -4.5t25.5 -9.5t19 -11.5t13.5 -11.5l3 -3l16 111l-58 -44l-29 87l-58 -58l-57 100l-59 -97l-52 58l-30 -92zM377 823 q20 -2 31 -21q15 15 41 26q-5 10 -16 17.5t-20 11.5l-10 1l22 14q-56 14 -85 -39q-14 -29 -9.5 -53t15.5 -39l12 -14q3 17 16 36q9 15 9.5 29.5t-2.5 23.5zM930 727q5 5 11 14.5t15.5 38.5t-7.5 53q-14 24 -35 33.5t-37 7.5l-13 -2l22 -14q-34 -9 -46 -30q24 -10 42 -26 q5 9 12 14t12 7h5q-15 -24 4 -58zM843 561q9 0 17.5 -5t13.5 -10l3 -5q0 58 -39 82q2 7 4.5 17t1.5 39t-9.5 51.5t-36.5 43.5t-73 26l16 21q-63 7 -98 -46q-15 24 -39.5 35t-40.5 11h-17q15 -14 15 -21q-70 -9 -98 -53t-21 -85l7 -39q-17 -10 -27.5 -30.5t-11.5 -36.5v-15 q15 20 34 20q-3 -5 -7.5 -13.5t-9 -39t11.5 -61.5l20 -37q20 24 44 42q-19 31 -18 58q0 48 42 87q-24 -41 -18 -82q12 -39 32 -39q10 0 46 25.5t41 39.5q10 27 2 50q-12 10 -28.5 17.5t-26.5 9.5l-10 3q7 20 22 29q7 3 28.5 -2.5t28 -5.5t28 6t28.5 2.5t12 -11.5t7 -13l1 -5 q-39 -7 -63 -30q-3 -5 -2.5 -21.5t5.5 -28.5q3 -14 39.5 -39.5t48.5 -25.5q7 0 17 13t13 26q5 41 -19 82q41 -38 41 -87q0 -12 -4 -26.5t-8 -22.5l-5 -9l45 -42q10 14 19 37q12 36 11.5 61.5t-8.5 39.5zM507 707l-26 15q60 -3 94 -15q-3 -17 -13.5 -36t-18.5 -29l-7 -12 l3 30h-10q-12 0 -21.5 9t-9.5 19t9 19zM751 630q-27 32 -38 77q15 5 38.5 9t40.5 4l15 2l-24 -14q5 -10 5 -17q0 -29 -30 -29q-2 0 -5.5 1t-4.5 1zM701 369q14 12 22.5 29t10.5 27v10q-17 24 -48 48t-43 24t-42.5 -24t-45.5 -48q-5 -39 27 -60v14q31 -24 61 -24q14 0 35 7 q22 10 22 27q3 -7 4 -14.5t-1 -12.5z" glyph-name="uniF8FF" horiz-adv-x="1298" unicode=""/><glyph d="M744 1348q287 0 465.5 -190t178.5 -496q0 -302 -175 -496.5t-469 -194.5q-285 0 -466.5 194.5t-181.5 496.5t177 494t471 192zM451 942l184 -113l10 14q10 14 18 22.5t20.5 20.5t29 18t33.5 6q10 0 25.5 -4.5t33.5 -22.5t18 -48q0 -53 -41 -76t-154 -23l38 -244h170 l21 88q205 48 205 251q0 119 -86.5 198t-229.5 79q-106 0 -183.5 -48t-111.5 -118zM747.5 389q-39.5 0 -64 -25.5t-24.5 -68.5q0 -41 24.5 -69t65.5 -28q38 0 63.5 29t25.5 68q0 41 -25.5 67.5t-65 26.5z" glyph-name="uniFFFD" horiz-adv-x="1484" unicode="�"/><glyph d="M881 0q-20 164 -36 251h-381q-9 -53 -32 -251h-383q5 26 37.5 175t46.5 204.5t50.5 196.5t67.5 236.5t81 233.5t108 273h432q140 -346 214.5 -610t174.5 -709h-380zM531 587h240q-51 193 -117 391q-79 -215 -123 -391z" glyph-name="A.salt" horiz-adv-x="1317"/><glyph d="M1014 1543l-451 -94l-46 116l408 230zM881 0q-20 164 -36 251h-381q-9 -53 -32 -251h-383q5 26 37.5 175t46.5 204.5t50.5 196.5t67.5 236.5t81 233.5t108 273h432q140 -346 214.5 -610t174.5 -709h-380zM531 587h240q-51 193 -117 391q-79 -215 -123 -391z" glyph-name="Aacute.salt" horiz-adv-x="1317"/><glyph d="M660 1440q-131 0 -200 64t-67 196h203q0 -5 -2.5 -24t14.5 -40t52.5 -21t53.5 21t15.5 40t-0.5 24h203q2 -113 -59 -186.5t-213 -73.5zM881 0q-20 164 -36 251h-381q-9 -53 -32 -251h-383q5 26 37.5 175t46.5 204.5t50.5 196.5t67.5 236.5t81 233.5t108 273h432 q140 -346 214.5 -610t174.5 -709h-380zM531 587h240q-51 193 -117 391q-79 -215 -123 -391z" glyph-name="Abreve.salt" horiz-adv-x="1317"/><glyph d="M707 1440h-82l-285 234l83 118l241 -96l247 96l81 -118zM881 0q-20 164 -36 251h-381q-9 -53 -32 -251h-383q5 26 37.5 175t46.5 204.5t50.5 196.5t67.5 236.5t81 233.5t108 273h432q140 -346 214.5 -610t174.5 -709h-380zM531 587h240q-51 193 -117 391 q-79 -215 -123 -391z" glyph-name="uni01CD.salt" horiz-adv-x="1317"/><glyph d="M660 1519l-240 -94l-84 118l285 234h82l285 -234l-80 -118zM881 0q-20 164 -36 251h-381q-9 -53 -32 -251h-383q5 26 37.5 175t46.5 204.5t50.5 196.5t67.5 236.5t81 233.5t108 273h432q140 -346 214.5 -610t174.5 -709h-380zM531 587h240q-51 193 -117 391 q-79 -215 -123 -391z" glyph-name="Acircumflex.salt" horiz-adv-x="1317"/><glyph d="M502 1434q-56 0 -90.5 38t-34.5 96q0 61 33.5 96.5t91.5 35.5q55 0 89.5 -36t34.5 -96q0 -53 -34.5 -93.5t-89.5 -40.5zM834.5 1434q-56.5 0 -90.5 38t-34 96q0 61 33.5 96.5t91.5 35.5q56 0 91 -36t35 -96q0 -53 -35 -93.5t-91.5 -40.5zM881 0q-20 164 -36 251h-381 q-9 -53 -32 -251h-383q5 26 37.5 175t46.5 204.5t50.5 196.5t67.5 236.5t81 233.5t108 273h432q140 -346 214.5 -610t174.5 -709h-380zM531 587h240q-51 193 -117 391q-79 -215 -123 -391z" glyph-name="Adieresis.salt" horiz-adv-x="1317"/><glyph d="M788 1565l-47 -116l-451 94l89 252zM881 0q-20 164 -36 251h-381q-9 -53 -32 -251h-383q5 26 37.5 175t46.5 204.5t50.5 196.5t67.5 236.5t81 233.5t108 273h432q140 -346 214.5 -610t174.5 -709h-380zM531 587h240q-51 193 -117 391q-79 -215 -123 -391z" glyph-name="Agrave.salt" horiz-adv-x="1317"/><glyph d="M968 1647v-198h-598v198h598zM881 0q-20 164 -36 251h-381q-9 -53 -32 -251h-383q5 26 37.5 175t46.5 204.5t50.5 196.5t67.5 236.5t81 233.5t108 273h432q140 -346 214.5 -610t174.5 -709h-380zM531 587h240q-51 193 -117 391q-79 -215 -123 -391z" glyph-name="Amacron.salt" horiz-adv-x="1317"/><glyph d="M954 -236q32 0 68 28l50 -99q-63 -68 -157 -77q-89 -5 -137.5 37.5t-45.5 116.5q0 53 44.5 118.5t104.5 113.5q-20 159 -36 249h-381q-9 -53 -32 -251h-383q5 26 37.5 175t46.5 204.5t50.5 196.5t67.5 236.5t81 233.5t108 273h432q140 -346 214.5 -610t174.5 -709h-254 q-61 -84 -81 -119.5t-20 -68.5q0 -48 48 -48zM531 587h240q-51 193 -117 391q-79 -215 -123 -391z" glyph-name="Aogonek.salt" horiz-adv-x="1317"/><glyph d="M660 1406q-90 0 -146.5 62.5t-56.5 157.5q0 101 55 158t148 57q90 0 146 -59.5t56 -155.5q0 -90 -56.5 -155t-145.5 -65zM660 1702q-31 0 -49.5 -21.5t-18.5 -54t19 -54.5t49.5 -22t48.5 22t18 54q0 31 -20 53.5t-47 22.5zM881 0q-20 164 -36 251h-381q-9 -53 -32 -251 h-383q5 26 37.5 175t46.5 204.5t50.5 196.5t67.5 236.5t81 233.5t108 273h432q140 -346 214.5 -610t174.5 -709h-380zM531 587h240q-51 193 -117 391q-79 -215 -123 -391z" glyph-name="Aring.salt" horiz-adv-x="1317"/><glyph d="M531 1514q-72 0 -72 -104h-191q0 135 79.5 215t176.5 80q65 0 130.5 -51t103.5 -51q29 0 38.5 23.5t9.5 73.5h192q0 -155 -69 -227t-168 -72q-55 0 -98 28t-74 56.5t-58 28.5zM881 0q-20 164 -36 251h-381q-9 -53 -32 -251h-383q5 26 37.5 175t46.5 204.5t50.5 196.5 t67.5 236.5t81 233.5t108 273h432q140 -346 214.5 -610t174.5 -709h-380zM531 587h240q-51 193 -117 391q-79 -215 -123 -391z" glyph-name="Atilde.salt" horiz-adv-x="1317"/><glyph d="M1388 780v-80q0 -331 -167.5 -527.5t-474.5 -196.5q-300 0 -475 188.5t-175 501.5q0 323 183.5 505t473.5 182q232 0 385.5 -106.5t187.5 -246.5l-331 -133q-20 44 -35.5 70.5t-44 59t-70 48t-96.5 15.5q-135 0 -210 -110t-75 -298q0 -379 275 -379q207 0 261 213h-363 v294h751z" glyph-name="G.salt" horiz-adv-x="1484"/><glyph d="M739 1440q-131 0 -200.5 64t-67.5 196h203q0 -5 -2.5 -24t14.5 -40t53 -21t54 21t15.5 40t-1.5 24h203q2 -113 -58.5 -186.5t-212.5 -73.5zM1388 780v-80q0 -331 -167.5 -527.5t-474.5 -196.5q-300 0 -475 188.5t-175 501.5q0 323 183.5 505t473.5 182 q232 0 385.5 -106.5t187.5 -246.5l-331 -133q-20 44 -35.5 70.5t-44 59t-70 48t-96.5 15.5q-135 0 -210 -110t-75 -298q0 -379 275 -379q207 0 261 213h-363v294h751z" glyph-name="Gbreve.salt" horiz-adv-x="1484"/><glyph d="M785 1440h-82l-285 234l84 118l240 -96l248 96l80 -118zM1388 780v-80q0 -331 -167.5 -527.5t-474.5 -196.5q-300 0 -475 188.5t-175 501.5q0 323 183.5 505t473.5 182q232 0 385.5 -106.5t187.5 -246.5l-331 -133q-20 44 -35.5 70.5t-44 59t-70 48t-96.5 15.5 q-135 0 -210 -110t-75 -298q0 -379 275 -379q207 0 261 213h-363v294h751z" glyph-name="Gcaron.salt" horiz-adv-x="1484"/><glyph d="M1388 780v-80q0 -331 -167.5 -527.5t-474.5 -196.5q-300 0 -475 188.5t-175 501.5q0 323 183.5 505t473.5 182q232 0 385.5 -106.5t187.5 -246.5l-331 -133q-20 44 -35.5 70.5t-44 59t-70 48t-96.5 15.5q-135 0 -210 -110t-75 -298q0 -379 275 -379q207 0 261 213h-363 v294h751zM741 -116q82 0 125.5 -57t43.5 -151q0 -113 -63.5 -187t-194.5 -91l-32 105q65 10 95.5 23t43.5 44h-18q-67 0 -107 43.5t-40 111.5q0 73 40 116t107 43z" glyph-name="Gcommaaccent.salt" horiz-adv-x="1484"/><glyph d="M741 1379q-82 0 -134 57t-52 144q0 90 50 143.5t136 53.5q84 0 135 -54t51 -143q0 -80 -51 -140.5t-135 -60.5zM1388 780v-80q0 -331 -167.5 -527.5t-474.5 -196.5q-300 0 -475 188.5t-175 501.5q0 323 183.5 505t473.5 182q232 0 385.5 -106.5t187.5 -246.5l-331 -133 q-20 44 -35.5 70.5t-44 59t-70 48t-96.5 15.5q-135 0 -210 -110t-75 -298q0 -379 275 -379q207 0 261 213h-363v294h751z" glyph-name="Gdotaccent.salt" horiz-adv-x="1484"/><glyph d="M505 0h-362v1319h362v-1319zM188 -375l239 192q39 -51 56 -70.5t50.5 -40t74.5 -20.5q160 0 160 208v1425h362v-1473q0 -464 -487 -464q-160 0 -280 72t-175 171z" glyph-name="IJ.aalt" horiz-adv-x="1276"/><glyph d="M585 1319v-1324q0 -123 -35 -226.5t-95.5 -176.5t-122.5 -122t-134 -84l-152 320l5 4q3 2 12.5 7t21 12.5t24 19.5t25.5 26.5t25 35t21 42t14.5 50.5t5.5 59v1357h385z" glyph-name="J.salt" horiz-adv-x="732"/><glyph d="M1594 0h-362q-20 336 -40 498t-60 326l-175 -824h-233l-159 804q-19 -58 -34.5 -132.5t-24.5 -134t-20.5 -151t-15.5 -136.5t-11.5 -138t-9.5 -112h-360q3 249 71.5 616t182.5 705h420l78 -570l82 570h413q92 -254 151 -536.5t75.5 -431t31.5 -353.5z" glyph-name="M.salt" horiz-adv-x="1684"/><glyph d="M1195 1543l-451 -94l-46 116l408 230zM1594 0h-362q-20 336 -40 498t-60 326l-175 -824h-233l-159 804q-19 -58 -34.5 -132.5t-24.5 -134t-20.5 -151t-15.5 -136.5t-11.5 -138t-9.5 -112h-360q3 249 71.5 616t182.5 705h420l78 -570l82 570h413q92 -254 151 -536.5 t75.5 -431t31.5 -353.5z" glyph-name="uni1E3E.salt" horiz-adv-x="1684"/><glyph d="M937 1319h367v-1319h-374q0 82 -20.5 153t-66.5 136.5t-92 115t-121 121.5q-60 51 -113 102v-628h-369v1319h376q0 -143 78.5 -267.5t232.5 -266.5q34 -31 102 -94v628z" glyph-name="N.salt" horiz-adv-x="1452"/><glyph d="M1099 1543l-450 -94l-47 116l408 230zM937 1319h367v-1319h-374q0 82 -20.5 153t-66.5 136.5t-92 115t-121 121.5q-60 51 -113 102v-628h-369v1319h376q0 -143 78.5 -267.5t232.5 -266.5q34 -31 102 -94v628z" glyph-name="Nacute.salt" horiz-adv-x="1452"/><glyph d="M792 1440h-82l-285 234l84 118l240 -96l248 96l80 -118zM937 1319h367v-1319h-374q0 82 -20.5 153t-66.5 136.5t-92 115t-121 121.5q-60 51 -113 102v-628h-369v1319h376q0 -143 78.5 -267.5t232.5 -266.5q34 -31 102 -94v628z" glyph-name="Ncaron.salt" horiz-adv-x="1452"/><glyph d="M937 1319h367v-1319h-374q0 82 -20.5 153t-66.5 136.5t-92 115t-121 121.5q-60 51 -113 102v-628h-369v1319h376q0 -143 78.5 -267.5t232.5 -266.5q34 -31 102 -94v628zM761 -116q82 0 125.5 -57t43.5 -151q0 -113 -63 -187t-195 -91l-32 105q65 10 95.5 23t44.5 44h-19 q-67 0 -107 43.5t-40 111.5q0 73 40 116t107 43z" glyph-name="Ncommaaccent.salt" horiz-adv-x="1452"/><glyph d="M1246 -160l165 -168q-31 -60 -114.5 -127t-170.5 -67q-90 0 -159 25.5t-106.5 56t-101.5 56.5t-146 26q-53 0 -98 -21l-97 -73l-113 111v1l-63 64l347 261q-224 51 -358.5 234.5t-134.5 439.5q0 300 179 494t469 194q288 0 466.5 -191.5t178.5 -496.5q0 -189 -73.5 -341 t-206.5 -243l-268 -205q14 -7 59 -32.5t65 -35t55.5 -20.5t68.5 -11q82 1 157 69zM464 658.5q0 -155.5 72 -255t208 -99.5q135 0 207.5 100.5t72.5 254.5q0 157 -75 256t-205 99q-138 0 -209 -100t-71 -255.5zM1246 -160z" glyph-name="Q.salt" horiz-adv-x="1508"/><glyph d="M1207 840q0 -331 -285 -427q82 -70 271 -70v-343q-184 0 -305.5 33.5t-166.5 73.5t-101.5 100.5t-102.5 89.5v-297h-369v1316h453q312 0 459 -127t147 -349zM601 997h-84v-319h84q48 0 63 0.5t51 4t49.5 13t32.5 26.5t25.5 46t6.5 68q0 46 -14.5 78.5t-31.5 49t-53.5 24 t-58.5 8.5t-70 1z" glyph-name="R.salt" horiz-adv-x="1262"/><glyph d="M1283 1318q-43 -225 -80 -389t-121 -424.5t-195 -504.5h-442q-263 580 -396 1318h422q7 -150 68.5 -480.5t126.5 -525.5q73 258 198 1006h419z" glyph-name="V.salt" horiz-adv-x="1338"/><glyph d="M1575 1318q-3 -249 -71.5 -613.5t-182.5 -704.5h-406l-92 473l-96 -473h-399q-92 254 -151 535t-75.5 430t-31.5 353h384q5 -75 7 -200.5t15.5 -230t55.5 -329.5l175 761h233l169 -768q29 108 47 273.5t26 319t11 174.5h382z" glyph-name="W.salt" horiz-adv-x="1646"/><glyph d="M725 1449l-46 116l408 230l89 -252zM1575 1318q-3 -249 -71.5 -613.5t-182.5 -704.5h-406l-92 473l-96 -473h-399q-92 254 -151 535t-75.5 430t-31.5 353h384q5 -75 7 -200.5t15.5 -230t55.5 -329.5l175 761h233l169 -768q29 108 47 273.5t26 319t11 174.5h382z" glyph-name="Wacute.salt" horiz-adv-x="1646"/><glyph d="M783 1777h82l285 -234l-80 -118l-247 94l-241 -94l-84 118zM1575 1318q-3 -249 -71.5 -613.5t-182.5 -704.5h-406l-92 473l-96 -473h-399q-92 254 -151 535t-75.5 430t-31.5 353h384q5 -75 7 -200.5t15.5 -230t55.5 -329.5l175 761h233l169 -768q29 108 47 273.5t26 319 t11 174.5h382z" glyph-name="Wcircumflex.salt" horiz-adv-x="1646"/><glyph d="M664 1700q55 0 89.5 -36t34.5 -96q0 -53 -34.5 -93.5t-89.5 -40.5q-56 0 -90.5 38t-34.5 96q0 61 33.5 96.5t91.5 35.5zM997 1700q56 0 91 -36t35 -96q0 -53 -35 -93.5t-91.5 -40.5t-90.5 38t-34 96q0 61 33.5 96.5t91.5 35.5zM1575 1318q-3 -249 -71.5 -613.5 t-182.5 -704.5h-406l-92 473l-96 -473h-399q-92 254 -151 535t-75.5 430t-31.5 353h384q5 -75 7 -200.5t15.5 -230t55.5 -329.5l175 761h233l169 -768q29 108 47 273.5t26 319t11 174.5h382z" glyph-name="Wdieresis.salt" horiz-adv-x="1646"/><glyph d="M903 1449l-451 94l89 252l410 -230zM1575 1318q-3 -249 -71.5 -613.5t-182.5 -704.5h-406l-92 473l-96 -473h-399q-92 254 -151 535t-75.5 430t-31.5 353h384q5 -75 7 -200.5t15.5 -230t55.5 -329.5l175 761h233l169 -768q29 108 47 273.5t26 319t11 174.5h382z" glyph-name="Wgrave.salt" horiz-adv-x="1646"/><glyph d="M1246 1318q-41 -148 -67.5 -230.5t-81 -175.5t-101.5 -154.5t-170 -213.5h-10v-544h-367v544h-2q-41 60 -110 155.5t-94 134t-67.5 115.5t-75 160.5t-73.5 208.5h388q56 -220 101 -324.5t121 -208.5q92 113 131 215.5t89 317.5h389z" glyph-name="Y.salt" horiz-adv-x="1278"/><glyph d="M990 1543l-451 -94l-46 116l408 230zM1246 1318q-41 -148 -67.5 -230.5t-81 -175.5t-101.5 -154.5t-170 -213.5h-10v-544h-367v544h-2q-41 60 -110 155.5t-94 134t-67.5 115.5t-75 160.5t-73.5 208.5h388q56 -220 101 -324.5t121 -208.5q92 113 131 215.5t89 317.5h389z " glyph-name="Yacute.salt" horiz-adv-x="1278"/><glyph d="M637 1519l-241 -94l-84 118l285 234h82l285 -234l-80 -118zM1246 1318q-41 -148 -67.5 -230.5t-81 -175.5t-101.5 -154.5t-170 -213.5h-10v-544h-367v544h-2q-41 60 -110 155.5t-94 134t-67.5 115.5t-75 160.5t-73.5 208.5h388q56 -220 101 -324.5t121 -208.5 q92 113 131 215.5t89 317.5h389z" glyph-name="Ycircumflex.salt" horiz-adv-x="1278"/><glyph d="M478 1434q-56 0 -90.5 38t-34.5 96q0 61 33.5 96.5t91.5 35.5q55 0 89.5 -36t34.5 -96q0 -53 -34.5 -93.5t-89.5 -40.5zM810.5 1434q-56.5 0 -90.5 38t-34 96q0 61 33.5 96.5t91.5 35.5q56 0 91 -36t35 -96q0 -53 -35 -93.5t-91.5 -40.5zM1246 1318 q-41 -148 -67.5 -230.5t-81 -175.5t-101.5 -154.5t-170 -213.5h-10v-544h-367v544h-2q-41 60 -110 155.5t-94 134t-67.5 115.5t-75 160.5t-73.5 208.5h388q56 -220 101 -324.5t121 -208.5q92 113 131 215.5t89 317.5h389z" glyph-name="Ydieresis.salt" horiz-adv-x="1278"/><glyph d="M765 1565l-48 -116l-451 94l89 252zM1246 1318q-41 -148 -67.5 -230.5t-81 -175.5t-101.5 -154.5t-170 -213.5h-10v-544h-367v544h-2q-41 60 -110 155.5t-94 134t-67.5 115.5t-75 160.5t-73.5 208.5h388q56 -220 101 -324.5t121 -208.5q92 113 131 215.5t89 317.5h389z " glyph-name="Ygrave.salt" horiz-adv-x="1278"/><glyph d="M507 1514q-72 0 -72 -104h-191q0 135 79.5 215t176.5 80q65 0 130.5 -51t103.5 -51q29 0 38.5 23.5t9.5 73.5h193q0 -155 -69.5 -227t-168.5 -72q-55 0 -98 28t-74 56.5t-58 28.5zM1246 1318q-41 -148 -67.5 -230.5t-81 -175.5t-101.5 -154.5t-170 -213.5h-10v-544h-367 v544h-2q-41 60 -110 155.5t-94 134t-67.5 115.5t-75 160.5t-73.5 208.5h388q56 -220 101 -324.5t121 -208.5q92 113 131 215.5t89 317.5h389z" glyph-name="uni1EF8.salt" horiz-adv-x="1278"/><glyph d="M522 966q203 0 345.5 -130.5t142.5 -355.5v-480h-286l-50 111q-80 -145 -266 -145q-155 0 -239.5 92t-84.5 227q0 150 90.5 228.5t258.5 78.5q121 0 221 -41q0 49 -43.5 76t-118.5 27q-97 0 -227 -31l-106 290q215 53 363 53zM841 437q3 3 4 14zM536 229q75 0 104 109 q-51 24 -99 24q-89 0 -89 -67q0 -22 20.5 -44t63.5 -22z" glyph-name="a.salt" horiz-adv-x="1165"/><glyph d="M304 1396q84 0 135 -53.5t51 -142.5q0 -80 -51.5 -141t-134.5 -61q-82 0 -134 57.5t-52 144.5q0 90 50.5 143t135.5 53zM483 0h-357v939h357v-939z" glyph-name="i.locl" horiz-adv-x="609"/><glyph d="M456 0h-357v1430h357v-1430z" glyph-name="l.salt" horiz-adv-x="587"/><glyph d="M179 1580l-46 116l408 231l89 -253zM456 0h-357v1430h357v-1430z" glyph-name="lacute.salt" horiz-adv-x="587"/><glyph d="M608 954l-115 51l125 451l240 -115zM456 0h-357v1430h357v-1430z" glyph-name="lcaron.salt" horiz-adv-x="587"/><glyph d="M99 1430h357v-1430h-357v1430zM282 -116q82 0 125.5 -57t43.5 -151q0 -113 -63.5 -187t-194.5 -91l-33 105q65 10 96 23t44 44h-18q-67 0 -107 43.5t-40 111.5q0 73 40 116t107 43z" glyph-name="lcommaaccent.salt" horiz-adv-x="587"/><glyph d="M730 1033v-272l-129 -58v-703h-355v544l-147 -64v271l147 65v614h355v-455z" glyph-name="lslash.salt" horiz-adv-x="861"/></font>
</defs>
</svg>
