<svg xmlns="http://www.w3.org/2000/svg">
<defs>
<font horiz-adv-x="1506" id="ywftsvg"><font-face ascent="1638" bbox="-947 -990 3169 2181.17" cap-height="1319" descent="-410" font-family="" font-stretch="normal" font-weight="900" panose-1="2 11 0 3 5 4 1 2 5 4" underline-position="0" underline-thickness="0" unicode-range="U+0020-FFFD" units-per-em="2048" x-height="937"/><missing-glyph d="M1070 973q51 -171 51 -398q0 -58 -13 -118q-3 -9 -9 -1q-9 19 -21.5 35t-22.5 24l-9 7q2 -3 5.5 -9t12 -25t12 -36t5 -43.5t-7.5 -48.5q-17 -48 -58 -84q-7 -3 -6 4q-2 17 -8 30.5t-11 20.5l-5 5q0 -5 -1 -12.5t-8.5 -31.5t-19 -46t-37 -51t-59.5 -52q-3 -2 -6.5 -4 t-5.5 -2q-5 -3 -8.5 -1t0.5 7q5 12 7.5 23t2.5 17l-2 5q-5 -9 -15 -24.5t-50.5 -45t-87.5 -43.5q-48 14 -87.5 42t-54.5 50l-15 21q-5 -19 6 -45q2 -5 0.5 -7.5t-6.5 1.5q-2 2 -7 4t-7 2q-55 36 -86.5 84t-34.5 78l-4 31q-19 -19 -24 -56q0 -7 -6 -4q-41 34 -57 84 q-10 43 -4 78.5t20 59.5l12 24q-34 -26 -53 -66q-9 -10 -11 1q-14 60 -13 118q0 101 12.5 201t24.5 149l14 48q3 15 12 17q114 31 210 43l14 34q2 2 3 1q44 -15 61 -10q38 9 75 75q3 3 6 0q38 -67 75 -75q22 -5 61 10q3 0 4 -1l13 -34q68 -9 210 -43q9 -3 12 -17zM485 975 q-2 0 3 -26.5t10 -54.5l5 -27q41 39 96 39h3q15 0 28 -5q24 -7 40 -24t19 -30l6 -12q2 3 3.5 7.5t4 18t0.5 23.5q20 12 40 18t36 5t31.5 -4.5t26 -9.5t19 -11.5t11.5 -11.5l5 -3l15 111l-58 -44l-29 87l-58 -58l-56 100l-60 -97l-51 58l-31 -92zM420 823q20 -2 31 -21 q15 15 41 26q-5 10 -16.5 17.5t-21.5 11.5l-9 1l23 14q-56 14 -86 -39q-14 -29 -9.5 -53t16.5 -39l12 -14q3 17 15 36q9 15 10 29.5t-3 23.5zM973 727q5 5 11 14.5t15.5 38.5t-7.5 53q-14 24 -35.5 33.5t-34.5 7.5l-16 -2l22 -14q-34 -9 -46 -30q24 -10 43 -26q5 9 12 14 t12 7h5q-15 -24 3 -58zM886 561q9 0 17 -5t12 -10l5 -5q0 58 -39 82q2 7 4 17t1.5 39t-9 51.5t-37 43.5t-72.5 26l15 21q-63 7 -97 -46q-15 24 -40 35t-42 11h-15q15 -14 15 -21q-70 -9 -98 -53t-21 -85l7 -39q-17 -10 -27.5 -30.5t-10.5 -36.5l-2 -15q15 20 34 20 q-3 -5 -7.5 -13.5t-8.5 -39t11 -61.5l21 -37q20 24 44 42q-19 31 -19 58q0 48 43 87q-24 -41 -19 -82q12 -39 33 -39q10 0 46 25.5t41 39.5q10 27 1 50q-12 10 -28 17.5t-26 9.5
<glyph d="M1601 1155q-34 12 -48 16.5t-46 10.5t-50 -2t-41 -24t-38.5 -52t-25.5 -89l-14 -76h193l-53 -304h-195l-186 -1050h-349l186 1050h-326l-198 -1050h-361l200 1050h-196l53 304h201l16 82q24 143 95.5 245.5t167 149.5t203 58t209 -16.5t178.5 -85.5q183 169 476 62z M664 939h322l9 47q7 46 27 120q-60 51 -134 61.5t-133.5 -30t-75.5 -120.5z" glyph-name="f_f.liga" horiz-adv-x="1525" unicode="ff"/><glyph d="M1850 389q-12 -61 13 -82.5t83 -14.5l5 -263q-89 -29 -160.5 -40t-139 -1.5t-106 50.5t-57.5 116t5 194l52 287h-267l-184 -1050h-358l182 1050h-309l-198 -1050h-358l198 1050h-198l55 304h199l16 82q26 147 100.5 251t174.5 149t210 53.5t213.5 -24t176.5 -95.5 q113 77 268 95t292.5 -11t245.5 -89l-174 -292q-73 32 -147.5 50t-150 20t-128 -34t-64.5 -109l-9 -46h611zM666 939h305l9 49q14 73 34 126q-60 46 -131.5 53t-129 -32t-72.5 -118z" glyph-name="f_f_i.liga" horiz-adv-x="2053" unicode="ffi"/><glyph d="M1908 399q-7 -63 20.5 -84t83.5 -13l2 -273q-72 -24 -134 -36t-123 -11t-104.5 23t-75.5 65t-36.5 114.5t10.5 173.5l137 774q-128 36 -229.5 -3.5t-120.5 -143.5l-9 -46h192l-53 -304h-191l-183 -1050h-362l184 1050h-308l-198 -1050h-361l200 1050h-196l53 304h201 l16 82q24 145 98 248t172 149t207.5 56.5t211.5 -21t178 -93.5q114 87 272.5 108.5t317.5 -15t299 -118.5zM664 939h305l9 49q14 73 34 126q-60 46 -131.5 53t-128.5 -32t-73 -118z" glyph-name="f_f_l.liga" horiz-adv-x="2092" unicode="ffl"/><glyph d="M1070 973q51 -171 51 -398q0 -58 -13 -118q-3 -9 -9 -1q-9 19 -21.5 35t-22.5 24l-9 7q2 -3 5.5 -9t12 -25t12 -36t5 -43.5t-7.5 -48.5q-17 -48 -58 -84q-7 -3 -6 4q-2 17 -8 30.5t-11 20.5l-5 5q0 -5 -1 -12.5t-8.5 -31.5t-19 -46t-37 -51t-59.5 -52q-3 -2 -6.5 -4 t-5.5 -2q-5 -3 -8.5 -1t0.5 7q5 12 7.5 23t2.5 17l-2 5q-5 -9 -15 -24.5t-50.5 -45t-87.5 -43.5q-48 14 -87.5 42t-54.5 50l-15 21q-5 -19 6 -45q2 -5 0.5 -7.5t-6.5 1.5q-2 2 -7 4t-7 2q-55 36 -86.5 84t-34.5 78l-4 31q-19 -19 -24 -56q0 -7 -6 -4q-41 34 -57 84 q-10 43 -4 78.5t20 59.5l12 24q-34 -26 -53 -66q-9 -10 -11 1q-14 60 -13 118q0 101 12.5 201t24.5 149l14 48q3 15 12 17q114 31 210 43l14 34q2 2 3 1q44 -15 61 -10q38 9 75 75q3 3 6 0q38 -67 75 -75q22 -5 61 10q3 0 4 -1l13 -34q68 -9 210 -43q9 -3 12 -17zM485 975 q-2 0 3 -26.5t10 -54.5l5 -27q41 39 96 39h3q15 0 28 -5q24 -7 40 -24t19 -30l6 -12q2 3 3.5 7.5t4 18t0.5 23.5q20 12 40 18t36 5t31.5 -4.5t26 -9.5t19 -11.5t11.5 -11.5l5 -3l15 111l-58 -44l-29 87l-58 -58l-56 100l-60 -97l-51 58l-31 -92zM420 823q20 -2 31 -21 q15 15 41 26q-5 10 -16.5 17.5t-21.5 11.5l-9 1l23 14q-56 14 -86 -39q-14 -29 -9.5 -53t16.5 -39l12 -14q3 17 15 36q9 15 10 29.5t-3 23.5zM973 727q5 5 11 14.5t15.5 38.5t-7.5 53q-14 24 -35.5 33.5t-34.5 7.5l-16 -2l22 -14q-34 -9 -46 -30q24 -10 43 -26q5 9 12 14 t12 7h5q-15 -24 3 -58zM886 561q9 0 17 -5t12 -10l5 -5q0 58 -39 82q2 7 4 17t1.5 39t-9 51.5t-37 43.5t-72.5 26l15 21q-63 7 -97 -46q-15 24 -40 35t-42 11h-15q15 -14 15 -21q-70 -9 -98 -53t-21 -85l7 -39q-17 -10 -27.5 -30.5t-10.5 -36.5l-2 -15q15 20 34 20 q-3 -5 -7.5 -13.5t-8.5 -39t11 -61.5l21 -37q20 24 44 42q-19 31 -19 58q0 48 43 87q-24 -41 -19 -82q12 -39 33 -39q10 0 46 25.5t41 39.5q10 27 1 50q-12 10 -28 17.5t-26 9.5l-10 3q7 20 22 29q7 3 28 -2.5t28 -5.5t28.5 6t28 2.5t11.5 -11.5t7 -13l2 -5q-39 -7 -63 -30 q-3 -5 -2.5 -21.5t5.5 -28.5q3 -14 39 -39.5t48 -25.5q7 0 17 13t14 26q5 41 -19 82q41 -38 41 -87q0 -12 -4 -26.5t-10 -22.5l-3 -9l44 -42q10 14 19 37q12 36 12 61.5t-7 39.5zM550 707l-26 15q60 -3 94 -15q-3 -17 -13.5 -36t-17.5 -29l-8 -12l3 30h-10q-12 0 -21.5 9 t-9.5 19t9 19zM794 630q-27 32 -38 77q15 5 38 9t39 4l17 2l-24 -14q5 -10 5 -17q0 -29 -31 -29q-2 0 -5 1t-5 1zM744 369q14 12 22.5 29t8.5 27l2 10q-17 24 -48 48t-43 24t-42.5 -24t-46.5 -48q-5 -39 28 -60v14q31 -24 61 -24q14 0 34 7q22 10 22 27q3 -7 4.5 -14.5 t-0.5 -12.5z" glyph-name=".notdef" horiz-adv-x="1331"/><glyph glyph-name="glyph1" horiz-adv-x="0"/><glyph glyph-name="glyph2" horiz-adv-x="682"/><glyph glyph-name="space" horiz-adv-x="488" unicode=" "/><glyph d="M401 391h-224l59 739l51 338h406l-63 -316zM276 242q48 0 77 -32.5t29 -83.5q0 -63 -43.5 -111.5t-106.5 -48.5q-51 0 -81 35t-30 86q0 70 43.5 112.5t111.5 42.5z" glyph-name="exclam" horiz-adv-x="629" unicode="!"/><glyph d="M411 1056h-189l3 412h294zM787 1056h-190l2 412h295z" glyph-name="quotedbl" horiz-adv-x="769" unicode="&quot;"/><glyph d="M1213 666h-199l-74 -192h166l-36 -225h-217l-95 -249h-248l94 249l-188 -2l-95 -247h-248l94 247h-124l34 227h177l74 193h-140l30 229h198l101 265h248l-101 -265h188l100 265h251l-100 -265h150zM691 474l74 192l-190 1l-73 -193h189z" glyph-name="numbersign" horiz-adv-x="1256" unicode="#"/><glyph d="M500 775q0 -27 37.5 -49.5t90.5 -43t106 -47.5t90.5 -76.5t37.5 -116.5q0 -125 -98 -216t-245 -113l-7 -113h-195l36 116q-157 29 -269 179l191 190q39 -65 103 -106t112 -41q34 0 61.5 18t27.5 38q0 31 -37 56.5t-90 48t-105 51.5t-88.5 80t-36.5 121q0 104 83.5 186 t225.5 102l5 122h196l-37 -120q140 -20 239 -119l-198 -178q-22 29 -69 57t-94 28q-27 0 -45 -13.5t-23 -24.5t-5 -16z" glyph-name="dollar" horiz-adv-x="1001" unicode="$"/><glyph d="M415 -27l-179 124l979 1299l178 -126zM548 1341q114 0 186 -69t72 -181q0 -53 -20 -109.5t-60 -111t-114 -90.5t-168 -36q-114 0 -184.5 66.5t-70.5 177.5q0 157 107 255t252 98zM512 1118q-51 0 -51 -99q0 -51 22 -51q24 0 37.5 30.5t13.5 64.5q0 55 -22 55zM1157 585 q111 0 182.5 -68t71.5 -181q0 -53 -18.5 -109t-58 -111.5t-114.5 -91.5t-172 -36q-111 0 -182.5 67.5t-71.5 176.5q0 159 107.5 256t255.5 97zM1114 362q-44 0 -44 -99q0 -49 19 -50q24 0 37.5 30t13.5 64q0 55 -26 55z" glyph-name="percent" horiz-adv-x="1524" unicode="%"/><glyph d="M1644 780l-41 -217h-202q3 -41 4 -65q0 -225 -180.5 -377t-478.5 -152q-220 0 -391 127l-171 -157l-126 148l160 149q-128 176 -124 392q2 203 95.5 373t250 265.5t335.5 90.5q160 -5 247 -94t98 -196l276 254l126 -145l-655 -606q-34 -34 -135 -127t-152 -146l-3 5 l-2 -2q85 -67 210 -68q101 -3 178.5 50.5t77.5 147.5q0 34 -31 104q-2 7 0 5l260 241q3 2 10 0h364zM445 599q-3 -70 19 -136l195 177q174 184 174 324q0 154 -116 147q-87 -9 -180.5 -155.5t-91.5 -356.5z" glyph-name="ampersand" horiz-adv-x="1682" unicode="&amp;"/><glyph d="M399 1056h-189l3 412h294z" glyph-name="quotesingle" horiz-adv-x="366" unicode="'"/><glyph d="M969 1377q-464 -406 -464 -967q0 -364 190 -605l-219 -134q-307 357 -307 785q0 142 30 265.5t80 223t134.5 201.5t173.5 183.5t215 184.5z" glyph-name="parenleft" horiz-adv-x="822" unicode="("/><glyph d="M321 1377l217 137q311 -355 310 -780q0 -142 -30.5 -267.5t-82 -225t-136.5 -202t-173 -184.5t-216 -184l-169 134q468 410 468 910q0 428 -188 662z" glyph-name="parenright" horiz-adv-x="764" unicode=")"/><glyph d="M236 814l191 155l-207 41l133 236l154 -106l-2 208h263l-77 -208l193 106l50 -236l-222 -41l135 -155l-233 -150l-64 189l-135 -189z" glyph-name="asterisk" horiz-adv-x="960" unicode="*"/><glyph d="M1044 689l-52 -310h-263l-51 -295h-343l51 295h-261l54 309h261l50 280h341l-48 -279h261z" glyph-name="plus" horiz-adv-x="1150" unicode="+"/><glyph d="M276 348q104 -5 144.5 -81t4.5 -194q-48 -128 -119.5 -229.5t-208.5 -191.5q-5 12 -31.5 46t-36.5 41q87 58 150 123t57 111l-36 -4q-77 5 -118 71t-12 158q27 67 80 110t126 40zM201 -31h-1h1z" glyph-name="comma" horiz-adv-x="631" unicode=","/><glyph d="M794 626l-52 -310h-657l52 310h657z" glyph-name="hyphen" horiz-adv-x="885" unicode="-"/><glyph d="M195 367q77 0 120 -44.5t43 -117.5q0 -90 -64.5 -161t-153.5 -71q-75 0 -117 46t-42 124q0 94 63.5 159t150.5 65z" glyph-name="period" horiz-adv-x="465" unicode="."/><glyph d="M439 -142h-350l802 1446h346z" glyph-name="slash" horiz-adv-x="1237" unicode="/"/><glyph d="M541 -24q-205 0 -315 135t-110 350q0 305 179 517t461 212q201 0 313 -133.5t112 -344.5q0 -309 -180 -522.5t-460 -213.5zM705 889q-217 0 -217 -397q0 -213 108 -214q207 0 206 403v12q0 43 -1.5 67.5t-9.5 59.5t-30 52t-56 17z" glyph-name="zero" horiz-adv-x="1254" unicode="0"/><glyph d="M645 1161h231l-195 -1161h-381l135 814l-203 -68l-46 293z" glyph-name="one" horiz-adv-x="945" unicode="1"/><glyph d="M703 375l-77 -54l321 19l-63 -340h-841l49 288l398 292q162 126 162 229q0 75 -99 75q-32 0 -65.5 -19.5t-81.5 -59.5t-65 -52l-186 227q227 210 485 210q167 0 274 -78.5t107 -227.5q-1 -273 -318 -509z" glyph-name="two" horiz-adv-x="1092" unicode="2"/><glyph d="M1029 1161l-54 -296l-272 -222q102 -31 156 -100.5t54 -160.5q0 -48 -12 -96.5t-49.5 -105.5t-94.5 -100.5t-158.5 -73.5t-231.5 -30q-118 0 -212.5 37.5t-145.5 80.5l266 217q67 -22 141 -23q104 0 118 70q2 7 2 14q0 56 -44 70q-19 7 -48 7q-34 0 -65 -3.5t-47 -7 t-21 -1.5l6 261l192 137l-291 -21l64 347h747z" glyph-name="three" horiz-adv-x="1044" unicode="3"/><glyph d="M1050 483l-53 -307h-154l-31 -176h-336l31 176h-418l-22 307l617 678h337l-122 -678h151zM404 483h159l39 217z" glyph-name="four" horiz-adv-x="1119" unicode="4"/><glyph d="M609 734q148 0 250 -76t102 -219q0 -79 -27.5 -155.5t-85.5 -148.5t-164.5 -115.5t-248.5 -43.5q-101 0 -182.5 26.5t-123.5 54t-91 68.5q-10 10 -16 13l231 222q104 -97 204 -97q75 0 108.5 41t33.5 94q0 34 -19 64t-51 30q-44 0 -85 -41l-239 162l152 548h641l-56 -347 l-362 29l-32 -114q32 5 61 5z" glyph-name="five" horiz-adv-x="1085" unicode="5"/><glyph d="M705 749q166 0 271.5 -101.5t73.5 -280.5q-31 -164 -182 -277.5t-351 -113.5q-201 0 -301 129t-100 334q0 207 78.5 377t225.5 272t334 102q113 0 207.5 -34.5t146.5 -88.5l-267 -227q-49 43 -148 42q-166 0 -210 -223q85 90 222 90zM669 367q5 38 -18 58t-60 20l5 2 q-12 12 -52 -3q-39 -15 -70 -58q10 -101 96 -101q44 0 69 26.5t30 55.5z" glyph-name="six" horiz-adv-x="1182" unicode="6"/><glyph d="M212 1161h819l-53 -311l-526 -850h-401l555 828l-459 -29z" glyph-name="seven" horiz-adv-x="1041" unicode="7"/><glyph d="M821 602q133 -72 133 -216q0 -164 -137.5 -287t-362.5 -123q-176 0 -282.5 83.5t-106.5 220.5q0 234 227 329q-113 67 -113 200q0 159 138.5 270t337.5 111q167 0 269 -81.5t102 -203.5q0 -99 -53 -178t-152 -125zM611 932q-49 0 -74 -42.5t-25 -87.5q0 -34 14.5 -61.5 t41.5 -27.5q48 0 78 39.5t30 92.5q0 87 -65 87zM505 270q44 0 69 35.5t25 75.5q0 36 -17 58t-44 22q-44 0 -71 -37.5t-27 -78.5q0 -32 16.5 -53.5t48.5 -21.5z" glyph-name="eight" horiz-adv-x="1066" unicode="8"/><glyph d="M679 1191q118 0 203.5 -46t128 -122t61.5 -152t19 -156q0 -118 -38.5 -241.5t-112 -235.5t-198 -183.5t-278.5 -71.5q-137 0 -226.5 38.5t-133.5 82.5l195 227q109 -68 189 -68q189 0 239 259q-111 -119 -268 -119q-148 0 -238.5 105.5t-61.5 278.5q27 160 167 282 t353 122zM597 628q31 0 73.5 21.5t70.5 70.5h1l-5 29v-8q0 51 -8.5 87.5t-19.5 53t-27 25.5t-22 10t-17 1q-38 0 -77 -34t-51 -99q-15 -79 9.5 -118t72.5 -39z" glyph-name="nine" horiz-adv-x="1162" unicode="9"/><glyph d="M382 874q73 0 115 -43.5t42 -118.5q0 -89 -63 -159t-159 -70q-70 0 -110 45t-40 117q0 102 57 165.5t158 63.5zM307 364q72 0 114.5 -44.5t42.5 -118.5q0 -89 -63 -158.5t-159 -69.5q-70 0 -111 45t-41 117q0 101 59 165t158 64z" glyph-name="colon" horiz-adv-x="640" unicode=":"/><glyph d="M261 483q-70 0 -111 45t-41 117q0 101 60 165t160 64q73 0 115 -43.5t42 -118.5q0 -89 -64.5 -159t-160.5 -70zM287 357q104 -3 144 -79.5t4 -195.5q-49 -128 -121.5 -229.5t-211.5 -190.5q-5 12 -30.5 46t-35.5 41q87 58 150 123t56 111l-32 -3q-80 5 -121 70.5 t-14 157.5q27 67 81 110.5t131 38.5zM212 -20h-2h2z" glyph-name="semicolon" horiz-adv-x="600" unicode=";"/><glyph d="M957 631l-413 -107l371 -108l-169 -291l-579 221l48 272l15 83l661 222z" glyph-name="less" horiz-adv-x="1041" unicode="&lt;"/><glyph d="M934 848l-50 -273h-700l52 272zM867 461l-50 -273h-699l49 271z" glyph-name="equal" horiz-adv-x="1037" unicode="="/><glyph d="M891 701l-50 -273l-15 -82l-660 -221l-67 291l411 108l-375 107l170 292z" glyph-name="greater" horiz-adv-x="1041" unicode=">"/><glyph d="M1186 1092q0 -200 -108.5 -321t-306.5 -165l-49 -174h-266l1 413q203 0 282.5 51t79.5 152q0 68 -43.5 99.5t-89.5 31.5q-123 0 -220 -140l-259 178q72 113 210.5 190.5t312.5 77.5q215 0 335.5 -109.5t120.5 -283.5zM563 316q61 0 97 -37.5t36 -101.5q0 -77 -56 -140.5 t-135 -63.5q-60 0 -95.5 42.5t-35.5 103.5q0 89 51 143t138 54z" glyph-name="question" horiz-adv-x="1162" unicode="?"/><glyph d="M847 1186q236 0 377 -141.5t141 -365.5q0 -195 -87.5 -282.5t-217.5 -87.5q-55 0 -105 24t-73 75q-92 -111 -251 -111q-104 0 -165.5 69t-61.5 177q0 143 97.5 247t234.5 104q155 0 204 -119l41 53h89l-53 -307q-3 -22 13 -37.5t49 -15.5q58 0 87 60.5t29 135.5 q0 176 -106 267t-273 91q-241 0 -390.5 -137t-149.5 -387q0 -176 108.5 -263.5t279.5 -87.5q138 0 239 51l60 -143q-155 -80 -332 -81q-131 0 -234 43.5t-164.5 117t-92.5 163t-31 190.5q0 133 49 257t139 223t233 158.5t317 59.5zM713 457q70 0 110.5 47t40.5 122 q0 108 -103 108q-67 0 -111 -46t-44 -120q0 -49 29.5 -80t77.5 -31z" glyph-name="at" horiz-adv-x="1431" unicode="@"/><glyph d="M986 0l-39 239h-473l-121 -239h-385l715 1319h431l256 -1319h-384zM645 573h246l-60 364z" glyph-name="A" unicode="A"/><glyph d="M1031 717q130 -89 130 -277q0 -186 -128 -313t-313 -127h-652l231 1319h597q130 0 207.5 -80t77.5 -206q0 -109 -38.5 -178.5t-111.5 -137.5zM722 831q143 0 143 99q0 34 -23 53t-60 19h-185l-30 -171h155zM720 317q48 0 88 32t40 78q0 41 -34 64t-75 23h-227l-36 -197 h244z" glyph-name="B" horiz-adv-x="1256" unicode="B"/><glyph d="M1434 1094l-333 -210q-84 140 -224 140q-176 0 -281.5 -128t-105.5 -302q0 -130 65.5 -211t192.5 -81q142 0 276 142l259 -210q-116 -123 -269.5 -192t-322.5 -69q-256 0 -413 162t-157 418q0 224 107.5 406.5t293 286.5t408.5 104q169 0 301.5 -68.5t202.5 -187.5z" glyph-name="C" horiz-adv-x="1392" unicode="C"/><glyph d="M869 1319q249 0 397.5 -149t148.5 -397q0 -340 -223.5 -556.5t-553.5 -216.5h-570l231 1319h570zM689 329q160 0 252.5 110.5t92.5 285.5q0 119 -57 192t-161 73h-214l-114 -661h201z" glyph-name="D" horiz-adv-x="1472" unicode="D"/><glyph d="M1130 1002h-536l-33 -185h425l-51 -319h-428l-33 -181h531l-53 -317h-884l231 1319h884z" glyph-name="E" horiz-adv-x="1163" unicode="E"/><glyph d="M1145 990h-539l-41 -234h425l-56 -329h-429l-75 -427h-362l231 1319h899z" glyph-name="F" horiz-adv-x="1150" unicode="F"/><glyph d="M1318 780l-101 -551q-106 -118 -254.5 -186.5t-310.5 -68.5q-237 0 -382 158t-145 414q0 341 221.5 574t546.5 233q164 0 288.5 -65.5t195.5 -183.5l-300 -222q-38 60 -102.5 101t-150.5 41q-154 0 -242.5 -129.5t-88.5 -307.5q0 -128 58 -205.5t174 -77.5q75 0 120 31 l22 116h-172l59 329h564z" glyph-name="G" horiz-adv-x="1389" unicode="G"/><glyph d="M1104 1319h362l-230 -1319h-362l85 493h-444l-85 -493h-362l231 1319h361l-87 -496h444z" glyph-name="H" horiz-adv-x="1467" unicode="H"/><glyph d="M430 0h-362l231 1319h361z" glyph-name="I" horiz-adv-x="660" unicode="I"/><glyph d="M43 218l276 193q22 -36 26.5 -43.5t22.5 -32t30 -31.5t32.5 -14.5t43.5 -7.5q159 0 195 206l145 831h367l-157 -879q-80 -463 -563 -462q-162 0 -270.5 70.5t-147.5 169.5z" glyph-name="J" horiz-adv-x="1177" unicode="J"/><glyph d="M1469 1316l-703 -659l500 -657h-459l-298 452l-79 -452h-362l231 1316h361l-78 -447l442 447h445z" glyph-name="K" horiz-adv-x="1377" unicode="K"/><glyph d="M488 329h468l-53 -329h-835l231 1319h361z" glyph-name="L" horiz-adv-x="1100" unicode="L"/><glyph d="M1123 1321h456l-145 -1321h-355l93 756l-295 -756h-292l-30 700l-162 -700h-362l315 1321h454l23 -819z" glyph-name="M" horiz-adv-x="1634" unicode="M"/><glyph d="M1114 1319h369l-230 -1319h-376q12 43 8 91.5t-7.5 82.5t-21.5 76t-33.5 72t-42.5 68t-51 67t-58 69l-96 104l-109 -630h-369l231 1319h373q-26 -143 31.5 -267.5t187.5 -266.5l85 -90z" glyph-name="N" horiz-adv-x="1510" unicode="N"/><glyph d="M898 1348q251 0 396 -152t145 -408q0 -346 -220.5 -581.5t-558.5 -235.5q-247 0 -393 158t-146 414q0 222 100 406t278.5 291.5t398.5 107.5zM845 1022q-171 0 -263 -128.5t-92 -313.5q0 -128 55.5 -204t173.5 -76q172 0 262.5 127.5t90.5 320.5q0 128 -56.5 201 t-170.5 73z" glyph-name="O" horiz-adv-x="1495" unicode="O"/><glyph d="M1188 945q0 -254 -161.5 -388.5t-523.5 -138.5l-73 -418h-362l231 1318h361q271 -5 399.5 -105.5t128.5 -267.5zM556 722q44 0 65.5 1t56 3.5t49.5 9t35.5 18.5t29 30t15.5 45.5t7 63.5q0 32 -12 53.5t-27.5 32.5t-47 17t-55 7t-66.5 1z" glyph-name="P" horiz-adv-x="1189" unicode="P"/><glyph d="M969 -229q51 0 98 23t71 46l137 -168q-38 -58 -136 -126t-183 -68q-90 0 -155 25.5t-97.5 56t-92.5 56.5t-142 26q-46 0 -92 -17l-114 -77l-92 111l-53 65l392 261q-181 46 -285 194.5t-104 359.5q0 222 101 406.5t280 293t397 108.5q251 0 396 -154t145 -408 q0 -246 -118.5 -444.5t-319.5 -296.5l-261 -174q14 -9 42.5 -27.5t45 -28t41 -21t49 -17t50.5 -5.5zM843 1014q-164 0 -256 -127.5t-92 -307.5q0 -125 55.5 -200t169.5 -75q159 0 253 127t94 306q0 126 -58 201.5t-166 75.5zM1138 -160z" glyph-name="Q" horiz-adv-x="1512" unicode="Q"/><glyph d="M1265 934q0 -365 -302 -482l170 -452h-385l-118 394q-24 -2 -74 -1h-58l-68 -393h-362l231 1319h421q282 0 413.5 -103t131.5 -282zM551 691h55q150 0 216.5 37t66.5 153q0 75 -56 99.5t-166 24.5h-61z" glyph-name="R" horiz-adv-x="1252" unicode="R"/><glyph d="M20 242l308 226q133 -176 332 -176q80 0 118 30t38 72q0 34 -32.5 61.5t-84.5 50.5t-116 47t-127 58t-115.5 77.5t-84.5 112.5t-32 155q0 157 159.5 277t404.5 120q321 0 504 -184l-261 -222q-109 104 -278 104q-67 0 -107 -26.5t-40 -61.5q0 -34 43.5 -66.5t109 -58.5 t142.5 -65t142.5 -84.5t109 -121t43.5 -171.5q0 -183 -153.5 -302.5t-438.5 -119.5q-131 0 -307 67.5t-277 200.5z" glyph-name="S" horiz-adv-x="1293" unicode="S"/><glyph d="M1285 1319l-53 -326h-360l-174 -993h-355l174 993h-357l53 326h1072z" glyph-name="T" horiz-adv-x="1210" unicode="T"/><glyph d="M1463 1319l-115 -647q-61 -352 -220 -527.5t-485 -175.5q-225 0 -343.5 85.5t-139 241.5t16.5 376l113 647h359l-105 -594q-20 -119 -20 -206t13.5 -132.5t43.5 -71t54.5 -31.5t59.5 -6q46 0 81 13.5t77.5 55.5t78.5 137.5t61 240.5l104 594h366z" glyph-name="U" horiz-adv-x="1452" unicode="U"/><glyph d="M1475 1318l-642 -1318h-451l-182 1318h428l41 -966l375 966h431z" glyph-name="V" horiz-adv-x="1378" unicode="V"/><glyph d="M1529 1319h417l-540 -1319h-351l-63 732l-364 -732h-346l-29 1319h390l-30 -705l373 705h231l92 -677z" glyph-name="W" horiz-adv-x="1899" unicode="W"/><glyph d="M-26 0l478 638l-297 681h415l133 -372l248 372h413l-517 -681l295 -638h-415l-126 309l-214 -309h-413z" glyph-name="X" horiz-adv-x="1257" unicode="X"/><glyph d="M1300 1319l-503 -771h-3l-98 -548h-380l97 550l-236 769h412l60 -508l240 508h411z" glyph-name="Y" horiz-adv-x="1184" unicode="Y"/><glyph d="M1403 1318l-39 -212l-782 -792l652 22l-62 -336h-1136l37 207l784 797l-654 -23l63 337h1137z" glyph-name="Z" horiz-adv-x="1361" unicode="Z"/><glyph d="M925 1405l-48 -272h-220l-193 -1099h219l-48 -271h-521l290 1642h521z" glyph-name="bracketleft" horiz-adv-x="808" unicode="["/><glyph d="M1099 61l-358 -158l-524 1635l358 158z" glyph-name="backslash" horiz-adv-x="1281" unicode="\"/><glyph d="M362 1405h520l-290 -1642h-520l46 271h223l193 1099h-222z" glyph-name="bracketright" horiz-adv-x="808" unicode="]"/><glyph d="M1172 732l-314 -118l-117 483l-290 -481l-270 116l420 587h355z" glyph-name="asciicircum" horiz-adv-x="1257" unicode="^"/><glyph d="M906 -68l-48 -285h-911l48 285h911z" glyph-name="underscore" horiz-adv-x="1095" unicode="_"/><glyph d="M616 1068l-428 94l133 253l363 -231z" glyph-name="grave" horiz-adv-x="769" unicode="`"/><glyph d="M1167 292l5 -263q-382 -126 -452 87q-118 -143 -327 -143q-167 0 -264 106.5t-97 285.5q0 258 146 429.5t346 171.5q196 0 275 -142l20 115h345l-92 -550q-12 -61 12.5 -82.5t82.5 -14.5zM539 287q72 0 123 39t68 111l7 37q2 10 2 33q0 68 -36 106.5t-102 38.5 q-90 0 -146 -61.5t-56 -157.5q0 -70 36.5 -108t103.5 -38z" glyph-name="a" horiz-adv-x="1274" unicode="a"/><glyph d="M795 966q169 0 264.5 -111t95.5 -287q0 -254 -153.5 -424.5t-371.5 -170.5q-198 0 -280 170l-87 -143h-253l256 1468h348l-104 -598q116 96 285 96zM585 287q77 0 142 59.5t65 150.5q0 72 -40 113.5t-100 41.5q-70 0 -130.5 -44.5t-77.5 -119.5l-4 -20q-2 -10 -1 -29 q0 -70 39.5 -111t106.5 -41z" glyph-name="b" horiz-adv-x="1194" unicode="b"/><glyph d="M26 360q0 266 167 436t418 170q119 0 225 -58t149 -147l-289 -169q-56 73 -126 74q-94 0 -143.5 -72.5t-49.5 -177.5q0 -67 34 -102.5t77 -35.5q79 0 166 70l232 -169q-162 -207 -447 -206q-183 0 -298 99.5t-115 287.5z" glyph-name="c" horiz-adv-x="965" unicode="c"/><glyph d="M925 1468h350l-260 -1468h-252l-34 131q-137 -159 -343 -158q-162 0 -256 110t-94 292q0 249 149.5 420t384.5 171q166 0 246 -118zM543 287q65 0 124.5 45t76.5 115l5 31q2 5 2 19q0 73 -40 114t-103 41q-79 0 -144 -59t-65 -148q0 -73 40.5 -115.5t103.5 -42.5z" glyph-name="d" horiz-adv-x="1206" unicode="d"/><glyph d="M1009 707q0 -109 -50.5 -190.5t-140 -128.5t-193.5 -71.5t-231 -33.5q29 -65 147 -65q84 0 270 77l94 -244q-188 -79 -403 -78q-244 0 -357.5 115t-113.5 303q0 230 181 402.5t433 172.5q152 0 258 -64.5t106 -194.5zM401 517q135 14 226.5 48t91.5 89q0 67 -72 66.5 t-143.5 -55t-102.5 -148.5z" glyph-name="e" horiz-adv-x="1020" unicode="e"/><glyph d="M911 1155q-32 12 -45.5 16.5t-46 10.5t-50.5 -2t-41 -24t-38.5 -52t-25.5 -89l-14 -76h191l-54 -304h-191l-188 -1048h-347l183 1048h-191l56 304h188l8 47q55 304 228.5 422.5t429.5 25.5z" glyph-name="f" horiz-adv-x="836" unicode="f"/><glyph d="M940 939h277l-171 -985q-17 -94 -56 -173.5t-108.5 -147.5t-179.5 -106.5t-251 -38.5q-195 0 -311 68.5t-167 172.5l288 194q43 -70 86.5 -104t108.5 -34q203 0 242 215l17 97q-114 -89 -280 -88q-172 0 -268.5 104.5t-96.5 280.5q0 237 150 404.5t376 167.5 q189 0 271 -155zM580 323q63 0 119.5 33t78.5 93l10 60v1q0 63 -41.5 102.5t-104.5 39.5q-77 0 -143 -51t-66 -135q0 -63 43 -103t104 -40z" glyph-name="g" horiz-adv-x="1228" unicode="g"/><glyph d="M800 963q68 0 122 -18t98.5 -60t56.5 -113t-2 -178l-106 -594h-372l94 515q14 44 5.5 81t-51.5 37q-72 0 -164 -53l-1 2l-103 -582h-368l254 1449h368l-102 -584q133 98 271 98zM321 660l-14 -32q2 2 9 12t12 17z" glyph-name="h" horiz-adv-x="1117" unicode="h"/><glyph d="M403 1471q68 0 107.5 -41t39.5 -107q0 -85 -59 -154.5t-148 -69.5q-67 0 -107.5 44.5t-40.5 110.5q0 92 59.5 154.5t148.5 62.5zM497 292l5 -263q-89 -29 -160.5 -40t-139 -1.5t-106 50.5t-57.5 116t5 194l104 591h345l-92 -550q-12 -61 13 -82.5t83 -14.5z" glyph-name="i" horiz-adv-x="605" unicode="i"/><glyph d="M404 1468q72 0 113 -41t41 -108q0 -87 -61.5 -155t-151.5 -68q-65 0 -104.5 45t-39.5 113q0 89 58 151.5t145 62.5zM531 939l-167 -944q-19 -108 -56.5 -195t-79.5 -143t-103.5 -104t-109 -74.5t-116.5 -57.5l-112 253l8 5q9 3 24 12.5t34 22.5t39.5 34.5t38.5 46 t32.5 60.5t21.5 75l177 1009h369z" glyph-name="j" horiz-adv-x="566" unicode="j"/><glyph d="M799 493q27 -51 52.5 -81t89.5 -56.5t158 -26.5l-56 -329q-111 0 -190.5 18t-122 47t-70 64t-45.5 71t-37.5 66.5t-55.5 52t-92 24.5l-60 -343h-361l245 1399h362l-128 -727h43h24l245 267h425z" glyph-name="k" horiz-adv-x="1111" unicode="k"/><glyph d="M532 302l6 -273q-73 -24 -135.5 -36t-124 -11t-104.5 23t-75 65t-36.5 115.5t9.5 172.5l187 1072h355l-175 -1031q-12 -63 13 -84.5t80 -12.5z" glyph-name="l" horiz-adv-x="616" unicode="l"/><glyph d="M1239 963q133 0 206.5 -86.5t39.5 -282.5l-106 -594h-352l96 548q14 44 13 81t-35 37q-49 0 -116 -33l-5 -39l-106 -594h-352l96 548q14 44 13 81t-35 37q-46 0 -111 -31l-113 -635h-369l164 939h282l25 -79q130 102 260 103q167 0 227 -118q140 118 278 118zM292 657 q0 -2 -1 -2t-1 -1q0 2 1 1.5t1 1.5zM797 657q0 -2 -1 -2t-1 -1q0 2 1 1.5t1 1.5z" glyph-name="m" horiz-adv-x="1544" unicode="m"/><glyph d="M795 963q68 0 122 -18t98.5 -60t56.5 -113t-2 -178l-106 -594h-372l94 515q14 44 5.5 81t-51.5 37q-72 0 -164 -53h-2l-102 -580h-369l164 939h282l36 -106q151 130 310 130zM321 660q-5 -9 -10 -22l-7 -12q2 2 5 7q10 14 17 24z" glyph-name="n" horiz-adv-x="1129" unicode="n"/><glyph d="M650 966q198 0 321 -113.5t123 -306.5q0 -94 -36 -191t-106.5 -184t-193.5 -142.5t-278 -55.5q-201 0 -322.5 109t-121.5 299q0 263 177.5 424t436.5 161zM596 659q-80 0 -131.5 -74.5t-51.5 -147.5q0 -61 27.5 -109t90.5 -48q79 0 134 71t55 144q0 63 -30.5 113.5 t-93.5 50.5z" glyph-name="o" horiz-adv-x="1129" unicode="o"/><glyph d="M795 966q164 0 259 -110t95 -293q0 -247 -149.5 -418.5t-385.5 -171.5q-167 0 -247 117l-104 -602h-350l254 1451h253l32 -132q136 159 343 159zM573 287q80 0 146 57t66 149q0 73 -42 116t-103 43q-70 0 -130.5 -48t-76.5 -121l-1 -12q-2 -10 -2 -29q0 -73 41 -114 t102 -41z" glyph-name="p" horiz-adv-x="1182" unicode="p"/><glyph d="M927 939h252l-254 -1451h-348l101 579q-114 -94 -284 -94q-172 0 -266 110t-94 287q0 254 152 425t372 171q200 0 280 -172zM398 445q0 -73 41 -115.5t105 -42.5q75 0 140 57t65 153q0 72 -40 113.5t-103 41.5q-77 0 -142.5 -59t-65.5 -148z" glyph-name="q" horiz-adv-x="1179" unicode="q"/><glyph d="M667 966q99 0 210 -72l-220 -326q-63 43 -109 43q-55 0 -99 -65l-41 -230q0 -2 1 -4.5t2 -4.5l-3 5l-56 -312h-349l164 939h263l29 -77q92 104 208 104z" glyph-name="r" horiz-adv-x="836" unicode="r"/><glyph d="M7 196l244 202q137 -116 230 -116q19 0 28.5 3t10.5 5t1 5q0 10 -38.5 25t-93 38.5t-108.5 59.5t-92.5 101.5t-38.5 149.5q0 44 25.5 93.5t73.5 96.5t131.5 77t186.5 30q247 0 396 -133l-253 -222q-99 68 -171 68q-17 0 -17 -5q0 -10 37.5 -29.5t92.5 -48t109.5 -66.5 t92 -102t37.5 -143q0 -128 -103.5 -216t-307.5 -88q-138 0 -267 55.5t-206 159.5z" glyph-name="s" horiz-adv-x="971" unicode="s"/><glyph d="M492 466q-9 -67 -9 -108.5t17 -64.5t35 -32.5t46 -8t50.5 6t48 9.5t39.5 5l-89 -283q-61 -12 -116 -16.5t-114 1.5t-103 26.5t-85 59t-59 99t-25 144t17 198.5l29 165h-126l49 272h127l51 292h350l-52 -292h176l-82 -272h-140z" glyph-name="t" horiz-adv-x="744" unicode="t"/><glyph d="M756 939h369l-161 -939h-283l-36 108q-150 -131 -310 -132q-147 0 -229 86t-48 283l106 594h367l-84 -466q-12 -44 -4 -82t50 -38q72 0 166 55l3 -4z" glyph-name="u" horiz-adv-x="1133" unicode="u"/><glyph d="M1150 937q-99 -275 -198.5 -473t-275.5 -464h-449q-85 268 -116 464t-31 473h384q-15 -198 -5.5 -383t38.5 -300q145 256 242 683h411z" glyph-name="v" horiz-adv-x="1071" unicode="v"/><glyph d="M1295 939h366l-58 -400q-27 -169 -70 -278t-111.5 -172t-153.5 -88t-210 -25q-113 0 -213.5 40t-156.5 114q-140 -154 -335 -154q-67 0 -123 19t-103.5 58t-66.5 114t-2 178l106 594h365l-96 -523q-10 -49 10.5 -83t71.5 -34q36 0 72 25.5t56 68.5l96 546h369l-89 -509 q-3 -32 -0.5 -63t20 -53t48.5 -22q113 0 149 232z" glyph-name="w" horiz-adv-x="1669" unicode="w"/><glyph d="M38 939h425l73 -250l164 250h391l-374 -478l203 -461h-427l-51 208l-118 -208h-413l350 442z" glyph-name="x" horiz-adv-x="986" unicode="x"/><glyph d="M807 939h357l-174 -985q-17 -96 -55.5 -174.5t-107.5 -146.5t-184.5 -106.5t-267.5 -38.5q-174 0 -295 71.5t-165 169.5l290 194q43 -70 85.5 -104t105.5 -34q205 0 246 215l12 68q-128 -92 -261 -92q-147 0 -229 86t-48 283l106 594h370l-83 -466q-12 -44 -5.5 -82 t49.5 -38q70 0 160 51z" glyph-name="y" horiz-adv-x="1169" unicode="y"/><glyph d="M551 321q36 -2 112 -25t135 -10t149 79l-60 -333q-84 -58 -156 -62t-130 23t-118.5 53.5t-147 20.5t-187.5 -67l-150 270l475 365l-357 -29l60 333h792l-58 -333z" glyph-name="z" horiz-adv-x="998" unicode="z"/><glyph d="M505 -254q-171 0 -249.5 89.5t-50.5 241.5l48 269q9 51 -7.5 72.5t-73.5 21.5h-39l41 248h39q56 0 81 23t35 74l48 271q27 152 137.5 242.5t280.5 90.5l-49 -280q-55 0 -68.5 -20.5t-28.5 -103.5l-35 -198q-15 -94 -55 -142.5t-144 -79.5q96 -31 117 -77t4 -145l-34 -193 q-17 -79 -10.5 -102.5t61.5 -23.5z" glyph-name="braceleft" horiz-adv-x="732" unicode="{"/><glyph d="M398 -375h-369l297 1694h369z" glyph-name="bar" horiz-adv-x="725" unicode="|"/><glyph d="M353 1389q171 0 249.5 -90.5t51.5 -242.5l-48 -271q-10 -51 7 -74t71 -23h40l-41 -248h-40q-56 0 -80.5 -21t-33.5 -73l-49 -269q-27 -152 -136.5 -241.5t-280.5 -89.5l48 278q55 0 71 22t30 104l34 193q17 97 56 144t145 78q-96 31 -117 77.5t-6 144.5l34 198 q17 75 9.5 99.5t-63.5 24.5z" glyph-name="braceright" horiz-adv-x="715" unicode="}"/><glyph d="M391 541h-208q22 140 122.5 223t208.5 83q72 0 137.5 -51.5t109.5 -51.5q61 0 77 96h205q-32 -162 -120 -235.5t-196 -73.5q-48 0 -85.5 18t-57 39t-46 39t-53.5 18q-44 0 -64.5 -25.5t-29.5 -78.5z" glyph-name="asciitilde" horiz-adv-x="1141" unicode="~"/><glyph d="M360 777q-55 0 -89 35t-34 91q0 68 49 122t118 54q56 0 90.5 -38.5t34.5 -95.5q0 -75 -48 -121.5t-121 -46.5zM258 691h181l-50 -870l2 -244h-410l55 244z" glyph-name="exclamdown" horiz-adv-x="617" unicode="¡"/><glyph d="M539 375q17 0 35 4.5t32 9.5t31.5 16t25.5 17t25 19t20 15l207 -151q-145 -172 -376 -189l-13 -116h-168l29 121q-188 29 -260 169t-8 364q121 348 442 392l19 115h154l-24 -111q218 -22 305 -186l-259 -149q-22 24 -35.5 36t-43.5 25.5t-64 13.5q-20 0 -39 -7.5 t-38 -25.5t-31 -31t-33 -40t-30 -37q-26 -67 -27.5 -127.5t30 -103.5t94.5 -43z" glyph-name="cent" horiz-adv-x="1013" unicode="¢"/><glyph d="M601 493q-3 -20 -13.5 -79t-17.5 -93h372l-56 -321h-843l36 208l128 65q3 14 19 93t25 127h-109l24 193h119q2 10 6 34t6 38q36 220 170 325t311 105q184 0 347 -115l-215 -221q-77 41 -135 41q-102 0 -130 -135q0 -3 -4 -28t-8 -44h179l-25 -193h-186z" glyph-name="sterling" horiz-adv-x="1124" unicode="£"/><glyph d="M949 678q0 -152 -77 -262l114 -102l-191 -164l-88 133q-82 -34 -183 -34q-106 0 -176 45l-135 -147l-138 164l164 117q-19 56 -19 122q0 140 72 244l-115 109l192 165l87 -141q87 39 193 39q101 0 170 -39l133 138l139 -164l-163 -104q21 -51 21 -119zM558 476 q43 0 69.5 14.5t37.5 42.5t14.5 52t3.5 62q0 48 -16.5 70t-55.5 22q-123 0 -123 -169q0 -94 70 -94z" glyph-name="currency" horiz-adv-x="1105" unicode="¤"/><glyph d="M1304 1161l-420 -541h126l-24 -181h-768l23 181h146l-239 541h402l99 -431l254 431h401zM169 177l32 185h768l-30 -185h-212l-29 -177h-353l29 177h-205z" glyph-name="yen" horiz-adv-x="1216" unicode="¥"/><glyph d="M572 616h-369l125 703h368zM399 -375h-368l129 739h369z" glyph-name="brokenbar" horiz-adv-x="727" unicode="¦"/><glyph d="M515 1010q0 -44 43.5 -79t105 -64t123 -64t105 -95.5t43.5 -140.5q0 -198 -176 -275q90 -79 91 -203q0 -195 -144.5 -297.5t-347.5 -102.5q-273 0 -404 176l203 208q36 -60 101.5 -95.5t139.5 -35.5q43 0 70 8.5t37 26.5t13.5 31.5t3.5 34.5q0 46 -44.5 78.5t-107.5 56 t-125 52.5t-106.5 86.5t-44.5 139.5q0 201 189 286q-104 87 -104 210q0 166 143.5 283.5t355.5 117.5q213 0 343 -136l-169 -202q-31 31 -91 59.5t-123 28.5q-55 0 -89 -25t-34 -68zM430 532q0 -67 123 -122q44 9 44 82q0 65 -109 126q-58 -6 -58 -86z" glyph-name="section" horiz-adv-x="1003" unicode="§"/><glyph d="M461 1319q48 0 77 -29.5t29 -81.5q0 -58 -45.5 -106.5t-108.5 -48.5q-46 0 -75 32.5t-29 81.5q0 68 41 110t111 42zM794 1319q49 0 77 -29.5t28 -81.5q0 -60 -44 -107.5t-109 -47.5q-46 0 -75 32.5t-29 81.5q0 68 42 110t110 42z" glyph-name="dieresis" horiz-adv-x="955" unicode="¨"/><glyph d="M840 1251q218 0 356.5 -135.5t138.5 -356.5q0 -198 -99 -356.5t-259 -243t-342 -84.5q-218 0 -356.5 135.5t-138.5 356.5q0 295 209 489.5t491 194.5zM814 1084q-203 0 -354 -138.5t-151 -351.5q0 -157 100 -254.5t255 -97.5q205 0 353.5 137.5t148.5 354.5 q0 159 -98.5 254.5t-253.5 95.5zM452 715q48 126 139.5 190t208.5 64q84 0 144.5 -38t81.5 -95l-202 -111q0 5 -4 12t-17 15.5t-33 8.5q-36 0 -82 -56q-20 -53 -8.5 -89t52.5 -36q15 0 30.5 6t22.5 11t17 14l9 9l158 -117q-32 -49 -104.5 -90t-171.5 -41q-147 0 -215.5 94 t-25.5 249z" glyph-name="copyright" horiz-adv-x="1447" unicode="©"/><glyph d="M493 1353q152 0 244 -67t67 -204l-75 -404h-200l-24 88q-80 -111 -217 -111q-89 0 -133 48t-44 133q0 130 87 206t227 76q65 0 123 -15l2 5q2 7 -6 11t-27.5 5.5t-35 1.5h-48.5q-87 0 -177 -20l-34 215q216 32 271 32zM422 845q9 0 24 9.5t36 34t35 60.5q-20 5 -46 5 q-29 0 -56.5 -24.5t-27.5 -50.5q1 -34 35 -34z" glyph-name="ordfeminine" horiz-adv-x="708" unicode="ª"/><glyph d="M799 671l-255 -197l186 -199l-281 -229l-282 427l432 426zM1328 671l-255 -197l187 -199l-282 -229l-282 427l432 426z" glyph-name="guillemotleft" horiz-adv-x="1472" unicode="«"/><glyph d="M1159 814l-91 -536h-273l52 297h-659l41 239l658 2z" glyph-name="logicalnot" horiz-adv-x="1268" unicode="¬"/><glyph d="M620 1353q135 0 213 -81.5t78 -216.5q0 -179 -119.5 -303t-298.5 -124q-137 0 -216 82t-79 217q0 183 120.5 304.5t301.5 121.5zM503 688q148 0 244 101.5t96 254.5q0 111 -62 178.5t-173 67.5q-150 0 -246 -101.5t-96 -254.5q0 -111 62 -178.5t175 -67.5zM568 1184 q164 0 164 -111q0 -118 -109 -150l63 -135h-107l-45 123h-15h-31l-22 -123h-96l70 396h128zM532 992q53 0 77 13.5t24 50.5q0 26 -18.5 34.5t-61.5 8.5h-32l-19 -107h30z" glyph-name="registered" horiz-adv-x="928" unicode="®"/><glyph d="M241 1068l32 198h597l-32 -198h-597z" glyph-name="macron" horiz-adv-x="865" unicode="¯"/><glyph d="M444 1357q79 0 125.5 -45.5t46.5 -123.5q0 -94 -72.5 -166.5t-174.5 -72.5q-77 0 -122.5 47.5t-45.5 123.5q0 108 67 172.5t176 64.5zM418 1208q-31 0 -48 -17t-17 -41q0 -22 13 -37.5t33 -15.5q29 0 49 20t20 42t-15 35.5t-35 13.5z" glyph-name="degree" horiz-adv-x="570" unicode="°"/><glyph d="M729 841h216l-49 -280h-213l-24 -143h-311l24 143h-213l51 279h208l21 128h310zM75 84l51 278l736 2l-50 -280h-737z" glyph-name="plusminus" horiz-adv-x="1092" unicode="±"/><glyph d="M534 1010l-8 -6l128 8l-12 -191h-424l14 162l176 140q3 3 16 17t18 20.5t10 21t5 31.5q2 32 -30 33q-14 0 -28.5 -11t-33.5 -28t-30 -26l-118 131q108 104 235 105q90 0 150 -43t60 -128q0 -132 -128 -236z" glyph-name="uni00B2" horiz-adv-x="682" unicode="²"/><glyph d="M623 1401l-15 -169l-111 -97q49 -17 74.5 -53t25.5 -77q0 -32 -8.5 -61t-32.5 -62.5t-78.5 -53t-134.5 -19.5q-70 0 -186 49l138 123h21.5t19.5 1t14 1q38 0 43 22v-1v1q-5 20 -36 21q-2 0 -12 3.5t-26 4.5l-39 144q2 2 8 5l38 27l-90 -7l11 198h376z" glyph-name="uni00B3" horiz-adv-x="609" unicode="³"/><glyph d="M365 1068l-25 116l454 231l42 -253z" glyph-name="acute" horiz-adv-x="773" unicode="´"/><glyph d="M792 939h369l-166 -939h-283l-33 106q-155 -130 -310 -130q-34 0 -67 5l-85 -493h-272l164 939h2l90 512h367l-82 -466q0 -3 -1 -12q-10 -43 -3.5 -75.5t45.5 -32.5q72 0 171 55z" glyph-name="uni00B5" horiz-adv-x="1199" unicode="µ"/><glyph d="M1425 1318l-285 -1625h-271l228 1305h-160l-229 -1305h-271l128 730q-427 36 -427 355q0 224 140 366.5t442 167.5l2 6h703z" glyph-name="paragraph" horiz-adv-x="1437" unicode="¶"/><glyph d="M326 800q55 0 87 -34t32 -90q0 -68 -48.5 -123t-120.5 -55q-53 0 -86 38.5t-33 94.5q0 77 47 123t122 46z" glyph-name="periodcentered" horiz-adv-x="534" unicode="·"/><glyph d="M317 15l98 -3l-26 -101q84 -3 143.5 -49t37.5 -142q-19 -72 -58 -114.5t-78.5 -57t-100 -9.5t-97 15.5t-94.5 29.5l58 145q29 -19 76.5 -33.5t90.5 -10.5t48 37q5 27 -12 46t-48.5 25t-55 7.5t-41.5 -0.5z" glyph-name="cedilla" horiz-adv-x="890" unicode="¸"/><glyph d="M480 1401h122l-41 -580h-206l29 382l-97 -32l-43 170z" glyph-name="uni00B9" horiz-adv-x="645" unicode="¹"/><glyph d="M568 1353q138 0 225.5 -79t87.5 -212q0 -63 -25 -130.5t-72.5 -130t-135.5 -102.5t-201 -40q-143 0 -229.5 76t-86.5 209q0 186 125.5 297.5t311.5 111.5zM527 1114q-44 0 -69.5 -29t-30 -54.5t-4.5 -50.5q0 -82 63 -82q39 0 63 27t31 53.5t7 48.5q0 87 -60 87z" glyph-name="ordmasculine" horiz-adv-x="824" unicode="º"/><glyph d="M505 899l285 -426l-435 -427l-196 229l252 199l-186 197zM1024 899l285 -426l-435 -427l-196 229l252 199l-184 197z" glyph-name="guillemotright" horiz-adv-x="1476" unicode="»"/><glyph d="M1314 1420l174 -106l-1044 -1355l-181 99zM283 736l69 380l-99 -31l-26 171l244 60h123l-104 -580h-207zM1582 261l-32 -176h-75l-16 -85h-186l16 85h-224l-38 176l347 319h186l-56 -326zM1195 230l119 11l22 119z" glyph-name="onequarter" horiz-adv-x="1703" unicode="¼"/><glyph d="M1314 1420l174 -106l-1044 -1355l-181 99zM283 736l69 380l-99 -31l-26 171l244 60h123l-104 -580h-207zM1379 189l-10 -6l129 8l-32 -191h-423l30 162l192 140q5 5 16 15.5t17 16.5t13 15t9.5 19.5t2.5 24.5q3 31 -26 32q-14 0 -30 -11t-37.5 -28t-33.5 -26l-104 132 q118 104 248 104q82 0 136.5 -38.5t54.5 -117.5q0 -137 -152 -251z" glyph-name="onehalf" horiz-adv-x="1652" unicode="½"/><glyph d="M1427 1420l174 -106l-1045 -1355l-181 99zM602 925q0 -27 -10 -55.5t-36.5 -64t-87 -58.5t-147.5 -23q-73 0 -181 49l152 123h21.5t20.5 1t12 1q36 0 48 25q-5 17 -37 17q-3 0 -12.5 3.5t-25.5 5.5l-24 143l7 5l43 28l-91 -7l33 198h375l-34 -169l-121 -97 q95 -36 95 -125zM1695 261l-33 -176h-75l-15 -85h-186l15 85h-223l-38 176l347 319h186l-57 -326zM1307 230l120 11l22 119z" glyph-name="threequarters" horiz-adv-x="1815" unicode="¾"/><glyph d="M599 708q-65 0 -107.5 42t-42.5 107q0 85 59.5 152.5t146.5 67.5q67 0 108 -46t41 -116q0 -94 -57.5 -150.5t-147.5 -56.5zM724 7l252 -178q-72 -111 -211.5 -189.5t-313.5 -78.5q-213 0 -334.5 110.5t-121.5 284.5q0 393 423 486l67 176h223l19 -417q-140 0 -221 -26.5 t-108.5 -68t-27.5 -108.5q0 -68 41 -99.5t86 -31.5q108 0 227 140z" glyph-name="questiondown" horiz-adv-x="1163" unicode="¿"/><glyph d="M1070 1565l-68 -116l-429 94l134 252zM986 0l-39 239h-473l-121 -239h-385l715 1319h431l256 -1319h-384zM645 573h246l-60 364z" glyph-name="Agrave" unicode="À"/><glyph d="M1300 1543l-471 -94l-25 116l454 230zM986 0l-39 239h-473l-121 -239h-385l715 1319h431l256 -1319h-384zM645 573h246l-60 364z" glyph-name="Aacute" unicode="Á"/><glyph d="M951 1519l-263 -94l-62 118l323 234h82l247 -234l-102 -118zM986 0l-39 239h-473l-121 -239h-385l715 1319h431l256 -1319h-384zM645 573h246l-60 364z" glyph-name="Acircumflex" unicode="Â"/><glyph d="M807 1514q-73 0 -87 -104h-193q22 133 117 214t192 81q51 0 88 -25.5t66 -51t63 -25.5q29 0 42.5 23.5t22.5 73.5h193q-29 -155 -111 -227t-179 -72q-44 0 -78.5 18t-51.5 38.5t-39.5 38.5t-44.5 18zM986 0l-39 239h-473l-121 -239h-385l715 1319h431l256 -1319h-384z M645 573h246l-60 364z" glyph-name="Atilde" unicode="Ã"/><glyph d="M763 1434q-46 0 -75 32t-29 82q0 68 41 110t111 42q48 0 76.5 -30t28.5 -81q0 -58 -45 -106.5t-108 -48.5zM1096 1434q-46 0 -75 32t-29 82q0 68 41.5 110t109.5 42q49 0 77.5 -30t28.5 -81q0 -60 -44 -107.5t-109 -47.5zM986 0l-39 239h-473l-121 -239h-385l715 1319 h431l256 -1319h-384zM645 573h246l-60 364z" glyph-name="Adieresis" unicode="Ä"/><glyph d="M920 1406q-79 0 -123 50.5t-44 132.5q0 113 69 182.5t176 69.5q77 0 121.5 -48.5t44.5 -128.5q0 -102 -71 -180t-173 -78zM968 1702q-31 0 -56 -27.5t-25 -63.5q0 -27 17.5 -44t40.5 -17q38 0 60 25.5t22 62.5q0 26 -16 45t-43 19zM986 0l-39 239h-473l-121 -239h-385 l715 1319h431l256 -1319h-384zM645 573h246l-60 364z" glyph-name="Aring" unicode="Å"/><glyph d="M1871 983h-497l-29 -159h292l-63 -336h-289l-27 -152h503l-61 -336h-835l41 230h-370l-179 -230h-398l1126 1319h845zM749 502h203l60 336z" glyph-name="AE" horiz-adv-x="1906" unicode="Æ"/><glyph d="M748 302q142 0 276 142l259 -210q-225 -241 -547 -260l-16 -63q84 -3 143.5 -49t37.5 -142q-19 -72 -58 -114.5t-78.5 -57t-100 -9.5t-97 15.5t-94.5 29.5l58 145q29 -19 76.5 -33.5t90.5 -10.5t48 37q5 27 -12 46t-48.5 25t-54.5 7.5t-42 -0.5l48 174q-234 17 -375 177 t-141 402q0 224 107.5 406.5t293 286.5t408.5 104q169 0 301.5 -68.5t202.5 -187.5l-333 -210q-84 140 -224 140q-176 0 -281.5 -128t-105.5 -302q0 -130 66 -211t192 -81z" glyph-name="Ccedilla" horiz-adv-x="1392" unicode="Ç"/><glyph d="M911 1565l-68 -116l-428 94l133 252zM1130 1002h-536l-33 -185h425l-51 -319h-428l-33 -181h531l-53 -317h-884l231 1319h884z" glyph-name="Egrave" horiz-adv-x="1163" unicode="È"/><glyph d="M1142 1543l-471 -94l-26 116l454 230zM1130 1002h-536l-33 -185h425l-51 -319h-428l-33 -181h531l-53 -317h-884l231 1319h884z" glyph-name="Eacute" horiz-adv-x="1163" unicode="É"/><glyph d="M792 1519l-263 -94l-61 118l322 234h82l248 -234l-103 -118zM1130 1002h-536l-33 -185h425l-51 -319h-428l-33 -181h531l-53 -317h-884l231 1319h884z" glyph-name="Ecircumflex" horiz-adv-x="1163" unicode="Ê"/><glyph d="M604 1434q-46 0 -75 32t-29 82q0 68 41 110t111 42q48 0 77 -30t29 -81q0 -58 -45.5 -106.5t-108.5 -48.5zM937 1434q-46 0 -75 32t-29 82q0 68 41.5 110t110.5 42q49 0 77.5 -30t28.5 -81q0 -60 -44.5 -107.5t-109.5 -47.5zM1130 1002h-536l-33 -185h425l-51 -319h-428 l-33 -181h531l-53 -317h-884l231 1319h884z" glyph-name="Edieresis" horiz-adv-x="1163" unicode="Ë"/><glyph d="M582 1449l-428 94l133 252l363 -230zM430 0h-362l231 1319h361z" glyph-name="Igrave" horiz-adv-x="660" unicode="Ì"/><glyph d="M410 1449l-26 116l454 230l43 -252zM430 0h-362l231 1319h361z" glyph-name="Iacute" horiz-adv-x="660" unicode="Í"/><glyph d="M529 1777h82l247 -234l-102 -118l-225 94l-263 -94l-61 118zM430 0h-362l231 1319h361z" glyph-name="Icircumflex" horiz-adv-x="660" unicode="Î"/><glyph d="M391 1700q48 0 77 -30t29 -81q0 -58 -45.5 -106.5t-108.5 -48.5q-46 0 -75 32t-29 82q0 68 41 110t111 42zM724 1700q49 0 77 -30t28 -81q0 -60 -44 -107.5t-109 -47.5q-46 0 -75 32t-29 82q0 68 42 110t110 42zM430 0h-362l231 1319h361z" glyph-name="Idieresis" horiz-adv-x="660" unicode="Ï"/><glyph d="M807 1319q251 0 399.5 -149t148.5 -397q0 -341 -223.5 -557t-558.5 -216h-469l84 476h-99l63 336h95l91 507h469zM628 336q160 0 248 107.5t88 281.5q0 114 -58 186t-162 72h-97l-31 -171h234l-63 -336h-231l-24 -140h96z" glyph-name="Eth" horiz-adv-x="1426" unicode="Ð"/><glyph d="M860 1514q-73 0 -87 -104h-193q22 133 117 214t192 81q51 0 88 -25.5t66 -51t63 -25.5q29 0 42.5 23.5t22.5 73.5h193q-29 -155 -111 -227t-180 -72q-44 0 -78 18t-51 38.5t-39.5 38.5t-44.5 18zM1114 1319h369l-230 -1319h-376q12 43 8 91.5t-7.5 82.5t-21.5 76 t-33.5 72t-42.5 68t-51 67t-58 69l-96 104l-109 -630h-369l231 1319h373q-26 -143 31.5 -267.5t187.5 -266.5l85 -90z" glyph-name="Ntilde" horiz-adv-x="1510" unicode="Ñ"/><glyph d="M995 1449l-428 94l133 252l363 -230zM898 1348q251 0 396 -152t145 -408q0 -346 -220.5 -581.5t-558.5 -235.5q-247 0 -393 158t-146 414q0 222 100 406t278.5 291.5t398.5 107.5zM845 1022q-171 0 -263 -128.5t-92 -313.5q0 -128 55.5 -204t173.5 -76q172 0 262.5 127.5 t90.5 320.5q0 128 -56.5 201t-170.5 73z" glyph-name="Ograve" horiz-adv-x="1495" unicode="Ò"/><glyph d="M823 1449l-26 116l454 230l43 -252zM898 1348q251 0 396 -152t145 -408q0 -346 -220.5 -581.5t-558.5 -235.5q-247 0 -393 158t-146 414q0 222 100 406t278.5 291.5t398.5 107.5zM845 1022q-171 0 -263 -128.5t-92 -313.5q0 -128 55.5 -204t173.5 -76q172 0 262.5 127.5 t90.5 320.5q0 128 -56.5 201t-170.5 73z" glyph-name="Oacute" horiz-adv-x="1495" unicode="Ó"/><glyph d="M942 1777h82l247 -234l-102 -118l-225 94l-263 -94l-61 118zM898 1348q251 0 396 -152t145 -408q0 -346 -220.5 -581.5t-558.5 -235.5q-247 0 -393 158t-146 414q0 222 100 406t278.5 291.5t398.5 107.5zM845 1022q-171 0 -263 -128.5t-92 -313.5q0 -128 55.5 -204 t173.5 -76q172 0 262.5 127.5t90.5 320.5q0 128 -56.5 201t-170.5 73z" glyph-name="Ocircumflex" horiz-adv-x="1495" unicode="Ô"/><glyph d="M713 1410h-192q22 133 116.5 214t191.5 81q51 0 88 -25.5t66 -51t63 -25.5q29 0 43 23.5t22 73.5h193q-29 -155 -111 -227t-179 -72q-44 0 -78.5 18t-51.5 38.5t-39 38.5t-45 18q-73 0 -87 -104zM898 1348q251 0 396 -152t145 -408q0 -346 -220.5 -581.5t-558.5 -235.5 q-247 0 -393 158t-146 414q0 222 100 406t278.5 291.5t398.5 107.5zM845 1022q-171 0 -263 -128.5t-92 -313.5q0 -128 55.5 -204t173.5 -76q172 0 262.5 127.5t90.5 320.5q0 128 -56.5 201t-170.5 73z" glyph-name="Otilde" horiz-adv-x="1495" unicode="Õ"/><glyph d="M804 1700q48 0 77 -30t29 -81q0 -58 -45.5 -106.5t-108.5 -48.5q-46 0 -75 32t-29 82q0 68 41 110t111 42zM1137 1700q49 0 77 -30t28 -81q0 -60 -44 -107.5t-109 -47.5q-46 0 -75 32t-29 82q0 68 42 110t110 42zM898 1348q251 0 396 -152t145 -408q0 -346 -220.5 -581.5 t-558.5 -235.5q-247 0 -393 158t-146 414q0 222 100 406t278.5 291.5t398.5 107.5zM845 1022q-171 0 -263 -128.5t-92 -313.5q0 -128 55.5 -204t173.5 -76q172 0 262.5 127.5t90.5 320.5q0 128 -56.5 201t-170.5 73z" glyph-name="Odieresis" horiz-adv-x="1495" unicode="Ö"/><glyph d="M1012 876l-193 -166l152 -184l-280 -241l-153 186l-192 -164l-179 224l186 160l-140 169l280 244l142 -170l189 162z" glyph-name="multiply" horiz-adv-x="1107" unicode="×"/><glyph d="M1592 1167l-182 -155q36 -99 36 -224q0 -227 -98.5 -413.5t-277.5 -295t-401 -108.5q-207 0 -346 116l-166 -142l-166 207l180 153q-39 108 -40 238q0 340 221 572.5t558 232.5q208 0 350 -114l163 140zM855 1015q-167 0 -259.5 -125t-93.5 -303l469 401q-51 27 -116 27z M727 307q169 0 258.5 119.5t93.5 303.5l-466 -395q49 -28 114 -28z" glyph-name="Oslash" horiz-adv-x="1510" unicode="Ø"/><glyph d="M964 1449l-428 94l133 252l364 -230zM1463 1319l-115 -647q-61 -352 -220 -527.5t-485 -175.5q-225 0 -343.5 85.5t-139 241.5t16.5 376l113 647h359l-105 -594q-20 -119 -20 -206t13.5 -132.5t43.5 -71t54.5 -31.5t59.5 -6q46 0 81 13.5t77.5 55.5t78.5 137.5t61 240.5 l104 594h366z" glyph-name="Ugrave" horiz-adv-x="1452" unicode="Ù"/><glyph d="M792 1449l-26 116l454 230l43 -252zM1463 1319l-115 -647q-61 -352 -220 -527.5t-485 -175.5q-225 0 -343.5 85.5t-139 241.5t16.5 376l113 647h359l-105 -594q-20 -119 -20 -206t13.5 -132.5t43.5 -71t54.5 -31.5t59.5 -6q46 0 81 13.5t77.5 55.5t78.5 137.5t61 240.5 l104 594h366z" glyph-name="Uacute" horiz-adv-x="1452" unicode="Ú"/><glyph d="M911 1777h82l248 -234l-103 -118l-225 94l-263 -94l-61 118zM1463 1319l-115 -647q-61 -352 -220 -527.5t-485 -175.5q-225 0 -343.5 85.5t-139 241.5t16.5 376l113 647h359l-105 -594q-20 -119 -20 -206t13.5 -132.5t43.5 -71t54.5 -31.5t59.5 -6q46 0 81 13.5 t77.5 55.5t78.5 137.5t61 240.5l104 594h366z" glyph-name="Ucircumflex" horiz-adv-x="1452" unicode="Û"/><glyph d="M773 1700q48 0 77 -30t29 -81q0 -58 -45.5 -106.5t-108.5 -48.5q-46 0 -75 32t-29 82q0 68 41 110t111 42zM1106 1700q49 0 77.5 -30t28.5 -81q0 -60 -44.5 -107.5t-109.5 -47.5q-46 0 -75 32t-29 82q0 68 42 110t110 42zM1463 1319l-115 -647q-61 -352 -220 -527.5 t-485 -175.5q-225 0 -343.5 85.5t-139 241.5t16.5 376l113 647h359l-105 -594q-20 -119 -20 -206t13.5 -132.5t43.5 -71t54.5 -31.5t59.5 -6q46 0 81 13.5t77.5 55.5t78.5 137.5t61 240.5l104 594h366z" glyph-name="Udieresis" horiz-adv-x="1452" unicode="Ü"/><glyph d="M1132 1527l-472 -93l-25 116l454 230zM1300 1319l-503 -771h-3l-98 -548h-380l97 550l-236 769h412l60 -508l240 508h411z" glyph-name="Yacute" horiz-adv-x="1184" unicode="Ý"/><glyph d="M1159 771q0 -251 -159 -385.5t-520 -141.5l-43 -244h-369l231 1318h368l-30 -175q268 -7 395 -106.5t127 -265.5zM532 551q60 0 85.5 1t63.5 9.5t52.5 25.5t26 49.5t11.5 82.5q0 29 -10 49t-24.5 31.5t-42.5 17.5t-51 6.5t-63 0.5z" glyph-name="Thorn" horiz-adv-x="1192" unicode="Þ"/><glyph d="M38 -159q68 167 122 482l64 341q113 655 624 655q174 0 284 -86t110 -223q0 -67 -17.5 -118.5t-53.5 -86.5t-64 -56.5t-76 -46t-62 -33.5q-9 -7 -22 -15.5t-19 -12.5t-15.5 -11t-13 -11.5t-8 -10.5t-6 -11t-1.5 -12q0 -20 29 -35.5t72.5 -26.5t95 -31.5t95 -47t72.5 -77 t29 -116.5q0 -133 -115.5 -204t-321.5 -71q-111 0 -208.5 31t-136.5 68l152 219q39 -29 108 -60t136 -31q51 0 72.5 12t21.5 43q0 32 -60 56t-131.5 42t-131.5 69t-60 131q0 53 32.5 102t65 75t92.5 67q15 10 40 26.5t35 22.5t27 18t23 17t15.5 14.5t13 16.5t7.5 16t5 19.5 t1 22.5q0 44 -42.5 67t-93.5 23q-236 0 -306 -397l-61 -343q-65 -350 -139 -547z" glyph-name="germandbls" horiz-adv-x="1402" unicode="ß"/><glyph d="M734 1184l-68 -116l-429 94l133 253zM1167 292l5 -263q-382 -126 -452 87q-118 -143 -327 -143q-167 0 -264 106.5t-97 285.5q0 258 146 429.5t346 171.5q196 0 275 -142l20 115h345l-92 -550q-12 -61 12.5 -82.5t82.5 -14.5zM539 287q72 0 123 39t68 111l7 37q2 10 2 33 q0 68 -36 106.5t-102 38.5q-90 0 -146 -61.5t-56 -157.5q0 -70 36.5 -108t103.5 -38z" glyph-name="agrave" horiz-adv-x="1274" unicode="à"/><glyph d="M964 1162l-471 -94l-25 116l454 231zM1167 292l5 -263q-382 -126 -452 87q-118 -143 -327 -143q-167 0 -264 106.5t-97 285.5q0 258 146 429.5t346 171.5q196 0 275 -142l20 115h345l-92 -550q-12 -61 12.5 -82.5t82.5 -14.5zM539 287q72 0 123 39t68 111l7 37q2 10 2 33 q0 68 -36 106.5t-102 38.5q-90 0 -146 -61.5t-56 -157.5q0 -70 36.5 -108t103.5 -38z" glyph-name="aacute" horiz-adv-x="1274" unicode="á"/><glyph d="M614 1138l-262 -94l-62 118l323 234h82l247 -234l-102 -118zM1167 292l5 -263q-382 -126 -452 87q-118 -143 -327 -143q-167 0 -264 106.5t-97 285.5q0 258 146 429.5t346 171.5q196 0 275 -142l20 115h345l-92 -550q-12 -61 12.5 -82.5t82.5 -14.5zM539 287q72 0 123 39 t68 111l7 37q2 10 2 33q0 68 -36 106.5t-102 38.5q-90 0 -146 -61.5t-56 -157.5q0 -70 36.5 -108t103.5 -38z" glyph-name="acircumflex" horiz-adv-x="1274" unicode="â"/><glyph d="M505 1133q-73 0 -87 -104h-193q22 133 117 214t192 81q51 0 88 -25.5t66 -51t63 -25.5q29 0 42.5 24t22.5 73h193q-29 -155 -111 -226.5t-179 -71.5q-44 0 -78.5 17.5t-51.5 38t-39.5 38.5t-44.5 18zM1167 292l5 -263q-382 -126 -452 87q-118 -143 -327 -143 q-167 0 -264 106.5t-97 285.5q0 258 146 429.5t346 171.5q196 0 275 -142l20 115h345l-92 -550q-12 -61 12.5 -82.5t82.5 -14.5zM539 287q72 0 123 39t68 111l7 37q2 10 2 33q0 68 -36 106.5t-102 38.5q-90 0 -146 -61.5t-56 -157.5q0 -70 36.5 -108t103.5 -38z" glyph-name="atilde" horiz-adv-x="1274" unicode="ã"/><glyph d="M427 1053q-46 0 -75 32.5t-29 81.5q0 68 40.5 110t110.5 42q48 0 77 -29.5t29 -81.5q0 -58 -45 -106.5t-108 -48.5zM759 1053q-46 0 -75 32.5t-29 81.5q0 68 42 110t110 42q49 0 77.5 -29.5t28.5 -81.5q0 -60 -44.5 -107.5t-109.5 -47.5zM1167 292l5 -263 q-382 -126 -452 87q-118 -143 -327 -143q-167 0 -264 106.5t-97 285.5q0 258 146 429.5t346 171.5q196 0 275 -142l20 115h345l-92 -550q-12 -61 12.5 -82.5t82.5 -14.5zM539 287q72 0 123 39t68 111l7 37q2 10 2 33q0 68 -36 106.5t-102 38.5q-90 0 -146 -61.5t-56 -157.5 q0 -70 36.5 -108t103.5 -38z" glyph-name="adieresis" horiz-adv-x="1274" unicode="ä"/><glyph d="M584 1026q-79 0 -123.5 50t-44.5 132q0 113 69.5 183t176.5 70q77 0 121.5 -48.5t44.5 -129.5q0 -102 -71 -179.5t-173 -77.5zM631 1321q-31 0 -55.5 -27.5t-24.5 -62.5q0 -27 17 -44.5t41 -17.5q38 0 60 25.5t22 63.5q0 26 -16.5 44.5t-43.5 18.5zM1167 292l5 -263 q-382 -126 -452 87q-118 -143 -327 -143q-167 0 -264 106.5t-97 285.5q0 258 146 429.5t346 171.5q196 0 275 -142l20 115h345l-92 -550q-12 -61 12.5 -82.5t82.5 -14.5zM539 287q72 0 123 39t68 111l7 37q2 10 2 33q0 68 -36 106.5t-102 38.5q-90 0 -146 -61.5t-56 -157.5 q0 -70 36.5 -108t103.5 -38z" glyph-name="aring" horiz-adv-x="1274" unicode="å"/><glyph d="M1205 966q169 0 275.5 -79.5t81.5 -232.5q-15 -89 -71.5 -157.5t-142 -110t-177 -65.5t-196.5 -34q27 -43 117 -43q44 0 86 8.5t102.5 27.5t84.5 25l94 -254q-113 -46 -181 -62t-157 -16q-317 0 -408 242q-67 -109 -176.5 -179t-248.5 -70q-131 0 -208 70t-77 193 q0 179 119.5 272t299.5 93q99 0 186 -24q-22 84 -176 84q-131 0 -272 -63l-58 296q217 79 391 79q232 0 324 -201q158 201 388 201zM1254 642q3 27 -17 40t-47 13q-56 0 -118.5 -44.5t-91.5 -133.5q254 19 274 125zM430 229q82 0 131 90q-51 12 -102 12h-11h-14.5t-15.5 -1 t-17 -3.5t-15.5 -6t-13.5 -10t-7 -15.5q-15 -66 65 -66z" glyph-name="ae" horiz-adv-x="1575" unicode="æ"/><glyph d="M488 278q79 0 166 70l232 -169q-148 -189 -406 -205l-16 -63q84 -3 143.5 -49t37.5 -142q-19 -72 -58 -114.5t-78.5 -57t-100 -9.5t-97 15.5t-94.5 29.5l58 145q29 -19 76.5 -33.5t90.5 -10.5t48 37q5 27 -12 46t-48.5 25t-54.5 7.5t-42 -0.5l48 176 q-160 15 -257.5 113.5t-97.5 270.5q0 266 167 436t418 170q119 0 225 -58t149 -147l-289 -169q-56 73 -126 74q-94 0 -143.5 -72.5t-49.5 -177.5q0 -67 34 -102.5t77 -35.5z" glyph-name="ccedilla" horiz-adv-x="965" unicode="ç"/><glyph d="M812 1184l-68 -116l-428 94l133 253zM1009 707q0 -109 -50.5 -190.5t-140 -128.5t-193.5 -71.5t-231 -33.5q29 -65 147 -65q84 0 270 77l94 -244q-188 -79 -403 -78q-244 0 -357.5 115t-113.5 303q0 230 181 402.5t433 172.5q152 0 258 -64.5t106 -194.5zM401 517 q135 14 226.5 48t91.5 89q0 67 -72 66.5t-143.5 -55t-102.5 -148.5z" glyph-name="egrave" horiz-adv-x="1020" unicode="è"/><glyph d="M1043 1162l-471 -94l-26 116l454 231zM645 966q152 0 258 -65t106 -194q0 -109 -50.5 -190.5t-140 -128.5t-193.5 -71.5t-231 -33.5q29 -65 147 -65q84 0 270 77l94 -244q-188 -79 -403 -78q-244 0 -357.5 115t-113.5 303q0 230 180.5 402.5t433.5 172.5zM401 517 q135 14 226.5 48t91.5 89q0 67 -72 66.5t-143.5 -55t-102.5 -148.5z" glyph-name="eacute" horiz-adv-x="1020" unicode="é"/><glyph d="M693 1138l-263 -94l-61 118l322 234h82l248 -234l-103 -118zM645 966q152 0 258 -65t106 -194q0 -109 -50.5 -190.5t-140 -128.5t-193.5 -71.5t-231 -33.5q29 -65 147 -65q84 0 270 77l94 -244q-188 -79 -403 -78q-244 0 -357.5 115t-113.5 303q0 230 180.5 402.5 t433.5 172.5zM401 517q135 14 226.5 48t91.5 89q0 67 -72 66.5t-143.5 -55t-102.5 -148.5z" glyph-name="ecircumflex" horiz-adv-x="1020" unicode="ê"/><glyph d="M505 1053q-46 0 -75 32.5t-29 81.5q0 68 41 110t111 42q48 0 77 -29.5t29 -81.5q0 -58 -45.5 -106.5t-108.5 -48.5zM838 1053q-46 0 -75 32.5t-29 81.5q0 68 41.5 110t110.5 42q49 0 77.5 -29.5t28.5 -81.5q0 -60 -44.5 -107.5t-109.5 -47.5zM1009 707 q0 -109 -50.5 -190.5t-140 -128.5t-193.5 -71.5t-231 -33.5q29 -65 147 -65q84 0 270 77l94 -244q-188 -79 -403 -78q-244 0 -357.5 115t-113.5 303q0 230 181 402.5t433 172.5q152 0 258 -64.5t106 -194.5zM401 517q135 14 226.5 48t91.5 89q0 67 -72 66.5t-143.5 -55 t-102.5 -148.5z" glyph-name="edieresis" horiz-adv-x="1020" unicode="ë"/><glyph d="M553 1068l-428 94l133 253l363 -231zM637 292l5 -263q-89 -29 -160.5 -40t-139 -1.5t-106 50.5t-57.5 116t5 194l104 591h345l-92 -550q-12 -61 13 -82.5t83 -14.5z" glyph-name="igrave" horiz-adv-x="701" unicode="ì"/><glyph d="M381 1068l-26 116l454 231l43 -253zM637 292l5 -263q-89 -29 -160.5 -40t-139 -1.5t-106 50.5t-57.5 116t5 194l104 591h345l-92 -550q-12 -61 13 -82.5t83 -14.5z" glyph-name="iacute" horiz-adv-x="701" unicode="í"/><glyph d="M500 1396h82l247 -234l-102 -118l-225 94l-263 -94l-62 118zM637 292l5 -263q-89 -29 -160.5 -40t-139 -1.5t-106 50.5t-57.5 116t5 194l104 591h345l-92 -550q-12 -61 13 -82.5t83 -14.5z" glyph-name="icircumflex" horiz-adv-x="701" unicode="î"/><glyph d="M362 1319q48 0 77 -29.5t29 -81.5q0 -58 -45.5 -106.5t-108.5 -48.5q-46 0 -75 32.5t-29 81.5q0 68 41 110t111 42zM695 1319q49 0 77 -29.5t28 -81.5q0 -60 -44 -107.5t-109 -47.5q-46 0 -75 32.5t-29 81.5q0 68 42 110t110 42zM637 292l5 -263q-89 -29 -160.5 -40 t-139 -1.5t-106 50.5t-57.5 116t5 194l104 591h345l-92 -550q-12 -61 13 -82.5t83 -14.5z" glyph-name="idieresis" horiz-adv-x="701" unicode="ï"/><glyph d="M1121 1184l-133 -68q87 -166 87 -360q0 -143 -40 -279.5t-116 -251t-202 -184.5t-285 -70q-160 0 -271.5 86t-138.5 221q-17 131 21.5 244t113.5 184t170 110t194 39q137 0 213 -101q-7 101 -58 203l-188 -95l-63 196l118 62q-60 51 -121 80l167 292q143 -48 281 -205 l190 97zM493 265q143 0 208 208q-27 53 -75.5 82.5t-81.5 29.5q-63 0 -104.5 -52t-52.5 -117q-2 -29 -1.5 -62t28.5 -61t79 -28z" glyph-name="eth" horiz-adv-x="1114" unicode="ð"/><glyph d="M515 1133q-73 0 -87 -104h-192q22 133 116.5 214t191.5 81q51 0 88 -25.5t66 -51t63 -25.5q29 0 42.5 24t22.5 73h193q-29 -155 -111 -226.5t-179 -71.5q-44 0 -78.5 17.5t-51.5 38t-39.5 38.5t-44.5 18zM795 963q68 0 122 -18t98.5 -60t56.5 -113t-2 -178l-106 -594 h-372l94 515q14 44 5.5 81t-51.5 37q-72 0 -164 -53h-2l-102 -580h-369l164 939h282l36 -106q151 130 310 130zM321 660q-5 -9 -10 -22l-7 -12q2 2 5 7q10 14 17 24z" glyph-name="ntilde" horiz-adv-x="1129" unicode="ñ"/><glyph d="M705 1068l-429 94l134 253l363 -231zM650 966q198 0 321 -113.5t123 -306.5q0 -94 -36 -191t-106.5 -184t-193.5 -142.5t-278 -55.5q-201 0 -322.5 109t-121.5 299q0 263 177.5 424t436.5 161zM596 659q-80 0 -131.5 -74.5t-51.5 -147.5q0 -61 27.5 -109t90.5 -48 q79 0 134 71t55 144q0 63 -30.5 113.5t-93.5 50.5z" glyph-name="ograve" horiz-adv-x="1129" unicode="ò"/><glyph d="M532 1068l-25 116l454 231l43 -253zM650 966q198 0 321 -113.5t123 -306.5q0 -94 -36 -191t-106.5 -184t-193.5 -142.5t-278 -55.5q-201 0 -322.5 109t-121.5 299q0 263 177.5 424t436.5 161zM596 659q-80 0 -131.5 -74.5t-51.5 -147.5q0 -61 27.5 -109t90.5 -48 q79 0 134 71t55 144q0 63 -30.5 113.5t-93.5 50.5z" glyph-name="oacute" horiz-adv-x="1129" unicode="ó"/><glyph d="M652 1396h82l247 -234l-102 -118l-225 94l-263 -94l-62 118zM650 966q198 0 321 -113.5t123 -306.5q0 -94 -36 -191t-106.5 -184t-193.5 -142.5t-278 -55.5q-201 0 -322.5 109t-121.5 299q0 263 177.5 424t436.5 161zM596 659q-80 0 -131.5 -74.5t-51.5 -147.5 q0 -61 27.5 -109t90.5 -48q79 0 134 71t55 144q0 63 -30.5 113.5t-93.5 50.5z" glyph-name="ocircumflex" horiz-adv-x="1129" unicode="ô"/><glyph d="M423 1029h-193q22 133 117 214t192 81q51 0 88 -25.5t66 -51t63 -25.5q29 0 42.5 24t22.5 73h193q-29 -155 -111 -226.5t-179 -71.5q-44 0 -78.5 17.5t-51.5 38t-39.5 38.5t-44.5 18q-73 0 -87 -104zM650 966q198 0 321 -113.5t123 -306.5q0 -94 -36 -191t-106.5 -184 t-193.5 -142.5t-278 -55.5q-201 0 -322.5 109t-121.5 299q0 263 177.5 424t436.5 161zM596 659q-80 0 -131.5 -74.5t-51.5 -147.5q0 -61 27.5 -109t90.5 -48q79 0 134 71t55 144q0 63 -30.5 113.5t-93.5 50.5z" glyph-name="otilde" horiz-adv-x="1129" unicode="õ"/><glyph d="M514 1319q48 0 77 -29.5t29 -81.5q0 -58 -45.5 -106.5t-108.5 -48.5q-46 0 -75 32.5t-29 81.5q0 68 41 110t111 42zM847 1319q49 0 77 -29.5t28 -81.5q0 -60 -44 -107.5t-109 -47.5q-46 0 -75 32.5t-29 81.5q0 68 42 110t110 42zM650 966q198 0 321 -113.5t123 -306.5 q0 -94 -36 -191t-106.5 -184t-193.5 -142.5t-278 -55.5q-201 0 -322.5 109t-121.5 299q0 263 177.5 424t436.5 161zM596 659q-80 0 -131.5 -74.5t-51.5 -147.5q0 -61 27.5 -109t90.5 -48q79 0 134 71t55 144q0 63 -30.5 113.5t-93.5 50.5z" glyph-name="odieresis" horiz-adv-x="1129" unicode="ö"/><glyph d="M676 1201q53 0 82.5 -33t29.5 -89q0 -68 -49.5 -123t-118.5 -55q-53 0 -85 37t-32 91q0 79 46.5 125.5t126.5 46.5zM1005 828l-46 -246h-799l48 246h797zM551 509q53 0 84.5 -33.5t31.5 -89.5q0 -68 -51 -123t-119 -55q-53 0 -84.5 37t-31.5 93q0 77 47.5 124t122.5 47z " glyph-name="divide" horiz-adv-x="1087" unicode="÷"/><glyph d="M1111 879l-99 -84q72 -104 72 -245q0 -96 -37 -193.5t-107.5 -185t-194.5 -143t-279 -55.5q-191 0 -311 100l-85 -71l-63 82l80 68q-61 99 -61 232q0 261 177.5 421.5t441.5 160.5q172 0 290 -90l101 85zM398 437q0 -12 1 -19l255 217q-27 24 -69 24q-79 0 -133 -75 t-54 -147zM710 495q0 15 -3 43l-267 -224q31 -34 77 -34q82 0 137.5 71t55.5 144z" glyph-name="oslash" horiz-adv-x="1111" unicode="ø"/><glyph d="M787 1184l-68 -116l-429 94l133 253zM756 939h369l-161 -939h-283l-36 108q-150 -131 -310 -132q-147 0 -229 86t-48 283l106 594h367l-84 -466q-12 -44 -4 -82t50 -38q72 0 166 55l3 -4z" glyph-name="ugrave" horiz-adv-x="1133" unicode="ù"/><glyph d="M1017 1162l-471 -94l-25 116l454 231zM756 939h369l-161 -939h-283l-36 108q-150 -131 -310 -132q-147 0 -229 86t-48 283l106 594h367l-84 -466q-12 -44 -4 -82t50 -38q72 0 166 55l3 -4z" glyph-name="uacute" horiz-adv-x="1133" unicode="ú"/><glyph d="M667 1138l-263 -94l-61 118l323 234h82l247 -234l-102 -118zM756 939h369l-161 -939h-283l-36 108q-150 -131 -310 -132q-147 0 -229 86t-48 283l106 594h367l-84 -466q-12 -44 -4 -82t50 -38q72 0 166 55l3 -4z" glyph-name="ucircumflex" horiz-adv-x="1133" unicode="û"/><glyph d="M480 1053q-46 0 -75.5 32.5t-29.5 81.5q0 68 41 110t111 42q48 0 77 -29.5t29 -81.5q0 -58 -45 -106.5t-108 -48.5zM812 1053q-46 0 -75 32.5t-29 81.5q0 68 42 110t110 42q49 0 77.5 -29.5t28.5 -81.5q0 -60 -44.5 -107.5t-109.5 -47.5zM756 939h369l-161 -939h-283 l-36 108q-150 -131 -310 -132q-147 0 -229 86t-48 283l106 594h367l-84 -466q-12 -44 -4 -82t50 -38q72 0 166 55l3 -4z" glyph-name="udieresis" horiz-adv-x="1133" unicode="ü"/><glyph d="M990 1162l-471 -94l-26 116l454 231zM807 939h357l-174 -985q-17 -96 -55.5 -174.5t-107.5 -146.5t-184.5 -106.5t-267.5 -38.5q-174 0 -295 71.5t-165 169.5l290 194q43 -70 85.5 -104t105.5 -34q205 0 246 215l12 68q-128 -92 -261 -92q-147 0 -229 86t-48 283l106 594 h370l-83 -466q-12 -44 -5.5 -82t49.5 -38q70 0 160 51z" glyph-name="yacute" horiz-adv-x="1169" unicode="ý"/><glyph d="M787 966q166 0 270 -114.5t104 -300.5q0 -241 -163 -409.5t-397 -168.5q-137 0 -224 75l-97 -560h-369l343 1963h369l-53 -297l-46 -263q118 75 263 75zM594 287q79 0 144.5 57t65.5 149q0 73 -42 116t-103 43q-68 0 -128 -46t-77 -118l-3 -22q-2 -9 -2 -24 q0 -72 42 -113.5t103 -41.5z" glyph-name="thorn" horiz-adv-x="1196" unicode="þ"/><glyph d="M452 1053q-46 0 -75 32.5t-29 81.5q0 68 41 110t111 42q48 0 77 -29.5t29 -81.5q0 -58 -45.5 -106.5t-108.5 -48.5zM785 1053q-46 0 -75 32.5t-29 81.5q0 68 42 110t110 42q49 0 77.5 -29.5t28.5 -81.5q0 -60 -44.5 -107.5t-109.5 -47.5zM807 939h357l-174 -985 q-17 -96 -55.5 -174.5t-107.5 -146.5t-184.5 -106.5t-267.5 -38.5q-174 0 -295 71.5t-165 169.5l290 194q43 -70 85.5 -104t105.5 -34q205 0 246 215l12 68q-128 -92 -261 -92q-147 0 -229 86t-48 283l106 594h370l-83 -466q-12 -44 -5.5 -82t49.5 -38q70 0 160 51z" glyph-name="ydieresis" horiz-adv-x="1169" unicode="ÿ"/><glyph d="M1270 1647l-33 -198h-597l32 198h598zM986 0l-39 239h-473l-121 -239h-385l715 1319h431l256 -1319h-384zM645 573h246l-60 364z" glyph-name="Amacron" unicode="Ā"/><glyph d="M934 1266l-33 -198h-597l32 198h598zM1167 292l5 -263q-382 -126 -452 87q-118 -143 -327 -143q-167 0 -264 106.5t-97 285.5q0 258 146 429.5t346 171.5q196 0 275 -142l20 115h345l-92 -550q-12 -61 12.5 -82.5t82.5 -14.5zM539 287q72 0 123 39t68 111l7 37q2 10 2 33 q0 68 -36 106.5t-102 38.5q-90 0 -146 -61.5t-56 -157.5q0 -70 36.5 -108t103.5 -38z" glyph-name="amacron" horiz-adv-x="1274" unicode="ā"/><glyph d="M923 1440q-268 0 -220 260h203q-5 -5 -6.5 -25t12 -40t49.5 -20q79 0 78 85h203q-19 -113 -94 -186.5t-225 -73.5zM986 0l-39 239h-473l-121 -239h-385l715 1319h431l256 -1319h-384zM645 573h246l-60 364z" glyph-name="Abreve" unicode="Ă"/><glyph d="M587 1060q-268 0 -220 259h203q-5 -5 -7 -24.5t12 -40t50 -20.5q79 0 78 85h203q-19 -113 -94 -186t-225 -73zM1167 292l5 -263q-382 -126 -452 87q-118 -143 -327 -143q-167 0 -264 106.5t-97 285.5q0 258 146 429.5t346 171.5q196 0 275 -142l20 115h345l-92 -550 q-12 -61 12.5 -82.5t82.5 -14.5zM539 287q72 0 123 39t68 111l7 37q2 10 2 33q0 68 -36 106.5t-102 38.5q-90 0 -146 -61.5t-56 -157.5q0 -70 36.5 -108t103.5 -38z" glyph-name="abreve" horiz-adv-x="1274" unicode="ă"/><glyph d="M1019 -236q38 0 77 28l36 -99q-75 -68 -173 -77q-99 -5 -140 44.5t-17 131.5q60 114 186 208h-2l-39 239h-473l-121 -239h-385l715 1319h431l256 -1319h-254q-65 -72 -85.5 -96.5t-35.5 -52t-15 -51.5q0 -36 39 -36zM645 573h246l-60 364z" glyph-name="Aogonek" unicode="Ą"/><glyph d="M1161 -179l35 -99q-75 -68 -172 -77q-99 -5 -140 44.5t-17 131.5q44 84 135 165q-229 -29 -282 130q-118 -143 -327 -143q-167 0 -264 106.5t-97 285.5q0 258 146 429.5t346 171.5q196 0 275 -142l20 115h345l-92 -550q-12 -61 12.5 -82.5t82.5 -14.5l5 -261h11 q-65 -73 -86.5 -98t-37 -52.5t-15.5 -51.5q0 -36 40 -36q38 1 77 28zM539 287q72 0 123 39t68 111l7 37q2 10 2 33q0 68 -36 106.5t-102 38.5q-90 0 -146 -61.5t-56 -157.5q0 -70 36.5 -108t103.5 -38z" glyph-name="aogonek" horiz-adv-x="1274" unicode="ą"/><glyph d="M836 1449l-25 116l454 230l42 -252zM1434 1094l-333 -210q-84 140 -224 140q-176 0 -281.5 -128t-105.5 -302q0 -130 65.5 -211t192.5 -81q142 0 276 142l259 -210q-116 -123 -269.5 -192t-322.5 -69q-256 0 -413 162t-157 418q0 224 107.5 406.5t293 286.5t408.5 104 q169 0 301.5 -68.5t202.5 -187.5z" glyph-name="Cacute" horiz-adv-x="1392" unicode="Ć"/><glyph d="M507 1068l-26 116l454 231l43 -253zM26 360q0 266 167 436t418 170q119 0 225 -58t149 -147l-289 -169q-56 73 -126 74q-94 0 -143.5 -72.5t-49.5 -177.5q0 -67 34 -102.5t77 -35.5q79 0 166 70l232 -169q-162 -207 -447 -206q-183 0 -298 99.5t-115 287.5z" glyph-name="cacute" horiz-adv-x="965" unicode="ć"/><glyph d="M988 1777q75 0 117 -43t42 -116q0 -92 -64 -165.5t-160 -73.5q-72 0 -113.5 48t-41.5 121q0 99 62 164t158 65zM1434 1094l-333 -210q-84 140 -224 140q-176 0 -281.5 -128t-105.5 -302q0 -130 65.5 -211t192.5 -81q142 0 276 142l259 -210q-116 -123 -269.5 -192 t-322.5 -69q-256 0 -413 162t-157 418q0 224 107.5 406.5t293 286.5t408.5 104q169 0 301.5 -68.5t202.5 -187.5z" glyph-name="Cdotaccent" horiz-adv-x="1392" unicode="Ċ"/><glyph d="M659 1396q75 0 116.5 -42.5t41.5 -116.5q0 -92 -64 -165.5t-159 -73.5q-72 0 -113.5 48t-41.5 121q0 99 62 164t158 65zM26 360q0 266 167 436t418 170q119 0 225 -58t149 -147l-289 -169q-56 73 -126 74q-94 0 -143.5 -72.5t-49.5 -177.5q0 -67 34 -102.5t77 -35.5 q79 0 166 70l232 -169q-162 -207 -447 -206q-183 0 -298 99.5t-115 287.5z" glyph-name="cdotaccent" horiz-adv-x="965" unicode="ċ"/><glyph d="M901 1440l-247 234l104 118l220 -96l268 96l60 -118l-323 -234h-82zM1434 1094l-333 -210q-84 140 -224 140q-176 0 -281.5 -128t-105.5 -302q0 -130 65.5 -211t192.5 -81q142 0 276 142l259 -210q-116 -123 -269.5 -192t-322.5 -69q-256 0 -413 162t-157 418 q0 224 107.5 406.5t293 286.5t408.5 104q169 0 301.5 -68.5t202.5 -187.5z" glyph-name="Ccaron" horiz-adv-x="1392" unicode="Č"/><glyph d="M572 1060l-248 234l104 117l221 -95l267 95l60 -117l-322 -234h-82zM26 360q0 266 167 436t418 170q119 0 225 -58t149 -147l-289 -169q-56 73 -126 74q-94 0 -143.5 -72.5t-49.5 -177.5q0 -67 34 -102.5t77 -35.5q79 0 166 70l232 -169q-162 -207 -447 -206 q-183 0 -298 99.5t-115 287.5z" glyph-name="ccaron" horiz-adv-x="965" unicode="č"/><glyph d="M947 1440h-82l-247 234l104 118l220 -96l268 96l60 -118zM869 1319q249 0 397.5 -149t148.5 -397q0 -340 -223.5 -556.5t-553.5 -216.5h-570l231 1319h570zM689 329q160 0 252.5 110.5t92.5 285.5q0 119 -57 192t-161 73h-214l-114 -661h201z" glyph-name="Dcaron" horiz-adv-x="1472" unicode="Ď"/><glyph d="M1454 1473l229 -114l-323 -388l-104 51zM925 1468h350l-260 -1468h-252l-34 131q-137 -159 -343 -158q-162 0 -256 110t-94 292q0 249 149.5 420t384.5 171q166 0 246 -118zM543 287q65 0 124.5 45t76.5 115l5 31q2 5 2 19q0 73 -40 114t-103 41q-79 0 -144 -59t-65 -148 q0 -73 40.5 -115.5t103.5 -42.5z" glyph-name="dcaron" horiz-adv-x="1223" unicode="ď"/><glyph d="M807 1319q251 0 399.5 -149t148.5 -397q0 -341 -223.5 -557t-558.5 -216h-469l84 476h-99l63 336h95l91 507h469zM628 336q160 0 248 107.5t88 281.5q0 114 -58 186t-162 72h-97l-31 -171h234l-63 -336h-231l-24 -140h96z" glyph-name="Dcroat" horiz-adv-x="1426" unicode="Đ"/><glyph d="M1423 1311l-39 -210h-94l-193 -1101h-239l-37 131q-152 -159 -360 -158q-179 0 -275 106.5t-96 289.5q0 259 166 428t398 169q133 0 227 -94l39 229h-191l39 210h189l28 157h368l-27 -157h97zM609 302q79 0 138 50.5t59 144.5q0 68 -37 104t-100 36q-200 0 -200 -195 q0 -68 37.5 -104t102.5 -36z" glyph-name="dcroat" horiz-adv-x="1348" unicode="đ"/><glyph d="M1111 1647l-32 -198h-598l33 198h597zM1130 1002h-536l-33 -185h425l-51 -319h-428l-33 -181h531l-53 -317h-884l231 1319h884z" glyph-name="Emacron" horiz-adv-x="1163" unicode="Ē"/><glyph d="M1012 1266l-32 -198h-598l33 198h597zM645 966q152 0 258 -65t106 -194q0 -109 -50.5 -190.5t-140 -128.5t-193.5 -71.5t-231 -33.5q29 -65 147 -65q84 0 270 77l94 -244q-188 -79 -403 -78q-244 0 -357.5 115t-113.5 303q0 230 180.5 402.5t433.5 172.5zM401 517 q135 14 226.5 48t91.5 89q0 67 -72 66.5t-143.5 -55t-102.5 -148.5z" glyph-name="emacron" horiz-adv-x="1020" unicode="ē"/><glyph d="M758 1379q-72 0 -114 48t-42 121q0 99 62.5 164t158.5 65q75 0 116.5 -43t41.5 -116q0 -92 -63.5 -165.5t-159.5 -73.5zM1130 1002h-536l-33 -185h425l-51 -319h-428l-33 -181h531l-53 -317h-884l231 1319h884z" glyph-name="Edotaccent" horiz-adv-x="1163" unicode="Ė"/><glyph d="M659 998q-72 0 -114 48t-42 121q0 99 62.5 164t158.5 65q75 0 116.5 -42.5t41.5 -116.5q0 -92 -63.5 -165.5t-159.5 -73.5zM1009 707q0 -109 -50.5 -190.5t-140 -128.5t-193.5 -71.5t-231 -33.5q29 -65 147 -65q84 0 270 77l94 -244q-188 -79 -403 -78q-244 0 -357.5 115 t-113.5 303q0 230 181 402.5t433 172.5q152 0 258 -64.5t106 -194.5zM401 517q135 14 226.5 48t91.5 89q0 67 -72 66.5t-143.5 -55t-102.5 -148.5z" glyph-name="edotaccent" horiz-adv-x="1020" unicode="ė"/><glyph d="M1130 1002h-536l-33 -185h425l-51 -319h-428l-33 -181h531l-53 -317h-121q-87 -97 -111 -130.5t-24 -67.5q0 -36 40 -36q38 0 76 27l36 -98q-75 -68 -172 -77q-99 -5 -140 44.5t-17 130.5q61 114 182 207h-633l231 1319h884z" glyph-name="Eogonek" horiz-adv-x="1163" unicode="Ę"/><glyph d="M1009 707q0 -109 -50.5 -190.5t-140 -128.5t-193.5 -71.5t-231 -33.5q29 -65 147 -65q84 0 270 77l94 -244q-24 -10 -36 -13q-84 -92 -107 -125.5t-23 -67.5q0 -36 39 -36q38 0 77 27l36 -99q-75 -68 -172 -77q-99 -5 -140 44.5t-18 131.5q36 70 118 150 q-77 -14 -177 -13q-244 0 -357.5 115t-113.5 303q0 230 181 402.5t433 172.5q152 0 258 -64.5t106 -194.5zM401 517q135 14 226.5 48t91.5 89q0 67 -72 66.5t-143.5 -55t-102.5 -148.5z" glyph-name="eogonek" horiz-adv-x="1020" unicode="ę"/><glyph d="M817 1440h-81l-248 234l104 118l220 -96l268 96l60 -118zM1130 1002h-536l-33 -185h425l-51 -319h-428l-33 -181h531l-53 -317h-884l231 1319h884z" glyph-name="Ecaron" horiz-adv-x="1163" unicode="Ě"/><glyph d="M719 1060h-82l-248 234l104 117l220 -95l268 95l60 -117zM645 966q152 0 258 -65t106 -194q0 -109 -50.5 -190.5t-140 -128.5t-193.5 -71.5t-231 -33.5q29 -65 147 -65q84 0 270 77l94 -244q-188 -79 -403 -78q-244 0 -357.5 115t-113.5 303q0 230 180.5 402.5 t433.5 172.5zM401 517q135 14 226.5 48t91.5 89q0 67 -72 66.5t-143.5 -55t-102.5 -148.5z" glyph-name="ecaron" horiz-adv-x="1020" unicode="ě"/><glyph d="M911 1440q-268 0 -220 260h203q-5 -5 -6.5 -25t12 -40t49.5 -20q79 0 78 85h204q-19 -113 -94.5 -186.5t-225.5 -73.5zM1318 780l-101 -551q-106 -118 -254.5 -186.5t-310.5 -68.5q-237 0 -382 158t-145 414q0 341 221.5 574t546.5 233q164 0 288.5 -65.5t195.5 -183.5 l-300 -222q-38 60 -102.5 101t-150.5 41q-154 0 -242.5 -129.5t-88.5 -307.5q0 -128 58 -205.5t174 -77.5q75 0 120 31l22 116h-172l59 329h564z" glyph-name="Gbreve" horiz-adv-x="1389" unicode="Ğ"/><glyph d="M700 1060q-268 0 -220 259h203q-5 -5 -7 -24.5t11.5 -40t49.5 -20.5q79 0 79 85h203q-19 -113 -94 -186t-225 -73zM940 939h277l-171 -985q-17 -94 -56 -173.5t-108.5 -147.5t-179.5 -106.5t-251 -38.5q-195 0 -311 68.5t-167 172.5l288 194q43 -70 86.5 -104t108.5 -34 q203 0 242 215l17 97q-114 -89 -280 -88q-172 0 -268.5 104.5t-96.5 280.5q0 237 150 404.5t376 167.5q189 0 271 -155zM580 323q63 0 119.5 33t78.5 93l10 60v1q0 63 -41.5 102.5t-104.5 39.5q-77 0 -143 -51t-66 -135q0 -63 43 -103t104 -40z" glyph-name="gbreve" horiz-adv-x="1228" unicode="ğ"/><glyph d="M905 1379q-72 0 -114 48t-42 121q0 99 62.5 164t157.5 65q75 0 117 -43t42 -116q0 -92 -63.5 -165.5t-159.5 -73.5zM1318 780l-101 -551q-106 -118 -254.5 -186.5t-310.5 -68.5q-237 0 -382 158t-145 414q0 341 221.5 574t546.5 233q164 0 288.5 -65.5t195.5 -183.5 l-300 -222q-38 60 -102.5 101t-150.5 41q-154 0 -242.5 -129.5t-88.5 -307.5q0 -128 58 -205.5t174 -77.5q75 0 120 31l22 116h-172l59 329h564z" glyph-name="Gdotaccent" horiz-adv-x="1389" unicode="Ġ"/><glyph d="M693 998q-72 0 -113.5 48t-41.5 121q0 99 62 164t158 65q75 0 116.5 -42.5t41.5 -116.5q0 -92 -63.5 -165.5t-159.5 -73.5zM940 939h277l-171 -985q-17 -94 -56 -173.5t-108.5 -147.5t-179.5 -106.5t-251 -38.5q-195 0 -311 68.5t-167 172.5l288 194q43 -70 86.5 -104 t108.5 -34q203 0 242 215l17 97q-114 -89 -280 -88q-172 0 -268.5 104.5t-96.5 280.5q0 237 150 404.5t376 167.5q189 0 271 -155zM580 323q63 0 119.5 33t78.5 93l10 60v1q0 63 -41.5 102.5t-104.5 39.5q-77 0 -143 -51t-66 -135q0 -63 43 -103t104 -40z" glyph-name="gdotaccent" horiz-adv-x="1228" unicode="ġ"/><glyph d="M1318 780l-101 -551q-106 -118 -254.5 -186.5t-310.5 -68.5q-237 0 -382 158t-145 414q0 341 221.5 574t546.5 233q164 0 288.5 -65.5t195.5 -183.5l-300 -222q-38 60 -102.5 101t-150.5 41q-154 0 -242.5 -129.5t-88.5 -307.5q0 -128 58 -205.5t174 -77.5q75 0 120 31 l22 116h-172l59 329h564zM640 -116q70 0 106 -43.5t36 -118.5q0 -19 -7 -46h2q-44 -246 -311 -278l-10 105q67 10 99 23t53 44h-21q-58 0 -91 36t-33 94q0 80 51 132t126 52z" glyph-name="Gcommaaccent" horiz-adv-x="1389" unicode="Ģ"/><glyph d="M695 1038q-135 0 -135 157q0 135 80 224.5t229 106.5l17 -108q-65 -10 -100 -23t-59 -43h21q60 0 92 -36t32 -94q0 -84 -48.5 -134t-128.5 -50zM940 939h277l-171 -985q-17 -94 -56 -173.5t-108.5 -147.5t-179.5 -106.5t-251 -38.5q-195 0 -311 68.5t-167 172.5l288 194 q43 -70 86.5 -104t108.5 -34q203 0 242 215l17 97q-114 -89 -280 -88q-172 0 -268.5 104.5t-96.5 280.5q0 237 150 404.5t376 167.5q189 0 271 -155zM580 323q63 0 119.5 33t78.5 93l10 60v1q0 63 -41.5 102.5t-104.5 39.5q-77 0 -143 -51t-66 -135q0 -63 43 -103t104 -40z " glyph-name="gcommaaccent" horiz-adv-x="1228" unicode="ģ"/><glyph d="M1519 1082l-17 -118h-111l-169 -964h-369l86 490h-335l-85 -490h-367l169 964h-99l17 118h104l41 237h367l-41 -237h334l41 237h369l-41 -237h106zM998 826l24 138h-334l-24 -138h334z" glyph-name="Hbar" horiz-adv-x="1544" unicode="Ħ"/><glyph d="M874 963q68 0 122 -18t98 -60t56 -113t-1 -178l-105 -594h-373l95 548q14 44 10.5 81t-46.5 37q-75 0 -172 -52l-107 -614h-369l193 1097h-74l38 203h72l25 149h369l-26 -149h256l-36 -203h-256l-41 -235q132 101 272 101zM410 660l3 -1q-17 -24 -22 -34z" glyph-name="hbar" horiz-adv-x="1191" unicode="ħ"/><glyph d="M300 1410h-192q22 133 116.5 214t191.5 81q51 0 88 -25.5t66 -51t63 -25.5q29 0 42.5 23.5t22.5 73.5h193q-29 -155 -111 -227t-179 -72q-44 0 -78.5 18t-51.5 38.5t-39 38.5t-45 18q-73 0 -87 -104zM430 0h-362l231 1319h361z" glyph-name="Itilde" horiz-adv-x="660" unicode="Ĩ"/><glyph d="M271 1029h-192q22 133 116.5 214t191.5 81q51 0 88 -25.5t66 -51t63 -25.5q29 0 42.5 24t22.5 73h193q-29 -155 -111 -226.5t-179 -71.5q-44 0 -78.5 17.5t-51.5 38t-39 38.5t-45 18q-73 0 -87 -104zM637 292l5 -263q-89 -29 -160.5 -40t-139 -1.5t-106 50.5t-57.5 116 t5 194l104 591h345l-92 -550q-12 -61 13 -82.5t83 -14.5z" glyph-name="itilde" horiz-adv-x="701" unicode="ĩ"/><glyph d="M220 1449l33 198h597l-33 -198h-597zM430 0h-362l231 1319h361z" glyph-name="Imacron" horiz-adv-x="660" unicode="Ī"/><glyph d="M191 1068l33 198h597l-33 -198h-597zM637 292l5 -263q-89 -29 -160.5 -40t-139 -1.5t-106 50.5t-57.5 116t5 194l104 591h345l-92 -550q-12 -61 13 -82.5t83 -14.5z" glyph-name="imacron" horiz-adv-x="701" unicode="ī"/><glyph d="M430 0h-234q-84 -94 -107.5 -127t-23.5 -68q0 -36 39 -35q38 0 77 27l36 -99q-75 -68 -173 -77q-99 -5 -140 44.5t-17 131.5q24 46 75.5 105t105.5 100l231 1317h361z" glyph-name="Iogonek" horiz-adv-x="660" unicode="Į"/><glyph d="M468 998q-72 0 -114 48t-42 121q0 99 62.5 164t157.5 65q75 0 117 -42.5t42 -116.5q0 -92 -63.5 -165.5t-159.5 -73.5zM642 29q-152 -51 -255 -46q-68 -77 -89.5 -108.5t-21.5 -62.5q0 -36 40 -36q38 0 77 28l35 -99q-75 -68 -172 -77q-99 -5 -140 44.5t-17 131.5 q53 106 179 203q-142 73 -94 341l104 591h345l-92 -550q-12 -61 13 -82.5t83 -14.5z" glyph-name="iogonek" horiz-adv-x="701" unicode="į"/><glyph d="M561 1777q75 0 117 -43t42 -116q0 -92 -64 -165.5t-159 -73.5q-72 0 -114 48t-42 121q0 99 62 164t158 65zM430 0h-362l231 1319h361z" glyph-name="Idotaccent" horiz-adv-x="660" unicode="İ"/><glyph d="M637 292l5 -263q-89 -29 -160.5 -40t-139 -1.5t-106 50.5t-57.5 116t5 194l104 591h345l-92 -550q-12 -61 13 -82.5t83 -14.5z" glyph-name="dotlessi" horiz-adv-x="701" unicode="ı"/><glyph d="M131 218l277 193q22 -36 26.5 -43.5t22 -32t29.5 -31.5t32.5 -14.5t44.5 -7.5q157 0 195 206l145 831h367l-157 -879q-80 -463 -563 -462q-162 0 -271 70.5t-148 169.5zM536 606h-362l125 713h361z" glyph-name="IJ" horiz-adv-x="1266" unicode="Ĳ"/><glyph d="M403 1471q68 0 107.5 -41t39.5 -107q0 -85 -59 -154.5t-148 -69.5q-67 0 -107.5 44.5t-40.5 110.5q0 92 59.5 154.5t148.5 62.5zM1010 1468q72 0 113 -41t41 -108q0 -87 -61.5 -155t-151.5 -68q-65 0 -104.5 45t-39.5 113q0 89 58 151.5t145 62.5zM497 292l5 -263 q-89 -29 -160.5 -40t-139 -1.5t-106 50.5t-57.5 116t5 194l104 591h345l-92 -550q-12 -61 13 -82.5t83 -14.5zM1137 939l-168 -944q-19 -108 -56 -195t-79 -143t-103.5 -104t-109.5 -74.5t-116 -57.5l-112 253l8 5q9 3 24 12.5t34 22.5t39.5 34.5t38.5 46t32.5 60.5t21.5 75 l177 1009h369z" glyph-name="ij" horiz-adv-x="1172" unicode="ĳ"/><glyph d="M1469 1316l-703 -659l500 -657h-459l-298 452l-79 -452h-362l231 1316h361l-78 -447l442 447h445zM591 -116q70 0 105.5 -43.5t35.5 -118.5q0 -19 -7 -46h2q-44 -246 -311 -278l-10 105q67 10 99.5 23t52.5 44h-20q-58 0 -91.5 36t-33.5 94q0 80 51.5 132t126.5 52z" glyph-name="Kcommaaccent" horiz-adv-x="1377" unicode="Ķ"/><glyph d="M799 493q27 -51 52.5 -81t89.5 -56.5t158 -26.5l-56 -329q-111 0 -190.5 18t-122 47t-70 64t-45.5 71t-37.5 66.5t-55.5 52t-92 24.5l-60 -343h-361l245 1399h362l-128 -727h43h24l245 267h425zM587 -116q70 0 106 -43.5t36 -118.5q0 -19 -7 -46h2q-44 -246 -311 -278 l-10 105q67 10 99 23t53 44h-21q-58 0 -91 36t-33 94q0 80 51 132t126 52z" glyph-name="kcommaaccent" horiz-adv-x="1111" unicode="ķ"/><glyph d="M879 1543l-471 -94l-26 116l454 230zM488 329h468l-53 -329h-835l231 1319h361z" glyph-name="Lacute" horiz-adv-x="1100" unicode="Ĺ"/><glyph d="M360 1580l-25 116l453 231l43 -253zM532 302l6 -273q-73 -24 -135.5 -36t-124 -11t-104.5 23t-75 65t-36.5 115.5t9.5 172.5l187 1072h355l-175 -1031q-12 -63 13 -84.5t80 -12.5z" glyph-name="lacute" horiz-adv-x="616" unicode="ĺ"/><glyph d="M488 329h468l-53 -329h-835l231 1319h361zM492 -116q70 0 105.5 -43.5t35.5 -118.5q0 -19 -7 -46h2q-44 -246 -311 -278l-10 105q67 10 99.5 23t52.5 44h-20q-58 0 -91.5 36t-33.5 94q0 80 51.5 132t126.5 52z" glyph-name="Lcommaaccent" horiz-adv-x="1100" unicode="Ļ"/><glyph d="M439 399q-12 -63 13.5 -84t79.5 -13l6 -273q-73 -24 -135.5 -36t-124 -11t-104.5 23t-75 65t-36.5 115.5t9.5 172.5l187 1072h355zM259 -116q70 0 106 -43.5t36 -118.5q0 -19 -7 -46h2q-44 -246 -311 -278l-10 105q67 10 99.5 23t52.5 44h-20q-58 0 -91.5 36t-33.5 94 q0 80 51 132t126 52z" glyph-name="lcommaaccent" horiz-adv-x="616" unicode="ļ"/><glyph d="M725 823l-104 51l198 450l229 -114zM660 1319l-172 -990h468l-53 -329h-835l231 1319h361z" glyph-name="Lcaron" horiz-adv-x="1100" unicode="Ľ"/><glyph d="M678 954l-105 51l198 451l229 -115zM532 302l6 -273q-73 -24 -135.5 -36t-124 -11t-104.5 23t-75 65t-36.5 115.5t9.5 172.5l187 1072h355l-175 -1031q-12 -63 13 -84.5t80 -12.5z" glyph-name="lcaron" horiz-adv-x="633" unicode="ľ"/><glyph d="M509 336h466l-62 -336h-834l76 440l-141 -56l49 273l140 56l106 606h367l-75 -447l164 65l-52 -271l-158 -65z" glyph-name="Lslash" horiz-adv-x="1082" unicode="Ł"/><glyph d="M493 701l-51 -290q-10 -63 12 -84.5t73 -12.5l11 -273q-73 -24 -136.5 -36t-125 -11t-105 23t-76 65.5t-37.5 115.5t10 172l29 168l-140 -58l50 271l138 58l114 642h369l-85 -480l146 62l-52 -272z" glyph-name="lslash" horiz-adv-x="612" unicode="ł"/><glyph d="M1319 1543l-471 -94l-25 116l454 230zM1114 1319h369l-230 -1319h-376q12 43 8 91.5t-7.5 82.5t-21.5 76t-33.5 72t-42.5 68t-51 67t-58 69l-96 104l-109 -630h-369l231 1319h373q-26 -143 31.5 -267.5t187.5 -266.5l85 -90z" glyph-name="Nacute" horiz-adv-x="1510" unicode="Ń"/><glyph d="M1009 1162l-471 -94l-26 116l454 231zM795 963q68 0 122 -18t98.5 -60t56.5 -113t-2 -178l-106 -594h-372l94 515q14 44 5.5 81t-51.5 37q-72 0 -164 -53h-2l-102 -580h-369l164 939h282l36 -106q151 130 310 130zM321 660q-5 -9 -10 -22l-7 -12q2 2 5 7q10 14 17 24z " glyph-name="nacute" horiz-adv-x="1129" unicode="ń"/><glyph d="M1114 1319h369l-230 -1319h-376q12 43 8 91.5t-7.5 82.5t-21.5 76t-33.5 72t-42.5 68t-51 67t-58 69l-96 104l-109 -630h-369l231 1319h373q-26 -143 31.5 -267.5t187.5 -266.5l85 -90zM683 -116q70 0 105.5 -43.5t35.5 -118.5q0 -19 -7 -46h2q-44 -246 -310 -278 l-11 105q67 10 99.5 23t52.5 44h-20q-58 0 -91.5 36t-33.5 94q0 80 51.5 132t126.5 52z" glyph-name="Ncommaaccent" horiz-adv-x="1510" unicode="Ņ"/><glyph d="M795 963q68 0 122 -18t98.5 -60t56.5 -113t-2 -178l-106 -594h-372l94 515q14 44 5.5 81t-51.5 37q-72 0 -164 -53h-2l-102 -580h-369l164 939h282l36 -106q151 130 310 130zM321 660q-5 -9 -10 -22l-7 -12q2 2 5 7q10 14 17 24zM486 -116q70 0 106 -43.5t36 -118.5 q0 -19 -7 -46h2q-44 -246 -311 -278l-10 105q67 10 99 23t53 44h-21q-58 0 -91 36t-33 94q0 80 51 132t126 52z" glyph-name="ncommaaccent" horiz-adv-x="1129" unicode="ņ"/><glyph d="M995 1440h-82l-247 234l104 118l220 -96l268 96l60 -118zM1114 1319h369l-230 -1319h-376q12 43 8 91.5t-7.5 82.5t-21.5 76t-33.5 72t-42.5 68t-51 67t-58 69l-96 104l-109 -630h-369l231 1319h373q-26 -143 31.5 -267.5t187.5 -266.5l85 -90z" glyph-name="Ncaron" horiz-adv-x="1510" unicode="Ň"/><glyph d="M684 1060h-82l-247 234l104 117l220 -95l268 95l60 -117zM795 963q68 0 122 -18t98.5 -60t56.5 -113t-2 -178l-106 -594h-372l94 515q14 44 5.5 81t-51.5 37q-72 0 -164 -53h-2l-102 -580h-369l164 939h282l36 -106q151 130 310 130zM321 660q-5 -9 -10 -22l-7 -12 q2 2 5 7q10 14 17 24z" glyph-name="ncaron" horiz-adv-x="1129" unicode="ň"/><glyph d="M1483 1319l-205 -1176l-25 -148q-19 -108 -56.5 -195t-78.5 -143t-102.5 -104t-109.5 -74.5t-116 -57.5l-128 250l17 10q17 10 46 35t58 58t55.5 89.5t37.5 121.5l3 15h-2q12 43 8 91.5t-7.5 82.5t-21.5 76t-33.5 72t-42.5 68t-51 67t-58 69l-96 104l-109 -630h-369 l231 1319h373q-26 -143 31.5 -267.5t187.5 -266.5l85 -90l109 624h369z" glyph-name="Eng" horiz-adv-x="1512" unicode="Ŋ"/><glyph d="M795 963q68 0 122 -18t98.5 -60t56.5 -113t-2 -178l-80 -451h7l-28 -148q-24 -133 -73 -234t-121 -165.5t-129 -99.5t-143 -75l-119 253l9 5q7 3 22 12.5t34 22.5t39.5 34.5t38 46t34 60.5t23.5 75l13 70h-5l96 548q14 44 9.5 81t-47.5 37q-73 0 -169 -52l-109 -614h-369 l164 939h282l32 -111q154 135 314 135zM331 660l4 -1q-17 -24 -23 -34z" glyph-name="eng" horiz-adv-x="1136" unicode="ŋ"/><glyph d="M633 1449l33 198h597l-32 -198h-598zM898 1348q251 0 396 -152t145 -408q0 -346 -220.5 -581.5t-558.5 -235.5q-247 0 -393 158t-146 414q0 222 100 406t278.5 291.5t398.5 107.5zM845 1022q-171 0 -263 -128.5t-92 -313.5q0 -128 55.5 -204t173.5 -76q172 0 262.5 127.5 t90.5 320.5q0 128 -56.5 201t-170.5 73z" glyph-name="Omacron" horiz-adv-x="1495" unicode="Ō"/><glyph d="M343 1068l32 198h598l-33 -198h-597zM650 966q198 0 321 -113.5t123 -306.5q0 -94 -36 -191t-106.5 -184t-193.5 -142.5t-278 -55.5q-201 0 -322.5 109t-121.5 299q0 263 177.5 424t436.5 161zM596 659q-80 0 -131.5 -74.5t-51.5 -147.5q0 -61 27.5 -109t90.5 -48 q79 0 134 71t55 144q0 63 -30.5 113.5t-93.5 50.5z" glyph-name="omacron" horiz-adv-x="1129" unicode="ō"/><glyph d="M790 1411l-114 29l89 347l245 -70zM1092 1411l-114 29l85 347l249 -70zM898 1348q251 0 396 -152t145 -408q0 -346 -220.5 -581.5t-558.5 -235.5q-247 0 -393 158t-146 414q0 222 100 406t278.5 291.5t398.5 107.5zM845 1022q-171 0 -263 -128.5t-92 -313.5 q0 -128 55.5 -204t173.5 -76q172 0 262.5 127.5t90.5 320.5q0 128 -56.5 201t-170.5 73z" glyph-name="Ohungarumlaut" horiz-adv-x="1495" unicode="Ő"/><glyph d="M500 1031l-114 29l88 346l246 -70zM802 1031l-114 29l85 346l249 -70zM650 966q198 0 321 -113.5t123 -306.5q0 -94 -36 -191t-106.5 -184t-193.5 -142.5t-278 -55.5q-201 0 -322.5 109t-121.5 299q0 263 177.5 424t436.5 161zM596 659q-80 0 -131.5 -74.5t-51.5 -147.5 q0 -61 27.5 -109t90.5 -48q79 0 134 71t55 144q0 63 -30.5 113.5t-93.5 50.5z" glyph-name="ohungarumlaut" horiz-adv-x="1129" unicode="ő"/><glyph d="M2034 983h-495l-29 -159h289l-56 -336h-292l-28 -152h499l-58 -336h-835l17 99q-179 -128 -409 -128q-227 0 -363.5 157t-136.5 408q0 343 211.5 577.5t530.5 234.5q227 0 362 -148l20 119h835zM736 307q171 0 257.5 124.5t86.5 316.5q0 125 -54.5 196t-163.5 71 q-172 0 -261 -126t-89 -309q0 -125 54 -199t170 -74z" glyph-name="OE" horiz-adv-x="2061" unicode="Œ"/><glyph d="M1234 966q106 0 190.5 -31.5t133 -104t31.5 -176.5q-15 -89 -71.5 -157.5t-141 -110t-176 -65.5t-196.5 -34q31 -43 117 -43q44 0 85.5 8.5t102.5 27.5t84 25l97 -254q-113 -46 -183 -62t-157 -16q-242 0 -355 146q-147 -147 -389 -146q-154 0 -262 111.5t-108 296.5 q0 130 48.5 242.5t126 185.5t174 115t192.5 42q208 0 316 -150q146 150 341 150zM1282 642q5 27 -15.5 40t-46.5 13q-56 0 -118.5 -44.5t-92.5 -133.5q256 23 273 125zM531 280q79 0 134 71t55 144q0 63 -30.5 113.5t-93.5 50.5q-80 0 -131.5 -74.5t-51.5 -147.5 q0 -61 27.5 -109t90.5 -48z" glyph-name="oe" horiz-adv-x="1605" unicode="œ"/><glyph d="M1159 1543l-471 -94l-26 116l454 230zM1265 934q0 -365 -302 -482l170 -452h-385l-118 394q-24 -2 -74 -1h-58l-68 -393h-362l231 1319h421q282 0 413.5 -103t131.5 -282zM551 691h55q150 0 216.5 37t66.5 153q0 75 -56 99.5t-166 24.5h-61z" glyph-name="Racute" horiz-adv-x="1252" unicode="Ŕ"/><glyph d="M855 1162l-471 -94l-26 116l454 231zM667 966q99 0 210 -72l-220 -326q-63 43 -109 43q-55 0 -99 -65l-41 -230q0 -2 1 -4.5t2 -4.5l-3 5l-56 -312h-349l164 939h263l29 -77q92 104 208 104z" glyph-name="racute" horiz-adv-x="836" unicode="ŕ"/><glyph d="M1265 934q0 -365 -302 -482l170 -452h-385l-118 394q-24 -2 -74 -1h-58l-68 -393h-362l231 1319h421q282 0 413.5 -103t131.5 -282zM551 691h55q150 0 216.5 37t66.5 153q0 75 -56 99.5t-166 24.5h-61zM539 -116q70 0 106 -43.5t36 -118.5q0 -19 -7 -46h2 q-44 -246 -311 -278l-10 105q67 10 99 23t53 44h-21q-58 0 -91 36t-33 94q0 80 51 132t126 52z" glyph-name="Rcommaaccent" horiz-adv-x="1252" unicode="Ŗ"/><glyph d="M667 966q99 0 210 -72l-220 -326q-63 43 -109 43q-55 0 -99 -65l-41 -230q0 -2 1 -4.5t2 -4.5l-3 5l-56 -312h-349l164 939h263l29 -77q92 104 208 104zM137 -116q70 0 105.5 -43.5t35.5 -118.5q0 -19 -7 -46h2q-44 -246 -311 -278l-10 105q67 10 99.5 23t52.5 44h-20 q-58 0 -91.5 36t-33.5 94q0 80 51.5 132t126.5 52z" glyph-name="rcommaaccent" horiz-adv-x="836" unicode="ŗ"/><glyph d="M835 1440h-82l-248 234l104 118l220 -96l268 96l60 -118zM1265 934q0 -365 -302 -482l170 -452h-385l-118 394q-24 -2 -74 -1h-58l-68 -393h-362l231 1319h421q282 0 413.5 -103t131.5 -282zM551 691h55q150 0 216.5 37t66.5 153q0 75 -56 99.5t-166 24.5h-61z" glyph-name="Rcaron" horiz-adv-x="1252" unicode="Ř"/><glyph d="M531 1060h-82l-248 234l104 117l221 -95l268 95l59 -117zM667 966q99 0 210 -72l-220 -326q-63 43 -109 43q-55 0 -99 -65l-41 -230q0 -2 1 -4.5t2 -4.5l-3 5l-56 -312h-349l164 939h263l29 -77q92 104 208 104z" glyph-name="rcaron" horiz-adv-x="836" unicode="ř"/><glyph d="M725 1447l-25 116l454 231l42 -253zM20 242l308 226q133 -176 332 -176q80 0 118 30t38 72q0 34 -32.5 61.5t-84.5 50.5t-116 47t-127 58t-115.5 77.5t-84.5 112.5t-32 155q0 157 159.5 277t404.5 120q321 0 504 -184l-261 -222q-109 104 -278 104q-67 0 -107 -26.5 t-40 -61.5q0 -34 43.5 -66.5t109 -58.5t142.5 -65t142.5 -84.5t109 -121t43.5 -171.5q0 -183 -153.5 -302.5t-438.5 -119.5q-131 0 -307 67.5t-277 200.5z" glyph-name="Sacute" horiz-adv-x="1293" unicode="Ś"/><glyph d="M521 1304l-26 116l454 230l43 -252zM7 196l244 202q137 -116 230 -116q19 0 28.5 3t10.5 5t1 5q0 10 -38.5 25t-93 38.5t-108.5 59.5t-92.5 101.5t-38.5 149.5q0 44 25.5 93.5t73.5 96.5t131.5 77t186.5 30q247 0 396 -133l-253 -222q-99 68 -171 68q-17 0 -17 -5 q0 -10 37.5 -29.5t92.5 -48t109.5 -66.5t92 -102t37.5 -143q0 -128 -103.5 -216t-307.5 -88q-138 0 -267 55.5t-206 159.5z" glyph-name="sacute" horiz-adv-x="971" unicode="ś"/><glyph d="M606 963q0 -34 43.5 -66.5t109 -58.5t142.5 -65t142.5 -84.5t109 -121t43.5 -171.5q0 -179 -149 -298.5t-429 -123.5l-16 -63q84 -3 144 -49t37 -142q-19 -72 -58 -114.5t-78 -57t-100 -9.5t-97.5 15.5t-94.5 29.5l58 145q29 -19 77 -33.5t90.5 -10.5t47.5 37 q5 27 -12 46t-48.5 25t-54.5 7.5t-42 -0.5l50 181q-135 19 -275 84t-226 177l308 226q133 -176 332 -176q80 0 118 30t38 72q0 34 -32.5 61.5t-84.5 50.5t-116 47t-127 58t-115.5 77.5t-84.5 112.5t-32 155q0 157 159.5 277t404.5 120q321 0 504 -184l-261 -222 q-109 104 -278 104q-67 0 -107 -26t-40 -62z" glyph-name="Scedilla" horiz-adv-x="1293" unicode="Ş"/><glyph d="M522 674q0 -10 37.5 -29.5t92.5 -48t109.5 -66.5t92 -102t37.5 -143q0 -128 -103.5 -216t-307.5 -88h-23l-17 -70q77 -3 137 -43t56 -115q-12 -90 -62 -141t-151 -66q-79 -14 -140.5 1.5t-86.5 36.5l58 145q29 -19 76.5 -33.5t90.5 -10.5t48 37q5 27 -12 46t-48.5 25 t-54.5 7.5t-42 -0.5l53 191q-236 41 -355 205l244 202q137 -116 230 -116q19 0 28.5 3t10.5 5t1 5q0 10 -38.5 25t-93 38.5t-108.5 59.5t-92.5 101.5t-38.5 149.5q0 44 25.5 93.5t73.5 96.5t131.5 77t186.5 30q247 0 396 -133l-253 -222q-99 68 -171 68q-17 0 -17 -5z" glyph-name="scedilla" horiz-adv-x="971" unicode="ş"/><glyph d="M790 1439l-247 234l104 117l220 -95l268 95l60 -117l-323 -234h-82zM20 242l308 226q133 -176 332 -176q80 0 118 30t38 72q0 34 -32.5 61.5t-84.5 50.5t-116 47t-127 58t-115.5 77.5t-84.5 112.5t-32 155q0 157 159.5 277t404.5 120q321 0 504 -184l-261 -222 q-109 104 -278 104q-67 0 -107 -26.5t-40 -61.5q0 -34 43.5 -66.5t109 -58.5t142.5 -65t142.5 -84.5t109 -121t43.5 -171.5q0 -183 -153.5 -302.5t-438.5 -119.5q-131 0 -307 67.5t-277 200.5z" glyph-name="Scaron" horiz-adv-x="1293" unicode="Š"/><glyph d="M585 1295l-247 234l104 118l220 -96l268 96l60 -118l-323 -234h-82zM7 196l244 202q137 -116 230 -116q19 0 28.5 3t10.5 5t1 5q0 10 -38.5 25t-93 38.5t-108.5 59.5t-92.5 101.5t-38.5 149.5q0 44 25.5 93.5t73.5 96.5t131.5 77t186.5 30q247 0 396 -133l-253 -222 q-99 68 -171 68q-17 0 -17 -5q0 -10 37.5 -29.5t92.5 -48t109.5 -66.5t92 -102t37.5 -143q0 -128 -103.5 -216t-307.5 -88q-138 0 -267 55.5t-206 159.5z" glyph-name="scaron" horiz-adv-x="971" unicode="š"/><glyph d="M698 0h-125l-22 -89q84 -3 143.5 -49t37.5 -142q-19 -72 -58 -114.5t-78.5 -57t-100 -9.5t-97 15.5t-94.5 29.5l58 145q29 -19 76.5 -33.5t90.5 -10.5t48 37q5 27 -12 46t-48.5 25t-54.5 7.5t-42 -0.5l56 200h-133l174 993h-357l53 326h1072l-53 -326h-360z" glyph-name="Tcommaaccent" horiz-adv-x="1210" unicode="Ţ"/><glyph d="M492 466q-9 -67 -9 -108.5t17 -64.5t35 -32.5t46 -8t50.5 6t48 9.5t39.5 5l-89 -283q-116 -24 -202 -17l-15 -62q84 -3 143.5 -49t37.5 -142q-19 -72 -58 -114.5t-78.5 -57t-100 -9.5t-97 15.5t-94.5 29.5l58 145q29 -19 76.5 -33.5t90 -10.5t48.5 37q5 27 -12 46t-49 25 t-55 7.5t-41 -0.5l53 188q-268 80 -190 514l29 165h-126l49 272h127l51 292h350l-52 -292h176l-82 -272h-140z" glyph-name="tcommaaccent" horiz-adv-x="744" unicode="ţ"/><glyph d="M819 1440h-82l-247 234l104 118l220 -96l268 96l60 -118zM1285 1319l-53 -326h-360l-174 -993h-355l174 993h-357l53 326h1072z" glyph-name="Tcaron" horiz-adv-x="1210" unicode="Ť"/><glyph d="M903 1502l229 -114l-323 -388l-104 51zM527 667l-35 -201q-9 -67 -9 -108.5t17 -64.5t35 -32.5t46 -8t50.5 6t48 9.5t39.5 5l-89 -283q-61 -12 -116 -16.5t-114 1.5t-103 26.5t-85 59t-59 99t-25 144t17 198.5l29 165h-126l49 272h127l51 292h350l-52 -292h176l-82 -272 h-140z" glyph-name="tcaron" horiz-adv-x="744" unicode="ť"/><glyph d="M1227 983h-355l-17 -101h220l-63 -336h-215l-92 -546h-369l94 546h-217l63 336h210l17 101h-348l62 336h1072z" glyph-name="Tbar" horiz-adv-x="1206" unicode="Ŧ"/><glyph d="M485 398q-3 -77 25 -111t63 -32.5t84.5 11.5t62.5 9l-89 -282q-80 -17 -151.5 -19.5t-144 17t-122 64t-76 132.5t-16.5 211h-85l36 225h83l7 44h-114l49 272h113l49 292h366l-52 -292h176l-82 -272h-140l-6 -44h139l-58 -225h-117z" glyph-name="tbar" horiz-adv-x="742" unicode="ŧ"/><glyph d="M683 1410h-193q22 133 116.5 214t192.5 81q51 0 87.5 -25.5t65.5 -51t63 -25.5q29 0 43 23.5t22 73.5h193q-29 -155 -111 -227t-179 -72q-44 0 -78.5 18t-51.5 38.5t-39 38.5t-44 18q-73 0 -87 -104zM1463 1319l-115 -647q-61 -352 -220 -527.5t-485 -175.5 q-225 0 -343.5 85.5t-139 241.5t16.5 376l113 647h359l-105 -594q-20 -119 -20 -206t13.5 -132.5t43.5 -71t54.5 -31.5t59.5 -6q46 0 81 13.5t77.5 55.5t78.5 137.5t61 240.5l104 594h366z" glyph-name="Utilde" horiz-adv-x="1452" unicode="Ũ"/><glyph d="M524 1133q-73 0 -87 -104h-193q22 133 117 214t192 81q51 0 88 -25.5t66 -51t63 -25.5q29 0 42.5 24t22.5 73h192q-29 -155 -110.5 -226.5t-179.5 -71.5q-44 0 -78 17.5t-51 38t-39.5 38.5t-44.5 18zM756 939h369l-161 -939h-283l-36 108q-150 -131 -310 -132 q-147 0 -229 86t-48 283l106 594h367l-84 -466q-12 -44 -4 -82t50 -38q72 0 166 55l3 -4z" glyph-name="utilde" horiz-adv-x="1133" unicode="ũ"/><glyph d="M602 1449l33 198h597l-32 -198h-598zM1463 1319l-115 -647q-61 -352 -220 -527.5t-485 -175.5q-225 0 -343.5 85.5t-139 241.5t16.5 376l113 647h359l-105 -594q-20 -119 -20 -206t13.5 -132.5t43.5 -71t54.5 -31.5t59.5 -6q46 0 81 13.5t77.5 55.5t78.5 137.5t61 240.5 l104 594h366z" glyph-name="Umacron" horiz-adv-x="1452" unicode="Ū"/><glyph d="M986 1266l-32 -198h-597l32 198h597zM756 939h369l-161 -939h-283l-36 108q-150 -131 -310 -132q-147 0 -229 86t-48 283l106 594h367l-84 -466q-12 -44 -4 -82t50 -38q72 0 166 55l3 -4z" glyph-name="umacron" horiz-adv-x="1133" unicode="ū"/><glyph d="M961 1841q77 0 121 -48.5t44 -128.5q0 -102 -70.5 -180t-173.5 -78q-79 0 -123 50.5t-44 132.5q0 113 69 182.5t177 69.5zM930 1702q-31 0 -55.5 -27.5t-24.5 -63.5q0 -27 17 -44t41 -17q38 0 60 25.5t22 62.5q0 26 -16.5 45t-43.5 19zM1463 1319l-115 -647 q-61 -352 -220 -527.5t-485 -175.5q-225 0 -343.5 85.5t-139 241.5t16.5 376l113 647h359l-105 -594q-20 -119 -20 -206t13.5 -132.5t43.5 -71t54.5 -31.5t59.5 -6q46 0 81 13.5t77.5 55.5t78.5 137.5t61 240.5l104 594h366z" glyph-name="Uring" horiz-adv-x="1452" unicode="Ů"/><glyph d="M637 1026q-79 0 -123.5 50t-44.5 132q0 113 69.5 183t176.5 70q77 0 121.5 -48.5t44.5 -129.5q0 -102 -71 -179.5t-173 -77.5zM684 1321q-31 0 -55.5 -27.5t-24.5 -62.5q0 -27 17 -44.5t41 -17.5q38 0 60 25.5t22 63.5q0 26 -16.5 44.5t-43.5 18.5zM756 939h369 l-161 -939h-283l-36 108q-150 -131 -310 -132q-147 0 -229 86t-48 283l106 594h367l-84 -466q-12 -44 -4 -82t50 -38q72 0 166 55l3 -4z" glyph-name="uring" horiz-adv-x="1133" unicode="ů"/><glyph d="M759 1411l-114 29l89 347l246 -70zM1062 1411l-115 29l86 347l249 -70zM1463 1319l-115 -647q-61 -352 -220 -527.5t-485 -175.5q-225 0 -343.5 85.5t-139 241.5t16.5 376l113 647h359l-105 -594q-20 -119 -20 -206t13.5 -132.5t43.5 -71t54.5 -31.5t59.5 -6 q46 0 81 13.5t77.5 55.5t78.5 137.5t61 240.5l104 594h366z" glyph-name="Uhungarumlaut" horiz-adv-x="1452" unicode="Ű"/><glyph d="M734 1336l-220 -305l-115 29l89 346zM816 1031l-115 29l86 346l249 -70zM756 939h369l-161 -939h-283l-36 108q-150 -131 -310 -132q-147 0 -229 86t-48 283l106 594h367l-84 -466q-12 -44 -4 -82t50 -38q72 0 166 55l3 -4z" glyph-name="uhungarumlaut" horiz-adv-x="1133" unicode="ű"/><glyph d="M1097 1319h366l-115 -647q-48 -270 -149.5 -435t-287.5 -228q-82 -90 -105.5 -123.5t-23.5 -68.5q0 -36 39 -35q38 0 77 27l36 -99q-75 -68 -173 -77q-99 -5 -140 44.5t-17 131.5q39 79 133 164q-61 -3 -94 -4q-225 0 -343.5 85.5t-139 241.5t16.5 376l113 647h359 l-105 -594q-20 -119 -20 -206t13.5 -132.5t43.5 -71t54.5 -31.5t59.5 -6q46 0 81 13.5t77.5 55.5t78.5 137.5t61 240.5z" glyph-name="Uogonek" horiz-adv-x="1452" unicode="Ų"/><glyph d="M964 0h-157q-82 -90 -105.5 -123.5t-23.5 -67.5q0 -36 39 -36q38 0 77 27l35 -99q-75 -68 -172 -76q-99 -5 -140 44t-17 131q53 106 179 203l-34 105q-150 -131 -310 -132q-147 0 -229 86t-48 283l106 594h367l-84 -466q-12 -44 -4 -82t50 -38q72 0 166 55l3 -4l94 535 h369z" glyph-name="uogonek" horiz-adv-x="1133" unicode="ų"/><glyph d="M1075 1519l-263 -94l-61 118l322 234h82l248 -234l-103 -118zM1529 1319h417l-540 -1319h-351l-63 732l-364 -732h-346l-29 1319h390l-30 -705l373 705h231l92 -677z" glyph-name="Wcircumflex" horiz-adv-x="1899" unicode="Ŵ"/><glyph d="M969 1138l-262 -94l-62 118l323 234h82l247 -234l-102 -118zM1295 939h366l-58 -400q-27 -169 -70 -278t-111.5 -172t-153.5 -88t-210 -25q-113 0 -213.5 40t-156.5 114q-140 -154 -335 -154q-67 0 -123 19t-103.5 58t-66.5 114t-2 178l106 594h365l-96 -523 q-10 -49 10.5 -83t71.5 -34q36 0 72 25.5t56 68.5l96 546h369l-89 -509q-3 -32 -0.5 -63t20 -53t48.5 -22q113 0 149 232z" glyph-name="wcircumflex" horiz-adv-x="1669" unicode="ŵ"/><glyph d="M782 1504l-263 -94l-62 117l323 234h82l247 -234l-102 -117zM1300 1319l-503 -771h-3l-98 -548h-380l97 550l-236 769h412l60 -508l240 508h411z" glyph-name="Ycircumflex" horiz-adv-x="1184" unicode="Ŷ"/><glyph d="M640 1138l-263 -94l-61 118l322 234h82l248 -234l-103 -118zM807 939h357l-174 -985q-17 -96 -55.5 -174.5t-107.5 -146.5t-184.5 -106.5t-267.5 -38.5q-174 0 -295 71.5t-165 169.5l290 194q43 -70 85.5 -104t105.5 -34q205 0 246 215l12 68q-128 -92 -261 -92 q-147 0 -229 86t-48 283l106 594h370l-83 -466q-12 -44 -5.5 -82t49.5 -38q70 0 160 51z" glyph-name="ycircumflex" horiz-adv-x="1169" unicode="ŷ"/><glyph d="M594 1418q-46 0 -75 32.5t-29 82.5q0 68 41 109.5t111 41.5q48 0 77 -29.5t29 -80.5q0 -58 -45.5 -107t-108.5 -49zM927 1418q-46 0 -75 32.5t-29 82.5q0 68 41.5 109.5t110.5 41.5q49 0 77 -29.5t28 -80.5q0 -60 -44 -108t-109 -48zM1300 1319l-503 -771h-3l-98 -548 h-380l97 550l-236 769h412l60 -508l240 508h411z" glyph-name="Ydieresis" horiz-adv-x="1184" unicode="Ÿ"/><glyph d="M1231 1543l-472 -94l-25 116l454 230zM1403 1318l-39 -212l-782 -792l652 22l-62 -336h-1136l37 207l784 797l-654 -23l63 337h1137z" glyph-name="Zacute" horiz-adv-x="1361" unicode="Ź"/><glyph d="M973 1162l-471 -94l-26 116l454 231zM968 939l-58 -333l-359 -285q36 -2 112 -25t135 -10t149 79l-60 -333q-84 -58 -156 -62t-130 23t-118.5 53.5t-147 20.5t-187.5 -67l-150 270l475 365l-357 -29l60 333h792z" glyph-name="zacute" horiz-adv-x="998" unicode="ź"/><glyph d="M847 1379q-72 0 -114 48t-42 121q0 99 62.5 164t157.5 65q75 0 117 -43t42 -116q0 -92 -63.5 -165.5t-159.5 -73.5zM1403 1318l-39 -212l-782 -792l652 22l-62 -336h-1136l37 207l784 797l-654 -23l63 337h1137z" glyph-name="Zdotaccent" horiz-adv-x="1361" unicode="Ż"/><glyph d="M589 998q-72 0 -114 48t-42 121q0 99 62.5 164t158.5 65q75 0 116.5 -42.5t41.5 -116.5q0 -92 -63.5 -165.5t-159.5 -73.5zM551 321q36 -2 112 -25t135 -10t149 79l-60 -333q-84 -58 -156 -62t-130 23t-118.5 53.5t-147 20.5t-187.5 -67l-150 270l475 365l-357 -29 l60 333h792l-58 -333z" glyph-name="zdotaccent" horiz-adv-x="998" unicode="ż"/><glyph d="M906 1440h-82l-247 234l104 118l220 -96l268 96l60 -118zM1403 1318l-39 -212l-782 -792l652 22l-62 -336h-1136l37 207l784 797l-654 -23l63 337h1137z" glyph-name="Zcaron" horiz-adv-x="1361" unicode="Ž"/><glyph d="M649 1060h-82l-248 234l104 117l220 -95l268 95l60 -117zM968 939l-58 -333l-359 -285q36 -2 112 -25t135 -10t149 79l-60 -333q-84 -58 -156 -62t-130 23t-118.5 53.5t-147 20.5t-187.5 -67l-150 270l475 365l-357 -29l60 333h792z" glyph-name="zcaron" horiz-adv-x="998" unicode="ž"/><glyph d="M341 986q53 304 226.5 422.5t429.5 25.5l-50 -279q-29 10 -39 13.5t-40 10.5t-43.5 4.5t-37.5 -11t-37.5 -27.5t-27.5 -51t-22 -79l-258 -1428h-345l183 1048h-191l56 304h188z" glyph-name="longs" horiz-adv-x="906" unicode="ſ"/><glyph d="M1681 1468q9 -56 -1.5 -119.5t-39.5 -121.5t-87 -96.5t-136 -38.5h-47q68 -131 69 -304q0 -346 -220.5 -581.5t-558.5 -235.5q-247 0 -393 158t-146 414q0 340 223 574.5t561 234.5h1q80 0 229.5 -15.5t171.5 -17.5q60 -5 88 36t28 113h258zM719 300q172 0 262.5 127.5 t90.5 320.5q0 128 -56.5 201t-170.5 73q-171 0 -263 -128.5t-92 -313.5q0 -128 55.5 -204t173.5 -76z" glyph-name="Ohorn" unicode="Ơ"/><glyph d="M1336 1092q12 -65 -9 -135.5t-87 -129.5t-163 -66q51 -94 51 -215q0 -94 -36 -191t-106 -184t-192.5 -142.5t-278.5 -55.5q-203 0 -324 109t-121 299q0 263 177.5 424t438.5 161q60 0 96.5 -2.5t83.5 -7.5t100 -9q60 -5 87 35t26 110h257zM565 280q80 0 135.5 71 t55.5 144q0 63 -30.5 113.5t-94.5 50.5q-80 0 -131 -74.5t-51 -147.5q0 -61 27.5 -109t88.5 -48z" glyph-name="ohorn" horiz-adv-x="1194" unicode="ơ"/><glyph d="M1606 1459h256q-5 -61 -21.5 -119t-48 -118t-90 -96.5t-137.5 -36.5l-113 2l-71 -415q-61 -352 -221 -527.5t-484 -175.5q-225 0 -344 85t-139.5 241.5t15.5 376.5l111 643h365l-104 -590q-20 -119 -20 -206.5t12.5 -132.5t41.5 -70.5t54 -31.5t59 -6q44 0 80 13.5 t79.5 55.5t79.5 137.5t61 240.5l105 590h360q56 -3 83.5 34.5t30.5 105.5z" glyph-name="Uhorn" horiz-adv-x="1621" unicode="Ư"/><glyph d="M1239 1079h256q-2 -58 -17 -119t-47.5 -119.5t-91.5 -95.5t-138 -37l-81 2l-122 -710h-281l-36 108q-154 -131 -311 -132q-68 0 -122.5 18t-99 60t-56.5 112.5t2 178.5l104 594h367l-82 -466q-12 -44 -4.5 -82t50.5 -38q72 0 166 55l3 -4l94 535h362q90 10 85 140z" glyph-name="uhorn" horiz-adv-x="1440" unicode="ư"/><glyph d="M976 1440h-82l-247 234l104 118l220 -96l268 96l60 -118zM986 0l-39 239h-473l-121 -239h-385l715 1319h431l256 -1319h-384zM645 573h246l-60 364z" glyph-name="uni01CD" unicode="Ǎ"/><glyph d="M640 1060h-82l-247 234l104 117l220 -95l268 95l60 -117zM1167 292l5 -263q-382 -126 -452 87q-118 -143 -327 -143q-167 0 -264 106.5t-97 285.5q0 258 146 429.5t346 171.5q196 0 275 -142l20 115h345l-92 -550q-12 -61 12.5 -82.5t82.5 -14.5zM539 287q72 0 123 39 t68 111l7 37q2 10 2 33q0 68 -36 106.5t-102 38.5q-90 0 -146 -61.5t-56 -157.5q0 -70 36.5 -108t103.5 -38z" glyph-name="uni01CE" horiz-adv-x="1274" unicode="ǎ"/><glyph d="M474 1440l-247 234l104 118l220 -96l268 96l60 -118l-323 -234h-82zM430 0h-362l231 1319h361z" glyph-name="uni01CF" horiz-adv-x="660" unicode="Ǐ"/><glyph d="M445 1060l-247 234l104 117l220 -95l268 95l60 -117l-323 -234h-82zM637 292l5 -263q-89 -29 -160.5 -40t-139 -1.5t-106 50.5t-57.5 116t5 194l104 591h345l-92 -550q-12 -61 13 -82.5t83 -14.5z" glyph-name="uni01D0" horiz-adv-x="701" unicode="ǐ"/><glyph d="M887 1440l-247 234l104 118l220 -96l268 96l60 -118l-323 -234h-82zM898 1348q251 0 396 -152t145 -408q0 -346 -220.5 -581.5t-558.5 -235.5q-247 0 -393 158t-146 414q0 222 100 406t278.5 291.5t398.5 107.5zM845 1022q-171 0 -263 -128.5t-92 -313.5 q0 -128 55.5 -204t173.5 -76q172 0 262.5 127.5t90.5 320.5q0 128 -56.5 201t-170.5 73z" glyph-name="uni01D1" horiz-adv-x="1495" unicode="Ǒ"/><glyph d="M597 1060l-247 234l104 117l220 -95l268 95l60 -117l-323 -234h-82zM650 966q198 0 321 -113.5t123 -306.5q0 -94 -36 -191t-106.5 -184t-193.5 -142.5t-278 -55.5q-201 0 -322.5 109t-121.5 299q0 263 177.5 424t436.5 161zM596 659q-80 0 -131.5 -74.5t-51.5 -147.5 q0 -61 27.5 -109t90.5 -48q79 0 134 71t55 144q0 63 -30.5 113.5t-93.5 50.5z" glyph-name="uni01D2" horiz-adv-x="1129" unicode="ǒ"/><glyph d="M857 1440l-248 234l104 118l221 -96l267 96l60 -118l-322 -234h-82zM1463 1319l-115 -647q-61 -352 -220 -527.5t-485 -175.5q-225 0 -343.5 85.5t-139 241.5t16.5 376l113 647h359l-105 -594q-20 -119 -20 -206t13.5 -132.5t43.5 -71t54.5 -31.5t59.5 -6q46 0 81 13.5 t77.5 55.5t78.5 137.5t61 240.5l104 594h366z" glyph-name="uni01D3" horiz-adv-x="1452" unicode="Ǔ"/><glyph d="M693 1060h-82l-247 234l104 117l220 -95l268 95l59 -117zM756 939h369l-161 -939h-283l-36 108q-150 -131 -310 -132q-147 0 -229 86t-48 283l106 594h367l-84 -466q-12 -44 -4 -82t50 -38q72 0 166 55l3 -4z" glyph-name="uni01D4" horiz-adv-x="1133" unicode="ǔ"/><glyph d="M674 1830l33 198h597l-33 -198h-597zM773 1700q48 0 77 -30t29 -81q0 -58 -45.5 -106.5t-108.5 -48.5q-46 0 -75 32t-29 82q0 68 41 110t111 42zM1106 1700q49 0 77.5 -30t28.5 -81q0 -60 -44.5 -107.5t-109.5 -47.5q-46 0 -75 32t-29 82q0 68 42 110t110 42zM1463 1319 l-115 -647q-61 -352 -220 -527.5t-485 -175.5q-225 0 -343.5 85.5t-139 241.5t16.5 376l113 647h359l-105 -594q-20 -119 -20 -206t13.5 -132.5t43.5 -71t54.5 -31.5t59.5 -6q46 0 81 13.5t77.5 55.5t78.5 137.5t61 240.5l104 594h366z" glyph-name="uni01D5" horiz-adv-x="1452" unicode="Ǖ"/><glyph d="M1058 1647l-32 -198h-598l33 198h597zM480 1053q-46 0 -75.5 32.5t-29.5 81.5q0 68 41 110t111 42q48 0 77 -29.5t29 -81.5q0 -58 -45 -106.5t-108 -48.5zM708 1167q0 68 42 110t110 42q49 0 77.5 -29.5t28.5 -81.5q0 -60 -44.5 -107.5t-109.5 -47.5q-46 0 -75 32.5 t-29 81.5zM756 939h369l-161 -939h-283l-36 108q-150 -131 -310 -132q-147 0 -229 86t-48 283l106 594h367l-84 -466q-12 -44 -4 -82t50 -38q72 0 166 55l3 -4z" glyph-name="uni01D6" horiz-adv-x="1133" unicode="ǖ"/><glyph d="M864 1830l-26 116l454 230l43 -253zM773 1700q48 0 77 -30t29 -81q0 -58 -45.5 -106.5t-108.5 -48.5q-46 0 -75 32t-29 82q0 68 41 110t111 42zM1106 1700q49 0 77.5 -30t28.5 -81q0 -60 -44.5 -107.5t-109.5 -47.5q-46 0 -75 32t-29 82q0 68 42 110t110 42zM1463 1319 l-115 -647q-61 -352 -220 -527.5t-485 -175.5q-225 0 -343.5 85.5t-139 241.5t16.5 376l113 647h359l-105 -594q-20 -119 -20 -206t13.5 -132.5t43.5 -71t54.5 -31.5t59.5 -6q46 0 81 13.5t77.5 55.5t78.5 137.5t61 240.5l104 594h366z" glyph-name="uni01D7" horiz-adv-x="1452" unicode="Ǘ"/><glyph d="M1089 1543l-471 -94l-26 116l454 230zM480 1053q-46 0 -75.5 32.5t-29.5 81.5q0 68 41 110t111 42q48 0 77 -29.5t29 -81.5q0 -58 -45 -106.5t-108 -48.5zM708 1167q0 68 42 110t110 42q49 0 77.5 -29.5t28.5 -81.5q0 -60 -44.5 -107.5t-109.5 -47.5q-46 0 -75 32.5 t-29 81.5zM756 939h369l-161 -939h-283l-36 108q-150 -131 -310 -132q-147 0 -229 86t-48 283l106 594h367l-84 -466q-12 -44 -4 -82t50 -38q72 0 166 55l3 -4z" glyph-name="uni01D8" horiz-adv-x="1133" unicode="ǘ"/><glyph d="M928 1821l-247 234l104 118l220 -96l268 96l60 -118l-323 -234h-82zM773 1700q48 0 77 -30t29 -81q0 -58 -45.5 -106.5t-108.5 -48.5q-46 0 -75 32t-29 82q0 68 41 110t111 42zM1106 1700q49 0 77.5 -30t28.5 -81q0 -60 -44.5 -107.5t-109.5 -47.5q-46 0 -75 32t-29 82 q0 68 42 110t110 42zM1463 1319l-115 -647q-61 -352 -220 -527.5t-485 -175.5q-225 0 -343.5 85.5t-139 241.5t16.5 376l113 647h359l-105 -594q-20 -119 -20 -206t13.5 -132.5t43.5 -71t54.5 -31.5t59.5 -6q46 0 81 13.5t77.5 55.5t78.5 137.5t61 240.5l104 594h366z" glyph-name="uni01D9" horiz-adv-x="1452" unicode="Ǚ"/><glyph d="M765 1440h-82l-248 234l104 118l220 -96l268 96l60 -118zM480 1053q-46 0 -75.5 32.5t-29.5 81.5q0 68 41 110t111 42q48 0 77 -29.5t29 -81.5q0 -58 -45 -106.5t-108 -48.5zM708 1167q0 68 42 110t110 42q49 0 77.5 -29.5t28.5 -81.5q0 -60 -44.5 -107.5t-109.5 -47.5 q-46 0 -75 32.5t-29 81.5zM756 939h369l-161 -939h-283l-36 108q-150 -131 -310 -132q-147 0 -229 86t-48 283l106 594h367l-84 -466q-12 -44 -4 -82t50 -38q72 0 166 55l3 -4z" glyph-name="uni01DA" horiz-adv-x="1133" unicode="ǚ"/><glyph d="M1036 1830l-428 93l133 253l363 -230zM773 1700q48 0 77 -30t29 -81q0 -58 -45.5 -106.5t-108.5 -48.5q-46 0 -75 32t-29 82q0 68 41 110t111 42zM1106 1700q49 0 77.5 -30t28.5 -81q0 -60 -44.5 -107.5t-109.5 -47.5q-46 0 -75 32t-29 82q0 68 42 110t110 42zM1463 1319 l-115 -647q-61 -352 -220 -527.5t-485 -175.5q-225 0 -343.5 85.5t-139 241.5t16.5 376l113 647h359l-105 -594q-20 -119 -20 -206t13.5 -132.5t43.5 -71t54.5 -31.5t59.5 -6q46 0 81 13.5t77.5 55.5t78.5 137.5t61 240.5l104 594h366z" glyph-name="uni01DB" horiz-adv-x="1452" unicode="Ǜ"/><glyph d="M858 1565l-68 -116l-428 94l133 252zM375 1167q0 68 41 110t111 42q48 0 77 -29.5t29 -81.5q0 -58 -45 -106.5t-108 -48.5q-46 0 -75.5 32.5t-29.5 81.5zM708 1167q0 68 42 110t110 42q49 0 77.5 -29.5t28.5 -81.5q0 -60 -44.5 -107.5t-109.5 -47.5q-46 0 -75 32.5 t-29 81.5zM756 939h369l-161 -939h-283l-36 108q-150 -131 -310 -132q-147 0 -229 86t-48 283l106 594h367l-84 -466q-12 -44 -4 -82t50 -38q72 0 166 55l3 -4z" glyph-name="uni01DC" horiz-adv-x="1133" unicode="ǜ"/><glyph d="M1341 2028l-32 -198h-597l32 198h597zM763 1434q-46 0 -75 32t-29 82q0 68 41 110t111 42q48 0 76.5 -30t28.5 -81q0 -58 -45 -106.5t-108 -48.5zM992 1548q0 68 41.5 110t109.5 42q49 0 77.5 -30t28.5 -81q0 -60 -44 -107.5t-109 -47.5q-46 0 -75 32.5t-29 81.5zM986 0 l-39 239h-473l-121 -239h-385l715 1319h431l256 -1319h-384zM645 573h246l-60 364z" glyph-name="uni01DE" unicode="Ǟ"/><glyph d="M1005 1647l-32 -198h-598l33 198h597zM427 1053q-46 0 -75 32.5t-29 81.5q0 68 40.5 110t110.5 42q48 0 77 -29.5t29 -81.5q0 -58 -45 -106.5t-108 -48.5zM655 1167q0 68 42 110t110 42q49 0 77.5 -29.5t28.5 -81.5q0 -60 -44.5 -107.5t-109.5 -47.5q-46 0 -75 32.5 t-29 81.5zM1167 292l5 -263q-382 -126 -452 87q-118 -143 -327 -143q-167 0 -264 106.5t-97 285.5q0 258 146 429.5t346 171.5q196 0 275 -142l20 115h345l-92 -550q-12 -61 12.5 -82.5t82.5 -14.5zM539 287q72 0 123 39t68 111l7 37q2 10 2 33q0 68 -36 106.5t-102 38.5 q-90 0 -146 -61.5t-56 -157.5q0 -70 36.5 -108t103.5 -38z" glyph-name="uni01DF" horiz-adv-x="1274" unicode="ǟ"/><glyph d="M964 1440h-82l-247 234l104 118l220 -96l268 96l60 -118zM1318 780l-101 -551q-106 -118 -254.5 -186.5t-310.5 -68.5q-237 0 -382 158t-145 414q0 341 221.5 574t546.5 233q164 0 288.5 -65.5t195.5 -183.5l-300 -222q-38 60 -102.5 101t-150.5 41q-154 0 -242.5 -129.5 t-88.5 -307.5q0 -128 58 -205.5t174 -77.5q75 0 120 31l22 116h-172l59 329h564z" glyph-name="Gcaron" horiz-adv-x="1389" unicode="Ǧ"/><glyph d="M753 1060h-82l-248 234l104 117l221 -95l267 95l60 -117zM940 939h277l-171 -985q-17 -94 -56 -173.5t-108.5 -147.5t-179.5 -106.5t-251 -38.5q-195 0 -311 68.5t-167 172.5l288 194q43 -70 86.5 -104t108.5 -34q203 0 242 215l17 97q-114 -89 -280 -88 q-172 0 -268.5 104.5t-96.5 280.5q0 237 150 404.5t376 167.5q189 0 271 -155zM580 323q63 0 119.5 33t78.5 93l10 60v1q0 63 -41.5 102.5t-104.5 39.5q-77 0 -143 -51t-66 -135q0 -63 43 -103t104 -40z" glyph-name="gcaron" horiz-adv-x="1228" unicode="ǧ"/><glyph d="M1231 1162l-472 -94l-25 116l454 231zM1205 966q169 0 275.5 -79.5t81.5 -232.5q-15 -89 -71.5 -157.5t-142 -110t-177 -65.5t-196.5 -34q27 -43 117 -43q44 0 86 8.5t102.5 27.5t84.5 25l94 -254q-113 -46 -181 -62t-157 -16q-317 0 -408 242q-67 -109 -176.5 -179 t-248.5 -70q-131 0 -208 70t-77 193q0 179 119.5 272t299.5 93q99 0 186 -24q-22 84 -176 84q-131 0 -272 -63l-58 296q217 79 391 79q232 0 324 -201q158 201 388 201zM1254 642q3 27 -17 40t-47 13q-56 0 -118.5 -44.5t-91.5 -133.5q254 19 274 125zM430 229q82 0 131 90 q-51 12 -102 12h-11h-14.5t-15.5 -1t-17 -3.5t-15.5 -6t-13.5 -10t-7 -15.5q-15 -66 65 -66z" glyph-name="aeacute" horiz-adv-x="1575" unicode="ǽ"/><glyph d="M1306 1543l-471 -94l-26 116l454 230zM1592 1167l-182 -155q36 -99 36 -224q0 -227 -98.5 -413.5t-277.5 -295t-401 -108.5q-207 0 -346 116l-166 -142l-166 207l180 153q-39 108 -40 238q0 340 221 572.5t558 232.5q208 0 350 -114l163 140zM855 1015 q-167 0 -259.5 -125t-93.5 -303l469 401q-51 27 -116 27zM727 307q169 0 258.5 119.5t93.5 303.5l-466 -395q49 -28 114 -28z" glyph-name="Oslashacute" horiz-adv-x="1510" unicode="Ǿ"/><glyph d="M1031 1162l-471 -94l-26 116l454 231zM1111 879l-99 -84q72 -104 72 -245q0 -96 -37 -193.5t-107.5 -185t-194.5 -143t-279 -55.5q-191 0 -311 100l-85 -71l-63 82l80 68q-61 99 -61 232q0 261 177.5 421.5t441.5 160.5q172 0 290 -90l101 85zM398 437q0 -12 1 -19 l255 217q-27 24 -69 24q-79 0 -133 -75t-54 -147zM710 495q0 15 -3 43l-267 -224q31 -34 77 -34q82 0 137.5 71t55.5 144z" glyph-name="oslashacute" horiz-adv-x="1111" unicode="ǿ"/><glyph d="M606 963q0 -34 43.5 -66.5t109 -58.5t142.5 -65t142.5 -84.5t109 -121t43.5 -171.5q0 -183 -153.5 -302.5t-438.5 -119.5q-131 0 -307 67.5t-277 200.5l308 226q133 -176 332 -176q80 0 118 30t38 72q0 34 -32.5 61.5t-84.5 50.5t-116 47t-127 58t-115.5 77.5 t-84.5 112.5t-32 155q0 157 159.5 277t404.5 120q321 0 504 -184l-261 -222q-109 104 -278 104q-67 0 -107 -26t-40 -62zM551 -116q70 0 106 -43.5t36 -118.5q0 -19 -7 -46h2q-44 -246 -311 -278l-10 105q67 10 99 23t53 44h-21q-58 0 -91 36t-33 94q0 80 51 132t126 52z " glyph-name="Scommaaccent" horiz-adv-x="1293" unicode="Ș"/><glyph d="M522 674q0 -10 37.5 -29.5t92.5 -48t109.5 -66.5t92 -102t37.5 -143q0 -128 -103.5 -216t-307.5 -88q-138 0 -267 55.5t-206 159.5l244 202q137 -116 230 -116q19 0 28.5 3t10.5 5t1 5q0 10 -38.5 25t-93 38.5t-108.5 59.5t-92.5 101.5t-38.5 149.5q0 44 25.5 93.5 t73.5 96.5t131.5 77t186.5 30q247 0 396 -133l-253 -222q-99 68 -171 68q-17 0 -17 -5zM389 -116q70 0 106 -43.5t36 -118.5q0 -19 -7 -46h2q-44 -246 -311 -278l-10 105q67 10 99 23t53 44h-21q-58 0 -91 36t-33 94q0 80 51 132t126 52z" glyph-name="scommaaccent" horiz-adv-x="971" unicode="ș"/><glyph d="M1285 1319l-53 -326h-360l-174 -993h-355l174 993h-357l53 326h1072zM500 -116q70 0 106 -43.5t36 -118.5q0 -19 -7 -46h2q-44 -246 -311 -278l-10 105q67 10 99 23t53 44h-21q-58 0 -91 36t-33 94q0 80 51 132t126 52z" glyph-name="uni021A" horiz-adv-x="1210" unicode="Ț"/><glyph d="M492 466q-9 -67 -9 -108.5t17 -64.5t35 -32.5t46 -8t50.5 6t48 9.5t39.5 5l-89 -283q-61 -12 -116 -16.5t-114 1.5t-103 26.5t-85 59t-59 99t-25 144t17 198.5l29 165h-126l49 272h127l51 292h350l-52 -292h176l-82 -272h-140zM362 -116q70 0 105.5 -43.5t35.5 -118.5 q0 -19 -6 -46h1q-44 -246 -310 -278l-11 105q67 10 99.5 23t52.5 44h-20q-58 0 -91.5 36t-33.5 94q0 80 51.5 132t126.5 52z" glyph-name="uni021B" horiz-adv-x="744" unicode="ț"/><glyph d="M1130 1002h-536l-33 -185h425l-51 -319h-428l-33 -181h531l-53 -317h-416l-22 -89q77 -3 136.5 -43t56.5 -115q-12 -90 -62.5 -141t-151.5 -66q-79 -14 -140 1.5t-87 36.5l58 145q29 -19 77 -33.5t90.5 -10.5t47.5 37q5 27 -12 46t-48.5 25t-54.5 7.5t-42 -0.5l57 200 h-371l231 1319h884z" glyph-name="uni0228" horiz-adv-x="1163" unicode="Ȩ"/><glyph d="M1009 707q0 -109 -50.5 -190.5t-140 -128.5t-193.5 -71.5t-231 -33.5q29 -65 147 -65q84 0 270 77l94 -244q-188 -79 -403 -78h-19l-15 -62q77 -3 136.5 -43t55.5 -115q-12 -90 -62 -141t-151 -66q-79 -14 -140 1.5t-87 36.5l58 145q29 -19 77 -33.5t90.5 -10.5t47.5 37 q5 27 -12 46t-48.5 25t-54.5 7.5t-42 -0.5l50 181q-183 27 -269 136.5t-86 273.5q0 230 181 402.5t433 172.5q152 0 258 -64.5t106 -194.5zM401 517q135 14 226.5 48t91.5 89q0 67 -72 66.5t-143.5 -55t-102.5 -148.5z" glyph-name="uni0229" horiz-adv-x="1020" unicode="ȩ"/><glyph d="M705 1830l32 198h598l-33 -198h-597zM804 1700q48 0 77 -30t29 -81q0 -58 -45.5 -106.5t-108.5 -48.5q-46 0 -75 32t-29 82q0 68 41 110t111 42zM1137 1700q49 0 77 -30t28 -81q0 -60 -44 -107.5t-109 -47.5q-46 0 -75 32t-29 82q0 68 42 110t110 42zM898 1348 q251 0 396 -152t145 -408q0 -346 -220.5 -581.5t-558.5 -235.5q-247 0 -393 158t-146 414q0 222 100 406t278.5 291.5t398.5 107.5zM845 1022q-171 0 -263 -128.5t-92 -313.5q0 -128 55.5 -204t173.5 -76q172 0 262.5 127.5t90.5 320.5q0 128 -56.5 201t-170.5 73z" glyph-name="uni022A" horiz-adv-x="1495" unicode="Ȫ"/><glyph d="M415 1449l32 198h597l-32 -198h-597zM514 1319q48 0 77 -29.5t29 -81.5q0 -58 -45.5 -106.5t-108.5 -48.5q-46 0 -75 32.5t-29 81.5q0 68 41 110t111 42zM847 1319q49 0 77 -29.5t28 -81.5q0 -60 -44 -107.5t-109 -47.5q-46 0 -75 32.5t-29 81.5q0 68 42 110t110 42z M650 966q198 0 321 -113.5t123 -306.5q0 -94 -36 -191t-106.5 -184t-193.5 -142.5t-278 -55.5q-201 0 -322.5 109t-121.5 299q0 263 177.5 424t436.5 161zM596 659q-80 0 -131.5 -74.5t-51.5 -147.5q0 -61 27.5 -109t90.5 -48q79 0 134 71t55 144q0 63 -30.5 113.5 t-93.5 50.5z" glyph-name="uni022B" horiz-adv-x="1129" unicode="ȫ"/><glyph d="M753 939l-168 -944q-19 -108 -56 -195t-79 -143t-103.5 -104t-109.5 -74.5t-116 -57.5l-112 253l8 5q9 3 24 12.5t34 22.5t39.5 34.5t38.5 46t32.5 60.5t21.5 75l177 1009h369z" glyph-name="uni0237" horiz-adv-x="913" unicode="ȷ"/><glyph d="M1661 937l-21 -116h-138l-26 -145q-60 -350 -220 -526.5t-486 -176.5q-225 0 -344 85t-137.5 241.5t16.5 376.5l26 147h-136l20 116h135l65 380h365l-67 -380l449 -2l67 382h358l-66 -382h140zM1125 729l17 92l-449 2l-17 -94q-20 -119 -20.5 -206.5t14 -132.5 t43.5 -70.5t55 -31.5t60 -6q46 0 81 13.5t76.5 55.5t77.5 137.5t62 240.5z" glyph-name="uni0244" horiz-adv-x="1711" unicode="Ʉ"/><glyph d="M358 333l-1 -16q-3 -24 42 -31.5t130 -7.5q116 0 246 31l56 -290q-229 -53 -389 -53q-101 0 -184.5 22t-147.5 66.5t-92 121.5t-9 179l102 577h285l32 -123q114 157 308 157q125 0 190.5 -71.5t65.5 -191.5q0 -183 -125.5 -289.5t-327.5 -106.5q-99 0 -181 26zM555 705 q-31 0 -76.5 -41t-72.5 -116q34 -10 77 -10q48 0 89.5 33t41.5 71q0 27 -17.5 45t-41.5 18z" glyph-name="uni0250" horiz-adv-x="996" unicode="ɐ"/><glyph d="M1167 292l5 -263q-382 -126 -452 87q-118 -143 -327 -143q-167 0 -264 106.5t-97 285.5q0 258 146 429.5t346 171.5q196 0 275 -142l20 115h345l-92 -550q-12 -61 12.5 -82.5t82.5 -14.5zM539 287q72 0 123 39t68 111l7 37q2 10 2 33q0 68 -36 106.5t-102 38.5 q-90 0 -146 -61.5t-56 -157.5q0 -70 36.5 -108t103.5 -38z" glyph-name="uni0251" horiz-adv-x="1274" unicode="ɑ"/><glyph d="M973 551q0 -92 -31.5 -187.5t-96.5 -186t-183 -147.5t-269 -57q-254 0 -339 166t21 422h572l-41 2q-7 41 -16.5 65t-38.5 45.5t-77 21.5q-36 0 -75 -7t-64.5 -14t-69 -20.5t-65.5 -20.5l-77 254q82 29 125.5 43t116 25t157.5 11q210 0 330.5 -113t120.5 -302zM568 375 h-230l-7.5 -55t22 -64t77.5 -31q39 0 68 20.5t43.5 51.5t19.5 48.5t7 29.5z" glyph-name="uni0259" horiz-adv-x="1003" unicode="ə"/><glyph d="M1225 637l-20 -116h-104l-92 -521h-282l-34 108q-154 -131 -311 -132q-68 0 -121.5 18t-97.5 60t-55.5 112.5t1.5 178.5l33 177h-103l21 116h102l53 301h367l-55 -301l226 -1l54 302h369l-55 -302h104zM712 406l20 115l-225 1l-9 -49q-12 -44 -5 -82t50 -38q73 0 169 53z " glyph-name="uni0289" horiz-adv-x="1232" unicode="ʉ"/><glyph d="M519 1396h82l247 -234l-102 -118l-225 94l-263 -94l-62 118z" glyph-name="circumflex" horiz-adv-x="798" unicode="ˆ"/><glyph d="M469 1060l-247 234l104 117l220 -95l268 95l60 -117l-323 -234h-82z" glyph-name="caron" horiz-adv-x="798" unicode="ˇ"/><glyph d="M628 1319h203q-19 -113 -94 -186t-225 -73q-268 0 -220 259h203q-5 -5 -7 -24.5t12 -40t50 -20.5q78 0 78 85z" glyph-name="breve" horiz-adv-x="817" unicode="˘"/><glyph d="M625 1396q75 0 116.5 -42.5t41.5 -116.5q0 -92 -64 -165.5t-159 -73.5q-72 0 -114 48t-42 121q0 99 62.5 164t158.5 65z" glyph-name="dotaccent" horiz-adv-x="933" unicode="˙"/><glyph d="M606 1461q77 0 121 -48.5t44 -129.5q0 -102 -70.5 -179.5t-173.5 -77.5q-79 0 -123 50t-44 132q0 113 69 183t177 70zM575 1321q-31 0 -55.5 -27.5t-24.5 -62.5q0 -27 17 -44.5t41 -17.5q38 0 60 25.5t22 63.5q0 26 -16.5 44.5t-43.5 18.5z" glyph-name="ring" horiz-adv-x="861" unicode="˚"/><glyph d="M345 19h128q-90 -101 -114 -134t-24 -68q0 -36 39 -35q38 0 77 27l35 -99q-75 -68 -172 -77q-99 -5 -140 44.5t-17 131.5q26 48 79 108.5t109 101.5z" glyph-name="ogonek" horiz-adv-x="880" unicode="˛"/><glyph d="M478 1029h-193q22 133 117 214t192 81q51 0 88 -25.5t66 -51t63 -25.5q29 0 42.5 24t22.5 73h192q-29 -155 -110.5 -226.5t-179.5 -71.5q-44 0 -78 17.5t-51.5 38t-39.5 38.5t-44 18q-73 0 -87 -104z" glyph-name="tilde" horiz-adv-x="1087" unicode="˜"/><glyph d="M275 1024l-115 29l89 346l246 -70zM577 1024l-114 29l85 346l249 -70z" glyph-name="hungarumlaut" horiz-adv-x="687" unicode="˝"/><glyph d="M-154 1068l-428 94l133 253l364 -231z" glyph-name="gravecomb" horiz-adv-x="0" unicode="̀"/><glyph d="M-408 1068l-25 116l453 231l43 -253z" glyph-name="acutecomb" horiz-adv-x="0" unicode="́"/><glyph d="M-280 1396h82l247 -234l-102 -118l-225 94l-263 -94l-61 118z" glyph-name="uni0302" horiz-adv-x="0" unicode="̂"/><glyph d="M-609 1029h-193q22 133 116.5 214t192.5 81q51 0 87.5 -25.5t65.5 -51t64 -25.5q29 0 42.5 24t21.5 73h193q-29 -155 -111 -226.5t-179 -71.5q-44 0 -78.5 17.5t-51.5 38t-39 38.5t-44 18q-73 0 -87 -104z" glyph-name="tildecomb" horiz-adv-x="0" unicode="̃"/><glyph d="M-625 1068l33 198h597l-32 -198h-598z" glyph-name="uni0304" horiz-adv-x="0" unicode="̄"/><glyph d="M-189 1319h203q-19 -113 -94 -186t-225 -73q-268 0 -221 259h203q-5 -5 -6.5 -24.5t12 -40t49.5 -20.5q79 0 79 85z" glyph-name="uni0306" horiz-adv-x="0" unicode="̆"/><glyph d="M-309 1396q75 0 117 -42.5t42 -116.5q0 -92 -64 -165.5t-160 -73.5q-72 0 -113.5 48t-41.5 121q0 99 62 164t158 65z" glyph-name="uni0307" horiz-adv-x="0" unicode="̇"/><glyph d="M-495 1319q48 0 77 -29.5t29 -81.5q0 -58 -45.5 -106.5t-108.5 -48.5q-46 0 -75 32.5t-29 81.5q0 68 41 110t111 42zM-162 1319q49 0 77.5 -29.5t28.5 -81.5q0 -60 -44.5 -107.5t-109.5 -47.5q-46 0 -75 32.5t-29 81.5q0 68 42 110t110 42z" glyph-name="uni0308" horiz-adv-x="0" unicode="̈"/><glyph d="M-249 1051h-128q14 15 32.5 36t28 30t21.5 23t17 20.5t12 16t9.5 15.5t5 13.5t3.5 14.5t1 16q0 36 -36 35.5t-77 -27.5l-29 99q80 67 171 77q101 3 141.5 -45.5t15.5 -132.5q-58 -101 -188 -191z" glyph-name="hookabovecomb" horiz-adv-x="0" unicode="̉"/><glyph d="M-256 1461q77 0 121.5 -48.5t44.5 -129.5q0 -102 -71 -179.5t-174 -77.5q-79 0 -123 50t-44 132q0 113 69 183t177 70zM-287 1321q-31 0 -55.5 -27.5t-24.5 -62.5q0 -27 17 -44.5t41 -17.5q38 0 60 25.5t22 63.5q0 26 -16.5 44.5t-43.5 18.5z" glyph-name="uni030A" horiz-adv-x="0" unicode="̊"/><glyph d="M-413 1024l-114 29l88 346l246 -70zM-111 1024l-114 29l85 346l249 -70z" glyph-name="uni030B" horiz-adv-x="0" unicode="̋"/><glyph d="M-329 1060l-248 234l104 117l220 -95l268 95l60 -117l-322 -234h-82z" glyph-name="uni030C" horiz-adv-x="0" unicode="̌"/><glyph d="M-147 1219q0 -84 -48.5 -134.5t-128.5 -50.5q-135 0 -135 157q0 135 80 224.5t229 106.5l17 -107q-65 -10 -100 -23t-59 -44h21q60 0 92 -35.5t32 -93.5z" glyph-name="uni0312" horiz-adv-x="0" unicode="̒"/><glyph d="M-567 -80q75 0 118 -43.5t43 -115.5q0 -92 -64 -165.5t-160 -73.5q-70 0 -112.5 48t-42.5 121q0 99 62 164t156 65z" glyph-name="dotbelowcomb" horiz-adv-x="0" unicode="̣"/><glyph d="M-408 -278q0 -19 -7 -46h2q-44 -246 -311 -278l-10 105q67 10 99.5 23t52.5 44h-20q-58 0 -91.5 36t-33.5 94q0 80 51 132t126 52q70 0 106 -43.5t36 -118.5z" glyph-name="uni0326" horiz-adv-x="0" unicode="̦"/><glyph d="M-577 15l97 -3l-25 -101q77 -3 136.5 -43t56.5 -115q-12 -90 -62.5 -141t-151.5 -66q-79 -14 -140 1.5t-87 36.5l58 145q29 -19 77 -33.5t90.5 -10.5t47.5 37q5 27 -12 46t-48.5 25t-54.5 7.5t-42 -0.5z" glyph-name="uni0327" horiz-adv-x="0" unicode="̧"/><glyph d="M-536 19h128q-90 -101 -114 -134t-24 -68q0 -36 39 -35q38 0 77 27l36 -99q-75 -68 -173 -77q-99 -5 -140 44.5t-17 131.5q26 48 79 108.5t109 101.5z" glyph-name="uni0328" horiz-adv-x="0" unicode="̨"/><glyph d="M-625 -171h82l248 -233l-103 -118l-225 95l-263 -95l-61 118z" glyph-name="uni032D" horiz-adv-x="0" unicode="̭"/><glyph d="M-876 -367l33 196h597l-32 -196h-598z" glyph-name="uni0331" horiz-adv-x="0" unicode="̱"/><glyph d="M985 633q109 -73 109 -242t-109 -280t-270 -111h-121l-27 -159h-120l27 159h-407l203 1161h408l27 158h119l-27 -158h73q108 0 174.5 -70t66.5 -183q0 -97 -31.5 -157t-94.5 -118zM628 881h-99l-26 -149h99zM722 732q24 0 45 5t41.5 27.5t20.5 59.5q0 24 -17 40.5 t-44 16.5h-20zM425 280h99l29 167h-99zM724 280q29 0 60.5 26.5t31.5 68.5q0 36 -28.5 54t-58.5 18h-57l-29 -167h81z" glyph-name="uni0E3F" horiz-adv-x="1198" unicode="฿"/><glyph d="M1031 717q130 -89 130 -277q0 -186 -128 -313t-313 -127h-652l231 1319h597q130 0 207.5 -80t77.5 -206q0 -109 -38.5 -178.5t-111.5 -137.5zM722 831q143 0 143 99q0 34 -23 53t-60 19h-185l-30 -171h155zM720 317q48 0 88 32t40 78q0 41 -34 64t-75 23h-227l-36 -197 h244zM550 -80q75 0 117.5 -43.5t42.5 -115.5q0 -92 -64 -165.5t-160 -73.5q-70 0 -112.5 48t-42.5 121q0 99 62.5 164t156.5 65z" glyph-name="uni1E04" horiz-adv-x="1256" unicode="Ḅ"/><glyph d="M795 966q169 0 264.5 -111t95.5 -287q0 -254 -153.5 -424.5t-371.5 -170.5q-198 0 -280 170l-87 -143h-253l256 1468h348l-104 -598q116 96 285 96zM585 287q77 0 142 59.5t65 150.5q0 72 -40 113.5t-100 41.5q-70 0 -130.5 -44.5t-77.5 -119.5l-4 -20q-2 -10 -1 -29 q0 -70 39.5 -111t106.5 -41zM555 -80q75 0 117.5 -43.5t42.5 -115.5q0 -92 -64 -165.5t-159 -73.5q-70 0 -113 48t-43 121q0 99 62.5 164t156.5 65z" glyph-name="uni1E05" horiz-adv-x="1194" unicode="ḅ"/><glyph d="M869 1319q249 0 397.5 -149t148.5 -397q0 -340 -223.5 -556.5t-553.5 -216.5h-570l231 1319h570zM689 329q160 0 252.5 110.5t92.5 285.5q0 119 -57 192t-161 73h-214l-114 -661h201zM589 -80q75 0 117.5 -43.5t42.5 -115.5q0 -92 -64 -165.5t-159 -73.5q-70 0 -113 48 t-43 121q0 99 62.5 164t156.5 65z" glyph-name="uni1E0C" horiz-adv-x="1472" unicode="Ḍ"/><glyph d="M925 1468h350l-260 -1468h-252l-34 131q-137 -159 -343 -158q-162 0 -256 110t-94 292q0 249 149.5 420t384.5 171q166 0 246 -118zM543 287q65 0 124.5 45t76.5 115l5 31q2 5 2 19q0 73 -40 114t-103 41q-79 0 -144 -59t-65 -148q0 -73 40.5 -115.5t103.5 -42.5z M399 -80q75 0 118 -43.5t43 -115.5q0 -92 -64 -165.5t-160 -73.5q-70 0 -112.5 48t-42.5 121q0 99 62 164t156 65z" glyph-name="uni1E0D" horiz-adv-x="1206" unicode="ḍ"/><glyph d="M869 1319q249 0 397.5 -149t148.5 -397q0 -340 -223.5 -556.5t-553.5 -216.5h-570l231 1319h570zM689 329q160 0 252.5 110.5t92.5 285.5q0 119 -57 192t-161 73h-214l-114 -661h201zM275 -367l32 196h598l-33 -196h-597z" glyph-name="uni1E0E" horiz-adv-x="1472" unicode="Ḏ"/><glyph d="M925 1468h350l-260 -1468h-252l-34 131q-137 -159 -343 -158q-162 0 -256 110t-94 292q0 249 149.5 420t384.5 171q166 0 246 -118zM543 287q65 0 124.5 45t76.5 115l5 31q2 5 2 19q0 73 -40 114t-103 41q-79 0 -144 -59t-65 -148q0 -73 40.5 -115.5t103.5 -42.5z M85 -367l33 196h597l-32 -196h-598z" glyph-name="uni1E0F" horiz-adv-x="1206" unicode="ḏ"/><glyph d="M869 1319q249 0 397.5 -149t148.5 -397q0 -340 -223.5 -556.5t-553.5 -216.5h-570l231 1319h570zM689 329q160 0 252.5 110.5t92.5 285.5q0 119 -57 192t-161 73h-214l-114 -661h201zM539 -171h82l248 -233l-103 -118l-225 95l-263 -95l-61 118z" glyph-name="uni1E12" horiz-adv-x="1472" unicode="Ḓ"/><glyph d="M925 1468h350l-260 -1468h-252l-34 131q-137 -159 -343 -158q-162 0 -256 110t-94 292q0 249 149.5 420t384.5 171q166 0 246 -118zM543 287q65 0 124.5 45t76.5 115l5 31q2 5 2 19q0 73 -40 114t-103 41q-79 0 -144 -59t-65 -148q0 -73 40.5 -115.5t103.5 -42.5z M350 -171h82l247 -233l-102 -118l-225 95l-263 -95l-62 118z" glyph-name="uni1E13" horiz-adv-x="1206" unicode="ḓ"/><glyph d="M1104 1319h362l-230 -1319h-362l85 493h-444l-85 -493h-362l231 1319h361l-87 -496h444zM655 -80q75 0 118 -43.5t43 -115.5q0 -92 -64 -165.5t-160 -73.5q-70 0 -112.5 48t-42.5 121q0 99 62 164t156 65z" glyph-name="uni1E24" horiz-adv-x="1467" unicode="Ḥ"/><glyph d="M800 963q68 0 122 -18t98.5 -60t56.5 -113t-2 -178l-106 -594h-372l94 515q14 44 5.5 81t-51.5 37q-72 0 -164 -53l-1 2l-103 -582h-368l254 1449h368l-102 -584q133 98 271 98zM321 660l-14 -32q2 2 9 12t12 17zM466 -80q75 0 117.5 -43.5t42.5 -115.5q0 -92 -64 -165.5 t-159 -73.5q-70 0 -113 48t-43 121q0 99 62.5 164t156.5 65z" glyph-name="uni1E25" horiz-adv-x="1117" unicode="ḥ"/><glyph d="M481 1830l-25 116l454 230l42 -253zM391 1700q48 0 77 -30t29 -81q0 -58 -45.5 -106.5t-108.5 -48.5q-46 0 -75 32t-29 82q0 68 41 110t111 42zM724 1700q49 0 77 -30t28 -81q0 -60 -44 -107.5t-109 -47.5q-46 0 -75 32t-29 82q0 68 42 110t110 42zM430 0h-362l231 1319 h361z" glyph-name="uni1E2E" horiz-adv-x="660" unicode="Ḯ"/><glyph d="M452 1449l-25 116l454 230l42 -252zM362 1319q48 0 77 -29.5t29 -81.5q0 -58 -45.5 -106.5t-108.5 -48.5q-46 0 -75 32.5t-29 81.5q0 68 41 110t111 42zM695 1319q49 0 77 -29.5t28 -81.5q0 -60 -44 -107.5t-109 -47.5q-46 0 -75 32.5t-29 81.5q0 68 42 110t110 42z M637 292l5 -263q-89 -29 -160.5 -40t-139 -1.5t-106 50.5t-57.5 116t5 194l104 591h345l-92 -550q-12 -61 13 -82.5t83 -14.5z" glyph-name="uni1E2F" horiz-adv-x="701" unicode="ḯ"/><glyph d="M488 329h468l-53 -329h-835l231 1319h361zM495 -80q75 0 117.5 -43.5t42.5 -115.5q0 -92 -64 -165.5t-159 -73.5q-70 0 -113 48t-43 121q0 99 62.5 164t156.5 65z" glyph-name="uni1E36" horiz-adv-x="1100" unicode="Ḷ"/><glyph d="M532 302l6 -273q-73 -24 -135.5 -36t-124 -11t-104.5 23t-75 65t-36.5 115.5t9.5 172.5l187 1072h355l-175 -1031q-12 -63 13 -84.5t80 -12.5zM263 -80q75 0 117.5 -43.5t42.5 -115.5q0 -92 -64 -165.5t-159 -73.5q-70 0 -113 48t-43 121q0 99 62.5 164t156.5 65z" glyph-name="uni1E37" horiz-adv-x="616" unicode="ḷ"/><glyph d="M488 329h468l-53 -329h-835l231 1319h361zM445 -171h82l248 -233l-103 -118l-225 95l-263 -95l-61 118z" glyph-name="uni1E3C" horiz-adv-x="1100" unicode="Ḽ"/><glyph d="M532 302l6 -273q-73 -24 -135.5 -36t-124 -11t-104.5 23t-75 65t-36.5 115.5t9.5 172.5l187 1072h355l-175 -1031q-12 -63 13 -84.5t80 -12.5zM213 -171h82l248 -233l-103 -118l-225 95l-263 -95l-61 118z" glyph-name="uni1E3D" horiz-adv-x="616" unicode="ḽ"/><glyph d="M1377 1543l-471 -94l-25 116l454 230zM1123 1321h456l-145 -1321h-355l93 756l-295 -756h-292l-30 700l-162 -700h-362l315 1321h454l23 -819z" glyph-name="uni1E3E" horiz-adv-x="1634" unicode="Ḿ"/><glyph d="M1260 1162l-472 -94l-25 116l454 231zM1239 963q133 0 206.5 -86.5t39.5 -282.5l-106 -594h-352l96 548q14 44 13 81t-35 37q-49 0 -116 -33l-5 -39l-106 -594h-352l96 548q14 44 13 81t-35 37q-46 0 -111 -31l-113 -635h-369l164 939h282l25 -79q130 102 260 103 q167 0 227 -118q140 118 278 118zM292 657q0 -2 -1 -2t-1 -1q0 2 1 1.5t1 1.5zM797 657q0 -2 -1 -2t-1 -1q0 2 1 1.5t1 1.5z" glyph-name="uni1E3F" horiz-adv-x="1544" unicode="ḿ"/><glyph d="M935 1379q-72 0 -113.5 48t-41.5 121q0 99 62.5 164t157.5 65q75 0 117 -43t42 -116q0 -92 -64 -165.5t-160 -73.5zM1114 1319h369l-230 -1319h-376q12 43 8 91.5t-7.5 82.5t-21.5 76t-33.5 72t-42.5 68t-51 67t-58 69l-96 104l-109 -630h-369l231 1319h373 q-26 -143 31.5 -267.5t187.5 -266.5l85 -90z" glyph-name="uni1E44" horiz-adv-x="1510" unicode="Ṅ"/><glyph d="M625 998q-72 0 -114 48t-42 121q0 99 62.5 164t157.5 65q75 0 117 -42.5t42 -116.5q0 -92 -63.5 -165.5t-159.5 -73.5zM795 963q68 0 122 -18t98.5 -60t56.5 -113t-2 -178l-106 -594h-372l94 515q14 44 5.5 81t-51.5 37q-72 0 -164 -53h-2l-102 -580h-369l164 939h282 l36 -106q151 130 310 130zM321 660q-5 -9 -10 -22l-7 -12q2 2 5 7q10 14 17 24z" glyph-name="uni1E45" horiz-adv-x="1129" unicode="ṅ"/><glyph d="M1114 1319h369l-230 -1319h-376q12 43 8 91.5t-7.5 82.5t-21.5 76t-33.5 72t-42.5 68t-51 67t-58 69l-96 104l-109 -630h-369l231 1319h373q-26 -143 31.5 -267.5t187.5 -266.5l85 -90zM686 -80q75 0 118 -43.5t43 -115.5q0 -92 -64 -165.5t-160 -73.5q-70 0 -112.5 48 t-42.5 121q0 99 62 164t156 65z" glyph-name="uni1E46" horiz-adv-x="1510" unicode="Ṇ"/><glyph d="M795 963q68 0 122 -18t98.5 -60t56.5 -113t-2 -178l-106 -594h-372l94 515q14 44 5.5 81t-51.5 37q-72 0 -164 -53h-2l-102 -580h-369l164 939h282l36 -106q151 130 310 130zM321 660q-5 -9 -10 -22l-7 -12q2 2 5 7q10 14 17 24zM490 -80q75 0 117.5 -43.5t42.5 -115.5 q0 -92 -64 -165.5t-159 -73.5q-70 0 -113 48t-43 121q0 99 62.5 164t156.5 65z" glyph-name="uni1E47" horiz-adv-x="1129" unicode="ṇ"/><glyph d="M1114 1319h369l-230 -1319h-376q12 43 8 91.5t-7.5 82.5t-21.5 76t-33.5 72t-42.5 68t-51 67t-58 69l-96 104l-109 -630h-369l231 1319h373q-26 -143 31.5 -267.5t187.5 -266.5l85 -90zM637 -171h82l247 -233l-102 -118l-226 95l-263 -95l-61 118z" glyph-name="uni1E4A" horiz-adv-x="1510" unicode="Ṋ"/><glyph d="M795 963q68 0 122 -18t98.5 -60t56.5 -113t-2 -178l-106 -594h-372l94 515q14 44 5.5 81t-51.5 37q-72 0 -164 -53h-2l-102 -580h-369l164 939h282l36 -106q151 130 310 130zM321 660q-5 -9 -10 -22l-7 -12q2 2 5 7q10 14 17 24zM440 -171h82l248 -233l-103 -118l-225 95 l-263 -95l-61 118z" glyph-name="uni1E4B" horiz-adv-x="1129" unicode="ṋ"/><glyph d="M928 1830l-25 116l454 230l42 -253zM748 1410h-193q22 133 116.5 214t192.5 81q51 0 87.5 -25.5t65.5 -51t63 -25.5q29 0 43 23.5t22 73.5h193q-29 -155 -111 -227t-179 -72q-44 0 -78.5 18t-51.5 38.5t-39 38.5t-44 18q-73 0 -87 -104zM898 1348q251 0 396 -152 t145 -408q0 -346 -220.5 -581.5t-558.5 -235.5q-247 0 -393 158t-146 414q0 222 100 406t278.5 291.5t398.5 107.5zM845 1022q-171 0 -263 -128.5t-92 -313.5q0 -128 55.5 -204t173.5 -76q172 0 262.5 127.5t90.5 320.5q0 128 -56.5 201t-170.5 73z" glyph-name="uni1E4C" horiz-adv-x="1495" unicode="Ṍ"/><glyph d="M638 1449l-25 116l454 230l42 -252zM457 1029h-192q22 133 116.5 214t191.5 81q51 0 88 -25.5t66 -51t63 -25.5q29 0 43 24t22 73h193q-29 -155 -111 -226.5t-179 -71.5q-44 0 -78.5 17.5t-51.5 38t-39 38.5t-45 18q-73 0 -87 -104zM650 966q198 0 321 -113.5t123 -306.5 q0 -94 -36 -191t-106.5 -184t-193.5 -142.5t-278 -55.5q-201 0 -322.5 109t-121.5 299q0 263 177.5 424t436.5 161zM596 659q-80 0 -131.5 -74.5t-51.5 -147.5q0 -61 27.5 -109t90.5 -48q79 0 134 71t55 144q0 63 -30.5 113.5t-93.5 50.5z" glyph-name="uni1E4D" horiz-adv-x="1129" unicode="ṍ"/><glyph d="M1065 1830l-428 93l133 253l363 -230zM633 1449l33 198h597l-32 -198h-598zM898 1348q251 0 396 -152t145 -408q0 -346 -220.5 -581.5t-558.5 -235.5q-247 0 -393 158t-146 414q0 222 100 406t278.5 291.5t398.5 107.5zM845 1022q-171 0 -263 -128.5t-92 -313.5 q0 -128 55.5 -204t173.5 -76q172 0 262.5 127.5t90.5 320.5q0 128 -56.5 201t-170.5 73z" glyph-name="uni1E50" horiz-adv-x="1495" unicode="Ṑ"/><glyph d="M775 1449l-429 94l134 252l363 -230zM343 1068l32 198h598l-33 -198h-597zM650 966q198 0 321 -113.5t123 -306.5q0 -94 -36 -191t-106.5 -184t-193.5 -142.5t-278 -55.5q-201 0 -322.5 109t-121.5 299q0 263 177.5 424t436.5 161zM596 659q-80 0 -131.5 -74.5 t-51.5 -147.5q0 -61 27.5 -109t90.5 -48q79 0 134 71t55 144q0 63 -30.5 113.5t-93.5 50.5z" glyph-name="uni1E51" horiz-adv-x="1129" unicode="ṑ"/><glyph d="M893 1830l-26 116l454 230l43 -253zM633 1449l33 198h597l-32 -198h-598zM898 1348q251 0 396 -152t145 -408q0 -346 -220.5 -581.5t-558.5 -235.5q-247 0 -393 158t-146 414q0 222 100 406t278.5 291.5t398.5 107.5zM845 1022q-171 0 -263 -128.5t-92 -313.5 q0 -128 55.5 -204t173.5 -76q172 0 262.5 127.5t90.5 320.5q0 128 -56.5 201t-170.5 73z" glyph-name="uni1E52" horiz-adv-x="1495" unicode="Ṓ"/><glyph d="M602 1449l-25 116l454 230l42 -252zM343 1068l32 198h598l-33 -198h-597zM650 966q198 0 321 -113.5t123 -306.5q0 -94 -36 -191t-106.5 -184t-193.5 -142.5t-278 -55.5q-201 0 -322.5 109t-121.5 299q0 263 177.5 424t436.5 161zM596 659q-80 0 -131.5 -74.5 t-51.5 -147.5q0 -61 27.5 -109t90.5 -48q79 0 134 71t55 144q0 63 -30.5 113.5t-93.5 50.5z" glyph-name="uni1E53" horiz-adv-x="1129" unicode="ṓ"/><glyph d="M20 242l308 226q133 -176 332 -176q80 0 118 30t38 72q0 34 -32.5 61.5t-84.5 50.5t-116 47t-127 58t-115.5 77.5t-84.5 112.5t-32 155q0 157 159.5 277t404.5 120q321 0 504 -184l-261 -222q-109 104 -278 104q-67 0 -107 -26.5t-40 -61.5q0 -34 43.5 -66.5t109 -58.5 t142.5 -65t142.5 -84.5t109 -121t43.5 -171.5q0 -183 -153.5 -302.5t-438.5 -119.5q-131 0 -307 67.5t-277 200.5zM555 -80q75 0 117.5 -43.5t42.5 -115.5q0 -92 -64 -165.5t-159 -73.5q-70 0 -113 48t-43 121q0 99 62.5 164t156.5 65z" glyph-name="uni1E62" horiz-adv-x="1293" unicode="Ṣ"/><glyph d="M7 196l244 202q137 -116 230 -116q19 0 28.5 3t10.5 5t1 5q0 10 -38.5 25t-93 38.5t-108.5 59.5t-92.5 101.5t-38.5 149.5q0 44 25.5 93.5t73.5 96.5t131.5 77t186.5 30q247 0 396 -133l-253 -222q-99 68 -171 68q-17 0 -17 -5q0 -10 37.5 -29.5t92.5 -48t109.5 -66.5 t92 -102t37.5 -143q0 -128 -103.5 -216t-307.5 -88q-138 0 -267 55.5t-206 159.5zM393 -80q75 0 117.5 -43.5t42.5 -115.5q0 -92 -64 -165.5t-160 -73.5q-70 0 -112.5 48t-42.5 121q0 99 62.5 164t156.5 65z" glyph-name="uni1E63" horiz-adv-x="971" unicode="ṣ"/><glyph d="M1285 1319l-53 -326h-360l-174 -993h-355l174 993h-357l53 326h1072zM503 -80q75 0 118 -43.5t43 -115.5q0 -92 -64 -165.5t-160 -73.5q-70 0 -112.5 48t-42.5 121q0 99 62 164t156 65z" glyph-name="uni1E6C" horiz-adv-x="1210" unicode="Ṭ"/><glyph d="M492 466q-9 -67 -9 -108.5t17 -64.5t35 -32.5t46 -8t50.5 6t48 9.5t39.5 5l-89 -283q-61 -12 -116 -16.5t-114 1.5t-103 26.5t-85 59t-59 99t-25 144t17 198.5l29 165h-126l49 272h127l51 292h350l-52 -292h176l-82 -272h-140zM365 -80q75 0 118 -43.5t43 -115.5 q0 -92 -64 -165.5t-160 -73.5q-70 0 -112.5 48t-42.5 121q0 99 62 164t156 65z" glyph-name="uni1E6D" horiz-adv-x="744" unicode="ṭ"/><glyph d="M1285 1319l-53 -326h-360l-174 -993h-355l174 993h-357l53 326h1072zM189 -367l33 196h597l-32 -196h-598z" glyph-name="uni1E6E" horiz-adv-x="1210" unicode="Ṯ"/><glyph d="M492 466q-9 -67 -9 -108.5t17 -64.5t35 -32.5t46 -8t50.5 6t48 9.5t39.5 5l-89 -283q-61 -12 -116 -16.5t-114 1.5t-103 26.5t-85 59t-59 99t-25 144t17 198.5l29 165h-126l49 272h127l51 292h350l-52 -292h176l-82 -272h-140zM51 -367l33 196h597l-32 -196h-598z" glyph-name="uni1E6F" horiz-adv-x="744" unicode="ṯ"/><glyph d="M1285 1319l-53 -326h-360l-174 -993h-355l174 993h-357l53 326h1072zM454 -171h82l247 -233l-102 -118l-225 95l-263 -95l-62 118z" glyph-name="uni1E70" horiz-adv-x="1210" unicode="Ṱ"/><glyph d="M492 466q-9 -67 -9 -108.5t17 -64.5t35 -32.5t46 -8t50.5 6t48 9.5t39.5 5l-89 -283q-61 -12 -116 -16.5t-114 1.5t-103 26.5t-85 59t-59 99t-25 144t17 198.5l29 165h-126l49 272h127l51 292h350l-52 -292h176l-82 -272h-140zM316 -171h82l247 -233l-102 -118l-226 95 l-262 -95l-62 118z" glyph-name="uni1E71" horiz-adv-x="744" unicode="ṱ"/><glyph d="M1195 1565l-69 -116l-428 94l133 252zM1529 1319h417l-540 -1319h-351l-63 732l-364 -732h-346l-29 1319h390l-30 -705l373 705h231l92 -677z" glyph-name="Wgrave" horiz-adv-x="1899" unicode="Ẁ"/><glyph d="M1089 1184l-68 -116l-429 94l133 253zM1295 939h366l-58 -400q-27 -169 -70 -278t-111.5 -172t-153.5 -88t-210 -25q-113 0 -213.5 40t-156.5 114q-140 -154 -335 -154q-67 0 -123 19t-103.5 58t-66.5 114t-2 178l106 594h365l-96 -523q-10 -49 10.5 -83t71.5 -34 q36 0 72 25.5t56 68.5l96 546h369l-89 -509q-3 -32 -0.5 -63t20 -53t48.5 -22q113 0 149 232z" glyph-name="wgrave" horiz-adv-x="1669" unicode="ẁ"/><glyph d="M1425 1543l-471 -94l-26 116l454 230zM1529 1319h417l-540 -1319h-351l-63 732l-364 -732h-346l-29 1319h390l-30 -705l373 705h231l92 -677z" glyph-name="Wacute" horiz-adv-x="1899" unicode="Ẃ"/><glyph d="M1319 1162l-471 -94l-25 116l454 231zM1295 939h366l-58 -400q-27 -169 -70 -278t-111.5 -172t-153.5 -88t-210 -25q-113 0 -213.5 40t-156.5 114q-140 -154 -335 -154q-67 0 -123 19t-103.5 58t-66.5 114t-2 178l106 594h365l-96 -523q-10 -49 10.5 -83t71.5 -34 q36 0 72 25.5t56 68.5l96 546h369l-89 -509q-3 -32 -0.5 -63t20 -53t48.5 -22q113 0 149 232z" glyph-name="wacute" horiz-adv-x="1669" unicode="ẃ"/><glyph d="M887 1434q-46 0 -75 32t-29 82q0 68 41 110t111 42q48 0 77 -30t29 -81q0 -58 -45.5 -106.5t-108.5 -48.5zM1220 1434q-46 0 -75 32t-29 82q0 68 42 110t110 42q49 0 77.5 -30t28.5 -81q0 -60 -44.5 -107.5t-109.5 -47.5zM1529 1319h417l-540 -1319h-351l-63 732 l-364 -732h-346l-29 1319h390l-30 -705l373 705h231l92 -677z" glyph-name="Wdieresis" horiz-adv-x="1899" unicode="Ẅ"/><glyph d="M782 1053q-46 0 -75 32.5t-29 81.5q0 68 40.5 110t110.5 42q48 0 77 -29.5t29 -81.5q0 -58 -45 -106.5t-108 -48.5zM1114 1053q-46 0 -75 32.5t-29 81.5q0 68 42 110t110 42q49 0 77.5 -29.5t28.5 -81.5q0 -60 -44.5 -107.5t-109.5 -47.5zM1295 939h366l-58 -400 q-27 -169 -70 -278t-111.5 -172t-153.5 -88t-210 -25q-113 0 -213.5 40t-156.5 114q-140 -154 -335 -154q-67 0 -123 19t-103.5 58t-66.5 114t-2 178l106 594h365l-96 -523q-10 -49 10.5 -83t71.5 -34q36 0 72 25.5t56 68.5l96 546h369l-89 -509q-3 -32 -0.5 -63t20 -53 t48.5 -22q113 0 149 232z" glyph-name="wdieresis" horiz-adv-x="1669" unicode="ẅ"/><glyph d="M1403 1318l-39 -212l-782 -792l652 22l-62 -336h-1136l37 207l784 797l-654 -23l63 337h1137zM592 -80q75 0 118 -43.5t43 -115.5q0 -92 -64 -165.5t-160 -73.5q-70 0 -112.5 48t-42.5 121q0 99 62 164t156 65z" glyph-name="uni1E92" horiz-adv-x="1361" unicode="Ẓ"/><glyph d="M551 321q36 -2 112 -25t135 -10t149 79l-60 -333q-84 -58 -156 -62t-130 23t-118.5 53.5t-147 20.5t-187.5 -67l-150 270l475 365l-357 -29l60 333h792l-58 -333zM452 -80q75 0 118 -43.5t43 -115.5q0 -92 -64 -165.5t-160 -73.5q-70 0 -112.5 48t-42.5 121q0 99 62 164 t156 65z" glyph-name="uni1E93" horiz-adv-x="1024" unicode="ẓ"/><glyph d="M1231 995l3 -2l-259 -232q237 -53 237 -283q0 -51 -10.5 -106t-43.5 -124t-84.5 -122t-144.5 -89.5t-214 -36.5h-147l50 294h119q48 0 72 39t24 71q0 39 -31 60t-80 21q-27 0 -51 7l-4 -4l4 265q-5 -2 -5 0q-2 2 6 6q2 0 4 2l177 237l-143 2q-43 2 -74.5 -29t-39.5 -78 l-157 -893h-369l154 891q38 208 167.5 318t337.5 110h558z" glyph-name="uni1E9E" horiz-adv-x="1300" unicode="ẞ"/><glyph d="M1370 0h-384l-39 239h-473l-121 -239h-385l715 1319h431zM645 573h246l-60 364zM660 -80q75 0 118 -43.5t43 -115.5q0 -92 -64 -165.5t-160 -73.5q-70 0 -112.5 48t-42.5 121q0 99 62 164t156 65z" glyph-name="uni1EA0" unicode="Ạ"/><glyph d="M1167 292l5 -263q-382 -126 -452 87q-118 -143 -327 -143q-167 0 -264 106.5t-97 285.5q0 258 146 429.5t346 171.5q196 0 275 -142l20 115h345l-92 -550q-12 -61 12.5 -82.5t82.5 -14.5zM539 287q72 0 123 39t68 111l7 37q2 10 2 33q0 68 -36 106.5t-102 38.5 q-90 0 -146 -61.5t-56 -157.5q0 -70 36.5 -108t103.5 -38zM423 -80q75 0 118 -43.5t43 -115.5q0 -92 -64 -165.5t-160 -73.5q-70 0 -112.5 48t-42.5 121q0 99 62 164t156 65z" glyph-name="uni1EA1" horiz-adv-x="1274" unicode="ạ"/><glyph d="M937 1652q-36 0 -77 -27l-29 99q80 67 171 77q101 3 141.5 -45.5t15.5 -132.5q-58 -101 -188 -191h-128q14 15 32.5 35.5t28 30t21.5 23t17 20.5t12 16.5t9.5 15.5t5 13.5t3.5 14.5t1 15q0 36 -36 36zM986 0l-39 239h-473l-121 -239h-385l715 1319h431l256 -1319h-384z M645 573h246l-60 364z" glyph-name="uni1EA2" unicode="Ả"/><glyph d="M601 1271q-36 0 -77 -27l-29 99q80 67 171 77q101 3 141.5 -45.5t15.5 -132.5q-58 -101 -188 -191h-128q14 15 32.5 36t28 30t21.5 23t17 20.5t12 16t9.5 15.5t5 13.5t3.5 14.5t1 16q0 35 -36 35zM1167 292l5 -263q-382 -126 -452 87q-118 -143 -327 -143 q-167 0 -264 106.5t-97 285.5q0 258 146 429.5t346 171.5q196 0 275 -142l20 115h345l-92 -550q-12 -61 12.5 -82.5t82.5 -14.5zM539 287q72 0 123 39t68 111l7 37q2 10 2 33q0 68 -36 106.5t-102 38.5q-90 0 -146 -61.5t-56 -157.5q0 -70 36.5 -108t103.5 -38z" glyph-name="uni1EA3" horiz-adv-x="1274" unicode="ả"/><glyph d="M1374 1923l-471 -93l-26 116l454 230zM951 1519l-263 -94l-62 118l323 234h82l247 -234l-102 -118zM683 1319h431l256 -1319h-384l-39 239h-473l-121 -239h-385zM645 573h246l-60 364z" glyph-name="uni1EA4" unicode="Ấ"/><glyph d="M1038 1543l-471 -94l-26 116l454 230zM614 1138l-262 -94l-62 118l323 234h82l247 -234l-102 -118zM1167 292l5 -263q-382 -126 -452 87q-118 -143 -327 -143q-167 0 -264 106.5t-97 285.5q0 258 146 429.5t346 171.5q196 0 275 -142l20 115h345l-92 -550 q-12 -61 12.5 -82.5t82.5 -14.5zM539 287q72 0 123 39t68 111l7 37q2 10 2 33q0 68 -36 106.5t-102 38.5q-90 0 -146 -61.5t-56 -157.5q0 -70 36.5 -108t103.5 -38z" glyph-name="uni1EA5" horiz-adv-x="1274" unicode="ấ"/><glyph d="M1143 1946l-68 -116l-428 93l133 253zM951 1519l-263 -94l-62 118l323 234h82l247 -234l-102 -118zM986 0l-39 239h-473l-121 -239h-385l715 1319h431l256 -1319h-384zM645 573h246l-60 364z" glyph-name="uni1EA6" unicode="Ầ"/><glyph d="M807 1565l-68 -116l-428 94l133 252zM614 1138l-262 -94l-62 118l323 234h82l247 -234l-102 -118zM1167 292l5 -263q-382 -126 -452 87q-118 -143 -327 -143q-167 0 -264 106.5t-97 285.5q0 258 146 429.5t346 171.5q196 0 275 -142l20 115h345l-92 -550 q-12 -61 12.5 -82.5t82.5 -14.5zM539 287q72 0 123 39t68 111l7 37q2 10 2 33q0 68 -36 106.5t-102 38.5q-90 0 -146 -61.5t-56 -157.5q0 -70 36.5 -108t103.5 -38z" glyph-name="uni1EA7" horiz-adv-x="1274" unicode="ầ"/><glyph d="M1010.5 2033q-35.5 0 -76.5 -28l-29 99q80 67 170 77q101 3 142 -45.5t15 -131.5q-58 -101 -188 -192h-128q14 15 33 36t28 30.5t21 23t17.5 20.5t12 16t9 15t5 14t3.5 14.5t1 15.5q0 36 -35.5 36zM951 1519l-263 -94l-62 118l323 234h82l247 -234l-102 -118zM986 0 l-39 239h-473l-121 -239h-385l715 1319h431l256 -1319h-384zM645 573h246l-60 364z" glyph-name="uni1EA8" unicode="Ẩ"/><glyph d="M674 1652q-36 0 -77 -27l-29 99q80 67 171 77q101 3 142 -45.5t15 -132.5q-58 -101 -188 -191h-128q14 15 32.5 35.5t28 30t21.5 23t17 20.5t12 16.5t9.5 15.5t5 13.5t3.5 14.5t1 15q0 36 -36 36zM614 1138l-262 -94l-62 118l323 234h82l247 -234l-102 -118zM1167 292 l5 -263q-382 -126 -452 87q-118 -143 -327 -143q-167 0 -264 106.5t-97 285.5q0 258 146 429.5t346 171.5q196 0 275 -142l20 115h345l-92 -550q-12 -61 12.5 -82.5t82.5 -14.5zM539 287q72 0 123 39t68 111l7 37q2 10 2 33q0 68 -36 106.5t-102 38.5q-90 0 -146 -61.5 t-56 -157.5q0 -70 36.5 -108t103.5 -38z" glyph-name="uni1EA9" horiz-adv-x="1274" unicode="ẩ"/><glyph d="M915 1894q-73 0 -87 -104h-193q22 133 117 214.5t192 81.5q51 0 87.5 -26t65.5 -51.5t64 -25.5q29 0 42.5 24t21.5 73h193q-29 -155 -111 -226.5t-179 -71.5q-44 0 -78.5 18t-51.5 38.5t-39 38t-44 17.5zM951 1519l-263 -94l-62 118l323 234h82l247 -234l-102 -118z M683 1319h431l256 -1319h-384l-39 239h-473l-121 -239h-385zM645 573h246l-60 364z" glyph-name="uni1EAA" unicode="Ẫ"/><glyph d="M579 1514q-73 0 -87 -104h-193q22 133 116.5 214t192.5 81q51 0 87.5 -25.5t65.5 -51t63 -25.5q29 0 43 23.5t22 73.5h193q-29 -155 -111 -227t-179 -72q-44 0 -78.5 18t-51.5 38.5t-39 38.5t-44 18zM614 1138l-262 -94l-62 118l323 234h82l247 -234l-102 -118zM1167 292 l5 -263q-382 -126 -452 87q-118 -143 -327 -143q-167 0 -264 106.5t-97 285.5q0 258 146 429.5t346 171.5q196 0 275 -142l20 115h345l-92 -550q-12 -61 12.5 -82.5t82.5 -14.5zM539 287q72 0 123 39t68 111l7 37q2 10 2 33q0 68 -36 106.5t-102 38.5q-90 0 -146 -61.5 t-56 -157.5q0 -70 36.5 -108t103.5 -38z" glyph-name="uni1EAB" horiz-adv-x="1274" unicode="ẫ"/><glyph d="M951 1519l-263 -94l-62 118l323 234h82l247 -234l-102 -118zM1370 0h-384l-39 239h-473l-121 -239h-385l715 1319h431zM645 573h246l-60 364zM660 -80q75 0 118 -43.5t43 -115.5q0 -92 -64 -165.5t-160 -73.5q-70 0 -112.5 48t-42.5 121q0 99 62 164t156 65z" glyph-name="uni1EAC" unicode="Ậ"/><glyph d="M614 1138l-262 -94l-62 118l323 234h82l247 -234l-102 -118zM1167 292l5 -263q-382 -126 -452 87q-118 -143 -327 -143q-167 0 -264 106.5t-97 285.5q0 258 146 429.5t346 171.5q196 0 275 -142l20 115h345l-92 -550q-12 -61 12.5 -82.5t82.5 -14.5zM539 287q72 0 123 39 t68 111l7 37q2 10 2 33q0 68 -36 106.5t-102 38.5q-90 0 -146 -61.5t-56 -157.5q0 -70 36.5 -108t103.5 -38zM423 -80q75 0 118 -43.5t43 -115.5q0 -92 -64 -165.5t-160 -73.5q-70 0 -112.5 48t-42.5 121q0 99 62 164t156 65z" glyph-name="uni1EAD" horiz-adv-x="1274" unicode="ậ"/><glyph d="M1367 1923l-471 -93l-26 116l454 230zM923 1440q-268 0 -220 260h203q-5 -5 -6.5 -25t12 -40t49.5 -20q79 0 78 85h203q-19 -113 -94 -186.5t-225 -73.5zM986 0l-39 239h-473l-121 -239h-385l715 1319h431l256 -1319h-384zM645 573h246l-60 364z" glyph-name="uni1EAE" unicode="Ắ"/><glyph d="M1031 1543l-471 -94l-26 116l454 230zM587 1060q-268 0 -220 259h203q-5 -5 -7 -24.5t12 -40t50 -20.5q79 0 78 85h203q-19 -113 -94 -186t-225 -73zM1167 292l5 -263q-382 -126 -452 87q-118 -143 -327 -143q-167 0 -264 106.5t-97 285.5q0 258 146 429.5t346 171.5 q196 0 275 -142l20 115h345l-92 -550q-12 -61 12.5 -82.5t82.5 -14.5zM539 287q72 0 123 39t68 111l7 37q2 10 2 33q0 68 -36 106.5t-102 38.5q-90 0 -146 -61.5t-56 -157.5q0 -70 36.5 -108t103.5 -38z" glyph-name="uni1EAF" horiz-adv-x="1274" unicode="ắ"/><glyph d="M1137 1946l-69 -116l-428 93l133 253zM906 1700q-5 -5 -6.5 -25t12 -40t49.5 -20q79 0 78 85h203q-19 -113 -94 -186.5t-225 -73.5q-268 0 -220 260h203zM986 0l-39 239h-473l-121 -239h-385l715 1319h431l256 -1319h-384zM645 573h246l-60 364z" glyph-name="uni1EB0" unicode="Ằ"/><glyph d="M800 1565l-68 -116l-428 94l133 252zM570 1319q-5 -5 -7 -24.5t12 -40t50 -20.5q79 0 78 85h203q-19 -113 -94 -186t-225 -73q-268 0 -220 259h203zM1167 292l5 -263q-382 -126 -452 87q-118 -143 -327 -143q-167 0 -264 106.5t-97 285.5q0 258 146 429.5t346 171.5 q196 0 275 -142l20 115h345l-92 -550q-12 -61 12.5 -82.5t82.5 -14.5zM539 287q72 0 123 39t68 111l7 37q2 10 2 33q0 68 -36 106.5t-102 38.5q-90 0 -146 -61.5t-56 -157.5q0 -70 36.5 -108t103.5 -38z" glyph-name="uni1EB1" horiz-adv-x="1274" unicode="ằ"/><glyph d="M1003.5 2033q-35.5 0 -76.5 -28l-29 99q80 67 170 77q101 3 142 -45.5t15 -131.5q-58 -101 -187 -192h-128q14 15 32.5 36t28 30.5t21.5 23t17 20.5t11.5 16t9.5 15t5.5 14t3 14.5t0.5 15.5q0 36 -35.5 36zM923 1440q-268 0 -220 260h203q-5 -5 -6.5 -25t12 -40t49.5 -20 q79 0 78 85h203q-19 -113 -94 -186.5t-225 -73.5zM986 0l-39 239h-473l-121 -239h-385l715 1319h431l256 -1319h-384zM645 573h246l-60 364z" glyph-name="uni1EB2" unicode="Ẳ"/><glyph d="M667 1652q-36 0 -76 -27l-30 99q80 67 171 77q101 3 142 -45.5t15 -132.5q-58 -101 -188 -191h-128q14 15 33 35.5t28 30t21 23t17.5 20.5t12 16.5t9 15.5t5 13.5t3.5 14.5t1 15q0 36 -36 36zM587 1060q-268 0 -220 259h203q-5 -5 -7 -24.5t12 -40t50 -20.5q79 0 78 85 h203q-19 -113 -94 -186t-225 -73zM1167 292l5 -263q-382 -126 -452 87q-118 -143 -327 -143q-167 0 -264 106.5t-97 285.5q0 258 146 429.5t346 171.5q196 0 275 -142l20 115h345l-92 -550q-12 -61 12.5 -82.5t82.5 -14.5zM539 287q72 0 123 39t68 111l7 37q2 10 2 33 q0 68 -36 106.5t-102 38.5q-90 0 -146 -61.5t-56 -157.5q0 -70 36.5 -108t103.5 -38z" glyph-name="uni1EB3" horiz-adv-x="1274" unicode="ẳ"/><glyph d="M908 1894q-73 0 -87 -104h-193q22 133 117 214.5t192 81.5q51 0 88 -26t66 -51.5t63 -25.5q29 0 42.5 24t22.5 73h192q-29 -155 -110.5 -226.5t-179.5 -71.5q-44 0 -78 18t-51 38.5t-39.5 38t-44.5 17.5zM906 1700q-5 -5 -6.5 -25t12 -40t49.5 -20q79 0 78 85h203 q-19 -113 -94 -186.5t-225 -73.5q-268 0 -220 260h203zM683 1319h431l256 -1319h-384l-39 239h-473l-121 -239h-385zM645 573h246l-60 364z" glyph-name="uni1EB4" unicode="Ẵ"/><glyph d="M572 1514q-73 0 -87 -104h-193q22 133 116.5 214t192.5 81q51 0 87.5 -25.5t65.5 -51t63 -25.5q29 0 43 23.5t22 73.5h193q-29 -155 -111 -227t-179 -72q-44 0 -78.5 18t-51.5 38.5t-39 38.5t-44 18zM570 1319q-5 -5 -7 -24.5t12 -40t50 -20.5q79 0 78 85h203 q-19 -113 -94 -186t-225 -73q-268 0 -220 259h203zM1167 292l5 -263q-382 -126 -452 87q-118 -143 -327 -143q-167 0 -264 106.5t-97 285.5q0 258 146 429.5t346 171.5q196 0 275 -142l20 115h345l-92 -550q-12 -61 12.5 -82.5t82.5 -14.5zM539 287q72 0 123 39t68 111l7 37 q2 10 2 33q0 68 -36 106.5t-102 38.5q-90 0 -146 -61.5t-56 -157.5q0 -70 36.5 -108t103.5 -38z" glyph-name="uni1EB5" horiz-adv-x="1274" unicode="ẵ"/><glyph d="M923 1440q-268 0 -220 260h203q-5 -5 -6.5 -25t12 -40t49.5 -20q79 0 78 85h203q-19 -113 -94 -186.5t-225 -73.5zM1370 0h-384l-39 239h-473l-121 -239h-385l715 1319h431zM645 573h246l-60 364zM660 -80q75 0 118 -43.5t43 -115.5q0 -92 -64 -165.5t-160 -73.5 q-70 0 -112.5 48t-42.5 121q0 99 62 164t156 65z" glyph-name="uni1EB6" unicode="Ặ"/><glyph d="M587 1060q-268 0 -220 259h203q-5 -5 -7 -24.5t12 -40t50 -20.5q79 0 78 85h203q-19 -113 -94 -186t-225 -73zM1167 292l5 -263q-382 -126 -452 87q-118 -143 -327 -143q-167 0 -264 106.5t-97 285.5q0 258 146 429.5t346 171.5q196 0 275 -142l20 115h345l-92 -550 q-12 -61 12.5 -82.5t82.5 -14.5zM539 287q72 0 123 39t68 111l7 37q2 10 2 33q0 68 -36 106.5t-102 38.5q-90 0 -146 -61.5t-56 -157.5q0 -70 36.5 -108t103.5 -38zM423 -80q75 0 118 -43.5t43 -115.5q0 -92 -64 -165.5t-160 -73.5q-70 0 -112.5 48t-42.5 121q0 99 62 164 t156 65z" glyph-name="uni1EB7" horiz-adv-x="1274" unicode="ặ"/><glyph d="M1130 1002h-536l-33 -185h425l-51 -319h-428l-33 -181h531l-53 -317h-884l231 1319h884zM466 -80q75 0 117.5 -43.5t42.5 -115.5q0 -92 -64 -165.5t-159 -73.5q-70 0 -113 48t-43 121q0 99 62.5 164t156.5 65z" glyph-name="uni1EB8" horiz-adv-x="1163" unicode="Ẹ"/><glyph d="M1009 707q0 -109 -50.5 -190.5t-140 -128.5t-193.5 -71.5t-231 -33.5q29 -65 147 -65q84 0 270 77l94 -244q-188 -79 -403 -78q-244 0 -357.5 115t-113.5 303q0 230 181 402.5t433 172.5q152 0 258 -64.5t106 -194.5zM401 517q135 14 226.5 48t91.5 89q0 67 -72 66.5 t-143.5 -55t-102.5 -148.5zM420 -80q75 0 117.5 -43.5t42.5 -115.5q0 -92 -64 -165.5t-159 -73.5q-70 0 -113 48t-43 121q0 99 62.5 164t156.5 65z" glyph-name="uni1EB9" horiz-adv-x="1020" unicode="ẹ"/><glyph d="M778 1652q-36 0 -77 -27l-29 99q80 67 171 77q101 3 142 -45.5t15 -132.5q-58 -101 -188 -191h-128q14 15 33 35.5t28 30t21 23t17 20.5t12 16.5t9.5 15.5t5 13.5t3.5 14.5t1 15q0 36 -36 36zM1130 1002h-536l-33 -185h425l-51 -319h-428l-33 -181h531l-53 -317h-884 l231 1319h884z" glyph-name="uni1EBA" horiz-adv-x="1163" unicode="Ẻ"/><glyph d="M679 1271q-36 0 -77 -27l-29 99q80 67 171 77q101 3 142 -45.5t15 -132.5q-58 -101 -188 -191h-128q14 15 33 36t28 30t21 23t17 20.5t12 16t9.5 15.5t5 13.5t3.5 14.5t1 16q0 35 -36 35zM1009 707q0 -109 -50.5 -190.5t-140 -128.5t-193.5 -71.5t-231 -33.5 q29 -65 147 -65q84 0 270 77l94 -244q-188 -79 -403 -78q-244 0 -357.5 115t-113.5 303q0 230 181 402.5t433 172.5q152 0 258 -64.5t106 -194.5zM401 517q135 14 226.5 48t91.5 89q0 67 -72 66.5t-143.5 -55t-102.5 -148.5z" glyph-name="uni1EBB" horiz-adv-x="1020" unicode="ẻ"/><glyph d="M649 1514q-73 0 -88 -104h-192q22 133 116.5 214t192.5 81q51 0 87.5 -25.5t65.5 -51t63 -25.5q29 0 43 23.5t22 73.5h193q-29 -155 -111 -227t-179 -72q-44 0 -78.5 18t-51.5 38.5t-39 38.5t-44 18zM1130 1002h-536l-33 -185h425l-51 -319h-428l-33 -181h531l-53 -317 h-884l231 1319h884z" glyph-name="uni1EBC" horiz-adv-x="1163" unicode="Ẽ"/><glyph d="M584 1133q-73 0 -87 -104h-193q22 133 116.5 214t192.5 81q51 0 87.5 -25.5t65.5 -51t63 -25.5q29 0 43 24t22 73h193q-29 -155 -111 -226.5t-179 -71.5q-44 0 -78.5 17.5t-51.5 38t-39 38.5t-44 18zM645 966q152 0 258 -65t106 -194q0 -109 -50.5 -190.5t-140 -128.5 t-193.5 -71.5t-231 -33.5q29 -65 147 -65q84 0 270 77l94 -244q-188 -79 -403 -78q-244 0 -357.5 115t-113.5 303q0 230 180.5 402.5t433.5 172.5zM401 517q135 14 226.5 48t91.5 89q0 67 -72 66.5t-143.5 -55t-102.5 -148.5z" glyph-name="uni1EBD" horiz-adv-x="1020" unicode="ẽ"/><glyph d="M1215 1923l-471 -93l-25 116l453 230zM792 1519l-263 -94l-61 118l322 234h82l248 -234l-103 -118zM68 0l231 1319h884l-53 -317h-536l-33 -185h425l-51 -319h-428l-33 -181h531l-53 -317h-884z" glyph-name="uni1EBE" horiz-adv-x="1163" unicode="Ế"/><glyph d="M1116 1543l-471 -94l-25 116l453 230zM691 1396h82l248 -234l-103 -118l-225 94l-263 -94l-61 118zM645 966q152 0 258 -65t106 -194q0 -109 -50.5 -190.5t-140 -128.5t-193.5 -71.5t-231 -33.5q29 -65 147 -65q84 0 270 77l94 -244q-188 -79 -403 -78q-244 0 -357.5 115 t-113.5 303q0 230 180.5 402.5t433.5 172.5zM401 517q135 14 226.5 48t91.5 89q0 67 -72 66.5t-143.5 -55t-102.5 -148.5z" glyph-name="uni1EBF" horiz-adv-x="1020" unicode="ế"/><glyph d="M985 1946l-69 -116l-428 93l133 253zM792 1519l-263 -94l-61 118l322 234h82l248 -234l-103 -118zM1130 1002h-536l-33 -185h425l-51 -319h-428l-33 -181h531l-53 -317h-884l231 1319h884z" glyph-name="uni1EC0" horiz-adv-x="1163" unicode="Ề"/><glyph d="M886 1565l-69 -116l-428 94l133 252zM693 1138l-263 -94l-61 118l322 234h82l248 -234l-103 -118zM645 966q152 0 258 -65t106 -194q0 -109 -50.5 -190.5t-140 -128.5t-193.5 -71.5t-231 -33.5q29 -65 147 -65q84 0 270 77l94 -244q-188 -79 -403 -78q-244 0 -357.5 115 t-113.5 303q0 230 180.5 402.5t433.5 172.5zM401 517q135 14 226.5 48t91.5 89q0 67 -72 66.5t-143.5 -55t-102.5 -148.5z" glyph-name="uni1EC1" horiz-adv-x="1020" unicode="ề"/><glyph d="M851.5 2033q-35.5 0 -76.5 -28l-29 99q80 67 170 77q101 3 142 -45.5t15 -131.5q-58 -101 -187 -192h-128q14 15 32.5 36t28 30.5t21.5 23t17 20.5t12 16t9.5 15t5 14t3 14.5t0.5 15.5q0 36 -35.5 36zM792 1519l-263 -94l-61 118l322 234h82l248 -234l-103 -118z M1130 1002h-536l-33 -185h425l-51 -319h-428l-33 -181h531l-53 -317h-884l231 1319h884z" glyph-name="uni1EC2" horiz-adv-x="1163" unicode="Ể"/><glyph d="M752.5 1652q-35.5 0 -76.5 -27l-29 99q80 67 170 77q101 3 142 -45.5t16 -132.5q-58 -101 -188 -191h-128q14 15 32.5 35.5t28 30t21.5 23t17 20.5t12 16.5t9.5 15.5t5 13.5t3 14.5t0.5 15q0 36 -35.5 36zM693 1138l-263 -94l-61 118l322 234h82l248 -234l-103 -118z M645 966q152 0 258 -65t106 -194q0 -109 -50.5 -190.5t-140 -128.5t-193.5 -71.5t-231 -33.5q29 -65 147 -65q84 0 270 77l94 -244q-188 -79 -403 -78q-244 0 -357.5 115t-113.5 303q0 230 180.5 402.5t433.5 172.5zM401 517q135 14 226.5 48t91.5 89q0 67 -72 66.5 t-143.5 -55t-102.5 -148.5z" glyph-name="uni1EC3" horiz-adv-x="1020" unicode="ể"/><glyph d="M756 1894q-73 0 -87 -104h-193q22 133 117 214.5t192 81.5q51 0 88 -26t66 -51.5t63 -25.5q29 0 42.5 24t22.5 73h193q-29 -155 -111 -226.5t-180 -71.5q-44 0 -78 18t-51 38.5t-39.5 38t-44.5 17.5zM792 1519l-263 -94l-61 118l322 234h82l248 -234l-103 -118zM68 0 l231 1319h884l-53 -317h-536l-33 -185h425l-51 -319h-428l-33 -181h531l-53 -317h-884z" glyph-name="uni1EC4" horiz-adv-x="1163" unicode="Ễ"/><glyph d="M968 1700h193q-29 -155 -111 -227t-180 -72q-44 0 -78 18t-51 38.5t-39.5 38.5t-44.5 18q-73 0 -87 -104h-193q22 133 117 214t192 81q51 0 88 -25.5t66 -51t63 -25.5q29 0 42.5 24t22.5 73zM691 1396h82l248 -234l-103 -118l-225 94l-263 -94l-61 118zM645 966 q152 0 258 -65t106 -194q0 -109 -50.5 -190.5t-140 -128.5t-193.5 -71.5t-231 -33.5q29 -65 147 -65q84 0 270 77l94 -244q-188 -79 -403 -78q-244 0 -357.5 115t-113.5 303q0 230 180.5 402.5t433.5 172.5zM401 517q135 14 226.5 48t91.5 89q0 67 -72 66.5t-143.5 -55 t-102.5 -148.5z" glyph-name="uni1EC5" horiz-adv-x="1020" unicode="ễ"/><glyph d="M792 1519l-263 -94l-61 118l322 234h82l248 -234l-103 -118zM1130 1002h-536l-33 -185h425l-51 -319h-428l-33 -181h531l-53 -317h-884l231 1319h884zM466 -80q75 0 117.5 -43.5t42.5 -115.5q0 -92 -64 -165.5t-159 -73.5q-70 0 -113 48t-43 121q0 99 62.5 164t156.5 65z " glyph-name="uni1EC6" horiz-adv-x="1163" unicode="Ệ"/><glyph d="M693 1138l-263 -94l-61 118l322 234h82l248 -234l-103 -118zM645 966q152 0 258 -65t106 -194q0 -109 -50.5 -190.5t-140 -128.5t-193.5 -71.5t-231 -33.5q29 -65 147 -65q84 0 270 77l94 -244q-188 -79 -403 -78q-244 0 -357.5 115t-113.5 303q0 230 180.5 402.5 t433.5 172.5zM401 517q135 14 226.5 48t91.5 89q0 67 -72 66.5t-143.5 -55t-102.5 -148.5zM420 -80q75 0 117.5 -43.5t42.5 -115.5q0 -92 -64 -165.5t-159 -73.5q-70 0 -113 48t-43 121q0 99 62.5 164t156.5 65z" glyph-name="uni1EC7" horiz-adv-x="1020" unicode="ệ"/><glyph d="M551 1432h-128q14 15 32.5 35.5t28 30t21.5 23t17 20.5t12 16.5t9.5 15.5t5 13.5t3.5 14.5t1 15q0 36 -36 36t-77 -27l-29 99q80 67 171 77q101 3 142 -45.5t15 -132.5q-58 -101 -188 -191zM430 0h-362l231 1319h361z" glyph-name="uni1EC8" horiz-adv-x="660" unicode="Ỉ"/><glyph d="M522 1051h-128q14 15 32.5 36t28 30t21.5 23t17 20.5t12 16t9.5 15.5t5 13.5t3.5 14.5t1 16q0 36 -36 35.5t-77 -27.5l-29 99q80 67 171 77q101 3 142 -45.5t15 -132.5q-58 -101 -188 -191zM637 292l5 -263q-89 -29 -160.5 -40t-139 -1.5t-106 50.5t-57.5 116t5 194 l104 591h345l-92 -550q-12 -61 13 -82.5t83 -14.5z" glyph-name="uni1EC9" horiz-adv-x="701" unicode="ỉ"/><glyph d="M430 0h-362l231 1319h361zM236 -80q75 0 117.5 -43.5t42.5 -115.5q0 -92 -64 -165.5t-160 -73.5q-70 0 -112.5 48t-42.5 121q0 99 62.5 164t156.5 65z" glyph-name="uni1ECA" horiz-adv-x="660" unicode="Ị"/><glyph d="M403 1471q68 0 107.5 -41t39.5 -107q0 -85 -59 -154.5t-148 -69.5q-67 0 -107.5 44.5t-40.5 110.5q0 92 59.5 154.5t148.5 62.5zM497 292l5 -263q-89 -29 -160.5 -40t-139 -1.5t-106 50.5t-57.5 116t5 194l104 591h345l-92 -550q-12 -61 13 -82.5t83 -14.5zM212 -80 q75 0 117.5 -43.5t42.5 -115.5q0 -92 -64 -165.5t-160 -73.5q-70 0 -112.5 48t-42.5 121q0 99 62.5 164t156.5 65z" glyph-name="uni1ECB" horiz-adv-x="605" unicode="ị"/><glyph d="M898 1348q251 0 396 -152t145 -408q0 -346 -220.5 -581.5t-558.5 -235.5q-247 0 -393 158t-146 414q0 222 100 406t278.5 291.5t398.5 107.5zM845 1022q-171 0 -263 -128.5t-92 -313.5q0 -128 55.5 -204t173.5 -76q172 0 262.5 127.5t90.5 320.5q0 128 -56.5 201 t-170.5 73zM643 -80q75 0 118 -43.5t43 -115.5q0 -92 -64 -165.5t-160 -73.5q-70 0 -112.5 48t-42.5 121q0 99 62 164t156 65z" glyph-name="uni1ECC" horiz-adv-x="1495" unicode="Ọ"/><glyph d="M650 966q198 0 321 -113.5t123 -306.5q0 -94 -36 -191t-106.5 -184t-193.5 -142.5t-278 -55.5q-201 0 -322.5 109t-121.5 299q0 263 177.5 424t436.5 161zM596 659q-80 0 -131.5 -74.5t-51.5 -147.5q0 -61 27.5 -109t90.5 -48q79 0 134 71t55 144q0 63 -30.5 113.5 t-93.5 50.5zM459 -80q75 0 118 -43.5t43 -115.5q0 -92 -64 -165.5t-160 -73.5q-70 0 -112.5 48t-42.5 121q0 99 62 164t156 65z" glyph-name="uni1ECD" horiz-adv-x="1129" unicode="ọ"/><glyph d="M964 1432h-128q14 15 32.5 35.5t28 30t21.5 23t17 20.5t12 16.5t9.5 15.5t5 13.5t3.5 14.5t1 15q0 36 -36 36t-77 -27l-29 99q80 67 171 77q101 3 142 -45.5t15 -132.5q-58 -101 -188 -191zM898 1348q251 0 396 -152t145 -408q0 -346 -220.5 -581.5t-558.5 -235.5 q-247 0 -393 158t-146 414q0 222 100 406t278.5 291.5t398.5 107.5zM845 1022q-171 0 -263 -128.5t-92 -313.5q0 -128 55.5 -204t173.5 -76q172 0 262.5 127.5t90.5 320.5q0 128 -56.5 201t-170.5 73z" glyph-name="uni1ECE" horiz-adv-x="1495" unicode="Ỏ"/><glyph d="M674 1051h-128q14 15 32.5 36t28 30t21.5 23t17 20.5t12 16t9.5 15.5t5 13.5t3.5 14.5t1 16q0 36 -36 35.5t-77 -27.5l-29 99q80 67 171 77q101 3 141.5 -45.5t15.5 -132.5q-58 -101 -188 -191zM650 966q198 0 321 -113.5t123 -306.5q0 -94 -36 -191t-106.5 -184 t-193.5 -142.5t-278 -55.5q-201 0 -322.5 109t-121.5 299q0 263 177.5 424t436.5 161zM596 659q-80 0 -131.5 -74.5t-51.5 -147.5q0 -61 27.5 -109t90.5 -48q79 0 134 71t55 144q0 63 -30.5 113.5t-93.5 50.5z" glyph-name="uni1ECF" horiz-adv-x="1129" unicode="ỏ"/><glyph d="M896 1830l-26 116l454 230l43 -253zM942 1777h82l247 -234l-102 -118l-225 94l-263 -94l-61 118zM898 1348q251 0 396 -152t145 -408q0 -346 -220.5 -581.5t-558.5 -235.5q-247 0 -393 158t-146 414q0 222 100 406t278.5 291.5t398.5 107.5zM845 1022q-171 0 -263 -128.5 t-92 -313.5q0 -128 55.5 -204t173.5 -76q172 0 262.5 127.5t90.5 320.5q0 128 -56.5 201t-170.5 73z" glyph-name="uni1ED0" horiz-adv-x="1495" unicode="Ố"/><glyph d="M606 1449l-26 116l454 230l43 -252zM652 1396h82l247 -234l-102 -118l-225 94l-263 -94l-62 118zM650 966q198 0 321 -113.5t123 -306.5q0 -94 -36 -191t-106.5 -184t-193.5 -142.5t-278 -55.5q-201 0 -322.5 109t-121.5 299q0 263 177.5 424t436.5 161zM596 659 q-80 0 -131.5 -74.5t-51.5 -147.5q0 -61 27.5 -109t90.5 -48q79 0 134 71t55 144q0 63 -30.5 113.5t-93.5 50.5z" glyph-name="uni1ED1" horiz-adv-x="1129" unicode="ố"/><glyph d="M1068 1830l-428 93l133 253l364 -230zM942 1777h82l247 -234l-102 -118l-225 94l-263 -94l-61 118zM898 1348q251 0 396 -152t145 -408q0 -346 -220.5 -581.5t-558.5 -235.5q-247 0 -393 158t-146 414q0 222 100 406t278.5 291.5t398.5 107.5zM845 1022 q-171 0 -263 -128.5t-92 -313.5q0 -128 55.5 -204t173.5 -76q172 0 262.5 127.5t90.5 320.5q0 128 -56.5 201t-170.5 73z" glyph-name="uni1ED2" horiz-adv-x="1495" unicode="Ồ"/><glyph d="M778 1449l-428 94l133 252l364 -230zM652 1396h82l247 -234l-102 -118l-225 94l-263 -94l-62 118zM650 966q198 0 321 -113.5t123 -306.5q0 -94 -36 -191t-106.5 -184t-193.5 -142.5t-278 -55.5q-201 0 -322.5 109t-121.5 299q0 263 177.5 424t436.5 161zM596 659 q-80 0 -131.5 -74.5t-51.5 -147.5q0 -61 27.5 -109t90.5 -48q79 0 134 71t55 144q0 63 -30.5 113.5t-93.5 50.5z" glyph-name="uni1ED3" horiz-adv-x="1129" unicode="ồ"/><glyph d="M1038 1812h-128q14 15 32.5 36t28 30.5t21.5 23t17 20.5t11.5 16t9.5 15t5.5 14t3 14.5t0.5 15.5q0 36 -35.5 36t-76.5 -28l-29 99q80 67 170 77q101 3 142 -45.5t15 -131.5q-57 -102 -187 -192zM942 1777h82l247 -234l-102 -118l-225 94l-263 -94l-61 118zM898 1348 q251 0 396 -152t145 -408q0 -346 -220.5 -581.5t-558.5 -235.5q-247 0 -393 158t-146 414q0 222 100 406t278.5 291.5t398.5 107.5zM845 1022q-171 0 -263 -128.5t-92 -313.5q0 -128 55.5 -204t173.5 -76q172 0 262.5 127.5t90.5 320.5q0 128 -56.5 201t-170.5 73z" glyph-name="uni1ED4" horiz-adv-x="1495" unicode="Ổ"/><glyph d="M748 1432h-128q14 15 32.5 35.5t27.5 30t21 23t17.5 20.5t12 16.5t9 15.5t5.5 13.5t3.5 14.5t0.5 15q0 36 -35.5 36t-76.5 -27l-29 99q80 67 170 77q101 3 142 -45.5t15 -132.5q-57 -101 -187 -191zM652 1396h82l247 -234l-102 -118l-225 94l-263 -94l-62 118zM650 966 q198 0 321 -113.5t123 -306.5q0 -94 -36 -191t-106.5 -184t-193.5 -142.5t-278 -55.5q-201 0 -322.5 109t-121.5 299q0 263 177.5 424t436.5 161zM596 659q-80 0 -131.5 -74.5t-51.5 -147.5q0 -61 27.5 -109t90.5 -48q79 0 134 71t55 144q0 63 -30.5 113.5t-93.5 50.5z" glyph-name="uni1ED5" horiz-adv-x="1129" unicode="ổ"/><glyph d="M821 1790h-193q22 133 117 214.5t192 81.5q51 0 88 -26t66 -51.5t63 -25.5q29 0 42.5 24t22.5 73h192q-29 -155 -110.5 -226.5t-179.5 -71.5q-44 0 -78 18t-51 38.5t-39.5 38t-44.5 17.5q-73 0 -87 -104zM942 1777h82l247 -234l-102 -118l-225 94l-263 -94l-61 118z M898 1348q251 0 396 -152t145 -408q0 -346 -220.5 -581.5t-558.5 -235.5q-247 0 -393 158t-146 414q0 222 100 406t278.5 291.5t398.5 107.5zM845 1022q-171 0 -263 -128.5t-92 -313.5q0 -128 55.5 -204t173.5 -76q172 0 262.5 127.5t90.5 320.5q0 128 -56.5 201t-170.5 73z " glyph-name="uni1ED6" horiz-adv-x="1495" unicode="Ỗ"/><glyph d="M531 1410h-193q22 133 117 214t192 81q51 0 87.5 -25.5t65.5 -51t64 -25.5q29 0 42.5 23.5t21.5 73.5h193q-29 -155 -111 -227t-179 -72q-44 0 -78 18t-51.5 38.5t-39.5 38.5t-44 18q-73 0 -87 -104zM652 1396h82l247 -234l-102 -118l-225 94l-263 -94l-62 118zM650 966 q198 0 321 -113.5t123 -306.5q0 -94 -36 -191t-106.5 -184t-193.5 -142.5t-278 -55.5q-201 0 -322.5 109t-121.5 299q0 263 177.5 424t436.5 161zM596 659q-80 0 -131.5 -74.5t-51.5 -147.5q0 -61 27.5 -109t90.5 -48q79 0 134 71t55 144q0 63 -30.5 113.5t-93.5 50.5z" glyph-name="uni1ED7" horiz-adv-x="1129" unicode="ỗ"/><glyph d="M942 1777h82l247 -234l-102 -118l-225 94l-263 -94l-61 118zM898 1348q251 0 396 -152t145 -408q0 -346 -220.5 -581.5t-558.5 -235.5q-247 0 -393 158t-146 414q0 222 100 406t278.5 291.5t398.5 107.5zM845 1022q-171 0 -263 -128.5t-92 -313.5q0 -128 55.5 -204 t173.5 -76q172 0 262.5 127.5t90.5 320.5q0 128 -56.5 201t-170.5 73zM643 -80q75 0 118 -43.5t43 -115.5q0 -92 -64 -165.5t-160 -73.5q-70 0 -112.5 48t-42.5 121q0 99 62 164t156 65z" glyph-name="uni1ED8" horiz-adv-x="1495" unicode="Ộ"/><glyph d="M652 1396h82l247 -234l-102 -118l-225 94l-263 -94l-62 118zM650 966q198 0 321 -113.5t123 -306.5q0 -94 -36 -191t-106.5 -184t-193.5 -142.5t-278 -55.5q-201 0 -322.5 109t-121.5 299q0 263 177.5 424t436.5 161zM596 659q-80 0 -131.5 -74.5t-51.5 -147.5 q0 -61 27.5 -109t90.5 -48q79 0 134 71t55 144q0 63 -30.5 113.5t-93.5 50.5zM459 -80q75 0 118 -43.5t43 -115.5q0 -92 -64 -165.5t-160 -73.5q-70 0 -112.5 48t-42.5 121q0 99 62 164t156 65z" glyph-name="uni1ED9" horiz-adv-x="1129" unicode="ộ"/><glyph d="M1295 1543l-471 -94l-25 116l454 230zM1681 1468q9 -56 -1.5 -119.5t-39.5 -121.5t-87 -96.5t-136 -38.5h-47q68 -131 69 -304q0 -346 -220.5 -581.5t-558.5 -235.5q-247 0 -393 158t-146 414q0 340 223 574.5t561 234.5h1q80 0 229.5 -15.5t171.5 -17.5q60 -5 88 36 t28 113h258zM719 300q172 0 262.5 127.5t90.5 320.5q0 128 -56.5 201t-170.5 73q-171 0 -263 -128.5t-92 -313.5q0 -128 55.5 -204t173.5 -76z" glyph-name="uni1EDA" unicode="Ớ"/><glyph d="M1080 1162l-471 -94l-25 116l454 231zM1336 1092q12 -65 -9 -135.5t-87 -129.5t-163 -66q51 -94 51 -215q0 -94 -36 -191t-106 -184t-192.5 -142.5t-278.5 -55.5q-203 0 -324 109t-121 299q0 263 177.5 424t438.5 161q60 0 96.5 -2.5t83.5 -7.5t100 -9q60 -5 87 35 t26 110h257zM565 280q80 0 135.5 71t55.5 144q0 63 -30.5 113.5t-94.5 50.5q-80 0 -131 -74.5t-51 -147.5q0 -61 27.5 -109t88.5 -48z" glyph-name="uni1EDB" horiz-adv-x="1194" unicode="ớ"/><glyph d="M1065 1565l-68 -116l-429 94l133 252zM1681 1468q9 -56 -1.5 -119.5t-39.5 -121.5t-87 -96.5t-136 -38.5h-47q68 -131 69 -304q0 -346 -220.5 -581.5t-558.5 -235.5q-247 0 -393 158t-146 414q0 340 223 574.5t561 234.5h1q80 0 229.5 -15.5t171.5 -17.5q60 -5 88 36 t28 113h258zM719 300q172 0 262.5 127.5t90.5 320.5q0 128 -56.5 201t-170.5 73q-171 0 -263 -128.5t-92 -313.5q0 -128 55.5 -204t173.5 -76z" glyph-name="uni1EDC" unicode="Ờ"/><glyph d="M850 1184l-68 -116l-429 94l133 253zM1336 1092q12 -65 -9 -135.5t-87 -129.5t-163 -66q51 -94 51 -215q0 -94 -36 -191t-106 -184t-192.5 -142.5t-278.5 -55.5q-203 0 -324 109t-121 299q0 263 177.5 424t438.5 161q60 0 96.5 -2.5t83.5 -7.5t100 -9q60 -5 87 35t26 110 h257zM565 280q80 0 135.5 71t55.5 144q0 63 -30.5 113.5t-94.5 50.5q-80 0 -131 -74.5t-51 -147.5q0 -61 27.5 -109t88.5 -48z" glyph-name="uni1EDD" horiz-adv-x="1194" unicode="ờ"/><glyph d="M932 1652q-36 0 -77 -27l-29 99q80 67 171 77q101 3 141.5 -45.5t15.5 -132.5q-58 -101 -188 -191h-128q14 15 32.5 35.5t28 30t21.5 23t17 20.5t12 16.5t9.5 15.5t5 13.5t3.5 14.5t1 15q0 36 -36 36zM1681 1468q9 -56 -1.5 -119.5t-39.5 -121.5t-87 -96.5t-136 -38.5 h-47q68 -131 69 -304q0 -346 -220.5 -581.5t-558.5 -235.5q-247 0 -393 158t-146 414q0 340 223 574.5t561 234.5h1q80 0 229.5 -15.5t171.5 -17.5q60 -5 88 36t28 113h258zM719 300q172 0 262.5 127.5t90.5 320.5q0 128 -56.5 201t-170.5 73q-171 0 -263 -128.5t-92 -313.5 q0 -128 55.5 -204t173.5 -76z" glyph-name="uni1EDE" unicode="Ở"/><glyph d="M717 1271q-36 0 -77 -27l-29 99q80 67 171 77q101 3 141.5 -45.5t15.5 -132.5q-58 -101 -188 -191h-128q14 15 32.5 36t28 30t21.5 23t17 20.5t12 16t9.5 15.5t5 13.5t3.5 14.5t1 16q0 35 -36 35zM1336 1092q12 -65 -9 -135.5t-87 -129.5t-163 -66q51 -94 51 -215 q0 -94 -36 -191t-106 -184t-192.5 -142.5t-278.5 -55.5q-203 0 -324 109t-121 299q0 263 177.5 424t438.5 161q60 0 96.5 -2.5t83.5 -7.5t100 -9q60 -5 87 35t26 110h257zM565 280q80 0 135.5 71t55.5 144q0 63 -30.5 113.5t-94.5 50.5q-80 0 -131 -74.5t-51 -147.5 q0 -61 27.5 -109t88.5 -48z" glyph-name="uni1EDF" horiz-adv-x="1194" unicode="ở"/><glyph d="M836 1514q-73 0 -87 -104h-193q22 133 117 214t192 81q51 0 88 -25.5t66 -51t63 -25.5q29 0 42.5 23.5t22.5 73.5h193q-29 -155 -111 -227t-179 -72q-44 0 -78.5 18t-51.5 38.5t-39.5 38.5t-44.5 18zM1681 1468q9 -56 -1.5 -119.5t-39.5 -121.5t-87 -96.5t-136 -38.5h-47 q68 -131 69 -304q0 -346 -220.5 -581.5t-558.5 -235.5q-247 0 -393 158t-146 414q0 340 223 574.5t561 234.5h1q80 0 229.5 -15.5t171.5 -17.5q60 -5 88 36t28 113h258zM719 300q172 0 262.5 127.5t90.5 320.5q0 128 -56.5 201t-170.5 73q-171 0 -263 -128.5t-92 -313.5 q0 -128 55.5 -204t173.5 -76z" glyph-name="uni1EE0" unicode="Ỡ"/><glyph d="M621 1133q-73 0 -87 -104h-193q22 133 117 214t192 81q51 0 88 -25.5t66 -51t63 -25.5q29 0 42.5 24t22.5 73h193q-29 -155 -111 -226.5t-179 -71.5q-44 0 -78.5 17.5t-51.5 38t-39.5 38.5t-44.5 18zM1336 1092q12 -65 -9 -135.5t-87 -129.5t-163 -66q51 -94 51 -215 q0 -94 -36 -191t-106 -184t-192.5 -142.5t-278.5 -55.5q-203 0 -324 109t-121 299q0 263 177.5 424t438.5 161q60 0 96.5 -2.5t83.5 -7.5t100 -9q60 -5 87 35t26 110h257zM565 280q80 0 135.5 71t55.5 144q0 63 -30.5 113.5t-94.5 50.5q-80 0 -131 -74.5t-51 -147.5 q0 -61 27.5 -109t88.5 -48z" glyph-name="uni1EE1" horiz-adv-x="1194" unicode="ỡ"/><glyph d="M1681 1468q9 -56 -1.5 -119.5t-39.5 -121.5t-87 -96.5t-136 -38.5h-47q68 -131 69 -304q0 -346 -220.5 -581.5t-558.5 -235.5q-247 0 -393 158t-146 414q0 340 223 574.5t561 234.5h1q80 0 229.5 -15.5t171.5 -17.5q60 -5 88 36t28 113h258zM719 300q172 0 262.5 127.5 t90.5 320.5q0 128 -56.5 201t-170.5 73q-171 0 -263 -128.5t-92 -313.5q0 -128 55.5 -204t173.5 -76zM649 -80q75 0 117.5 -43.5t42.5 -115.5q0 -92 -64 -165.5t-160 -73.5q-70 0 -112.5 48t-42.5 121q0 99 62.5 164t156.5 65z" glyph-name="uni1EE2" unicode="Ợ"/><glyph d="M1336 1092q12 -65 -9 -135.5t-87 -129.5t-163 -66q51 -94 51 -215q0 -94 -36 -191t-106 -184t-192.5 -142.5t-278.5 -55.5q-203 0 -324 109t-121 299q0 263 177.5 424t438.5 161q60 0 96.5 -2.5t83.5 -7.5t100 -9q60 -5 87 35t26 110h257zM565 280q80 0 135.5 71 t55.5 144q0 63 -30.5 113.5t-94.5 50.5q-80 0 -131 -74.5t-51 -147.5q0 -61 27.5 -109t88.5 -48zM493 -80q75 0 118 -43.5t43 -115.5q0 -92 -64 -165.5t-160 -73.5q-70 0 -112.5 48t-42.5 121q0 99 62 164t156 65z" glyph-name="uni1EE3" horiz-adv-x="1194" unicode="ợ"/><glyph d="M1463 1319l-115 -647q-61 -352 -220 -527.5t-485 -175.5q-225 0 -343.5 85.5t-139 241.5t16.5 376l113 647h359l-105 -594q-20 -119 -20 -206t13.5 -132.5t43.5 -71t54.5 -31.5t59.5 -6q46 0 81 13.5t77.5 55.5t78.5 137.5t61 240.5l104 594h366zM626 -80q75 0 118 -43.5 t43 -115.5q0 -92 -64 -165.5t-160 -73.5q-70 0 -112.5 48t-42.5 121q0 99 62 164t156 65z" glyph-name="uni1EE4" horiz-adv-x="1452" unicode="Ụ"/><glyph d="M756 939h369l-161 -939h-283l-36 108q-150 -131 -310 -132q-147 0 -229 86t-48 283l106 594h367l-84 -466q-12 -44 -4 -82t50 -38q72 0 166 55l3 -4zM430 -80q75 0 118 -43.5t43 -115.5q0 -92 -64 -165.5t-160 -73.5q-70 0 -112.5 48t-42.5 121q0 99 62 164t156 65z" glyph-name="uni1EE5" horiz-adv-x="1133" unicode="ụ"/><glyph d="M934 1432h-128q14 15 32.5 35.5t28 30t21 23t17 20.5t12 16.5t9 15.5t5.5 13.5t3.5 14.5t0.5 15q0 36 -35.5 36t-76.5 -27l-29 99q80 67 170 77q101 3 142 -45.5t15 -132.5q-57 -101 -187 -191zM1463 1319l-115 -647q-61 -352 -220 -527.5t-485 -175.5 q-225 0 -343.5 85.5t-139 241.5t16.5 376l113 647h359l-105 -594q-20 -119 -20 -206t13.5 -132.5t43.5 -71t54.5 -31.5t59.5 -6q46 0 81 13.5t77.5 55.5t78.5 137.5t61 240.5l104 594h366z" glyph-name="uni1EE6" horiz-adv-x="1452" unicode="Ủ"/><glyph d="M653.5 1271q-35.5 0 -76.5 -27l-29 99q80 67 171 77q101 3 141.5 -45.5t15.5 -132.5q-58 -101 -188 -191h-128q14 15 32.5 36t28 30t21.5 23t17 20.5t12 16t9.5 15.5t5 13.5t3 14.5t0.5 16q0 35 -35.5 35zM756 939h369l-161 -939h-283l-36 108q-150 -131 -310 -132 q-147 0 -229 86t-48 283l106 594h367l-84 -466q-12 -44 -4 -82t50 -38q72 0 166 55l3 -4z" glyph-name="uni1EE7" horiz-adv-x="1133" unicode="ủ"/><glyph d="M1316 1543l-471 -94l-26 116l454 230zM1606 1459h256q-5 -61 -21.5 -119t-48 -118t-90 -96.5t-137.5 -36.5l-113 2l-71 -415q-61 -352 -221 -527.5t-484 -175.5q-225 0 -344 85t-139.5 241.5t15.5 376.5l111 643h365l-104 -590q-20 -119 -20 -206.5t12.5 -132.5 t41.5 -70.5t54 -31.5t59 -6q44 0 80 13.5t79.5 55.5t79.5 137.5t61 240.5l105 590h360q56 -3 83.5 34.5t30.5 105.5z" glyph-name="uni1EE8" horiz-adv-x="1621" unicode="Ứ"/><glyph d="M1077 1162l-471 -94l-26 116l454 231zM1239 1079h256q-2 -58 -17 -119t-47.5 -119.5t-91.5 -95.5t-138 -37l-81 2l-122 -710h-281l-36 108q-154 -131 -311 -132q-68 0 -122.5 18t-99 60t-56.5 112.5t2 178.5l104 594h367l-82 -466q-12 -44 -4.5 -82t50.5 -38q72 0 166 55 l3 -4l94 535h362q90 10 85 140z" glyph-name="uni1EE9" horiz-adv-x="1440" unicode="ứ"/><glyph d="M1085 1565l-68 -116l-428 94l133 252zM1606 1459h256q-5 -61 -21.5 -119t-48 -118t-90 -96.5t-137.5 -36.5l-113 2l-71 -415q-61 -352 -221 -527.5t-484 -175.5q-225 0 -344 85t-139.5 241.5t15.5 376.5l111 643h365l-104 -590q-20 -119 -20 -206.5t12.5 -132.5 t41.5 -70.5t54 -31.5t59 -6q44 0 80 13.5t79.5 55.5t79.5 137.5t61 240.5l105 590h360q56 -3 83.5 34.5t30.5 105.5z" glyph-name="uni1EEA" horiz-adv-x="1621" unicode="Ừ"/><glyph d="M847 1184l-69 -116l-428 94l133 253zM1239 1079h256q-2 -58 -17 -119t-47.5 -119.5t-91.5 -95.5t-138 -37l-81 2l-122 -710h-281l-36 108q-154 -131 -311 -132q-68 0 -122.5 18t-99 60t-56.5 112.5t2 178.5l104 594h367l-82 -466q-12 -44 -4.5 -82t50.5 -38q72 0 166 55 l3 -4l94 535h362q90 10 85 140z" glyph-name="uni1EEB" horiz-adv-x="1440" unicode="ừ"/><glyph d="M952 1652q-36 0 -76 -27l-29 99q80 67 170 77q101 3 142 -45.5t15 -132.5q-58 -101 -188 -191h-128q14 15 33 35.5t28 30t21 23t17.5 20.5t12 16.5t9 15.5t5 13.5t3.5 14.5t1 15q0 36 -36 36zM1606 1459h256q-5 -61 -21.5 -119t-48 -118t-90 -96.5t-137.5 -36.5l-113 2 l-71 -415q-61 -352 -221 -527.5t-484 -175.5q-225 0 -344 85t-139.5 241.5t15.5 376.5l111 643h365l-104 -590q-20 -119 -20 -206.5t12.5 -132.5t41.5 -70.5t54 -31.5t59 -6q44 0 80 13.5t79.5 55.5t79.5 137.5t61 240.5l105 590h360q56 -3 83.5 34.5t30.5 105.5z" glyph-name="uni1EEC" horiz-adv-x="1621" unicode="Ử"/><glyph d="M713.5 1271q-35.5 0 -76.5 -27l-29 99q80 67 170 77q101 3 142 -45.5t15 -132.5q-58 -101 -187 -191h-128q14 15 32.5 36t27.5 30t21 23t17.5 20.5t12 16t9 15.5t5.5 13.5t3.5 14.5t0.5 16q0 35 -35.5 35zM1239 1079h256q-2 -58 -17 -119t-47.5 -119.5t-91.5 -95.5 t-138 -37l-81 2l-122 -710h-281l-36 108q-154 -131 -311 -132q-68 0 -122.5 18t-99 60t-56.5 112.5t2 178.5l104 594h367l-82 -466q-12 -44 -4.5 -82t50.5 -38q72 0 166 55l3 -4l94 535h362q90 10 85 140z" glyph-name="uni1EED" horiz-adv-x="1440" unicode="ử"/><glyph d="M857 1514q-73 0 -87 -104h-193q22 133 116.5 214t192.5 81q51 0 87.5 -25.5t65.5 -51t64 -25.5q29 0 42.5 23.5t21.5 73.5h193q-29 -155 -111 -227t-179 -72q-44 0 -78.5 18t-51.5 38.5t-39 38.5t-44 18zM1606 1459h256q-5 -61 -21.5 -119t-48 -118t-90 -96.5 t-137.5 -36.5l-113 2l-71 -415q-61 -352 -221 -527.5t-484 -175.5q-225 0 -344 85t-139.5 241.5t15.5 376.5l111 643h365l-104 -590q-20 -119 -20 -206.5t12.5 -132.5t41.5 -70.5t54 -31.5t59 -6q44 0 80 13.5t79.5 55.5t79.5 137.5t61 240.5l105 590h360q56 -3 83.5 34.5 t30.5 105.5z" glyph-name="uni1EEE" horiz-adv-x="1621" unicode="Ữ"/><glyph d="M618 1133q-73 0 -87 -104h-193q22 133 117 214t192 81q51 0 87.5 -25.5t65.5 -51t64 -25.5q29 0 42.5 24t21.5 73h193q-29 -155 -111 -226.5t-179 -71.5q-44 0 -78 17.5t-51.5 38t-39.5 38.5t-44 18zM1239 1079h256q-2 -58 -17 -119t-47.5 -119.5t-91.5 -95.5t-138 -37 l-81 2l-122 -710h-281l-36 108q-154 -131 -311 -132q-68 0 -122.5 18t-99 60t-56.5 112.5t2 178.5l104 594h367l-82 -466q-12 -44 -4.5 -82t50.5 -38q72 0 166 55l3 -4l94 535h362q90 10 85 140z" glyph-name="uni1EEF" horiz-adv-x="1440" unicode="ữ"/><glyph d="M1606 1459h256q-5 -61 -21.5 -119t-48 -118t-90 -96.5t-137.5 -36.5l-113 2l-71 -415q-61 -352 -221 -527.5t-484 -175.5q-225 0 -344 85t-139.5 241.5t15.5 376.5l111 643h365l-104 -590q-20 -119 -20 -206.5t12.5 -132.5t41.5 -70.5t54 -31.5t59 -6q44 0 80 13.5 t79.5 55.5t79.5 137.5t61 240.5l105 590h360q56 -3 83.5 34.5t30.5 105.5zM650 -80q75 0 118 -43.5t43 -115.5q0 -92 -64 -165.5t-160 -73.5q-70 0 -112.5 48t-42.5 121q0 99 62 164t156 65z" glyph-name="uni1EF0" horiz-adv-x="1621" unicode="Ự"/><glyph d="M1239 1079h256q-2 -58 -17 -119t-47.5 -119.5t-91.5 -95.5t-138 -37l-81 2l-122 -710h-281l-36 108q-154 -131 -311 -132q-68 0 -122.5 18t-99 60t-56.5 112.5t2 178.5l104 594h367l-82 -466q-12 -44 -4.5 -82t50.5 -38q72 0 166 55l3 -4l94 535h362q90 10 85 140z M357 -80q75 0 117.5 -43.5t42.5 -115.5q0 -92 -64 -165.5t-159 -73.5q-70 0 -113 48t-43 121q0 99 62.5 164t156.5 65z" glyph-name="uni1EF1" horiz-adv-x="1440" unicode="ự"/><glyph d="M901 1550l-68 -116l-429 93l134 253zM1300 1319l-503 -771h-3l-98 -548h-380l97 550l-236 769h412l60 -508l240 508h411z" glyph-name="Ygrave" horiz-adv-x="1184" unicode="Ỳ"/><glyph d="M759 1184l-68 -116l-428 94l133 253zM807 939h357l-174 -985q-17 -96 -55.5 -174.5t-107.5 -146.5t-184.5 -106.5t-267.5 -38.5q-174 0 -295 71.5t-165 169.5l290 194q43 -70 85.5 -104t105.5 -34q205 0 246 215l12 68q-128 -92 -261 -92q-147 0 -229 86t-48 283l106 594 h370l-83 -466q-12 -44 -5.5 -82t49.5 -38q70 0 160 51z" glyph-name="ygrave" horiz-adv-x="1169" unicode="ỳ"/><glyph d="M1300 1319l-503 -771h-3l-98 -548h-380l97 550l-236 769h412l60 -508l240 508h411zM483 -80q75 0 117.5 -43.5t42.5 -115.5q0 -92 -64 -165.5t-159 -73.5q-70 0 -112.5 48t-42.5 121q0 99 62 164t156 65z" glyph-name="uni1EF4" horiz-adv-x="1184" unicode="Ỵ"/><glyph d="M807 939h357l-174 -985q-17 -96 -55.5 -174.5t-107.5 -146.5t-184.5 -106.5t-267.5 -38.5q-174 0 -295 71.5t-165 169.5l290 194q43 -70 85.5 -104t105.5 -34q205 0 246 215l12 68q-128 -92 -261 -92q-147 0 -229 86t-48 283l106 594h370l-83 -466q-12 -44 -5.5 -82 t49.5 -38q70 0 160 51zM367 -592q75 0 117.5 -43.5t42.5 -115.5q0 -92 -64 -165.5t-159 -73.5q-70 0 -113 48t-43 121q0 99 62.5 164t156.5 65z" glyph-name="uni1EF5" horiz-adv-x="1169" unicode="ỵ"/><glyph d="M768 1637q-36 0 -77 -28l-29 99q80 67 171 77q101 3 141.5 -45.5t15.5 -131.5q-58 -101 -188 -191h-128q14 15 32.5 35.5t28 30t21.5 23t17 20.5t12 16t9.5 15t5 14t3.5 14.5t1 15.5q0 36 -36 36zM1300 1319l-503 -771h-3l-98 -548h-380l97 550l-236 769h412l60 -508 l240 508h411z" glyph-name="uni1EF6" horiz-adv-x="1184" unicode="Ỷ"/><glyph d="M626.5 1271q-35.5 0 -76.5 -27l-29 99q80 67 170 77q101 3 142 -45.5t15 -132.5q-58 -101 -188 -191h-128q14 15 33 36t28 30t21 23t17.5 20.5t12 16t9 15.5t5 13.5t3.5 14.5t1 16q0 35 -35.5 35zM807 939h357l-174 -985q-17 -96 -55.5 -174.5t-107.5 -146.5 t-184.5 -106.5t-267.5 -38.5q-174 0 -295 71.5t-165 169.5l290 194q43 -70 85.5 -104t105.5 -34q205 0 246 215l12 68q-128 -92 -261 -92q-147 0 -229 86t-48 283l106 594h370l-83 -466q-12 -44 -5.5 -82t49.5 -38q70 0 160 51z" glyph-name="uni1EF7" horiz-adv-x="1169" unicode="ỷ"/><glyph d="M638 1498q-73 0 -87 -104h-193q22 133 117 214.5t192 81.5q51 0 88 -26t66 -51.5t63 -25.5q29 0 42.5 24t22.5 73h193q-29 -155 -111 -226.5t-179 -71.5q-44 0 -78.5 18t-51.5 38.5t-39.5 38t-44.5 17.5zM1300 1319l-503 -771h-3l-98 -548h-380l97 550l-236 769h412 l60 -508l240 508h411z" glyph-name="uni1EF8" horiz-adv-x="1184" unicode="Ỹ"/><glyph d="M531 1133q-73 0 -87 -104h-193q22 133 117 214t192 81q51 0 87.5 -25.5t65.5 -51t64 -25.5q29 0 42.5 24t21.5 73h193q-29 -155 -111 -226.5t-179 -71.5q-44 0 -78.5 17.5t-51.5 38t-39 38.5t-44 18zM807 939h357l-174 -985q-17 -96 -55.5 -174.5t-107.5 -146.5 t-184.5 -106.5t-267.5 -38.5q-174 0 -295 71.5t-165 169.5l290 194q43 -70 85.5 -104t105.5 -34q205 0 246 215l12 68q-128 -92 -261 -92q-147 0 -229 86t-48 283l106 594h370l-83 -466q-12 -44 -5.5 -82t49.5 -38q70 0 160 51z" glyph-name="uni1EF9" horiz-adv-x="1169" unicode="ỹ"/><glyph glyph-name="uni2009" horiz-adv-x="337" unicode=" "/><glyph d="M949 744l-51 -311h-818l51 311h818z" glyph-name="endash" horiz-adv-x="983" unicode="–"/><glyph d="M1657 754l-51 -312h-1522l51 312h1522z" glyph-name="emdash" horiz-adv-x="1691" unicode="—"/><glyph d="M367 969q-51 0 -82 35t-31 92q0 217 226 372q7 -7 23 -28.5t21 -26.5q-137 -111 -145 -191q14 3 25 3q48 0 76.5 -31.5t28.5 -80.5q0 -60 -39.5 -102t-102.5 -42z" glyph-name="quoteleft" horiz-adv-x="498" unicode="‘"/><glyph d="M345 1468q51 0 79 -34.5t28 -92.5q0 -94 -53.5 -192t-168.5 -180q-31 36 -49 55q148 116 145 191q-15 -3 -27 -3q-43 0 -71 32.5t-28 79.5q0 58 42 101t103 43z" glyph-name="quoteright" horiz-adv-x="390" unicode="’"/><glyph d="M276 348q104 -5 144.5 -81t4.5 -194q-48 -128 -119.5 -229.5t-208.5 -191.5q-5 12 -31.5 46t-36.5 41q87 58 150 123t57 111l-36 -4q-77 5 -118 71t-12 158q27 67 80 110t126 40zM201 -31h-1h1z" glyph-name="quotesinglbase" horiz-adv-x="1024" unicode="‚"/><glyph d="M367 969q-51 0 -82 35t-31 92q0 217 226 372q7 -7 23 -28.5t21 -26.5q-137 -111 -145 -191q14 3 25 3q48 0 76.5 -31.5t28.5 -80.5q0 -60 -39.5 -102t-102.5 -42zM657 969q-51 0 -82 35t-31 92q0 217 226 372q7 -7 23 -28.5t21 -26.5q-137 -111 -145 -191q14 3 26 3 q48 0 76 -31.5t28 -80.5q0 -60 -39.5 -102t-102.5 -42z" glyph-name="quotedblleft" horiz-adv-x="788" unicode="“"/><glyph d="M396 1468q51 0 79 -34.5t28 -92.5q0 -94 -53.5 -192t-167.5 -180q-31 36 -50 55q148 116 145 191q-15 -3 -27 -3q-43 0 -71 32.5t-28 79.5q0 58 42 101t103 43zM686 1468q49 0 78.5 -34.5t29.5 -92.5q0 -94 -54 -192t-168 -180q-31 36 -50 55q148 116 145 191 q-15 -3 -27 -3q-43 0 -71 32.5t-28 79.5q0 58 42 101t103 43z" glyph-name="quotedblright" horiz-adv-x="783" unicode="”"/><glyph d="M276 348q104 -5 144.5 -81t4.5 -194q-48 -128 -119.5 -229.5t-208.5 -191.5q-5 12 -31.5 46t-36.5 41q87 58 150 123t57 111q-12 -2 -25 -3t-10 -1q-79 5 -119.5 71t-11.5 158q27 67 80 110t126 40zM276 348q-73 3 -126 -40t-80 -110q-29 -92 12 -158t119 -71q-3 0 10 1 t25 3q7 -46 -56.5 -111t-150.5 -123q10 -7 36.5 -41t31.5 -46q137 90 208.5 191.5t119.5 229.5q36 118 -4.5 194t-144.5 81z" glyph-name="quotedblbase" horiz-adv-x="380" unicode="„"/><glyph d="M889 1321h86l-65 -367h-86l-95 32l5 -143l-41 -268h-369l41 268l60 142l-102 -31h-86l65 367h85l86 -29l-14 90l17 86h369l-19 -86l-46 -95z" glyph-name="dagger" horiz-adv-x="977" unicode="†"/><glyph d="M877 759h-85l-91 29l11 -88l-14 -92h-2v-2l-44 -82l102 31h86l-67 -367h-85l-97 32l5 -153l-26 -171h-369l28 171l63 151l-106 -30h-85l66 367h86l87 -29l-12 80l15 94l44 88l-97 -29h-85l61 369h86l88 -31l-13 93l49 278h369l-51 -278l-48 -96l107 34h86z" glyph-name="daggerdbl" horiz-adv-x="976" unicode="‡"/><glyph d="M394 940q79 0 126 -50t47 -132q0 -101 -67 -175t-167 -74q-79 0 -126 52t-47 134q0 109 66 177t168 68z" glyph-name="bullet" horiz-adv-x="641" unicode="•"/><glyph d="M222 270q55 0 87 -34.5t32 -90.5q0 -68 -49.5 -122t-120.5 -54q-53 0 -85.5 38.5t-32.5 94.5q0 75 48 121.5t121 46.5zM611 270q55 0 87 -34.5t32 -90.5q0 -68 -49.5 -122t-120.5 -54q-53 0 -85.5 38.5t-32.5 94.5q0 75 47 121.5t122 46.5zM997 270q55 0 87 -34.5 t32 -90.5q0 -68 -48.5 -122t-120.5 -54q-53 0 -85.5 38.5t-32.5 94.5q0 75 47.5 121.5t120.5 46.5z" glyph-name="ellipsis" horiz-adv-x="1290" unicode="…"/><glyph d="M415 -27l-179 124l979 1299l178 -126zM548 1341q114 0 186 -69t72 -181q0 -53 -20 -109.5t-60 -111t-114 -90.5t-168 -36q-114 0 -184.5 66.5t-70.5 177.5q0 157 107 255t252 98zM512 1118q-51 0 -51 -99q0 -51 22 -51q24 0 37.5 30.5t13.5 64.5q0 55 -22 55zM1157 585 q109 0 181.5 -70t72.5 -179q0 -53 -18.5 -109t-58 -111.5t-114.5 -91.5t-172 -36q-111 0 -182.5 67.5t-71.5 176.5q0 159 107.5 256t255.5 97zM1826 585q109 0 181.5 -69t72.5 -180q0 -51 -20.5 -108t-60.5 -112.5t-113.5 -91.5t-166.5 -36q-113 0 -184.5 66.5t-71.5 175.5 q0 159 106.5 257t256.5 98zM1114 362q-44 0 -44 -99q0 -49 19 -50q24 0 37.5 30t13.5 64q0 55 -26 55zM1783 362q-44 0 -44 -99q0 -49 21 -50q22 0 35.5 30t13.5 64q0 55 -26 55z" glyph-name="perthousand" horiz-adv-x="2205" unicode="‰"/><glyph d="M794 679l-256 -205l184 -208l-273 -220l-282 427l432 426z" glyph-name="guilsinglleft" horiz-adv-x="952" unicode="‹"/><glyph d="M507 899l285 -426l-434 -427l-192 220l256 208l-185 205z" glyph-name="guilsinglright" horiz-adv-x="954" unicode="›"/><glyph d="M1186 1092q0 -439 -450 -524l-35 -135h-216l-5 432l20 149h333l-17 -130q67 55 66 160q0 73 -60.5 104t-135.5 31q-123 0 -220 -140l-259 178q72 113 210.5 190.5t312.5 77.5q215 0 335.5 -109.5t120.5 -283.5zM579 345q68 0 105.5 -41t37.5 -108q0 -84 -60 -152 t-147 -68q-65 0 -104 46t-39 113q0 94 57.5 152t149.5 58z" glyph-name="uni203D" horiz-adv-x="1165" unicode="‽"/><glyph d="M686 1420l174 -106l-1044 -1355l-181 99z" glyph-name="fraction" horiz-adv-x="394" unicode="⁄"/><glyph d="M457 809q-114 0 -177 78.5t-63 201.5q0 140 77.5 234t207.5 94q113 0 176 -76t63 -198q0 -145 -77 -239.5t-207 -94.5zM490 1246q-68 0 -72 -101l5 -58v-13.5v-18.5t1 -19t4.5 -19.5t8.5 -16t13.5 -13t20.5 -4.5q20 0 34 9.5t20.5 20.5t10 31.5t4.5 31.5t0 33.5t-1 25.5 v12v17t-0.5 15t-1.5 17t-3.5 14.5t-7 15t-8.5 10.5t-11.5 7.5t-16.5 2.5z" glyph-name="uni2070" horiz-adv-x="732" unicode="⁰"/><glyph d="M759 1082l-13 -176h-75l-7 -85h-186l7 85h-224l-56 176l314 319h186l-22 -326zM375 1051l120 11l8 121z" glyph-name="uni2074" horiz-adv-x="754" unicode="⁴"/><glyph d="M420 1188q85 0 141.5 -52t56.5 -131q0 -77 -54.5 -135t-188.5 -58q-27 0 -53.5 4.5t-42.5 8t-39 13.5t-30 13.5t-29 17.5l-21 13l116 127q46 -32 98 -33q48 0 48 34t-29 34h-4q-2 -2 -6 -3.5t-9 -4.5l-138 92l40 273h321l-13 -193l-157 12z" glyph-name="uni2075" horiz-adv-x="636" unicode="⁵"/><glyph d="M505 1196q82 0 141 -50t52 -141q-7 -85 -72 -139t-179 -54q-121 0 -176.5 73.5t-55.5 187.5q0 150 77.5 247t209.5 97q116 0 193 -62l-140 -128q-24 17 -69 17q-48 0 -64 -56q20 8 83 8zM457 988q38 0 35 12q0 2 -4 5q0 17 -31 17q20 0 9 14q-19 22 -46 7q-5 -2 -10 -7 q-1 -48 47 -48z" glyph-name="uni2076" horiz-adv-x="706" unicode="⁶"/><glyph d="M294 1401h406l-14 -170l-193 -410h-223l220 396l-208 -16z" glyph-name="uni2077" horiz-adv-x="646" unicode="⁷"/><glyph d="M565 1123q72 -49 72 -128q0 -72 -64 -129t-174 -57q-89 0 -146 47t-57 124q0 92 89 145q-60 38 -60 109q0 84 61.5 133.5t162.5 49.5q87 0 140.5 -45.5t53.5 -118.5q1 -82 -78 -130zM433 1280q-51 0 -51 -55q0 -17 13 -31.5t32 -14.5q26 0 40 15.5t14 39.5q0 46 -48 46z M413 961q56 0 56 48q0 19 -13.5 33t-35.5 14t-38.5 -17.5t-16.5 -34.5q0 -43 48 -43z" glyph-name="uni2078" horiz-adv-x="636" unicode="⁸"/><glyph d="M490 1417q229 0 229 -263q0 -148 -77 -245t-207 -97q-125 0 -189 65l136 125q15 -15 70 -16q41 0 58 53q-24 -7 -80 -6q-80 0 -139 52t-52 142q5 84 71.5 137t179.5 53zM476 1207q-19 0 -7 -14q17 -22 45 -9q7 3 12 9q0 48 -50 48q-38 -2 -31 -14q-2 -9 6 -14t14 -5.5 t11 -0.5z" glyph-name="uni2079" horiz-adv-x="694" unicode="⁹"/><glyph d="M671 271q113 0 177 106l220 -179q-193 -236 -426 -236q-159 0 -263 113.5t-126 294.5h-135l65 173h68q2 24 8 63h-99l64 174h87q75 186 223.5 302t323.5 116q116 0 207.5 -59.5t139.5 -169.5l-280 -174q-22 48 -50 72t-87 24q-87 0 -148 -111h220l-66 -174h-214 q-7 -39 -8 -63h205l-65 -173h-128q24 -99 87 -99z" glyph-name="Euro" horiz-adv-x="1221" unicode="€"/><glyph d="M1242 739l-11 -72h-86q-36 -174 -175 -285t-357 -111h-98l-47 -271h-325l118 667h-77l12 72h77l75 422h422q195 0 291 -107t96 -272q0 -29 -2 -43h87zM613 823l-16 -84h202q-10 41 -53 62.5t-99 21.5h-34zM613 594q119 0 170 73h-198l-13 -73h41z" glyph-name="uni20B1" horiz-adv-x="1271" unicode="₱"/><glyph d="M688 336h-115l-12 -63h161l-33 -159h-155l-20 -114h-323l21 114h-123l30 159h120l12 63h-123l55 324h126l89 501h437q193 0 287.5 -95t94.5 -254q0 -213 -135 -344.5t-394 -131.5zM660 823l-29 -163h48q186 0 186 88q0 26 -12.5 42t-38.5 22.5t-48 8.5t-58 2h-48z" glyph-name="uni20BD" horiz-adv-x="1242" unicode="₽"/><glyph d="M985 633q109 -73 109 -242t-109 -280t-270 -111h-58l-26 -159h-119l26 159h-70l-26 -159h-123l26 159h-278l203 1161h280l27 158h123l-29 -158h71l28 158h119l-27 -158h8q108 0 174.5 -70t66.5 -183q0 -97 -31.5 -157t-94.5 -118zM720 732q109 0 109 92q0 24 -17 40.5 t-44 16.5h-239l-26 -149h217zM724 280q29 0 60.5 26.5t31.5 68.5q0 36 -28.5 54t-58.5 18h-275l-29 -167h299z" glyph-name="uni20BF" horiz-adv-x="1198" unicode="₿"/><glyph d="M1937 1353q162 0 263.5 -94.5t101.5 -251.5q0 -79 -29.5 -159t-88.5 -152.5t-160.5 -118.5t-229.5 -46q-167 0 -267 89.5t-100 246.5q0 218 146 352t364 134zM836 630l123 689h345l-231 -1319h-354l-210 681l-122 -681h-348l231 1319h358zM1860 838q43 0 74.5 40t31.5 74 q0 36 -15.5 65t-49.5 29q-43 0 -71 -43.5t-28 -77.5q0 -32 13.5 -59.5t44.5 -27.5zM1347 97l54 307h758l-55 -307h-757z" glyph-name="afii61352" horiz-adv-x="2317" unicode="№"/><glyph d="M840 1251q218 0 356.5 -135.5t138.5 -356.5q0 -198 -99 -356.5t-259 -243t-342 -84.5q-218 0 -356.5 135.5t-138.5 356.5q0 295 209 489.5t491 194.5zM664 242q203 0 352.5 137.5t149.5 354.5q0 159 -98.5 254.5t-253.5 95.5q-203 0 -354 -138.5t-151 -351.5 q0 -157 100 -254.5t255 -97.5zM782 923q114 0 168 -41.5t54 -111.5q0 -101 -65 -154t-220 -53h-19l-29 -167h-149l92 527h168zM744 689h19h19t16 1t14.5 3t11 4.5t10 7.5t7 11t5.5 15.5t1 21.5q0 20 -15 29.5t-26.5 10.5t-42.5 1h-22l-19 -105h22z" glyph-name="uni2117" horiz-adv-x="1411" unicode="℗"/><glyph d="M633 1159h-128l-60 -367h-179l62 367h-123l32 160h429zM1009 1319h222l-60 -527h-174l25 205l-61 -205h-144l9 200l-44 -200h-174l129 527h222l-25 -285z" glyph-name="trademark" horiz-adv-x="1230" unicode="™"/><glyph d="M451 631v-339q0 -22 15 -38q160 -160 423 -160q299 0 463 181h82q-92 -113 -236.5 -176t-311.5 -63q-285 0 -488 181q-201 179 -202 438q0 258 201.5 440.5t488.5 182.5q290 0 491 -182q203 -184 203 -441v-17h-1121q-8 0 -8 -7zM459 695h859q7 0 6 12v317q0 24 -15 41 q-159 159 -420 159q-256 0 -421 -166q-17 -12 -17 -41v-310q-1 -12 8 -12z" glyph-name="estimated" horiz-adv-x="1706" unicode="℮"/><glyph d="M1314 1420l174 -106l-1044 -1355l-181 99zM283 736l69 380l-99 -31l-26 171l244 60h123l-104 -580h-207zM1442 300q60 -43 60 -114q0 -73 -71 -135.5t-185 -62.5q-85 0 -137.5 42t-52.5 112q0 104 105 162q-49 39 -50 99q0 85 70 139t174 54q82 0 131.5 -39.5 t49.5 -107.5q0 -96 -94 -149zM1329 456q-58 0 -58 -58q0 -14 12 -25t26 -11q26 0 43 15.5t17 37.5q-1 41 -40 41zM1275 143q56 0 56 50q0 15 -12 29t-30 14q-20 0 -36 -20t-16 -37q0 -36 38 -36z" glyph-name="oneeighth" horiz-adv-x="1648" unicode="⅛"/><glyph d="M1427 1420l174 -106l-1045 -1355l-181 99zM602 925q0 -27 -10 -55.5t-36.5 -64t-87 -58.5t-147.5 -23q-73 0 -181 49l152 123h21.5t20.5 1t12 1q36 0 48 25q-5 17 -37 17q-3 0 -12.5 3.5t-25.5 5.5l-24 143l7 5l43 28l-91 -7l33 198h375l-34 -169l-121 -97 q95 -36 95 -125zM1555 300q60 -43 60 -114q0 -73 -71 -135.5t-185 -62.5q-85 0 -137.5 42t-52.5 112q0 104 104 162q-49 39 -49 99q0 85 70 139t174 54q82 0 131.5 -39.5t49.5 -107.5q0 -96 -94 -149zM1442 456q-58 0 -58 -58q0 -14 12 -25t26 -11q26 0 42.5 15.5t16.5 37.5 q0 41 -39 41zM1388 143q56 0 56 50q0 15 -12 29t-31 14q-20 0 -35.5 -20t-15.5 -37q0 -36 38 -36z" glyph-name="threeeighths" horiz-adv-x="1761" unicode="⅜"/><glyph d="M1335 1420l174 -106l-1045 -1355l-181 99zM368.5 891q51.5 0 51.5 36q0 32 -27 32l-6 -3q-7 -2 -13 -5l-128 92l70 273h321l-35 -193l-155 12l-10 -32q82 0 132.5 -46.5t50.5 -119.5q0 -79 -61.5 -144.5t-203.5 -65.5q-24 0 -46 1.5t-41 7.5t-31.5 9.5t-30 13t-23.5 13 t-21 14.5t-17 11l131 126q41 -32 92.5 -32zM1463 300q60 -43 59 -114q0 -73 -70.5 -135.5t-185.5 -62.5q-85 0 -137 42t-52 112q0 104 104 162q-49 39 -49 99q0 85 69.5 139t174.5 54q82 0 131 -39.5t49 -107.5q1 -96 -93 -149zM1350 456q-58 0 -58 -58q0 -14 12 -25t25 -11 q26 0 43 15.5t17 37.5q0 41 -39 41zM1295 143q56 0 57 50q0 15 -12 29t-31 14q-20 0 -35.5 -20t-15.5 -37q-1 -36 37 -36z" glyph-name="fiveeighths" horiz-adv-x="1669" unicode="⅝"/><glyph d="M1234 1420l174 -106l-1044 -1355l-181 99zM418 736h-223l262 396l-213 -16l36 200h406l-31 -171zM1362 300q60 -43 60 -114q0 -73 -71 -135.5t-185 -62.5q-85 0 -137.5 42t-52.5 112q0 104 104 162q-49 39 -49 99q0 85 70 139t174 54q82 0 131.5 -39.5t49.5 -107.5 q0 -96 -94 -149zM1249 456q-58 0 -58 -58q0 -14 12 -25t26 -11q26 0 43 15.5t17 37.5q-1 41 -40 41zM1195 143q56 0 56 50q0 15 -12 29t-31 14q-20 0 -35.5 -20t-15.5 -37q0 -36 38 -36z" glyph-name="seveneighths" horiz-adv-x="1568" unicode="⅞"/><glyph d="M860 896h-136l-113 -631h137l-47 -265h-634l46 265h136l113 631h-137l46 265h635z" glyph-name="uni2160" horiz-adv-x="933" unicode="Ⅰ"/><glyph d="M1428 896h-138l-112 -631h138l-46 -265h-1203l46 265h136l113 631h-137l46 265h1204zM816 265l112 631h-204l-113 -631h205z" glyph-name="uni2161" horiz-adv-x="1501" unicode="Ⅱ"/><glyph d="M1993 896h-136l-113 -631h137l-46 -265h-1768l46 265h136l113 631h-137l46 265h1768zM611 265h205l112 631h-204zM1382 265l113 631h-205l-112 -631h204z" glyph-name="uni2162" horiz-adv-x="2066" unicode="Ⅲ"/><glyph d="M1712 1161h430l-628 -1161h-452l-169 896h-169l-113 -631h137l-47 -265h-634l46 265h136l113 631h-137l46 265h1000l77 -809z" glyph-name="uni2163" horiz-adv-x="2075" unicode="Ⅳ"/><glyph d="M1469 1161l-626 -1161h-452l-220 1161h428l80 -809l360 809h430z" glyph-name="uni2164" horiz-adv-x="1402" unicode="Ⅴ"/><glyph d="M1995 896h-136l-113 -631h136l-46 -265h-635l47 265h136l113 631h-171l-485 -896h-452l-218 1161h430l75 -809l365 809h1000z" glyph-name="uni2165" horiz-adv-x="2066" unicode="Ⅵ"/><glyph d="M2563 896h-138l-112 -631h138l-46 -265h-1204l47 265h136l113 631h-171l-485 -896h-452l-218 1161h430l75 -809l365 809h1568zM1951 265l112 631h-204l-113 -631h205z" glyph-name="uni2166" horiz-adv-x="2635" unicode="Ⅶ"/><glyph d="M3123 896h-136l-113 -631h137l-47 -265h-1763l47 265h136l113 631h-171l-485 -896h-452l-218 1161h430l75 -809l365 809h2128zM1746 265h205l112 631h-204zM2512 265l113 631h-200l-112 -631h199z" glyph-name="uni2167" horiz-adv-x="3194" unicode="Ⅷ"/><glyph d="M1847 1161l-458 -601l261 -560h-384l-111 258l-180 -258h-908l46 265h136l113 631h-137l46 265h864l116 -320l215 320h381zM799 265l228 295l-153 336h-150l-113 -631h188z" glyph-name="uni2168" horiz-adv-x="1766" unicode="Ⅸ"/><glyph d="M-29 0l435 560l-276 601h380l118 -320l213 320h381l-454 -601l259 -560h-384l-109 258l-182 -258h-381z" glyph-name="uni2169" horiz-adv-x="1143" unicode="Ⅹ"/><glyph d="M1688 896h-137l-112 -631h136l-46 -265h-908l-90 258l-202 -258h-384l459 560l-245 601h380l103 -320l228 320h864zM1077 265l113 631h-152l-272 -336l125 -295h186z" glyph-name="uni216A" horiz-adv-x="1759" unicode="Ⅺ"/><glyph d="M2330 896h-139l-112 -631h138l-46 -265h-1531l-111 258l-181 -258h-380l433 560l-273 601h381l116 -320l215 320h1536zM901 265h249l113 631h-242l-256 -336zM1717 265l113 631h-205l-113 -631h205z" glyph-name="uni216B" horiz-adv-x="2401" unicode="Ⅻ"/><glyph d="M486 329h468l-53 -329h-834l203 1161h361z" glyph-name="uni216C" horiz-adv-x="1099" unicode="Ⅼ"/><glyph d="M1213 963l-322 -209q-65 111 -149 111q-125 0 -197 -102.5t-72 -240.5q0 -97 41.5 -158.5t127.5 -61.5q92 0 187 114l258 -208q-99 -108 -229.5 -169t-272.5 -61q-212 0 -343 141.5t-131 366.5q0 297 199.5 499.5t486.5 202.5q143 0 251.5 -59.5t164.5 -165.5z" glyph-name="uni216D" horiz-adv-x="1203" unicode="Ⅽ"/><glyph d="M807 1161q241 0 381.5 -132.5t140.5 -357.5q0 -297 -208 -484t-517 -187h-537l203 1161h537zM655 326q142 0 219 79.5t77 219.5q0 94 -54 152t-151 58h-173l-90 -509h172z" glyph-name="uni216E" horiz-adv-x="1402" unicode="Ⅾ"/><glyph d="M1143 1162h454l-114 -1162h-357l72 650l-297 -650h-292l-68 599l-147 -599h-363l292 1162h454l66 -667z" glyph-name="uni216F" horiz-adv-x="1686" unicode="Ⅿ"/><glyph d="M1461 792l-50 -271h-832l112 -123l-210 -193l-363 454l529 457l133 -181l-172 -143h853z" glyph-name="arrowleft" horiz-adv-x="1488" unicode="←"/><glyph d="M1067 872l-219 -171l-100 135l-152 -836h-272l154 848l-166 -147l-157 171l536 447l135 -160z" glyph-name="arrowup" horiz-adv-x="1085" unicode="↑"/><glyph d="M1437 659l-186 -164l-2 2l-341 -292l-135 193l155 123h-836l50 271h848l-126 143l209 181z" glyph-name="arrowright" horiz-adv-x="1471" unicode="→"/><glyph d="M1053 447l-338 -287l-191 -160l-382 447l210 171l117 -149l156 850h271l-152 -834l143 133z" glyph-name="arrowdown" horiz-adv-x="1210" unicode="↓"/><glyph d="M1717 659l-186 -164l-2 2l-341 -292l-133 193l155 123h-631l112 -123l-210 -193l-363 454l529 457l133 -181l-172 -143h663l-126 143l208 181z" glyph-name="arrowboth" horiz-adv-x="1771" unicode="↔"/><glyph d="M821 478l165 -171l-337 -287l-192 -160l-380 447l208 171l118 -149l121 663l-167 -149l-159 171l544 447l367 -447l-215 -171l-100 135l-118 -633z" glyph-name="arrowupdn" horiz-adv-x="1119" unicode="↕"/><glyph d="M1099 287l-220 -193l-490 594l-25 -200h-256l112 637l642 8l-43 -251l-211 5z" glyph-name="uni2196" horiz-adv-x="1175" unicode="↖"/><glyph d="M560 1133l635 -8l-108 -637h-256l43 198l-700 -592l-155 193l705 600l-215 -5z" glyph-name="uni2197" horiz-adv-x="1179" unicode="↗"/><glyph d="M889 785h251l-119 -638l-635 -4l46 256l199 -10l-491 592l229 193l489 -602z" glyph-name="uni2198" horiz-adv-x="1189" unicode="↘"/><glyph d="M1237 981l-701 -592l206 10l-47 -256l-637 4l102 638h250l-41 -213l703 602z" glyph-name="uni2199" horiz-adv-x="1201" unicode="↙"/><glyph d="M712 1234q181 0 274.5 -123t93.5 -328q0 -145 -39 -284t-115 -258.5t-205 -193t-291 -73.5q-195 0 -277.5 113t-63.5 292q10 94 58.5 172.5t117 126t142.5 73.5t143 26q126 0 189 -82q2 34 2 76q0 174 -94 174q-79 0 -157 -54l-167 215q75 56 180 92t209 36zM512 265 q123 0 181 151q-19 46 -59 71t-73 25q-41 0 -75 -42.5t-44 -90.5q-38 -114 70 -114z" glyph-name="partialdiff" horiz-adv-x="1145" unicode="∂"/><glyph d="M1164 855l-89 -75q63 -101 63 -234q0 -94 -36.5 -191t-107.5 -184t-194.5 -142.5t-280.5 -55.5q-176 0 -292 87l-96 -82l-90 116l89 77q-49 89 -50 210q0 263 177.5 424t437.5 161q166 0 278 -79l97 82zM386 423q0 -22 1 -34l364 309q-41 32 -101 32q-118 0 -191 -99 t-73 -208zM829 510q0 29 -5 57l-372 -318q44 -41 109 -41q114 0 191 98t77 204z" glyph-name="emptyset" horiz-adv-x="1201" unicode="∅"/><glyph d="M1167 1319h33l-231 -1319h-368l172 986h-181l-172 -986h-369l231 1319h34v4h851v-4z" glyph-name="product" horiz-adv-x="1153" unicode="∏"/><glyph d="M1022 1161l-54 -347l-400 27l140 -394l-280 -403l408 29l-63 -348h-746l50 295h2l295 427l-147 418l49 296h746z" glyph-name="summation" horiz-adv-x="994" unicode="∑"/><glyph d="M940 860l-53 -310h-730l55 308z" glyph-name="minus" horiz-adv-x="1015" unicode="−"/><glyph d="M1046 898q126 0 201.5 -75t75.5 -195q0 -154 -108.5 -261.5t-255.5 -107.5q-164 0 -259 130q-142 -130 -297 -130q-116 0 -189.5 76t-73.5 192q0 157 113.5 264t278.5 107q159 0 238 -127q119 127 276 127zM425 480q99 0 193 100q-19 56 -46.5 77t-74.5 21 q-155 0 -156 -118q0 -36 24 -58t60 -22zM998 480q55 0 90 30.5t35 83.5q0 38 -30 61t-88 23q-46 0 -77.5 -22.5t-77.5 -85.5q51 -90 148 -90z" glyph-name="infinity" horiz-adv-x="1425" unicode="∞"/><glyph d="M893 1319h3h-3zM234 754q51 287 212.5 425.5t446.5 139.5l-57 -322h-36q-75 0 -122.5 -41t-59.5 -118l-140 -785q-49 -287 -212.5 -426t-451.5 -139h-2l53 323h41q77 0 127.5 40.5t63.5 117.5z" glyph-name="integral" horiz-adv-x="824" unicode="∫"/><glyph d="M427 746h-207q20 140 122 222.5t209 82.5q56 0 98 -25.5t76 -51t74 -25.5q60 0 78 97h203q-22 -113 -77.5 -185.5t-116 -98.5t-128.5 -26q-61 0 -103 28t-71 57t-62 29q-44 0 -65 -26.5t-30 -77.5zM364 391h-209q22 142 123 223.5t208 81.5q72 0 137.5 -51t110.5 -51 q61 0 77 97h204q-32 -164 -120 -237t-195 -73q-48 0 -85.5 17.5t-57 39t-45.5 39.5t-53 18q-46 0 -66 -25.5t-29 -78.5z" glyph-name="approxequal" horiz-adv-x="1141" unicode="≈"/><glyph d="M916 746h-220l-75 -115h277l-48 -273h-408l-148 -227l-128 76l99 151h-115l50 272h242l75 116h-300l51 271l425 2l140 213l133 -75l-90 -138h92z" glyph-name="notequal" horiz-adv-x="1092" unicode="≠"/><glyph d="M853 666l-380 -55l374 -32l-99 -244l-565 98l35 200h4l22 140l604 143zM121 67l34 208l671 -2l-32 -206h-673z" glyph-name="lessequal" horiz-adv-x="964" unicode="≤"/><glyph d="M828 773l-34 -200h-4l-25 -140l-589 -98l-21 244l388 32l-360 55l93 250zM32 67l35 206l670 2l-32 -208h-673z" glyph-name="greaterequal" horiz-adv-x="965" unicode="≥"/><glyph d="M753 1161l327 -591l-530 -570h-69l-329 570l532 591h69zM585 362l168 213l-96 224h-5l-171 -226l94 -211h10z" glyph-name="lozenge" horiz-adv-x="1196" unicode="◊"/><glyph d="M620 331l-318 -85l39 307l-119 256l307 118l234 234l150 -234l268 -118l-218 -256l-64 -307z" glyph-name="uni2605" horiz-adv-x="1285" unicode="★"/><glyph d="M620 331l-318 -85l39 307l-119 256l307 118l234 234l150 -234l268 -118l-218 -256l-64 -307zM657 541l97 -17l36 104l60 96l-82 49l-60 72l-88 -72l-108 -49l34 -96v-104z" glyph-name="uni2606" horiz-adv-x="1285" unicode="☆"/><glyph d="M1377 399q-10 -63 19 -84t84 -13l3 -273q-394 -133 -468 96q-167 -154 -452 -154q-201 0 -321.5 152.5t-120.5 398.5q0 225 89.5 415.5t247.5 300.5t348 110q247 0 356 -150l22 121h355zM719 300q241 0 325 239l33 178v27q0 128 -59 203t-173 75q-171 0 -262 -129.5 t-91 -312.5q0 -128 54.5 -204t172.5 -76z" glyph-name="uni2C6D" horiz-adv-x="1559" unicode="Ɑ"/><glyph d="M213 1319h1072l-54 -326h-1072zM77 536l53 326h1071l-52 -326h-361l-90 -536h-355l90 536h-356z" glyph-name="uni3012" horiz-adv-x="1204" unicode="〒"/><glyph d="M1070 973q51 -171 51 -398q0 -58 -13 -118q-3 -9 -9 -1q-9 19 -21.5 35t-22.5 24l-9 7q2 -3 5.5 -9t12 -25t12 -36t5 -43.5t-7.5 -48.5q-17 -48 -58 -84q-7 -3 -6 4q-2 17 -8 30.5t-11 20.5l-5 5q0 -5 -1 -12.5t-8.5 -31.5t-19 -46t-37 -51t-59.5 -52q-3 -2 -6.5 -4 t-5.5 -2q-5 -3 -8.5 -1t0.5 7q5 12 7.5 23t2.5 17l-2 5q-5 -9 -15 -24.5t-50.5 -45t-87.5 -43.5q-48 14 -87.5 42t-54.5 50l-15 21q-5 -19 6 -45q2 -5 0.5 -7.5t-6.5 1.5q-2 2 -7 4t-7 2q-55 36 -86.5 84t-34.5 78l-4 31q-19 -19 -24 -56q0 -7 -6 -4q-41 34 -57 84 q-10 43 -4 78.5t20 59.5l12 24q-34 -26 -53 -66q-9 -10 -11 1q-14 60 -13 118q0 101 12.5 201t24.5 149l14 48q3 15 12 17q114 31 210 43l14 34q2 2 3 1q44 -15 61 -10q38 9 75 75q3 3 6 0q38 -67 75 -75q22 -5 61 10q3 0 4 -1l13 -34q68 -9 210 -43q9 -3 12 -17zM485 975 q-2 0 3 -26.5t10 -54.5l5 -27q41 39 96 39h3q15 0 28 -5q24 -7 40 -24t19 -30l6 -12q2 3 3.5 7.5t4 18t0.5 23.5q20 12 40 18t36 5t31.5 -4.5t26 -9.5t19 -11.5t11.5 -11.5l5 -3l15 111l-58 -44l-29 87l-58 -58l-56 100l-60 -97l-51 58l-31 -92zM420 823q20 -2 31 -21 q15 15 41 26q-5 10 -16.5 17.5t-21.5 11.5l-9 1l23 14q-56 14 -86 -39q-14 -29 -9.5 -53t16.5 -39l12 -14q3 17 15 36q9 15 10 29.5t-3 23.5zM973 727q5 5 11 14.5t15.5 38.5t-7.5 53q-14 24 -35.5 33.5t-34.5 7.5l-16 -2l22 -14q-34 -9 -46 -30q24 -10 43 -26q5 9 12 14 t12 7h5q-15 -24 3 -58zM886 561q9 0 17 -5t12 -10l5 -5q0 58 -39 82q2 7 4 17t1.5 39t-9 51.5t-37 43.5t-72.5 26l15 21q-63 7 -97 -46q-15 24 -40 35t-42 11h-15q15 -14 15 -21q-70 -9 -98 -53t-21 -85l7 -39q-17 -10 -27.5 -30.5t-10.5 -36.5l-2 -15q15 20 34 20 q-3 -5 -7.5 -13.5t-8.5 -39t11 -61.5l21 -37q20 24 44 42q-19 31 -19 58q0 48 43 87q-24 -41 -19 -82q12 -39 33 -39q10 0 46 25.5t41 39.5q10 27 1 50q-12 10 -28 17.5t-26 9.5l-10 3q7 20 22 29q7 3 28 -2.5t28 -5.5t28.5 6t28 2.5t11.5 -11.5t7 -13l2 -5q-39 -7 -63 -30 q-3 -5 -2.5 -21.5t5.5 -28.5q3 -14 39 -39.5t48 -25.5q7 0 17 13t14 26q5 41 -19 82q41 -38 41 -87q0 -12 -4 -26.5t-10 -22.5l-3 -9l44 -42q10 14 19 37q12 36 12 61.5t-7 39.5zM550 707l-26 15q60 -3 94 -15q-3 -17 -13.5 -36t-17.5 -29l-8 -12l3 30h-10q-12 0 -21.5 9 t-9.5 19t9 19zM794 630q-27 32 -38 77q15 5 38 9t39 4l17 2l-24 -14q5 -10 5 -17q0 -29 -31 -29q-2 0 -5 1t-5 1zM744 369q14 12 22.5 29t8.5 27l2 10q-17 24 -48 48t-43 24t-42.5 -24t-46.5 -48q-5 -39 28 -60v14q31 -24 61 -24q14 0 34 7q22 10 22 27q3 -7 4.5 -14.5 t-0.5 -12.5z" glyph-name="uniF8FF" horiz-adv-x="1331" unicode=""/><glyph d="M898 1348q251 0 396 -152.5t145 -407.5q0 -346 -220.5 -581.5t-558.5 -235.5q-247 0 -393 158t-146 414q0 222 100 406t278.5 291.5t398.5 107.5zM539 942l161 -113q72 80 126 81q20 0 42.5 -14t22.5 -49q0 -55 -43.5 -83t-168.5 -28l-5 -244h171l36 88q251 65 251 297 q0 101 -72 166t-200 65q-106 0 -192 -48t-129 -118zM737 389q-48 0 -77 -30.5t-29 -82.5q0 -34 20 -56t56 -22q41 0 72.5 36t31.5 78q0 34 -20 55.5t-54 21.5z" glyph-name="uniFFFD" horiz-adv-x="1495" unicode="�"/><glyph d="M799 0q7 109 7 251h-381q-12 -38 -25 -79.5t-27.5 -92t-22.5 -79.5h-382q7 19 81 206.5t105.5 260t105 235.5t153 310t176.5 307h432q53 -241 85 -476t42.5 -371t30.5 -472h-380zM551 587h241q-15 181 -48 389q-113 -205 -193 -389z" glyph-name="A.salt" horiz-adv-x="1317"/><glyph d="M1205 1543l-471 -94l-26 116l454 230zM589 1319h432q53 -241 85 -476t42.5 -371t30.5 -472h-380q7 109 7 251h-381q-12 -38 -25 -79.5t-27.5 -92t-22.5 -79.5h-382q7 19 81 206.5t105.5 260t105 235.5t153 310t176.5 307zM551 587h241q-15 181 -48 389 q-113 -205 -193 -389z" glyph-name="Aacute.salt" horiz-adv-x="1317"/><glyph d="M828 1440q-268 0 -220 260h203q-5 -5 -7 -25t11.5 -40t49.5 -20q79 0 79 85h203q-19 -113 -94 -186.5t-225 -73.5zM799 0q7 109 7 251h-381q-12 -38 -25 -79.5t-27.5 -92t-22.5 -79.5h-382q7 19 81 206.5t105.5 260t105 235.5t153 310t176.5 307h432q53 -241 85 -476 t42.5 -371t30.5 -472h-380zM551 587h241q-15 181 -48 389q-113 -205 -193 -389z" glyph-name="Abreve.salt" horiz-adv-x="1317"/><glyph d="M881 1440h-82l-248 234l104 118l221 -96l267 96l60 -118zM589 1319h432q53 -241 85 -476t42.5 -371t30.5 -472h-380q7 109 7 251h-381q-12 -38 -25 -79.5t-27.5 -92t-22.5 -79.5h-382q7 19 81 206.5t105.5 260t105 235.5t153 310t176.5 307zM551 587h241q-15 181 -48 389 q-113 -205 -193 -389z" glyph-name="uni01CD.salt" horiz-adv-x="1317"/><glyph d="M855 1519l-263 -94l-61 118l322 234h82l248 -234l-103 -118zM589 1319h432q53 -241 85 -476t42.5 -371t30.5 -472h-380q7 109 7 251h-381q-12 -38 -25 -79.5t-27.5 -92t-22.5 -79.5h-382q7 19 81 206.5t105.5 260t105 235.5t153 310t176.5 307zM551 587h241 q-15 181 -48 389q-113 -205 -193 -389z" glyph-name="Acircumflex.salt" horiz-adv-x="1317"/><glyph d="M667 1434q-46 0 -75 32t-29 82q0 68 41 110t111 42q48 0 77 -30t29 -81q0 -58 -45.5 -106.5t-108.5 -48.5zM1000 1434q-46 0 -75 32t-29 82q0 68 42 110t110 42q49 0 77.5 -30t28.5 -81q0 -60 -44.5 -107.5t-109.5 -47.5zM799 0q7 109 7 251h-381q-12 -38 -25 -79.5 t-27.5 -92t-22.5 -79.5h-382q7 19 81 206.5t105.5 260t105 235.5t153 310t176.5 307h432q53 -241 85 -476t42.5 -371t30.5 -472h-380zM551 587h241q-15 181 -48 389q-113 -205 -193 -389z" glyph-name="Adieresis.salt" horiz-adv-x="1317"/><glyph d="M975 1565l-69 -116l-428 94l133 252zM799 0q7 109 7 251h-381q-12 -38 -25 -79.5t-27.5 -92t-22.5 -79.5h-382q7 19 81 206.5t105.5 260t105 235.5t153 310t176.5 307h432q53 -241 85 -476t42.5 -371t30.5 -472h-380zM551 587h241q-15 181 -48 389q-113 -205 -193 -389z " glyph-name="Agrave.salt" horiz-adv-x="1317"/><glyph d="M1174 1647l-32 -198h-598l33 198h597zM799 0q7 109 7 251h-381q-12 -38 -25 -79.5t-27.5 -92t-22.5 -79.5h-382q7 19 81 206.5t105.5 260t105 235.5t153 310t176.5 307h432q53 -241 85 -476t42.5 -371t30.5 -472h-380zM551 587h241q-15 181 -48 389q-113 -205 -193 -389z " glyph-name="Amacron.salt" horiz-adv-x="1317"/><glyph d="M828 -236q38 0 77 28l35 -99q-75 -68 -172 -77q-99 -5 -140 44.5t-17 131.5q26 48 78.5 108.5t109.5 101.5q7 109 7 249h-381q-12 -38 -25 -79.5t-27.5 -92t-22.5 -79.5h-382q7 19 81 206.5t105.5 260t105 235.5t153 310t176.5 307h432q53 -241 85 -476t42.5 -371 t30.5 -472h-254q-65 -72 -85.5 -96.5t-36 -52t-15.5 -51.5q1 -36 40 -36zM551 587h241q-15 181 -48 389q-113 -205 -193 -389z" glyph-name="Aogonek.salt" horiz-adv-x="1317"/></font>
</defs>
</svg>
